<?xml version="1.0" standalone="no"?>
<!DOCTYPE svg PUBLIC "-//W3C//DTD SVG 1.1//EN" "http://www.w3.org/Graphics/SVG/1.1/DTD/svg11.dtd" >
<svg xmlns="http://www.w3.org/2000/svg" xmlns:xlink="http://www.w3.org/1999/xlink" version="1.1">
<metadata>
Created by FontForge 20201107 at Wed Nov  5 09:25:22 2025
 By 
Copyright (c) 2019 by Mathieu Desjardins. All rights reserved.
</metadata>
<defs>
<font id="PPEditorialNew-Ultrabold" horiz-adv-x="1925" >
  <font-face 
    font-family="PP Editorial New Ultrabold"
    font-weight="800"
    font-stretch="normal"
    units-per-em="2048"
    panose-1="0 0 9 0 0 0 0 0 0 0"
    ascent="1638"
    descent="-410"
    x-height="1102"
    cap-height="1638"
    bbox="-934 -688 3289 2220"
    underline-thickness="112"
    underline-position="-200"
    unicode-range="U+0020-FB02"
  />
<missing-glyph horiz-adv-x="1064" 
d="M199 1679h673v-2130h-673v2130zM709 1466v70h-351v-70h138v-77h-140v-72h353v72h-140v77h140zM569 1112v150h-213v-222h353v72h-140zM426 1190h70v-78h-70v78zM709 913v70h-353v-70h140v-79h-140v-70h213v149h140zM709 643v213h-70v-141h-283v-72h353zM709 354v242h-213
v-121h73v49h70v-100h-213v172h-70v-242h353zM709 -14v241h-353v-241h353zM426 156h213v-99h-213v99zM709 -133v70h-353v-70h148l-148 -100v-70h353v70h-217l149 100h68z" />
    <glyph glyph-name="f_f" unicode="ff" horiz-adv-x="1558" 
d="M1450 1698q138 0 213.5 -56.5t75.5 -134.5q0 -63 -43.5 -109t-120.5 -46q-47 0 -77.5 22t-61.5 72q-14 21 -30 49t-22.5 38t-17.5 18t-25 8q-44 0 -64 -70t-20 -238v-149h246v-115h-246v-745q0 -107 44 -145t176 -38v-59h-1446v59q100 0 133 38t33 145v745h-134v100
l134 7v57q0 113 28.5 201t73 140.5t107 86.5t123 46.5t128.5 12.5q129 0 216 -34t126 -97q82 101 206 146t245 45zM647 1524q-49 0 -66.5 -60.5t-17.5 -203.5v-158h328v65q0 61 8 105h-22q-60 0 -88.5 29.5t-49.5 95.5l-10.5 31.5l-10.5 31.5t-11 24.5t-15 22t-19 12
t-26 5.5zM891 242v745h-328v-745q0 -106 33 -144t133 -39q98 1 130 39t32 144z" />
    <glyph glyph-name="f_f_i" unicode="ffi" horiz-adv-x="2158" 
d="M1976 1104v-862q0 -107 33 -145t133 -38v-59h-2111v59q100 0 133 38t33 145v745h-134v100l134 7v57q0 113 28.5 201t73 140.5t107 86.5t123 46.5t128.5 12.5q135 0 224 -37.5t125 -105.5q87 110 218.5 158.5t260.5 48.5q179 0 288 -67t109 -189q0 -71 -45 -114.5
t-121 -43.5q-15 0 -27 1.5t-24 6.5t-20 8t-19 13.5t-16.5 15.5t-18 21.5t-18 24t-21 29.5t-22.5 32q-21 30 -35.5 46.5t-40.5 32t-55 15.5q-30 0 -53 -11.5t-44.5 -40t-33 -87.5t-11.5 -144v-149h279q227 0 403 41zM647 1524q-49 0 -66.5 -60.5t-17.5 -203.5v-158h328v26
q0 83 14 146q-10 -2 -28 -2q-60 0 -88.5 29.5t-49.5 95.5l-10.5 31.5l-10.5 31.5t-11 24.5t-15 22t-19 12t-26 5.5zM729 59q98 1 130 39t32 144v745h-328v-745q0 -106 33 -144t133 -39zM1610 242v559q0 25 -0.5 38t-3 36t-7 36t-14 29.5t-23 25t-35 15t-48.5 6.5h-222v-745
q0 -106 38.5 -144t156.5 -39q94 1 126 39t32 144z" />
    <glyph glyph-name="f_i" unicode="fi" horiz-adv-x="1464" 
d="M1284 1104v-862q0 -107 33 -145t133 -38v-59h-1419v59q100 0 133 38t33 145v745h-144v100l144 9v32q0 133 41.5 237.5t104 166t145.5 101.5t156.5 54.5t146.5 14.5q180 0 289.5 -67t109.5 -189q0 -71 -45 -114.5t-121 -43.5q-15 0 -27 1.5t-24 6.5t-20 8t-19 13.5
t-16.5 15.5t-18 21.5t-18 24t-21 29.5t-22.5 32q-25 34 -37 48t-38.5 30t-57.5 16q-30 0 -53 -11.5t-43.5 -40.5t-32 -87t-11.5 -144v-149h279q227 0 403 41zM918 242v559q0 34 -1 53t-8 48.5t-20 45t-39 27.5t-64 12h-221v-745q0 -106 38.5 -144t156.5 -39q95 1 126.5 39
t31.5 144z" />
    <glyph glyph-name="f_l" unicode="fl" horiz-adv-x="1505" 
d="M1325 1604v-1362q0 -108 32.5 -145.5t131.5 -37.5v-59h-682v59q91 0 120 37.5t29 145.5v1052q-8 -2 -28 -2q-60 0 -96.5 35t-75.5 113q-23 45 -45 69.5t-49 24.5q-34 0 -53.5 -20.5t-31.5 -83.5t-12 -179v-149h191v-115h-191v-745q0 -108 36.5 -145.5t148.5 -37.5v-59
h-719v59q100 0 133 38t33 145v745h-144v100l144 9v112q0 89 23.5 163.5t64 125t90 88t106 58t106.5 30.5t97 10q139 0 248 -46t143 -128l205 131z" />
    <glyph glyph-name=".notdef" horiz-adv-x="1064" 
d="M199 1679h673v-2130h-673v2130zM709 1466v70h-351v-70h138v-77h-140v-72h353v72h-140v77h140zM569 1112v150h-213v-222h353v72h-140zM426 1190h70v-78h-70v78zM709 913v70h-353v-70h140v-79h-140v-70h213v149h140zM709 643v213h-70v-141h-283v-72h353zM709 354v242h-213
v-121h73v49h70v-100h-213v172h-70v-242h353zM709 -14v241h-353v-241h353zM426 156h213v-99h-213v99zM709 -133v70h-353v-70h148l-148 -100v-70h353v70h-217l149 100h68z" />
    <glyph glyph-name=".null" horiz-adv-x="0" 
 />
    <glyph glyph-name="nonmarkingreturn" horiz-adv-x="682" 
 />
    <glyph glyph-name="space" unicode=" " horiz-adv-x="446" 
 />
    <glyph glyph-name="exclam" unicode="!" horiz-adv-x="565" 
d="M106 1481q0 96 48.5 147t128.5 51q81 0 129.5 -51t48.5 -147q0 -74 -20.5 -181t-45.5 -208.5t-47 -272.5t-24 -356h-78q-2 185 -24.5 356t-48 272.5t-46.5 208.5t-21 181zM283 -33q-71 0 -121.5 50t-50.5 122q0 71 50.5 121.5t121.5 50.5q72 0 122 -50.5t50 -121.5
q0 -72 -50 -122t-122 -50z" />
    <glyph glyph-name="quotedbl" unicode="&#x22;" horiz-adv-x="811" 
d="M102 1546q0 63 33 98t92 35q57 0 90 -35t33 -98q0 -64 -38 -220.5t-54 -250.5h-59q-16 103 -56.5 256t-40.5 215zM461 1546q0 63 33 98t92 35q57 0 90 -35t33 -98q0 -64 -38.5 -220t-54.5 -251h-59q-16 103 -56 256t-40 215z" />
    <glyph glyph-name="numbersign" unicode="#" horiz-adv-x="1761" 
d="M1659 1272v-240h-277l-120 -420h254v-239h-324l-119 -414h-242l119 414h-395l-119 -414h-243l118 414h-209v239h279l121 420h-256v240h325l117 407h244l-117 -407h395l117 407h242l-117 -407h207zM625 612h395l121 420h-396z" />
    <glyph glyph-name="dollar" unicode="$" horiz-adv-x="1200" 
d="M1114 432q0 -86 -28.5 -164t-84.5 -144.5t-150.5 -110t-215.5 -52.5v-197h-78v195q-131 3 -245.5 38t-182.5 73v479h59q0 -128 48 -238.5t132.5 -176.5t184.5 -66h4v532l-78 51q-121 76 -198 142t-120 132t-59 128t-16 143q0 170 128 283.5t343 117.5v160h78v-162
q208 -16 356 -133v-350h-59q0 150 -83.5 260.5t-213.5 122.5v-479q3 -2 17 -12t22 -15q175 -120 240 -176q161 -140 192 -295q8 -42 8 -86zM379 1317q0 -61 33.5 -111.5t144.5 -134.5v424q-87 -10 -132.5 -57.5t-45.5 -120.5zM635 543v-469q174 34 174 207q0 65 -42 128
t-132 134z" />
    <glyph glyph-name="percent" unicode="%" horiz-adv-x="1775" 
d="M442 819q-136 0 -238 124t-102 304q0 182 101.5 307t238.5 125q136 0 237 -124.5t101 -307.5q0 -180 -101 -304t-237 -124zM311 0l1018 1638h119l-1018 -1638h-119zM442 879q30 0 49.5 27.5t29.5 81t14 114.5t4 145q0 86 -4 147.5t-14 116t-29.5 82t-49.5 27.5
q-57 0 -77.5 -97t-20.5 -276q0 -176 20.5 -272t77.5 -96zM1335 -33q-138 0 -240 124.5t-102 305.5q0 183 102 307.5t240 124.5q135 0 236.5 -125t101.5 -307q0 -181 -101.5 -305.5t-236.5 -124.5zM1335 27q55 0 75 96t20 274q0 179 -20 275t-75 96q-58 0 -78 -95t-20 -276
q0 -179 20 -274.5t78 -95.5z" />
    <glyph glyph-name="ampersand" unicode="&#x26;" horiz-adv-x="1814" 
d="M1690 498h59q-8 -82 -24 -152.5t-47 -142t-74 -121.5t-109.5 -81.5t-148.5 -31.5q-148 0 -287 115q-167 -117 -418 -117q-115 0 -216.5 29t-181.5 84t-126.5 142t-46.5 196q0 165 99.5 276t299.5 191q-102 190 -102 356q0 115 45 206.5t117.5 144.5t157 80.5t171.5 27.5
q97 0 176 -27.5t127.5 -73.5t74.5 -101.5t28 -115.5q1 -144 -93 -258t-258 -211q39 -58 148 -211q80 -116 156 -210q46 100 86 235q28 104 3.5 141t-135.5 37v58h521v-58q-113 0 -165.5 -37t-80.5 -139q-60 -194 -137 -342q118 -121 209 -121q122 0 172 232zM907 1579
q-79 0 -126.5 -63t-47.5 -166q0 -132 98 -303q213 163 213 348q0 86 -36 135t-101 49zM504 487q0 -174 83 -262t216 -88q87 0 160 43q-115 123 -289 377q-56 79 -105 156q-65 -84 -65 -226z" />
    <glyph glyph-name="quotesingle" unicode="'" horiz-adv-x="452" 
d="M102 1546q0 63 33 98t92 35q57 0 90 -35t33 -98q0 -64 -38 -220.5t-54 -250.5h-59q-16 103 -56.5 256t-40.5 215z" />
    <glyph glyph-name="parenleft" unicode="(" horiz-adv-x="964" 
d="M903 -453v-59q-120 54 -226.5 122.5t-215 172t-185.5 223.5t-125.5 283t-48.5 346q0 185 46 351t120.5 289.5t176 226t206 169.5t217.5 111v-60q-90 -76 -155 -196.5t-101 -267t-52.5 -300t-16.5 -323.5q0 -213 33.5 -409.5t117 -382.5t209.5 -296z" />
    <glyph glyph-name="parenright" unicode=")" horiz-adv-x="964" 
d="M61 -512v59q95 84 167 209.5t113 272t61 298t20 308.5q0 170 -16.5 323.5t-53 300t-101.5 267t-155 196.5v60q113 -44 217.5 -111t206 -169.5t176 -226t120.5 -289.5t46 -351q0 -183 -48.5 -346t-125.5 -283t-185.5 -223.5t-215 -172t-226.5 -122.5z" />
    <glyph glyph-name="asterisk" unicode="*" horiz-adv-x="1026" 
d="M514 776q-48 0 -86.5 35t-38.5 90q0 46 22 90.5t48 96t33 108.5q-38 -27 -67 -63t-43.5 -64.5t-39 -59t-55.5 -48.5q-33 -17 -64 -17q-34 0 -63 17.5t-45 44.5q-17 31 -17 63q0 71 64 109q37 21 88 24t109.5 6.5t109.5 26.5q-53 24 -111 28t-107.5 7.5t-88.5 25.5
q-64 36 -64 109q0 34 17 61q16 28 45 46t63 18q28 0 64 -19q31 -19 55.5 -50.5t38.5 -60.5t43.5 -65t69.5 -63q-6 60 -32.5 112t-49.5 96.5t-23 90.5q0 57 38.5 92t86.5 35q46 0 84.5 -35t38.5 -92q0 -46 -22 -91.5t-47 -97.5t-31 -110q38 27 66.5 63.5t43 65.5t39 60.5
t55.5 49.5q32 19 62 19q71 0 108 -64q19 -30 19 -61q0 -72 -66 -109q-40 -24 -92 -28t-109.5 -7.5t-105.5 -25.5q57 -24 159 -27.5t148 -29.5q66 -40 66 -109q0 -29 -19 -63q-16 -28 -44.5 -45t-63.5 -17q-34 0 -62 17q-31 18 -56 48.5t-39.5 59.5t-43 64.5t-65.5 62.5
q7 -57 32 -109t46.5 -96t21.5 -90q0 -55 -38.5 -90t-84.5 -35z" />
    <glyph glyph-name="plus" unicode="+" horiz-adv-x="1126" 
d="M444 494h-342v241h342v340h242v-340h338v-241h-338v-340h-242v340z" />
    <glyph glyph-name="comma" unicode="," horiz-adv-x="579" 
d="M248 -20q-62 0 -104 44.5t-42 112.5q0 74 50.5 124t126.5 50q95 0 155 -64.5t60 -178.5q0 -152 -103 -280t-295 -177v72q118 35 202.5 116.5t84.5 161.5q0 39 -37 39q-15 0 -44.5 -10t-53.5 -10z" />
    <glyph glyph-name="hyphen" unicode="-" horiz-adv-x="1034" 
d="M932 432h-830v242h830v-242z" />
    <glyph glyph-name="period" unicode="." horiz-adv-x="548" 
d="M274 -33q-72 0 -122 50t-50 122q0 71 50 121.5t122 50.5q70 0 121 -50.5t51 -121.5q0 -72 -50.5 -122t-121.5 -50z" />
    <glyph glyph-name="slash" unicode="/" horiz-adv-x="780" 
d="M0 0l537 1679h243l-536 -1679h-244z" />
    <glyph glyph-name="zero" unicode="0" horiz-adv-x="1423" 
d="M711 -31q-145 0 -264.5 67t-198.5 183.5t-121.5 271.5t-42.5 332q0 176 42.5 330.5t121.5 269.5t198.5 181.5t264.5 66.5q193 0 337.5 -115t217.5 -305.5t73 -427.5q0 -177 -43 -332t-121.5 -271.5t-198.5 -183.5t-265 -67zM711 82q103 0 146.5 185.5t43.5 555.5
q0 367 -43.5 550t-146.5 183q-102 0 -145.5 -183.5t-43.5 -549.5q0 -368 43.5 -554.5t145.5 -186.5z" />
    <glyph glyph-name="one" unicode="1" horiz-adv-x="892" 
d="M662 1640v-1398q0 -108 34 -145.5t138 -37.5v-59h-748v59q115 0 152.5 37.5t37.5 145.5l-2 1003q0 33 -1 53.5t-4 41t-8.5 30t-16 17t-24.5 7t-35.5 -6t-48 -16.5t-62.5 -28l-29 58l578 278z" />
    <glyph glyph-name="two" unicode="2" horiz-adv-x="1214" 
d="M397 315h463q104 0 158.5 49t101.5 177l56 -21l-189 -520h-964v59q110 110 179 181t151 160.5t131.5 152t100.5 136.5t77.5 134.5t43.5 126t17 129.5q0 138 -64 211.5t-174 73.5q-128 0 -204.5 -92.5t-96.5 -270.5h-59q0 150 45.5 276.5t124 212t186 133.5t230.5 48
q197 0 307 -103.5t110 -267.5q0 -69 -22 -142.5t-57.5 -140t-93 -142.5t-114.5 -139t-138.5 -140.5t-148 -136.5t-157.5 -137v-7z" />
    <glyph glyph-name="three" unicode="3" horiz-adv-x="1177" 
d="M23 182q0 59 40.5 96t104.5 37q25 0 47.5 -7.5t36.5 -16t31 -28.5t24.5 -30.5t24.5 -35.5q17 -27 21.5 -34t18.5 -24.5t24 -22.5t27.5 -10.5t39.5 -5.5q84 0 143.5 84.5t59.5 261.5q0 99 -28.5 175t-79 122.5t-115 69.5t-140.5 23v57q350 64 350 321q0 101 -55 161.5
t-168 60.5q-103 0 -172 -54t-94 -151h-58q27 203 157 321.5t345 118.5q192 0 314 -97t122 -271q0 -158 -121 -266.5t-309 -147.5v-6q92 -2 175.5 -26.5t153.5 -72t111.5 -127t41.5 -180.5q0 -122 -52.5 -220t-143 -160.5t-207.5 -96t-249 -33.5q-82 0 -155.5 12.5t-134 37.5
t-96 67.5t-35.5 97.5z" />
    <glyph glyph-name="four" unicode="4" horiz-adv-x="1357" 
d="M651 406h-573v315l680 946h278v-946h224v-315h-224v-164q0 -108 34 -145.5t138 -37.5v-59h-743v59q112 0 149 37.5t37 145.5v164zM217 727v-6h434v620z" />
    <glyph glyph-name="five" unicode="5" horiz-adv-x="1189" 
d="M444 -33q-79 0 -150.5 13t-131 38t-94.5 67.5t-35 96.5q0 59 40.5 96t104.5 37q31 0 55.5 -8.5t46 -30t31.5 -34t31 -43.5q30 -51 57 -75t66 -24q87 0 145 117t58 313q0 199 -62 296.5t-172 97.5q-130 0 -223 -131l-84 57l199 788h770l-74 -315h-596l-70 -305l9 -6
q72 46 129.5 66t128.5 20q69 0 134.5 -17t129.5 -56.5t112 -97.5t77.5 -147.5t29.5 -199.5q0 -129 -38.5 -234.5t-102.5 -174.5t-150.5 -116t-179 -67.5t-191.5 -20.5z" />
    <glyph glyph-name="six" unicode="6" horiz-adv-x="1380" 
d="M866 1143q140 0 243.5 -69t155.5 -188t52 -272q0 -129 -38.5 -244.5t-111 -206t-187 -143.5t-255.5 -53q-303 0 -472 189.5t-169 531.5q0 405 280.5 661t796.5 330v-59q-451 -103 -583 -573q129 96 288 96zM719 82q60 0 93 39.5t49 138.5t16 279q0 111 -8 190.5
t-28 145.5t-58 99.5t-95 33.5q-80 0 -137 -72q-27 -137 -27 -318q0 -263 49.5 -399.5t145.5 -136.5z" />
    <glyph glyph-name="seven" unicode="7" horiz-adv-x="1218" 
d="M1196 1638l-590 -1679l-270 70l473 1288v6h-475q-96 0 -150.5 -53.5t-83.5 -182.5l-57 13l53 243l64 295h1036z" />
    <glyph glyph-name="eight" unicode="8" horiz-adv-x="1290" 
d="M846 903q164 -129 206 -167q108 -101 138 -202q16 -54 16 -120q0 -192 -162.5 -320.5t-416.5 -128.5q-232 0 -387.5 109.5t-155.5 290.5q0 42 9.5 80.5t24 70t41 64.5t49.5 56.5t61.5 54.5t65.5 50.5t73 51.5q-68 58 -109.5 99.5t-84 98t-62 119.5t-19.5 137
q0 184 154.5 304t388.5 120q214 0 350.5 -102t136.5 -264q0 -39 -9.5 -76t-23.5 -66.5t-40.5 -61t-49 -53.5t-60.5 -51t-64 -47t-70 -47zM670 1548q-74 0 -123 -49.5t-49 -140.5q0 -152 196 -332q146 158 146 317q0 95 -46.5 150t-123.5 55zM637 90q90 0 142 52.5t52 142.5
q0 39 -13 77t-33 70t-60 74.5t-75.5 75.5t-98.5 88q-135 -151 -135 -320q0 -112 55 -186t166 -74z" />
    <glyph glyph-name="nine" unicode="9" horiz-adv-x="1417" 
d="M692 1671q303 0 472 -189.5t169 -531.5q0 -405 -280.5 -661t-796.5 -330v59q104 24 191.5 68.5t149.5 99t111 124t79.5 137.5t52.5 145q-131 -94 -289 -94q-211 0 -331 146t-120 380q0 129 38.5 244.5t111 206t187 143.5t255.5 53zM866 702q27 137 27 318
q0 263 -49.5 399.5t-145.5 136.5q-60 0 -92.5 -39t-48.5 -137.5t-16 -279.5q0 -87 4.5 -153.5t17 -128t33 -101t54 -63t79.5 -23.5q81 0 137 71z" />
    <glyph glyph-name="colon" unicode=":" horiz-adv-x="548" 
d="M274 799q-72 0 -122 50t-50 122q0 71 50 121.5t122 50.5q70 0 121 -50.5t51 -121.5q0 -72 -50.5 -122t-121.5 -50zM274 -33q-72 0 -122 50t-50 122q0 71 50 121.5t122 50.5q70 0 121 -50.5t51 -121.5q0 -72 -50.5 -122t-121.5 -50z" />
    <glyph glyph-name="semicolon" unicode=";" horiz-adv-x="579" 
d="M274 805q-71 0 -121.5 50t-50.5 122q0 70 50.5 120t121.5 50q72 0 122 -49.5t50 -120.5q0 -72 -50 -122t-122 -50zM240 -20q-62 0 -103 44t-41 113q0 74 49 124t125 50q96 0 155.5 -64.5t59.5 -178.5q0 -152 -102 -280t-293 -177v72q118 35 201.5 116.5t83.5 161.5
q0 39 -35 39q-15 0 -45 -10t-55 -10z" />
    <glyph glyph-name="less" unicode="&#x3c;" horiz-adv-x="1142" 
d="M1040 461v-256l-938 266v371l938 268v-256l-739 -195v-6z" />
    <glyph glyph-name="equal" unicode="=" horiz-adv-x="1081" 
d="M979 711h-877v243h877v-243zM979 274h-877v244h877v-244z" />
    <glyph glyph-name="greater" unicode="&#x3e;" horiz-adv-x="1142" 
d="M1040 471l-938 -266v256l738 192v6l-738 195v256l938 -268v-371z" />
    <glyph glyph-name="question" unicode="?" horiz-adv-x="952" 
d="M436 461h-92q-109 143 -151.5 222t-42.5 151t50.5 135t196.5 182q137 111 187.5 166.5t50.5 103.5q0 45 -31 73t-96 28q-101 0 -185 -84.5t-108 -235.5h-84l-31 373q53 46 155.5 79.5t209.5 33.5q85 0 163.5 -26.5t141.5 -76t101 -127.5t38 -174q0 -101 -63.5 -191
t-216.5 -206q-129 -96 -184.5 -160t-55.5 -133t47 -133zM406 -33q-71 0 -122 50t-51 122q0 70 51 121t122 51q72 0 122 -50.5t50 -121.5q0 -72 -50 -122t-122 -50z" />
    <glyph glyph-name="at" unicode="@" horiz-adv-x="2287" 
d="M2146 195h80q-53 -122 -129 -228.5t-178.5 -197t-224 -155.5t-271 -101.5t-313.5 -36.5q-302 0 -530.5 117.5t-353 335t-124.5 505.5q0 194 56 372.5t160 321.5t244 249.5t315.5 164t367.5 57.5q166 0 306.5 -43.5t240.5 -119t170.5 -177.5t104.5 -219.5t34 -244.5
q0 -156 -52.5 -306t-141 -264t-213.5 -184t-262 -70q-126 0 -193.5 59t-67.5 173q0 91 43 233l9 27h-21q-29 -77 -58 -140.5t-69.5 -129t-83 -110t-96 -73t-111.5 -28.5q-108 0 -173.5 91t-65.5 246q0 135 53 279t136 257.5t194 187t219 73.5t162.5 -71t52.5 -171h2l51 150
q90 0 163 32.5t116 78.5l49 -29l-256 -758q-35 -111 -35 -158q0 -98 102 -98q104 0 211.5 100.5t178.5 265.5t71 335q0 108 -29 211.5t-91.5 197.5t-151.5 164.5t-218.5 112t-283.5 41.5q-151 0 -289.5 -40t-250.5 -112t-203.5 -173.5t-153.5 -222.5t-95.5 -261t-33.5 -287
q0 -269 111.5 -466t315 -299.5t478.5 -102.5q189 0 355.5 50t292.5 139t220.5 202t157.5 248zM928 225q46 0 112 65.5t126 170t91 209.5q29 96 29 157q0 65 -24 100.5t-64 35.5q-68 0 -147.5 -105.5t-132 -251.5t-52.5 -260q0 -121 62 -121z" />
    <glyph glyph-name="A" unicode="A" horiz-adv-x="1609" 
d="M899 1653l512 -1426q36 -98 90.5 -133t159.5 -35v-59h-866v59q97 0 141.5 18t49 56.5t-14.5 97.5l-72 226h-504l-76 -228q-20 -59 -17 -97t45 -55.5t134 -17.5v-59h-530v59q104 0 158 35.5t88 134.5l495 1424h207zM651 1214l-219 -651h434l-207 651h-8z" />
    <glyph glyph-name="B" unicode="B" horiz-adv-x="1562" 
d="M874 0h-839v59q130 0 178.5 42.5t48.5 140.5v1155q0 98 -48.5 140t-178.5 42v59h858q268 0 408.5 -102t140.5 -303q0 -167 -102 -265t-271 -118v-16q211 -10 326.5 -116t115.5 -274q0 -224 -169 -334t-468 -110zM690 1466v-563q46 -10 98 -10q117 0 178.5 80t61.5 237
q0 156 -61 235t-168 79q-47 0 -74 -8q-35 -10 -35 -50zM690 772v-600q0 -57 121 -57q279 0 279 329q0 338 -297 338q-57 0 -103 -10z" />
    <glyph glyph-name="C" unicode="C" horiz-adv-x="1472" 
d="M57 788q0 191 57 356t156.5 280.5t240 181t302.5 65.5q219 0 373 -131q20 -19 35 -13t18 32l14 96h60l30 -602h-59q-45 233 -143.5 362t-239.5 129q-115 0 -199 -87.5t-128 -245t-44 -367.5q0 -317 99.5 -496.5t281.5 -179.5q108 0 193.5 67.5t137 179t73.5 257.5h69
q-58 -705 -616 -705q-169 0 -305 63t-224 174t-135 260t-47 324z" />
    <glyph glyph-name="D" unicode="D" horiz-adv-x="1736" 
d="M850 0h-815v59q130 0 178.5 42.5t48.5 140.5v1155q0 98 -48.5 140t-178.5 42v59h811q89 0 172 -11t168.5 -38.5t158.5 -69t137.5 -106.5t110 -147.5t71.5 -196t26 -248.5q0 -136 -26.5 -250.5t-72 -197.5t-110.5 -148t-137.5 -107t-158 -69t-167 -38t-168.5 -11zM813 115
q196 0 308 182.5t112 499.5q0 175 -35.5 316.5t-96 229.5t-137 134.5t-161.5 46.5q-48 0 -74 -13q-27 -15 -27 -49v-1261q0 -45 26.5 -65.5t84.5 -20.5z" />
    <glyph glyph-name="E" unicode="E" horiz-adv-x="1415" 
d="M1253 1638l11 -104l41 -360l-64 -7q-15 129 -46.5 203.5t-78 104.5t-117.5 30h-180q-117 0 -117 -116v-504h142q90 0 129 54t39 198h53v-600h-53q0 144 -39 197.5t-129 53.5h-142v-538q0 -72 18.5 -94.5t78.5 -22.5h196q116 0 188.5 90.5t125.5 313.5l67 -17l-98 -422
l-23 -98h-1220v59q130 0 178.5 42.5t48.5 140.5v1155q0 98 -48.5 140t-178.5 42v59h1218z" />
    <glyph glyph-name="F" unicode="F" horiz-adv-x="1435" 
d="M1380 1638l9 -102l26 -362l-65 -7q-13 191 -67 264.5t-163 73.5h-301q-117 0 -117 -116v-531h197q98 0 140 54t42 198h60v-618h-60q0 144 -42 197.5t-140 53.5h-197v-501q0 -98 57.5 -140.5t211.5 -42.5v-59h-936v59q130 0 178.5 42.5t48.5 140.5v1155q0 98 -48.5 140
t-178.5 42v59h1345z" />
    <glyph glyph-name="G" unicode="G" horiz-adv-x="1630" 
d="M834 -33q-154 0 -281.5 41t-218.5 115t-154 177.5t-93 228t-30 266.5q0 195 57 359t158.5 277.5t245 176.5t313.5 63q242 0 418 -143q19 -18 35 -12.5t19 30.5l18 109h57l25 -602h-60q-49 238 -157.5 364.5t-253.5 126.5q-181 0 -291.5 -187.5t-110.5 -504.5
q0 -218 40.5 -382.5t123.5 -260.5t199 -96q66 0 117 25t80 67v418q0 98 -62.5 140t-228.5 42v59h821v-59q-74 0 -97.5 -37t-23.5 -145v-371q-47 -56 -109 -104.5t-144 -90.5t-188.5 -66t-223.5 -24z" />
    <glyph glyph-name="H" unicode="H" horiz-adv-x="1900" 
d="M1868 1638v-59q-131 0 -180.5 -42.5t-49.5 -139.5v-1155q0 -97 49.5 -140t180.5 -43v-59h-869v59q115 0 158 42.5t43 140.5v551h-498v-551q0 -98 42.5 -140.5t156.5 -42.5v-59h-866v59q130 0 178.5 42.5t48.5 140.5v1155q0 98 -48.5 140t-178.5 42v59h866v-59
q-114 0 -156.5 -42t-42.5 -140v-484h498v484q0 97 -43 139.5t-158 42.5v59h869z" />
    <glyph glyph-name="I" unicode="I" horiz-adv-x="964" 
d="M262 242v1155q0 98 -48.5 140t-178.5 42v59h897v-59q-132 0 -181 -42t-49 -140v-1155q0 -98 49 -140.5t181 -42.5v-59h-897v59q130 0 178.5 42.5t48.5 140.5z" />
    <glyph glyph-name="J" unicode="J" horiz-adv-x="1234" 
d="M561 389v1008q0 97 -49 139.5t-180 42.5v59h897v-59q-131 0 -180.5 -42.5t-49.5 -139.5v-860q0 -130 -26 -229.5t-71 -163.5t-111.5 -104t-141.5 -56.5t-168 -16.5q-213 0 -333.5 78t-120.5 215q0 81 53 133.5t133 52.5q88 0 140.5 -43.5t52.5 -115.5q0 -23 -3.5 -59
t-3.5 -54q0 -44 20 -68t52 -24q52 0 71 63t19 244z" />
    <glyph glyph-name="K" unicode="K" horiz-adv-x="1871" 
d="M262 242v1155q0 98 -48.5 140t-178.5 42v59h897v-59q-132 0 -181 -42t-49 -140v-1155q0 -98 49 -140.5t181 -42.5v-59h-897v59q130 0 178.5 42.5t48.5 140.5zM1114 1106l500 -877q53 -95 106.5 -130.5t116.5 -35.5v-63h-807v59q123 0 137.5 30.5t-43.5 127.5l-370 664
l403 485q64 78 64 129q0 84 -160 84v59h708v-59q-114 0 -188 -23.5t-141 -95.5z" />
    <glyph glyph-name="L" unicode="L" horiz-adv-x="1406" 
d="M932 1638v-59q-132 0 -181 -42t-49 -140v-1102q0 -103 32.5 -132.5t135.5 -29.5h129q116 0 188.5 92.5t125.5 323.5l69 -17l-100 -434l-20 -98h-1227v59q130 0 178.5 42.5t48.5 140.5v1155q0 98 -48.5 140t-178.5 42v59h897z" />
    <glyph glyph-name="M" unicode="M" horiz-adv-x="2152" 
d="M797 1638l286 -972h4l275 972h758v-59q-132 0 -181 -42t-49 -140v-1155q0 -98 49 -140.5t181 -42.5v-59h-897v59q130 0 178.5 42.5t48.5 140.5v1278h-6l-445 -1561h-157l-461 1540h-6v-1257q0 -98 49 -140.5t180 -42.5v-59h-569v59q130 0 178.5 42.5t48.5 140.5v1155
q0 98 -48.5 140t-178.5 42v59h762z" />
    <glyph glyph-name="N" unicode="N" horiz-adv-x="1652" 
d="M1634 1638v-59q-131 0 -180 -42.5t-49 -139.5v-1401h-209l-817 1259v-1013q0 -98 52.5 -140.5t195.5 -42.5v-59h-592v59q130 0 178.5 42.5t48.5 140.5v1194q-54 83 -105.5 113t-109.5 30v59h602l641 -993v752q0 97 -49 139.5t-180 42.5v59h573z" />
    <glyph glyph-name="O" unicode="O" horiz-adv-x="1570" 
d="M793 -33q-167 0 -306 64.5t-233 178t-145.5 269.5t-51.5 338t54.5 340t149.5 269.5t229 175t288 63.5q168 0 307.5 -64.5t233.5 -178.5t145.5 -270.5t51.5 -338.5t-55 -340t-150.5 -269t-229.5 -174t-288 -63zM844 88q60 0 105 39t70 104t36.5 139t11.5 156
q0 138 -12 277t-39 273.5t-65.5 237.5t-96.5 166.5t-127 63.5q-60 0 -105 -39t-70 -104.5t-36.5 -139.5t-11.5 -155q0 -138 12 -277t39 -273.5t65.5 -237.5t96.5 -166.5t127 -63.5z" />
    <glyph glyph-name="P" unicode="P" horiz-adv-x="1525" 
d="M35 0v59q130 0 178.5 42.5t48.5 140.5v1155q0 98 -48.5 140t-178.5 42v59h768q352 0 513 -115.5t161 -367.5q0 -113 -30.5 -203t-82.5 -149.5t-125.5 -100t-154 -59t-173.5 -20.5q-126 -2 -211 39v-420q0 -98 52.5 -140.5t195.5 -42.5v-59h-913zM821 758q82 0 135 56.5
t74 143.5t21 205q0 361 -215 361q-59 0 -107 -23q-29 -15 -29 -51v-662q45 -30 121 -30z" />
    <glyph glyph-name="Q" unicode="Q" horiz-adv-x="1570" 
d="M1542 -66l64 -30q-19 -186 -109.5 -286.5t-239.5 -100.5q-79 0 -161.5 21.5t-152 52.5t-136 61.5t-136 52t-128.5 21.5q-88 0 -153.5 -15t-137.5 -47l-59 191q244 34 499 118q-194 24 -339 139.5t-220.5 297.5t-75.5 407q0 182 54.5 340t149.5 269.5t229 175t288 63.5
q168 0 307.5 -64.5t233.5 -178.5t145.5 -270.5t51.5 -338.5q0 -196 -63 -362t-175 -281q-36 -39 -78 -68q-53 -38 -74 -49q-132 -79 -315 -139.5t-354 -93.5l6 -21q229 39 422 39q53 0 187 -12t194 -12q118 0 186.5 28t89.5 92zM727 1544q-60 0 -105 -39t-70 -104.5
t-36.5 -139.5t-11.5 -155q0 -138 12 -277t39 -273.5t65.5 -237.5t96.5 -166.5t127 -63.5q60 0 105 39t70 104t36.5 139t11.5 156q0 138 -12 277t-39 273.5t-65.5 237.5t-96.5 166.5t-127 63.5z" />
    <glyph glyph-name="R" unicode="R" horiz-adv-x="1687" 
d="M1405 416l88 -191q43 -97 87.5 -131.5t141.5 -34.5v-59h-196q-78 0 -127.5 1t-100 7t-79.5 13t-61 24t-50 35.5t-41 52.5t-40.5 69t-41.5 91l-211 475h-22h-52v-526q0 -98 49 -140.5t181 -42.5v-59h-895v59q130 0 178.5 42.5t48.5 140.5v1155q0 98 -48.5 140t-178.5 42
v59h811q332 0 483.5 -110t151.5 -322q0 -91 -28 -162t-73.5 -117t-113 -78t-137 -48t-154.5 -25v-2q80 -11 131 -27.5t106 -53.5t101 -104.5t92 -172.5zM700 1452v-586h54q60 0 109.5 18t90 57t63.5 108.5t23 164.5q0 155 -56 232.5t-159 77.5q-41 0 -94 -21
q-31 -11 -31 -51z" />
    <glyph glyph-name="S" unicode="S" horiz-adv-x="1181" 
d="M592 -31q-102 0 -197 34.5t-162 90.5q-20 18 -39.5 13.5t-25.5 -31.5l-21 -88h-63l8 651h70q4 -70 24.5 -145.5t57 -148.5t85 -131.5t114 -94t137.5 -35.5q96 0 147 56.5t51 140.5q0 103 -65.5 189.5t-198.5 186.5q-175 130 -232 183q-130 119 -164 248q-16 60 -16 129
q0 109 39 196.5t106 143t153.5 85t183.5 29.5q184 0 303 -104q28 -23 49 -16.5t29 40.5l12 60h59l23 -551h-66q-4 62 -22.5 126t-51.5 123t-75.5 105.5t-99.5 74t-119 27.5q-88 0 -136.5 -51.5t-48.5 -126.5q0 -84 59 -149.5t238 -196.5q82 -60 137.5 -107t105 -101
t78 -106.5t44.5 -115.5t16 -135q0 -119 -42.5 -215t-116 -157t-167.5 -93.5t-200 -32.5z" />
    <glyph glyph-name="T" unicode="T" horiz-adv-x="1456" 
d="M428 1505h-74q-79 0 -127.5 -29t-77 -103.5t-36.5 -205.5l-70 7l20 362l9 102h1312l7 -102l22 -362l-72 -7q-12 192 -67 265t-172 73h-76q-78 0 -78 -80v-1183q0 -98 49 -140.5t179 -42.5v-59h-897v59q132 0 180.5 42.5t48.5 140.5v1183q0 38 -21 59t-59 21z" />
    <glyph glyph-name="U" unicode="U" horiz-adv-x="1675" 
d="M850 -33q-299 0 -458 164t-159 492v774q0 98 -48.5 140t-178.5 42v59h897v-59q-132 0 -180.5 -42t-48.5 -140v-774q0 -174 35 -280.5t100 -151t168 -44.5q336 0 336 490v760q0 98 -49 140t-181 42v59h586v-59q-130 0 -178.5 -42t-48.5 -140v-760q0 -119 -17 -216
t-59.5 -183t-108.5 -144.5t-169.5 -92.5t-237.5 -34z" />
    <glyph glyph-name="V" unicode="V" horiz-adv-x="1599" 
d="M655 1409l303 -864h15l289 864q21 59 18.5 97t-42 55.5t-128.5 17.5v59h506v-59q-95 0 -144.5 -35.5t-82.5 -134.5l-478 -1442h-184l-526 1444q-36 97 -84.5 132.5t-134.5 35.5v59h823v-59q-89 0 -128 -17.5t-41 -55.5t19 -97z" />
    <glyph glyph-name="W" unicode="W" horiz-adv-x="2306" 
d="M2296 1638v-59q-94 0 -141 -36.5t-76 -137.5l-410 -1438h-201l-288 1061l-310 -1061h-198l-441 1440q-30 101 -77.5 136.5t-141.5 35.5v59h770v-59q-94 0 -114 -41.5t10 -132.5l235 -842h9l200 678l-45 164q-27 100 -62.5 137t-94.5 37v59h753v-59q-81 0 -119 -18.5
t-43.5 -58t9.5 -99.5l196 -840h10l230 842q30 91 0.5 132.5t-146.5 41.5v59h486z" />
    <glyph glyph-name="X" unicode="X" horiz-adv-x="1685" 
d="M1051 922l405 -711q51 -89 106.5 -120.5t135.5 -31.5v-59h-891v59q80 0 122.5 7.5t54.5 28.5t5 45.5t-33 70.5l-262 457l-258 -430q-25 -42 -32 -73t4.5 -56t51.5 -37.5t109 -12.5v-59h-581v63q100 0 187 58t151 162l303 497l-371 647q-51 88 -103 120t-124 32v59h876
v-59q-80 0 -122.5 -7.5t-54.5 -28t-4 -46t34 -70.5l227 -395l238 398q52 82 28.5 115.5t-143.5 33.5v59h514v-59q-90 0 -149 -30t-113 -117z" />
    <glyph glyph-name="Y" unicode="Y" horiz-adv-x="1556" 
d="M1012 733v-491q0 -98 48.5 -140.5t180.5 -42.5v-59h-897v59q130 0 178.5 42.5t48.5 140.5v479l-356 702q-47 91 -99.5 123.5t-131.5 32.5v59h864v-59q-106 0 -151 -16.5t-44 -52t29 -91.5l258 -538h6l260 538q18 37 25 60.5t5.5 44.5t-18.5 32t-50 17t-87 6v59h492v-59
q-88 0 -142 -33.5t-98 -126.5z" />
    <glyph glyph-name="Z" unicode="Z" horiz-adv-x="1325" 
d="M158 1638h1104l-697 -1505h350q79 0 129.5 36t84.5 127t51 251l69 -8l-45 -443l-10 -96h-1141v59l695 1446h-306q-78 0 -125.5 -30.5t-75.5 -109t-34 -216.5l-70 4l17 383z" />
    <glyph glyph-name="bracketleft" unicode="[" horiz-adv-x="796" 
d="M735 1782v-115h-192v-2064h192v-115h-633v2294h633z" />
    <glyph glyph-name="backslash" unicode="\" horiz-adv-x="780" 
d="M0 1679h244l536 -1679h-243z" />
    <glyph glyph-name="bracketright" unicode="]" horiz-adv-x="796" 
d="M61 1782h633v-2294h-633v115h193v2064h-193v115z" />
    <glyph glyph-name="asciicircum" unicode="^" horiz-adv-x="1343" 
d="M373 756h-271l422 882h289l428 -882h-270l-299 649h-6z" />
    <glyph glyph-name="underscore" unicode="_" horiz-adv-x="1433" 
d="M1434 -184v-170h-1434v170h1434z" />
    <glyph glyph-name="grave" unicode="`" horiz-adv-x="573" 
d="M328 1667l157 -395h-94l-348 395h285z" />
    <glyph glyph-name="a" unicode="a" horiz-adv-x="1159" 
d="M1112 258h59q-14 -146 -79 -217.5t-199 -71.5q-119 0 -186 64.5t-80 216.5h-9q-20 -122 -103 -202.5t-214 -80.5q-122 0 -193 71t-71 181q0 51 17.5 97t43 81t71 70t84 59t100 52t102 44t105.5 41q44 17 65 25v119q0 127 -29.5 179t-93.5 52q-46 0 -73.5 -24.5
t-27.5 -63.5q0 -20 13.5 -66t13.5 -75q0 -62 -42.5 -101.5t-119.5 -39.5q-80 0 -124 42.5t-44 114.5q0 131 129 225.5t332 94.5q210 0 320 -103.5t110 -281.5v-555q0 -57 8.5 -78t32.5 -21q71 0 82 152zM471 225q46 0 88.5 37.5t65.5 102.5v239q-105 -51 -170.5 -122.5
t-65.5 -155.5q0 -51 23 -76t59 -25z" />
    <glyph glyph-name="b" unicode="b" horiz-adv-x="1265" 
d="M158 117v1163q0 105 -9 126q-13 28 -64 9q-18 -8 -46 -22l-29 51l475 254l43 -39v-729h9q70 102 152 157.5t196 55.5q154 0 244 -136t90 -393q0 -310 -140 -477.5t-409 -167.5q-126 0 -261.5 34t-250.5 114zM528 797v-598q55 -99 136 -99q82 0 120.5 111t38.5 348
q0 197 -35.5 280t-103.5 83q-87 0 -156 -125z" />
    <glyph glyph-name="c" unicode="c" horiz-adv-x="1001" 
d="M516 -33q-218 0 -343.5 151t-125.5 408q0 272 141 444.5t377 172.5q158 0 262.5 -79.5t104.5 -213.5q0 -83 -42.5 -132.5t-119.5 -49.5q-68 0 -110 39.5t-42 101.5q0 21 8.5 64t8.5 65q0 43 -20.5 64.5t-53.5 21.5q-143 0 -143 -352q0 -136 23.5 -234t80.5 -158.5
t146 -60.5q184 0 235 260h60q-21 -260 -138.5 -386t-308.5 -126z" />
    <glyph glyph-name="d" unicode="d" horiz-adv-x="1271" 
d="M1243 182l23 -59l-455 -158l-74 55v177h-6q-48 -106 -130 -168t-191 -62q-159 0 -261 141t-102 400q0 155 36 278.5t97.5 200t140 116.5t166.5 40q79 0 146 -29.5t104 -79.5v250v39.5t-1 32.5t-2.5 27.5t-4.5 20t-7.5 15t-11.5 7t-15.5 2.5t-20.5 -5t-26.5 -9.5
t-33.5 -16.5l-26 51l479 250l39 -39v-1329q0 -44 1 -68.5t6 -48t13.5 -32.5t24 -14t37.5 -0.5t55 15.5zM588 190q84 0 149 125v324q0 63 -8.5 121.5t-25 109t-46 81t-67.5 30.5q-72 0 -113 -100t-41 -308q0 -383 152 -383z" />
    <glyph glyph-name="e" unicode="e" horiz-adv-x="1026" 
d="M915 451h60q-44 -250 -158.5 -367t-304.5 -117q-210 0 -337.5 146.5t-127.5 416.5q0 161 55.5 299t167 226t258.5 88q94 0 169.5 -29.5t125 -80t82.5 -121.5t47.5 -149.5t14.5 -168.5h-557q8 -193 71 -288t189 -95q75 0 142.5 57.5t102.5 182.5zM522 1026
q-36 0 -58 -17.5t-34 -59.5t-16.5 -96t-5.5 -144h208q0 61 -1 98.5t-4 78.5t-9 63t-16.5 41.5t-26 27.5t-37.5 8z" />
    <glyph glyph-name="f" unicode="f" horiz-adv-x="864" 
d="M758 1698q138 0 213.5 -56.5t75.5 -134.5q0 -63 -43.5 -109t-122.5 -46q-47 0 -78 22t-62 72q-12 19 -24.5 41.5t-18.5 33t-14 21t-16 14t-19 3.5q-44 0 -64 -70t-20 -238v-149h246v-115h-246v-745q0 -108 43 -145.5t174 -37.5v-59h-751v59q100 0 133 38t33 145v745h-144
v100l144 9v71q0 122 38.5 218t97 153.5t136.5 95t148.5 51t140.5 13.5z" />
    <glyph glyph-name="g" unicode="g" horiz-adv-x="1196" 
d="M573 236h289q336 0 336 -246q0 -135 -90.5 -243.5t-251 -169t-360.5 -60.5q-135 0 -245 28t-177.5 85t-67.5 134q0 146 234 207q-69 32 -106.5 80t-37.5 105q0 162 209 254q-103 50 -159 134.5t-56 194.5q0 173 132.5 288.5t357.5 115.5q145 0 256 -51q62 40 133.5 58.5
t122.5 18.5q112 0 112 -90q0 -42 -23.5 -73t-62.5 -31q-38 0 -81 23.5t-81 44.5t-67 18q160 -107 160 -307q0 -180 -129 -289t-349 -109q-91 0 -178 23q-51 -28 -51 -70q0 -26 15 -40.5t67 -23.5t149 -9zM541 1036q-90 0 -90 -180q0 -69 8.5 -136t25.5 -125t46.5 -94
t66.5 -36q90 0 90 176q0 70 -8.5 137.5t-25.5 126.5t-46.5 95t-66.5 36zM588 -307q120 0 220.5 28t153 67.5t52.5 78.5q0 31 -35.5 41t-130.5 10h-324q-94 0 -190 21q-33 -50 -33 -95q0 -22 7 -41.5t26.5 -40t50.5 -35.5t83 -24.5t120 -9.5z" />
    <glyph glyph-name="h" unicode="h" horiz-adv-x="1382" 
d="M555 770v-528q0 -108 23 -145.5t92 -37.5v-59h-633v59q91 0 121 38t30 145l-2 1036v48.5t-2 36.5t-5 29t-9.5 16.5t-15.5 8.5t-23.5 -3.5t-32.5 -11t-43 -22.5l-26 54l487 264l39 -41v-768h6q84 123 175.5 189.5t211.5 66.5q119 0 190.5 -83t71.5 -259v-561
q0 -108 28 -145.5t116 -37.5v-59h-625v59q68 0 90.5 38t22.5 145v544q0 134 -94 134q-97 0 -193 -150z" />
    <glyph glyph-name="i" unicode="i" horiz-adv-x="759" 
d="M385 1260q-89 0 -144 50t-55 132t55 133t144 51q88 0 142.5 -51t54.5 -133t-54.5 -132t-142.5 -50zM580 1108v-866q0 -108 32.5 -145.5t130.5 -37.5v-59h-696v59q100 0 133 38t33 145l-2 524q0 46 -1 69t-5 47.5t-11.5 32.5t-22.5 12.5t-36 -0.5t-53 -18l-25 60l465 186z
" />
    <glyph glyph-name="j" unicode="j" horiz-adv-x="724" 
d="M414 1260q-89 0 -144 50t-55 132t55 133t144 51q88 0 142 -51t54 -133t-54 -132t-142 -50zM190 -483q-172 0 -279.5 57.5t-107.5 157.5q0 64 41.5 99.5t114.5 35.5q70 0 108 -32.5t58 -108.5q16 -60 28 -81.5t33 -21.5q32 0 43 45.5t11 175.5v920q0 46 -1 69t-5 47.5
t-12 32.5t-23 12.5t-36 -1.5t-54 -19l-25 60l463 190l61 -47v-1145q0 -98 -24.5 -176.5t-64.5 -128t-95.5 -82t-113 -46t-120.5 -13.5z" />
    <glyph glyph-name="k" unicode="k" horiz-adv-x="1435" 
d="M561 1659v-1417q0 -108 23.5 -145.5t97.5 -37.5v-59h-653v59q98 0 131 38t33 145v1050q0 42 -1 62.5t-5 42.5t-12 27.5t-23.5 7.5t-38 -7t-56.5 -26l-26 51l483 248zM922 774l309 -561q48 -89 101.5 -121.5t129.5 -32.5v-59h-698v59q21 0 37 0.5t27.5 3.5t20 5t12.5 9.5
t6.5 11.5t-0.5 16t-5.5 19t-11 25t-14.5 29t-19 35l-215 395l234 275q73 86 55.5 122.5t-133.5 36.5v60h620v-60q-102 0 -173 -22t-138 -92z" />
    <glyph glyph-name="l" unicode="l" horiz-adv-x="741" 
d="M561 1659v-1417q0 -108 32.5 -145.5t131.5 -37.5v-59h-696v59q98 0 131 38t33 145v1050q0 42 -1 62.5t-5 42.5t-12 27.5t-23.5 7.5t-38 -7t-56.5 -26l-26 51l483 248z" />
    <glyph glyph-name="m" unicode="m" horiz-adv-x="1990" 
d="M1819 807v-565q0 -108 28.5 -145.5t114.5 -37.5v-59h-606v59q60 0 80 37.5t20 145.5v549q0 129 -88 129q-41 0 -83 -32t-93 -112v-534q0 -108 20 -145.5t80 -37.5v-59h-563v59q60 0 80 37.5t20 145.5v549q0 129 -86 129q-89 0 -180 -148v-530q0 -107 20 -145t81 -38v-59
h-613v59q91 0 120.5 37.5t29.5 145.5v526q0 46 -1 69t-5 47.5t-11.5 32.5t-22.5 12.5t-36 -1.5t-53 -19l-25 60l174 69l283 117l59 -47v-219h6q37 56 69 94.5t77.5 79t101 61.5t119.5 21q102 0 168.5 -63.5t83.5 -192.5h10q30 44 53.5 75.5t59.5 68t71 59t81.5 38t97.5 15.5
q119 0 188.5 -83.5t69.5 -254.5z" />
    <glyph glyph-name="n" unicode="n" horiz-adv-x="1396" 
d="M51 0v59q91 0 120.5 37.5t29.5 145.5v524q0 46 -1 69t-5 47.5t-11.5 32.5t-22.5 12.5t-36 -1.5t-53 -19l-25 60l461 188l61 -47v-219h6q83 123 175.5 189.5t212.5 66.5q119 0 190.5 -83t71.5 -259v-561q0 -108 27.5 -145.5t113.5 -37.5v-59h-625v59q69 0 92 37.5
t23 145.5v538q0 140 -92 140q-99 0 -195 -150v-528q0 -108 23 -145.5t92 -37.5v-59h-633z" />
    <glyph glyph-name="o" unicode="o" horiz-adv-x="1200" 
d="M600 -33q-260 0 -406.5 154t-146.5 428q0 269 148 431.5t405 162.5q258 0 405.5 -154.5t147.5 -425.5q0 -269 -149 -432.5t-404 -163.5zM639 96q48 0 79.5 45.5t42.5 104.5t11 129q0 110 -12.5 218.5t-36.5 205t-66 156t-96 59.5q-48 0 -79.5 -45.5t-42.5 -104.5
t-11 -129q0 -110 12.5 -218.5t36.5 -205t66 -156t96 -59.5z" />
    <glyph glyph-name="p" unicode="p" horiz-adv-x="1280" 
d="M885 1143q165 0 254.5 -142t89.5 -401q0 -144 -34 -263t-91 -196t-131 -119t-156 -42q-80 0 -153.5 34.5t-112.5 98.5h-4v-322q0 -109 32 -145.5t132 -36.5v-60h-697v60q100 0 132 36.5t32 145.5v975q0 46 -1 69t-5 47.5t-12 32.5t-23 12.5t-36 -0.5t-54 -18l-24 60
l471 186l53 -47v-180h8q70 100 149.5 157.5t180.5 57.5zM696 127q41 0 69.5 33.5t43 96t20 131.5t5.5 159q0 207 -31 291t-98 84q-88 0 -158 -127v-349q0 -161 43 -240t106 -79z" />
    <glyph glyph-name="q" unicode="q" horiz-adv-x="1257" 
d="M887 1028l170 125l47 -41v-1321q0 -109 32 -145.5t132 -36.5v-60h-715v60q109 0 144.5 37t35.5 145v408h-8q-110 -226 -311 -226q-76 0 -140 31t-116 93.5t-81.5 169.5t-29.5 247q0 190 50.5 328.5t160 219.5t270.5 81q96 0 179 -25t180 -90zM733 313v412
q-1 76 -13.5 130t-34 80.5t-43 38t-46.5 11.5q-162 0 -162 -416q0 -379 150 -379q85 0 149 123z" />
    <glyph glyph-name="r" unicode="r" horiz-adv-x="1060" 
d="M895 1143q143 0 143 -166q0 -92 -42 -151.5t-109 -59.5q-37 0 -60 13.5t-57 49.5q-29 32 -44 42t-34 10q-38 0 -73.5 -51t-49.5 -125v-431q0 -123 48.5 -164.5t197.5 -41.5v-68h-764v59q91 0 120.5 37.5t29.5 145.5v524q0 46 -1 69t-5 47.5t-11.5 32.5t-22.5 12.5
t-36 -1.5t-53 -19l-25 60l461 188l61 -47v-227h6q24 42 55.5 84t73.5 84t92.5 68t98.5 26z" />
    <glyph glyph-name="s" unicode="s" horiz-adv-x="894" 
d="M475 -33q-151 0 -268 80q-40 27 -57 -12l-21 -43h-57l-21 469h60q27 -166 113.5 -270.5t207.5 -104.5q62 0 94.5 32t32.5 93q0 51 -39.5 89.5t-191.5 141.5q-144 97 -202 178t-58 181q0 158 105 250t259 92q125 0 223 -76q43 -30 62 12l20 49h58l18 -385h-57
q-30 120 -110 201.5t-179 81.5q-51 0 -79 -27.5t-28 -70.5q0 -49 35 -83.5t166 -125.5q80 -55 127 -93t89.5 -87t60.5 -103.5t18 -122.5q0 -88 -31 -156t-84.5 -108.5t-120.5 -61t-145 -20.5z" />
    <glyph glyph-name="t" unicode="t" horiz-adv-x="831" 
d="M733 504h78q0 -277 -80.5 -407t-265.5 -130q-156 0 -235.5 97t-79.5 323v600h-134v109q83 5 156 38t134 106.5t83 178.5h119v-317h240v-115h-232v-584q0 -229 100 -229q117 0 117 330z" />
    <glyph glyph-name="u" unicode="u" horiz-adv-x="1323" 
d="M872 -35l-73 55v199h-6q-30 -48 -50.5 -77t-55 -66.5t-67 -58t-79.5 -35.5t-101 -15q-123 0 -201.5 89t-78.5 247v488q0 59 -4 88t-19 47.5t-43 17.5t-78 -16l-16 57l487 148l39 -35v-762q0 -83 21.5 -119.5t70.5 -36.5q47 0 90 39.5t91 114.5v457q0 59 -4 88t-19 47.5
t-43 17.5t-78 -16l-16 57l489 148l37 -35v-768q0 -44 1 -69t6 -49t14 -33t25 -14t38.5 -0.5t55.5 15.5l20 -61z" />
    <glyph glyph-name="v" unicode="v" horiz-adv-x="1165" 
d="M705 440l145 432q38 101 25.5 135.5t-103.5 34.5v60h381v-60q-66 0 -106.5 -36t-73.5 -134l-295 -886h-205l-297 886q-32 97 -70 133.5t-96 36.5v60h647v-60q-95 0 -110.5 -35.5t18.5 -136.5l127 -430h13z" />
    <glyph glyph-name="w" unicode="w" horiz-adv-x="1785" 
d="M1772 1102v-60q-65 0 -104 -36.5t-69 -135.5l-270 -886h-237l-183 659l-186 -659h-244l-295 888q-32 97 -71.5 133.5t-100.5 36.5v60h594v-60q-60 0 -63 -33t33 -131q1 -4 2 -6l145 -444h10l119 420l-6 20q-28 98 -60 136t-77 38v60h585v-60q-71 0 -82 -36t17 -140
l102 -438h10l142 442q36 103 25.5 137.5t-93.5 34.5v60h357z" />
    <glyph glyph-name="x" unicode="x" horiz-adv-x="1198" 
d="M772 588l186 -371q46 -91 93 -124.5t106 -33.5v-59h-639v59q85 0 89.5 30t-48.5 124q-1 3 -2 4l-88 174l-94 -176q-50 -93 -53 -116q-3 -29 36 -36q20 -4 58 -4v-59h-408v59q77 0 131.5 32.5t104.5 121.5l164 299l-189 373q-44 91 -89.5 124t-104.5 33v60h632v-60
q-80 0 -85.5 -27t40.5 -111q6 -13 9 -19l90 -176l96 180q50 92 53 114q3 28 -34 35q-20 4 -58 4v60h387v-60q-67 0 -118 -32.5t-99 -120.5z" />
    <glyph glyph-name="y" unicode="y" horiz-adv-x="1163" 
d="M258 -483q-86 0 -143.5 51.5t-57.5 134.5t47.5 127.5t118.5 44.5q33 0 61.5 -12.5t43.5 -25.5t37 -36q26 -28 45 -38.5t45 -10.5q54 0 67 96q0 53 -78 287l-251 737q-32 97 -73.5 133.5t-107.5 36.5v60h656v-60q-91 0 -106 -35.5t20 -138.5l125 -428h14l135 430
q36 103 24.5 137.5t-98.5 34.5v60h367v-60q-64 0 -103.5 -36t-72.5 -134l-295 -892q-78 -237 -170 -345.5t-250 -117.5z" />
    <glyph glyph-name="z" unicode="z" horiz-adv-x="966" 
d="M481 115h152q82 0 123.5 27t59.5 96t18 206h65v-444h-856v59l438 928h-139q-82 0 -124 -22.5t-60.5 -82t-18.5 -175.5h-63v395h844v-60z" />
    <glyph glyph-name="braceleft" unicode="{" horiz-adv-x="974" 
d="M891 1782v-60q-82 -10 -136 -30t-78 -48t-32 -53t-8 -57q0 -44 14.5 -86t34.5 -78t40.5 -74.5t35 -91.5t14.5 -112q0 -79 -25.5 -146t-66.5 -113t-96 -81.5t-110 -56t-113 -31.5v-5q59 -12 113 -32.5t109.5 -56.5t96.5 -82t66.5 -113t25.5 -146q0 -72 -21.5 -145
t-48 -122.5t-48 -111t-21.5 -114.5q0 -26 4.5 -46.5t20 -44.5t42 -42t74 -33t113.5 -23v-59q-215 28 -339.5 77t-177 125t-52.5 193q0 105 33.5 273.5t33.5 242.5q0 58 -14 98t-49 71.5t-99 47t-159 15.5v59q168 0 244.5 61t76.5 181q0 60 -33.5 205.5t-33.5 251.5
q0 115 52.5 190.5t177.5 126t339 76.5z" />
    <glyph glyph-name="bar" unicode="|" horiz-adv-x="448" 
d="M102 -328v2007h244v-2007h-244z" />
    <glyph glyph-name="braceright" unicode="}" horiz-adv-x="974" 
d="M909 690v-59q-96 0 -160 -15.5t-98.5 -47t-48.5 -71.5t-14 -98q0 -74 33.5 -242.5t33.5 -273.5q0 -117 -53 -193t-178 -125t-340 -77v59q81 10 135 29.5t79 47.5t33.5 53.5t8.5 58.5q0 53 -21.5 114.5t-48 111t-48 122.5t-21.5 145q0 79 25.5 146t66.5 113t96.5 82
t109.5 56.5t113 32.5v5q-58 11 -113 31.5t-110 56t-96 81.5t-66.5 113t-25.5 146q0 59 14.5 112t34.5 91.5t40.5 74.5t35 78t14.5 86q0 32 -8 57t-32.5 53t-79 48t-136.5 30v60q214 -26 339.5 -76.5t178.5 -126t53 -190.5q0 -106 -33.5 -251.5t-33.5 -205.5
q0 -121 76 -181.5t245 -60.5z" />
    <glyph glyph-name="asciitilde" unicode="~" horiz-adv-x="1531" 
d="M1370 889h60q-9 -137 -45.5 -237.5t-111 -162t-181.5 -61.5q-70 0 -141.5 22t-132.5 54t-122 63.5t-132.5 53.5t-141.5 22q-101 0 -168.5 -53.5t-91.5 -159.5h-60q14 211 97 336t239 125q70 0 142 -22t133.5 -53.5t122.5 -63.5t132 -54t140 -22q103 0 170.5 53.5
t91.5 159.5z" />
    <glyph glyph-name="exclamdown" unicode="&#xa1;" horiz-adv-x="565" 
d="M283 1145q72 0 122 -50.5t50 -121.5q0 -72 -50 -122t-122 -50q-71 0 -121.5 50t-50.5 122q0 71 50.5 121.5t121.5 50.5zM106 -369q0 73 21 180t46.5 209t48 273t24.5 356h78q2 -185 24 -356t47 -273t45.5 -209t20.5 -180q0 -96 -49 -148t-129 -52t-128.5 52t-48.5 148z
" />
    <glyph glyph-name="cent" unicode="&#xa2;" horiz-adv-x="1091" 
d="M934 479h59q-21 -260 -138.5 -386t-307.5 -126q-24 0 -60 4l-114 -422h-86l119 437q-156 46 -242 187t-86 353q0 272 141 444.5t377 172.5q64 0 119 -15l139 510h84l-145 -534q79 -36 124.5 -101.5t45.5 -152.5q0 -83 -42.5 -132.5t-119.5 -49.5q-72 0 -115 43l-121 -447
q54 -45 133 -45q185 0 236 260zM446 672q0 -210 58 -326l162 598q-1 41 -22 60.5t-54 19.5q-70 0 -107 -91t-37 -261z" />
    <glyph glyph-name="sterling" unicode="&#xa3;" horiz-adv-x="1513" 
d="M1358 602h61q-2 -10 -10.5 -53.5t-14 -71t-18.5 -78.5t-25 -86.5t-31.5 -84.5t-40 -82.5t-49.5 -70.5t-60.5 -59t-72 -36.5t-85.5 -14.5q-90 0 -179 46t-196 128q-71 -83 -154.5 -128.5t-165.5 -45.5q-91 0 -153 57t-62 164q0 106 70 173t217 67q51 0 92 -8v49
q0 146 -39 299h-245v80h223q-4 13 -15.5 54.5t-16 57t-13.5 51t-13 56t-9 50.5t-7 56.5t-2 53.5q0 217 132.5 335.5t352.5 118.5q202 0 313 -92.5t111 -218.5q0 -72 -42 -119t-130 -47q-170 0 -170 193q0 28 -1 46t-5.5 44t-13.5 41.5t-27 27t-43 11.5q-60 0 -91.5 -55.5
t-31.5 -157.5q0 -79 22.5 -161t54.5 -176t46 -169h275v-80h-265q5 -58 5 -74q0 -182 -72 -348q122 -27 205 -27q149 0 238.5 67t150.5 218zM311 82q106 0 150 182q-76 47 -131 47q-51 0 -79 -34.5t-28 -88.5q0 -46 23.5 -76t64.5 -30z" />
    <glyph glyph-name="currency" unicode="&#xa4;" horiz-adv-x="1441" 
d="M1237 745q0 -141 -76 -270l178 -178l-172 -170l-176 178q-129 -76 -270 -76q-144 0 -270 76l-179 -178l-170 170l179 178q-76 126 -76 270q0 150 76 271l-179 178l170 170l179 -178q121 76 270 76q146 0 270 -76l176 178l172 -170l-178 -178q76 -126 76 -271zM721 471
q123 0 198.5 79t75.5 195q0 117 -75.5 196t-198.5 79t-199 -79t-76 -196q0 -116 76 -195t199 -79z" />
    <glyph glyph-name="yen" unicode="&#xa5;" horiz-adv-x="1757" 
d="M1673 1638v-59q-88 0 -141.5 -33.5t-97.5 -126.5l-260 -553h432v-80h-469l-25 -53v-147h494v-78h-494v-266q0 -98 48.5 -140.5t178.5 -42.5v-59h-897v59q132 0 181 42.5t49 140.5v266h-522v78h522v135l-33 65h-489v80h448l-283 557q-47 91 -99.5 123.5t-131.5 32.5v59
h864v-59q-106 0 -151 -16.5t-44.5 -52t27.5 -91.5l260 -538h4l261 538q18 37 25.5 60.5t6.5 44.5t-18 32t-50 17t-87 6v59h491z" />
    <glyph glyph-name="brokenbar" unicode="&#xa6;" horiz-adv-x="448" 
d="M102 860v819h244v-819h-244zM102 -328v820h244v-820h-244z" />
    <glyph glyph-name="section" unicode="&#xa7;" horiz-adv-x="1058" 
d="M956 670q0 -107 -53.5 -189t-142.5 -153q98 -120 98 -246q0 -82 -30 -149t-79.5 -108.5t-112 -64t-130.5 -22.5q-161 0 -260 71t-99 166q0 52 31.5 90.5t91.5 38.5q127 0 127 -147q0 -145 148 -145q71 0 115.5 43t44.5 118q0 34 -12.5 66.5t-32 60.5t-58.5 64.5t-75 66.5
t-99 78q-95 75 -146 119.5t-97.5 98.5t-64.5 103.5t-18 110.5q0 188 197 342q-96 117 -96 246q0 160 103.5 252t246.5 92q163 0 260.5 -71.5t97.5 -167.5q0 -51 -31.5 -89t-91.5 -38q-126 0 -126 147q0 69 -36.5 107t-109.5 38q-72 0 -117 -43.5t-45 -119.5q0 -42 16 -79
t58.5 -81t82 -77.5t120.5 -96.5q76 -60 120 -97t88.5 -82t66.5 -81t36 -79.5t14 -92.5zM272 860q0 -31 5 -55.5t23 -52.5t35 -48.5t59.5 -57.5t76 -64.5t104.5 -83.5q102 -81 140 -121q71 81 71 174q0 31 -5 55.5t-23 52.5t-34.5 48.5t-59 57t-76 64t-103.5 82.5
q-102 82 -141 123q-72 -82 -72 -174z" />
    <glyph glyph-name="dieresis" unicode="&#xa8;" horiz-adv-x="1054" 
d="M293 1243q-70 0 -121 50.5t-51 119.5q0 72 50.5 122t121.5 50t120.5 -50t49.5 -122q0 -69 -50 -119.5t-120 -50.5zM764 1243q-70 0 -121 50.5t-51 119.5q0 72 50.5 122t121.5 50t120.5 -50t49.5 -122q0 -69 -50 -119.5t-120 -50.5z" />
    <glyph glyph-name="copyright" unicode="&#xa9;" horiz-adv-x="1884" 
d="M944 1698q178 0 337 -68.5t272.5 -185.5t180 -280.5t66.5 -346.5q0 -178 -66.5 -340t-180 -279.5t-272.5 -187t-337 -69.5q-180 0 -340 69.5t-274 187t-180 279t-66 340.5q0 183 66 346.5t180 280.5t274 185.5t340 68.5zM944 1618q-166 0 -311.5 -63.5t-248 -171
t-161.5 -255t-59 -311.5t59 -311.5t161.5 -254t248 -169t311.5 -62.5q215 0 393.5 106t280.5 289t102 402q0 163 -60 311t-163 255.5t-247.5 171t-305.5 63.5zM416 821q0 232 151.5 382.5t384.5 150.5q71 0 132.5 -16.5t94 -36t59.5 -36t38 -16.5q12 0 16 13t4 51h60
l30 -379h-59q-21 154 -106 229.5t-213 75.5q-145 0 -229.5 -108t-84.5 -310q0 -203 87 -309t247 -106q128 0 222 78.5t141 226.5h59q-123 -422 -504 -422q-235 0 -382.5 149.5t-147.5 382.5z" />
    <glyph glyph-name="guillemotleft" unicode="&#xab;" horiz-adv-x="1099" 
d="M569 1094l-170 -494l170 -500h-59l-426 500l426 494h59zM1016 1094l-170 -494l170 -500h-60l-424 500l424 494h60z" />
    <glyph glyph-name="logicalnot" unicode="&#xac;" horiz-adv-x="1257" 
d="M102 743v248h1053v-745h-244v497h-809z" />
    <glyph glyph-name="registered" unicode="&#xae;" horiz-adv-x="1884" 
d="M944 1698q178 0 337 -68.5t272.5 -185.5t180 -280t66.5 -345q0 -179 -66.5 -341.5t-180 -280t-272.5 -187t-337 -69.5q-180 0 -340 69.5t-274 187.5t-180 280t-66 341q0 182 66 345t180 280t274 185.5t340 68.5zM944 20q215 0 393.5 106t280.5 289t102 402q0 163 -60 311
t-163 255.5t-247.5 171t-305.5 63.5q-166 0 -311.5 -63.5t-248 -171t-161.5 -255t-59 -311.5t59 -311.5t161.5 -254t248 -169t311.5 -62.5zM1206 621l49 -91q55 -104 102 -143t116 -39v-59h-220q-91 0 -139.5 32.5t-85.5 108.5l-151 324h-84v-224q0 -98 24.5 -140t91.5 -42
v-59h-473v59q65 0 90 42.5t25 139.5v582q0 97 -25 139.5t-90 42.5v60h447q215 0 330.5 -75.5t115.5 -227.5q0 -228 -272 -283q47 -13 82 -47.5t67 -99.5zM793 1266v-432h49q88 0 151.5 57.5t63.5 157.5q0 61 -17.5 107.5t-46.5 71t-60.5 36.5t-64.5 12q-35 0 -75 -10z" />
    <glyph glyph-name="macron" unicode="&#xaf;" horiz-adv-x="1013" 
d="M156 1333v146h702v-146h-702z" />
    <glyph glyph-name="degree" unicode="&#xb0;" horiz-adv-x="882" 
d="M440 975q-169 0 -274 100.5t-105 261.5t105 262t274 101q170 0 275.5 -101t105.5 -262t-105.5 -261.5t-275.5 -100.5zM440 1153q77 0 125.5 51t48.5 133t-48.5 133.5t-125.5 51.5t-125.5 -51.5t-48.5 -133.5t48.5 -133t125.5 -51z" />
    <glyph glyph-name="plusminus" unicode="&#xb1;" horiz-adv-x="1126" 
d="M1024 897v-244h-338v-237h338v-262h-922v262h342v237h-342v244h342v340h242v-340h338z" />
    <glyph glyph-name="acute" unicode="&#xb4;" horiz-adv-x="573" 
d="M182 1272h-94l156 395h284z" />
    <glyph glyph-name="paragraph" unicode="&#xb6;" horiz-adv-x="1445" 
d="M1343 1638v-59q-131 0 -180 -42.5t-49 -139.5v-1848h-117v1975h-274v-1975h-117v1246q-233 0 -368.5 105t-135.5 317q0 143 65 239t176 139t263 43h737z" />
    <glyph glyph-name="periodcentered" unicode="&#xb7;" horiz-adv-x="548" 
d="M274 645q-72 0 -122 50.5t-50 121.5q0 72 50 122t122 50q71 0 121.5 -50t50.5 -122q0 -71 -51 -121.5t-121 -50.5z" />
    <glyph glyph-name="cedilla" unicode="&#xb8;" horiz-adv-x="778" 
d="M190 -178l156 198h115l-72 -129q40 -3 72.5 -8.5t71 -19t64 -34.5t43 -57t17.5 -83q0 -67 -36 -116.5t-94 -76.5t-134 -39.5t-154 -10.5t-155 15l12 58q320 -36 320 143q0 77 -62 117.5t-164 42.5z" />
    <glyph glyph-name="guillemotright" unicode="&#xbb;" horiz-adv-x="1099" 
d="M84 100l170 500l-170 494h59l426 -494l-426 -500h-59zM532 100l168 500l-168 494h58l426 -494l-426 -500h-58z" />
    <glyph glyph-name="onequarter" unicode="&#xbc;" horiz-adv-x="1826" 
d="M545 1647v-830q0 -65 21 -87.5t85 -22.5v-35h-493v35q70 0 93 22.5t23 87.5v586q0 51 -8 70t-35 18t-86 -27l-16 35l393 172zM344 0l1018 1638h119l-1018 -1638h-119zM1292 242h-348v194l414 559h172v-559h135v-194h-135v-97q0 -66 20 -88t84 -22v-35h-456v35
q70 0 92 22.5t22 87.5v97zM1028 440v-4h264v361z" />
    <glyph glyph-name="onehalf" unicode="&#xbd;" horiz-adv-x="1927" 
d="M545 1647v-830q0 -65 21 -87.5t85 -22.5v-35h-493v35q70 0 93 22.5t23 87.5v586q0 51 -8 70t-35 18t-86 -27l-16 35l393 172zM348 0l1018 1638h119l-1018 -1638h-119zM1362 199h293q63 0 96 29t61 106l33 -12l-51 -138l-68 -184h-604v35q85 86 125.5 128.5t99.5 106.5
t85.5 100.5t55.5 84t39.5 86t10.5 77.5q0 93 -44.5 137t-121.5 44q-82 0 -130 -49t-60 -138h-39q0 173 105.5 280t273.5 107q131 0 203.5 -60.5t72.5 -172.5q0 -52 -25.5 -110t-61.5 -107t-100 -113t-115.5 -109t-133.5 -114v-14z" />
    <glyph glyph-name="threequarters" unicode="&#xbe;" horiz-adv-x="1939" 
d="M158 786q0 38 25.5 61t64.5 23q27 0 47.5 -12.5t28.5 -23.5t24 -37q21 -33 37.5 -46.5t44.5 -13.5q50 0 84.5 46t34.5 151q0 115 -61.5 173t-157.5 58v37q213 35 213 187q0 59 -33 95t-102 36q-62 0 -104.5 -32t-55.5 -89h-37q16 123 96 197.5t215 74.5
q116 0 194.5 -59.5t78.5 -165.5q0 -96 -76 -161t-191 -87v-4q76 -1 141 -25t110.5 -79.5t45.5 -135.5q0 -74 -33 -133t-90 -95t-128.5 -54.5t-153.5 -18.5q-109 0 -185.5 34t-76.5 99zM492 0l1017 1638h119l-1018 -1638h-118zM1405 242h-348v194l416 559h169v-559h136v-194
h-136v-97q0 -65 20.5 -87.5t84.5 -22.5v-35h-457v35q70 0 92.5 22.5t22.5 87.5v97zM1143 440v-4h262v361z" />
    <glyph glyph-name="questiondown" unicode="&#xbf;" horiz-adv-x="952" 
d="M547 1145q72 0 122 -50.5t50 -121.5q0 -72 -50 -122t-122 -50q-71 0 -121.5 50t-50.5 122q0 71 50.5 121.5t121.5 50.5zM516 651h92q111 -146 153 -224t42 -148q0 -74 -50 -136.5t-196 -183.5q-138 -111 -189 -166.5t-51 -103.5q0 -45 31 -72t96 -27q102 0 185.5 83.5
t107.5 234.5h84l31 -371q-52 -46 -154.5 -79t-210.5 -33q-85 0 -163.5 26.5t-141.5 75.5t-101 126.5t-38 172.5q0 101 64.5 192t216.5 205q129 97 185 161t56 134q0 62 -49 133z" />
    <glyph glyph-name="Agrave" unicode="&#xc0;" horiz-adv-x="1609" 
d="M748 2161l157 -396h-94l-348 396h285zM899 1653l512 -1426q36 -98 90.5 -133t159.5 -35v-59h-866v59q97 0 141.5 18t49 56.5t-14.5 97.5l-72 226h-504l-76 -228q-20 -59 -17 -97t45 -55.5t134 -17.5v-59h-530v59q104 0 158 35.5t88 134.5l495 1424h207zM651 1214
l-219 -651h434l-207 651h-8z" />
    <glyph glyph-name="Aacute" unicode="&#xc1;" horiz-adv-x="1609" 
d="M860 2161h285l-346 -396h-94zM899 1653l512 -1426q36 -98 90.5 -133t159.5 -35v-59h-866v59q97 0 141.5 18t49 56.5t-14.5 97.5l-72 226h-504l-76 -228q-20 -59 -17 -97t45 -55.5t134 -17.5v-59h-530v59q104 0 158 35.5t88 134.5l495 1424h207zM651 1214l-219 -651h434
l-207 651h-8z" />
    <glyph glyph-name="Acircumflex" unicode="&#xc2;" horiz-adv-x="1609" 
d="M1077 1765l-270 265l-270 -265h-97l215 396h301l215 -396h-94zM899 1653l512 -1426q36 -98 90.5 -133t159.5 -35v-59h-866v59q97 0 141.5 18t49 56.5t-14.5 97.5l-72 226h-504l-76 -228q-20 -59 -17 -97t45 -55.5t134 -17.5v-59h-530v59q104 0 158 35.5t88 134.5
l495 1424h207zM651 1214l-219 -651h434l-207 651h-8z" />
    <glyph glyph-name="Atilde" unicode="&#xc3;" horiz-adv-x="1609" 
d="M618 1919q-33 0 -56.5 -10.5t-38.5 -34.5t-23.5 -46t-18.5 -61h-59q27 159 54 226q58 149 173 149q39 0 77 -15.5t69.5 -38t62 -44.5t66.5 -37.5t71 -15.5q63 0 90 37t45 114h60q-27 -159 -54 -226q-58 -149 -173 -149q-39 0 -77 15.5t-69.5 38t-62 45t-66 38t-70.5 15.5
zM899 1653l512 -1426q36 -98 90.5 -133t159.5 -35v-59h-866v59q97 0 141.5 18t49 56.5t-14.5 97.5l-72 226h-504l-76 -228q-20 -59 -17 -97t45 -55.5t134 -17.5v-59h-530v59q104 0 158 35.5t88 134.5l495 1424h207zM651 1214l-219 -651h434l-207 651h-8z" />
    <glyph glyph-name="Adieresis" unicode="&#xc4;" horiz-adv-x="1609" 
d="M571 1737q-70 0 -121 50.5t-51 119.5q0 72 50.5 122t121.5 50t120.5 -50t49.5 -122q0 -69 -50 -119.5t-120 -50.5zM1042 1737q-70 0 -121 50.5t-51 119.5q0 72 50.5 122t121.5 50t120.5 -50t49.5 -122q0 -69 -50 -119.5t-120 -50.5zM899 1653l512 -1426q36 -98 90.5 -133
t159.5 -35v-59h-866v59q97 0 141.5 18t49 56.5t-14.5 97.5l-72 226h-504l-76 -228q-20 -59 -17 -97t45 -55.5t134 -17.5v-59h-530v59q104 0 158 35.5t88 134.5l495 1424h207zM651 1214l-219 -651h434l-207 651h-8z" />
    <glyph glyph-name="Aring" unicode="&#xc5;" horiz-adv-x="1609" 
d="M807 1774q-100 0 -166 64t-66 161q0 94 66.5 157.5t165.5 63.5q97 0 162 -63.5t65 -157.5q0 -97 -65 -161t-162 -64zM807 2124q-57 0 -95 -35t-38 -90q0 -57 38 -93t95 -36q56 0 93.5 36.5t37.5 92.5q0 55 -37.5 90t-93.5 35zM899 1653l512 -1426q36 -98 90.5 -133
t159.5 -35v-59h-866v59q97 0 141.5 18t49 56.5t-14.5 97.5l-72 226h-504l-76 -228q-20 -59 -17 -97t45 -55.5t134 -17.5v-59h-530v59q104 0 158 35.5t88 134.5l495 1424h207zM651 1214l-219 -651h434l-207 651h-8z" />
    <glyph glyph-name="AE" unicode="&#xc6;" horiz-adv-x="2041" 
d="M1933 537l70 -17l-98 -422l-23 -98h-1218v59q131 0 180 42.5t49 140.5v276h-438l-123 -295q-20 -47 -25 -75t7 -49.5t49 -30.5t104 -9v-59h-516v59q104 0 161 34.5t97 129.5l496 1192q24 57 25.5 93.5t-36 53.5t-125.5 17v59h1309l10 -104l41 -356l-65 -7
q-21 188 -77.5 261t-164.5 73h-209q-82 0 -82 -82v-538h137q90 0 129 54t39 198h54v-600h-54q0 144 -39 197.5t-129 53.5h-137v-538q0 -72 18 -94.5t78 -22.5h193q116 0 188 90t125 314zM887 1548l-387 -923h393v923h-6z" />
    <glyph glyph-name="Ccedilla" unicode="&#xc7;" horiz-adv-x="1472" 
d="M1315 672h69q-54 -682 -577 -705l-43 -76q40 -3 73 -8.5t71.5 -19.5t64.5 -35t43.5 -57t17.5 -84q0 -67 -36 -116t-94.5 -76t-134.5 -39.5t-153.5 -11t-154.5 14.5l12 60q318 -39 318 141q0 77 -61.5 118.5t-162.5 43.5l117 149q-150 15 -269.5 83.5t-197.5 177.5
t-119 250.5t-41 305.5q0 191 57 356t156.5 280.5t240 181t302.5 65.5q219 0 373 -131q20 -19 35 -13t18 32l14 96h60l30 -602h-59q-45 233 -143.5 362t-239.5 129q-115 0 -199 -87.5t-128 -245t-44 -367.5q0 -317 99.5 -496.5t281.5 -179.5q108 0 193.5 67.5t137 179
t73.5 257.5z" />
    <glyph glyph-name="Egrave" unicode="&#xc8;" horiz-adv-x="1415" 
d="M672 2161l157 -396h-94l-348 396h285zM1253 1638l11 -104l41 -360l-64 -7q-15 129 -46.5 203.5t-78 104.5t-117.5 30h-180q-117 0 -117 -116v-504h142q90 0 129 54t39 198h53v-600h-53q0 144 -39 197.5t-129 53.5h-142v-538q0 -72 18.5 -94.5t78.5 -22.5h196
q116 0 188.5 90.5t125.5 313.5l67 -17l-98 -422l-23 -98h-1220v59q130 0 178.5 42.5t48.5 140.5v1155q0 98 -48.5 140t-178.5 42v59h1218z" />
    <glyph glyph-name="Eacute" unicode="&#xc9;" horiz-adv-x="1415" 
d="M723 1765h-94l155 396h285zM1253 1638l11 -104l41 -360l-64 -7q-15 129 -46.5 203.5t-78 104.5t-117.5 30h-180q-117 0 -117 -116v-504h142q90 0 129 54t39 198h53v-600h-53q0 144 -39 197.5t-129 53.5h-142v-538q0 -72 18.5 -94.5t78.5 -22.5h196q116 0 188.5 90.5
t125.5 313.5l67 -17l-98 -422l-23 -98h-1220v59q130 0 178.5 42.5t48.5 140.5v1155q0 98 -48.5 140t-178.5 42v59h1218z" />
    <glyph glyph-name="Ecircumflex" unicode="&#xca;" horiz-adv-x="1415" 
d="M1001 1765l-270 265l-270 -265h-96l215 396h301l215 -396h-95zM1309 537l67 -17l-98 -422l-23 -98h-1220v59q130 0 178.5 42.5t48.5 140.5v1155q0 98 -48.5 140t-178.5 42v59h1218l11 -104l41 -360l-64 -7q-15 129 -46.5 203.5t-78 104.5t-117.5 30h-180
q-117 0 -117 -116v-504h142q90 0 129 54t39 198h53v-600h-53q0 144 -39 197.5t-129 53.5h-142v-538q0 -72 18.5 -94.5t78.5 -22.5h196q116 0 188.5 90.5t125.5 313.5z" />
    <glyph glyph-name="Edieresis" unicode="&#xcb;" horiz-adv-x="1415" 
d="M496 1737q-70 0 -121 50.5t-51 119.5q0 72 50.5 122t121.5 50t120.5 -50t49.5 -122q0 -69 -50 -119.5t-120 -50.5zM967 1737q-70 0 -121 50.5t-51 119.5q0 72 50.5 122t121.5 50t120.5 -50t49.5 -122q0 -69 -50 -119.5t-120 -50.5zM1253 1638l11 -104l41 -360l-64 -7
q-15 129 -46.5 203.5t-78 104.5t-117.5 30h-180q-117 0 -117 -116v-504h142q90 0 129 54t39 198h53v-600h-53q0 144 -39 197.5t-129 53.5h-142v-538q0 -72 18.5 -94.5t78.5 -22.5h196q116 0 188.5 90.5t125.5 313.5l67 -17l-98 -422l-23 -98h-1220v59q130 0 178.5 42.5
t48.5 140.5v1155q0 98 -48.5 140t-178.5 42v59h1218z" />
    <glyph glyph-name="Igrave" unicode="&#xcc;" horiz-adv-x="964" 
d="M424 2161l158 -396h-95l-348 396h285zM262 242v1155q0 98 -48.5 140t-178.5 42v59h897v-59q-132 0 -181 -42t-49 -140v-1155q0 -98 49 -140.5t181 -42.5v-59h-897v59q130 0 178.5 42.5t48.5 140.5z" />
    <glyph glyph-name="Iacute" unicode="&#xcd;" horiz-adv-x="964" 
d="M475 1765h-94l156 396h284zM262 242v1155q0 98 -48.5 140t-178.5 42v59h897v-59q-132 0 -181 -42t-49 -140v-1155q0 -98 49 -140.5t181 -42.5v-59h-897v59q130 0 178.5 42.5t48.5 140.5z" />
    <glyph glyph-name="Icircumflex" unicode="&#xce;" horiz-adv-x="964" 
d="M754 1765l-271 265l-270 -265h-96l215 396h301l215 -396h-94zM932 1638v-59q-132 0 -181 -42t-49 -140v-1155q0 -98 49 -140.5t181 -42.5v-59h-897v59q130 0 178.5 42.5t48.5 140.5v1155q0 98 -48.5 140t-178.5 42v59h897z" />
    <glyph glyph-name="Idieresis" unicode="&#xcf;" horiz-adv-x="964" 
d="M248 1737q-70 0 -121 50.5t-51 119.5q0 72 50.5 122t121.5 50t120.5 -50t49.5 -122q0 -69 -50 -119.5t-120 -50.5zM719 1737q-70 0 -121 50.5t-51 119.5q0 72 50.5 122t121.5 50t120.5 -50t49.5 -122q0 -69 -50 -119.5t-120 -50.5zM262 242v1155q0 98 -48.5 140
t-178.5 42v59h897v-59q-132 0 -181 -42t-49 -140v-1155q0 -98 49 -140.5t181 -42.5v-59h-897v59q130 0 178.5 42.5t48.5 140.5z" />
    <glyph glyph-name="Eth" unicode="&#xd0;" horiz-adv-x="1736" 
d="M846 1638q89 0 172 -11t168.5 -38.5t158.5 -69t137.5 -106.5t110 -147.5t71.5 -196t26 -248.5q0 -136 -26.5 -250.5t-72 -197.5t-110.5 -148t-137.5 -107t-158 -69t-167 -38t-168.5 -11h-815v59q130 0 178.5 42.5t48.5 140.5v557h-180v78h180v520q0 98 -48.5 140
t-178.5 42v59h811zM813 115q196 0 308 182.5t112 499.5q0 175 -35.5 316.5t-96 229.5t-137 134.5t-161.5 46.5q-48 0 -74 -13q-27 -15 -27 -49v-585h285v-78h-285v-598q0 -45 26.5 -65.5t84.5 -20.5z" />
    <glyph glyph-name="Ntilde" unicode="&#xd1;" horiz-adv-x="1652" 
d="M662 1919q-33 0 -56.5 -10.5t-39 -34t-24 -46t-18.5 -61.5h-59q27 159 54 226q58 149 173 149q39 0 77 -15.5t69.5 -38t62 -44.5t66.5 -37.5t71 -15.5q63 0 90.5 37.5t45.5 113.5h59q-27 -159 -54 -226q-58 -149 -173 -149q-39 0 -77 15.5t-69 38t-61.5 45t-66 38
t-70.5 15.5zM1634 1638v-59q-131 0 -180 -42.5t-49 -139.5v-1401h-209l-817 1259v-1013q0 -98 52.5 -140.5t195.5 -42.5v-59h-592v59q130 0 178.5 42.5t48.5 140.5v1194q-54 83 -105.5 113t-109.5 30v59h602l641 -993v752q0 97 -49 139.5t-180 42.5v59h573z" />
    <glyph glyph-name="Ograve" unicode="&#xd2;" horiz-adv-x="1570" 
d="M729 2161l158 -396h-94l-349 396h285zM793 -33q-167 0 -306 64.5t-233 178t-145.5 269.5t-51.5 338t54.5 340t149.5 269.5t229 175t288 63.5q168 0 307.5 -64.5t233.5 -178.5t145.5 -270.5t51.5 -338.5t-55 -340t-150.5 -269t-229.5 -174t-288 -63zM844 88q60 0 105 39
t70 104t36.5 139t11.5 156q0 138 -12 277t-39 273.5t-65.5 237.5t-96.5 166.5t-127 63.5q-60 0 -105 -39t-70 -104.5t-36.5 -139.5t-11.5 -155q0 -138 12 -277t39 -273.5t65.5 -237.5t96.5 -166.5t127 -63.5z" />
    <glyph glyph-name="Oacute" unicode="&#xd3;" horiz-adv-x="1570" 
d="M778 1765h-94l156 396h284zM793 -33q-167 0 -306 64.5t-233 178t-145.5 269.5t-51.5 338t54.5 340t149.5 269.5t229 175t288 63.5q168 0 307.5 -64.5t233.5 -178.5t145.5 -270.5t51.5 -338.5t-55 -340t-150.5 -269t-229.5 -174t-288 -63zM844 88q60 0 105 39t70 104
t36.5 139t11.5 156q0 138 -12 277t-39 273.5t-65.5 237.5t-96.5 166.5t-127 63.5q-60 0 -105 -39t-70 -104.5t-36.5 -139.5t-11.5 -155q0 -138 12 -277t39 -273.5t65.5 -237.5t96.5 -166.5t127 -63.5z" />
    <glyph glyph-name="Ocircumflex" unicode="&#xd4;" horiz-adv-x="1570" 
d="M1057 1765l-271 265l-270 -265h-96l215 396h301l215 -396h-94zM778 1665q168 0 307.5 -64.5t233.5 -178.5t145.5 -270.5t51.5 -338.5t-55 -340t-150.5 -269t-229.5 -174t-288 -63q-167 0 -306 64.5t-233 178t-145.5 269.5t-51.5 338t54.5 340t149.5 269.5t229 175
t288 63.5zM844 88q60 0 105 39t70 104t36.5 139t11.5 156q0 138 -12 277t-39 273.5t-65.5 237.5t-96.5 166.5t-127 63.5q-60 0 -105 -39t-70 -104.5t-36.5 -139.5t-11.5 -155q0 -138 12 -277t39 -273.5t65.5 -237.5t96.5 -166.5t127 -63.5z" />
    <glyph glyph-name="Otilde" unicode="&#xd5;" horiz-adv-x="1570" 
d="M942 1767q-39 0 -77 15.5t-69 38t-61.5 45t-66 38t-70.5 15.5q-33 0 -56.5 -10.5t-38.5 -34.5t-23.5 -46t-18.5 -61h-60q28 162 56 231q59 144 172 144q39 0 77 -15.5t69.5 -38t62 -44.5t66.5 -37.5t71 -15.5q63 0 90 37t45 114h59q-27 -159 -54 -226q-58 -149 -173 -149
zM793 -33q-167 0 -306 64.5t-233 178t-145.5 269.5t-51.5 338t54.5 340t149.5 269.5t229 175t288 63.5q168 0 307.5 -64.5t233.5 -178.5t145.5 -270.5t51.5 -338.5t-55 -340t-150.5 -269t-229.5 -174t-288 -63zM844 88q60 0 105 39t70 104t36.5 139t11.5 156q0 138 -12 277
t-39 273.5t-65.5 237.5t-96.5 166.5t-127 63.5q-60 0 -105 -39t-70 -104.5t-36.5 -139.5t-11.5 -155q0 -138 12 -277t39 -273.5t65.5 -237.5t96.5 -166.5t127 -63.5z" />
    <glyph glyph-name="Odieresis" unicode="&#xd6;" horiz-adv-x="1570" 
d="M551 1737q-70 0 -121 50.5t-51 119.5q0 72 50.5 122t121.5 50t120.5 -50t49.5 -122q0 -69 -50 -119.5t-120 -50.5zM1022 1737q-70 0 -121 50.5t-51 119.5q0 72 50.5 122t121.5 50t120.5 -50t49.5 -122q0 -69 -50 -119.5t-120 -50.5zM793 -33q-167 0 -306 64.5t-233 178
t-145.5 269.5t-51.5 338t54.5 340t149.5 269.5t229 175t288 63.5q168 0 307.5 -64.5t233.5 -178.5t145.5 -270.5t51.5 -338.5t-55 -340t-150.5 -269t-229.5 -174t-288 -63zM844 88q60 0 105 39t70 104t36.5 139t11.5 156q0 138 -12 277t-39 273.5t-65.5 237.5t-96.5 166.5
t-127 63.5q-60 0 -105 -39t-70 -104.5t-36.5 -139.5t-11.5 -155q0 -138 12 -277t39 -273.5t65.5 -237.5t96.5 -166.5t127 -63.5z" />
    <glyph glyph-name="multiply" unicode="&#xd7;" horiz-adv-x="1028" 
d="M344 582l-242 243l170 172l244 -243l240 241l170 -172l-238 -241l238 -238l-172 -170l-238 238l-242 -240l-172 172z" />
    <glyph glyph-name="Oslash" unicode="&#xd8;" horiz-adv-x="1570" 
d="M1411 1815l-178 -308q135 -114 209 -294.5t74 -399.5q0 -182 -55 -340t-150.5 -269t-229.5 -174t-288 -63q-216 0 -383 107l-181 -312l-67 35l184 322q-138 113 -213.5 294.5t-75.5 403.5q0 182 54.5 340t149.5 269.5t229 175t288 63.5q227 0 396 -115l172 297zM504 1106
q0 -335 63 -608l416 721q-44 151 -108 238t-148 87q-60 0 -105 -39t-70 -104.5t-36.5 -139.5t-11.5 -155zM844 88q60 0 105 39t70 104t36.5 139t11.5 156q0 325 -59 590l-414 -721q94 -307 250 -307z" />
    <glyph glyph-name="Ugrave" unicode="&#xd9;" horiz-adv-x="1675" 
d="M911 2161l158 -396h-94l-348 396h284zM850 -33q-299 0 -458 164t-159 492v774q0 98 -48.5 140t-178.5 42v59h897v-59q-132 0 -180.5 -42t-48.5 -140v-774q0 -174 35 -280.5t100 -151t168 -44.5q336 0 336 490v760q0 98 -49 140t-181 42v59h586v-59q-130 0 -178.5 -42
t-48.5 -140v-760q0 -119 -17 -216t-59.5 -183t-108.5 -144.5t-169.5 -92.5t-237.5 -34z" />
    <glyph glyph-name="Uacute" unicode="&#xda;" horiz-adv-x="1675" 
d="M961 1765h-95l156 396h285zM850 -33q-299 0 -458 164t-159 492v774q0 98 -48.5 140t-178.5 42v59h897v-59q-132 0 -180.5 -42t-48.5 -140v-774q0 -174 35 -280.5t100 -151t168 -44.5q336 0 336 490v760q0 98 -49 140t-181 42v59h586v-59q-130 0 -178.5 -42t-48.5 -140
v-760q0 -119 -17 -216t-59.5 -183t-108.5 -144.5t-169.5 -92.5t-237.5 -34z" />
    <glyph glyph-name="Ucircumflex" unicode="&#xdb;" horiz-adv-x="1675" 
d="M1239 1765l-270 265l-271 -265h-96l215 396h301l215 -396h-94zM1669 1638v-59q-130 0 -178.5 -42t-48.5 -140v-760q0 -119 -17 -216t-59.5 -183t-108.5 -144.5t-169.5 -92.5t-237.5 -34q-299 0 -458 164t-159 492v774q0 98 -48.5 140t-178.5 42v59h897v-59
q-132 0 -180.5 -42t-48.5 -140v-774q0 -174 35 -280.5t100 -151t168 -44.5q336 0 336 490v760q0 98 -49 140t-181 42v59h586z" />
    <glyph glyph-name="Udieresis" unicode="&#xdc;" horiz-adv-x="1675" 
d="M733 1737q-70 0 -121 50.5t-51 119.5q0 72 50.5 122t121.5 50t120.5 -50t49.5 -122q0 -69 -50 -119.5t-120 -50.5zM1204 1737q-70 0 -121 50.5t-51 119.5q0 72 50.5 122t121.5 50t120.5 -50t49.5 -122q0 -69 -50 -119.5t-120 -50.5zM850 -33q-299 0 -458 164t-159 492
v774q0 98 -48.5 140t-178.5 42v59h897v-59q-132 0 -180.5 -42t-48.5 -140v-774q0 -174 35 -280.5t100 -151t168 -44.5q336 0 336 490v760q0 98 -49 140t-181 42v59h586v-59q-130 0 -178.5 -42t-48.5 -140v-760q0 -119 -17 -216t-59.5 -183t-108.5 -144.5t-169.5 -92.5
t-237.5 -34z" />
    <glyph glyph-name="Yacute" unicode="&#xdd;" horiz-adv-x="1556" 
d="M897 1765h-94l155 396h285zM1012 733v-491q0 -98 48.5 -140.5t180.5 -42.5v-59h-897v59q130 0 178.5 42.5t48.5 140.5v479l-356 702q-47 91 -99.5 123.5t-131.5 32.5v59h864v-59q-106 0 -151 -16.5t-44 -52t29 -91.5l258 -538h6l260 538q18 37 25 60.5t5.5 44.5t-18.5 32
t-50 17t-87 6v59h492v-59q-88 0 -142 -33.5t-98 -126.5z" />
    <glyph glyph-name="Thorn" unicode="&#xde;" horiz-adv-x="1519" 
d="M690 410v-168q0 -98 49 -140.5t179 -42.5v-59h-883v59q130 0 178.5 42.5t48.5 140.5v1155q0 98 -48.5 140t-178.5 42v59h897v-59q-132 0 -181 -42t-49 -140v-31h95q673 0 673 -483q0 -104 -30.5 -189t-83 -143.5t-125 -98.5t-154.5 -58.5t-174 -18.5q-137 0 -213 35z
M813 504q62 0 108 31t72 86.5t38.5 123t12.5 148.5q0 172 -61 265t-178 93q-113 0 -113 -65v-654q56 -28 121 -28z" />
    <glyph glyph-name="germandbls" unicode="&#xdf;" horiz-adv-x="1419" 
d="M1059 819q37 -25 52.5 -35.5t52.5 -37t55.5 -44.5t48 -47.5t45.5 -57t33 -61.5t24.5 -72.5t7.5 -80.5q0 -81 -29 -154t-82.5 -130t-137.5 -90.5t-185 -33.5q-86 0 -163 21t-111 41v401h63q0 -150 55 -244t164 -88q68 3 105 43.5t37 108.5q0 62 -44 124.5t-85 95
t-124 90.5q-9 7 -14 10q-97 69 -141.5 125t-44.5 126q0 47 24 87.5t99 127.5q69 83 97 145t28 134q0 113 -44 177.5t-120 64.5q-80 0 -129 -71t-49 -216v-1278h-516v59q100 0 133 38t33 145v745h-140v100l140 9v67q0 111 30 200t81 147t120 97t144 55.5t157 16.5
q221 0 365.5 -98.5t144.5 -230.5q0 -201 -233 -289q-11 -5 -27.5 -12t-25 -11t-21 -9.5t-19 -9t-14.5 -8.5t-12 -9t-8 -9t-5.5 -10.5t-1.5 -11.5q0 -21 27 -43.5t109 -75.5q32 -21 51 -33z" />
    <glyph glyph-name="agrave" unicode="&#xe0;" horiz-adv-x="1159" 
d="M494 1667l157 -395h-94l-348 395h285zM1112 258h59q-14 -146 -79 -217.5t-199 -71.5q-119 0 -186 64.5t-80 216.5h-9q-20 -122 -103 -202.5t-214 -80.5q-122 0 -193 71t-71 181q0 51 17.5 97t43 81t71 70t84 59t100 52t102 44t105.5 41q44 17 65 25v119q0 127 -29.5 179
t-93.5 52q-46 0 -73.5 -24.5t-27.5 -63.5q0 -20 13.5 -66t13.5 -75q0 -62 -42.5 -101.5t-119.5 -39.5q-80 0 -124 42.5t-44 114.5q0 131 129 225.5t332 94.5q210 0 320 -103.5t110 -281.5v-555q0 -57 8.5 -78t32.5 -21q71 0 82 152zM471 225q46 0 88.5 37.5t65.5 102.5v239
q-105 -51 -170.5 -122.5t-65.5 -155.5q0 -51 23 -76t59 -25z" />
    <glyph glyph-name="aacute" unicode="&#xe1;" horiz-adv-x="1159" 
d="M606 1667h285l-346 -395h-94zM1112 258h59q-14 -146 -79 -217.5t-199 -71.5q-119 0 -186 64.5t-80 216.5h-9q-20 -122 -103 -202.5t-214 -80.5q-122 0 -193 71t-71 181q0 51 17.5 97t43 81t71 70t84 59t100 52t102 44t105.5 41q44 17 65 25v119q0 127 -29.5 179t-93.5 52
q-46 0 -73.5 -24.5t-27.5 -63.5q0 -20 13.5 -66t13.5 -75q0 -62 -42.5 -101.5t-119.5 -39.5q-80 0 -124 42.5t-44 114.5q0 131 129 225.5t332 94.5q210 0 320 -103.5t110 -281.5v-555q0 -57 8.5 -78t32.5 -21q71 0 82 152zM471 225q46 0 88.5 37.5t65.5 102.5v239
q-105 -51 -170.5 -122.5t-65.5 -155.5q0 -51 23 -76t59 -25z" />
    <glyph glyph-name="acircumflex" unicode="&#xe2;" horiz-adv-x="1159" 
d="M823 1272l-270 264l-270 -264h-97l215 395h301l216 -395h-95zM1112 258h59q-14 -146 -79 -217.5t-199 -71.5q-119 0 -186 64.5t-80 216.5h-9q-20 -122 -103 -202.5t-214 -80.5q-122 0 -193 71t-71 181q0 51 17.5 97t43 81t71 70t84 59t100 52t102 44t105.5 41
q44 17 65 25v119q0 127 -29.5 179t-93.5 52q-46 0 -73.5 -24.5t-27.5 -63.5q0 -20 13.5 -66t13.5 -75q0 -62 -42.5 -101.5t-119.5 -39.5q-80 0 -124 42.5t-44 114.5q0 131 129 225.5t332 94.5q210 0 320 -103.5t110 -281.5v-555q0 -57 8.5 -78t32.5 -21q71 0 82 152z
M471 225q46 0 88.5 37.5t65.5 102.5v239q-105 -51 -170.5 -122.5t-65.5 -155.5q0 -51 23 -76t59 -25z" />
    <glyph glyph-name="atilde" unicode="&#xe3;" horiz-adv-x="1159" 
d="M365 1425q-33 0 -56.5 -10.5t-39 -34t-24 -46t-18.5 -60.5h-59q27 159 54 226q58 149 173 149q39 0 77 -15.5t69.5 -38t62 -45t66.5 -38t71 -15.5q63 0 90.5 37.5t45.5 114.5h59q-27 -159 -54 -226q-58 -149 -173 -149q-39 0 -77 15.5t-69 38t-61.5 44.5t-66 37.5
t-70.5 15.5zM1112 258h59q-14 -146 -79 -217.5t-199 -71.5q-119 0 -186 64.5t-80 216.5h-9q-20 -122 -103 -202.5t-214 -80.5q-122 0 -193 71t-71 181q0 51 17.5 97t43 81t71 70t84 59t100 52t102 44t105.5 41q44 17 65 25v119q0 127 -29.5 179t-93.5 52q-46 0 -73.5 -24.5
t-27.5 -63.5q0 -20 13.5 -66t13.5 -75q0 -62 -42.5 -101.5t-119.5 -39.5q-80 0 -124 42.5t-44 114.5q0 131 129 225.5t332 94.5q210 0 320 -103.5t110 -281.5v-555q0 -57 8.5 -78t32.5 -21q71 0 82 152zM471 225q46 0 88.5 37.5t65.5 102.5v239q-105 -51 -170.5 -122.5
t-65.5 -155.5q0 -51 23 -76t59 -25z" />
    <glyph glyph-name="adieresis" unicode="&#xe4;" horiz-adv-x="1159" 
d="M317 1243q-70 0 -121 50.5t-51 119.5q0 72 50.5 122t121.5 50t120.5 -50t49.5 -122q0 -69 -50 -119.5t-120 -50.5zM788 1243q-70 0 -121 50.5t-51 119.5q0 72 50.5 122t121.5 50t120.5 -50t49.5 -122q0 -69 -50 -119.5t-120 -50.5zM1112 258h59q-14 -146 -79 -217.5
t-199 -71.5q-119 0 -186 64.5t-80 216.5h-9q-20 -122 -103 -202.5t-214 -80.5q-122 0 -193 71t-71 181q0 51 17.5 97t43 81t71 70t84 59t100 52t102 44t105.5 41q44 17 65 25v119q0 127 -29.5 179t-93.5 52q-46 0 -73.5 -24.5t-27.5 -63.5q0 -20 13.5 -66t13.5 -75
q0 -62 -42.5 -101.5t-119.5 -39.5q-80 0 -124 42.5t-44 114.5q0 131 129 225.5t332 94.5q210 0 320 -103.5t110 -281.5v-555q0 -57 8.5 -78t32.5 -21q71 0 82 152zM471 225q46 0 88.5 37.5t65.5 102.5v239q-105 -51 -170.5 -122.5t-65.5 -155.5q0 -51 23 -76t59 -25z" />
    <glyph glyph-name="aring" unicode="&#xe5;" horiz-adv-x="1159" 
d="M553 1280q-100 0 -165.5 64t-65.5 161q0 94 66 157.5t165 63.5q97 0 162 -63.5t65 -157.5q0 -97 -65 -161t-162 -64zM553 1630q-57 0 -95 -35t-38 -90q0 -57 38 -93t95 -36q56 0 93.5 36.5t37.5 92.5q0 55 -37.5 90t-93.5 35zM1112 258h59q-14 -146 -79 -217.5
t-199 -71.5q-119 0 -186 64.5t-80 216.5h-9q-20 -122 -103 -202.5t-214 -80.5q-122 0 -193 71t-71 181q0 51 17.5 97t43 81t71 70t84 59t100 52t102 44t105.5 41q44 17 65 25v119q0 127 -29.5 179t-93.5 52q-46 0 -73.5 -24.5t-27.5 -63.5q0 -20 13.5 -66t13.5 -75
q0 -62 -42.5 -101.5t-119.5 -39.5q-80 0 -124 42.5t-44 114.5q0 131 129 225.5t332 94.5q210 0 320 -103.5t110 -281.5v-555q0 -57 8.5 -78t32.5 -21q71 0 82 152zM471 225q46 0 88.5 37.5t65.5 102.5v239q-105 -51 -170.5 -122.5t-65.5 -155.5q0 -51 23 -76t59 -25z" />
    <glyph glyph-name="ae" unicode="&#xe6;" horiz-adv-x="1579" 
d="M1468 451h58q-42 -250 -157 -367t-306 -117q-144 0 -252.5 72t-163.5 209h-4q-31 -135 -114 -208t-234 -73q-112 0 -185 70.5t-73 191.5q0 67 36.5 127.5t77 99t131.5 86t135.5 65.5t152.5 60q25 10 38 15v127q0 122 -27.5 175.5t-84.5 53.5q-48 0 -75.5 -23.5
t-27.5 -58.5q0 -28 13.5 -72t13.5 -79q0 -60 -42.5 -98.5t-121.5 -38.5q-80 0 -123 42t-43 115q0 132 128.5 226t342.5 94q168 0 273 -82q110 80 247 80q94 0 169 -29.5t125 -80t83 -121.5t47.5 -150t14.5 -168h-553v-70q15 -158 77 -235.5t177 -77.5q76 0 144 57.5
t103 182.5zM1073 1026q-57 0 -80.5 -47.5t-29.5 -159.5q4 -36 4 -57v-53h202q0 60 -1 98.5t-4.5 78.5t-9.5 63t-17 42t-26.5 27t-37.5 8zM471 225q42 0 82 30.5t68 84.5q-21 85 -21 190v41q-211 -110 -211 -243q0 -52 23 -77.5t59 -25.5z" />
    <glyph glyph-name="ccedilla" unicode="&#xe7;" horiz-adv-x="1001" 
d="M582 -29l-25 -43q40 -3 73 -8.5t71.5 -19.5t64.5 -35t43.5 -57t17.5 -84q0 -67 -36 -116t-94.5 -76t-134.5 -39.5t-153.5 -11t-154.5 14.5l12 60q318 -39 318 141q0 77 -61.5 118.5t-162.5 43.5l89 112q-189 25 -295.5 172.5t-106.5 382.5q0 272 141 444.5t377 172.5
q158 0 262.5 -79.5t104.5 -213.5q0 -83 -42.5 -132.5t-119.5 -49.5q-68 0 -110 39.5t-42 101.5q0 21 8.5 64t8.5 65q0 43 -20.5 64.5t-53.5 21.5q-143 0 -143 -352q0 -136 23.5 -234t80.5 -158.5t146 -60.5q184 0 235 260h60q-20 -237 -119.5 -363t-261.5 -145z" />
    <glyph glyph-name="egrave" unicode="&#xe8;" horiz-adv-x="1026" 
d="M473 1667l158 -395h-94l-349 395h285zM915 451h60q-44 -250 -158.5 -367t-304.5 -117q-210 0 -337.5 146.5t-127.5 416.5q0 161 55.5 299t167 226t258.5 88q94 0 169.5 -29.5t125 -80t82.5 -121.5t47.5 -149.5t14.5 -168.5h-557q8 -193 71 -288t189 -95q75 0 142.5 57.5
t102.5 182.5zM522 1026q-36 0 -58 -17.5t-34 -59.5t-16.5 -96t-5.5 -144h208q0 61 -1 98.5t-4 78.5t-9 63t-16.5 41.5t-26 27.5t-37.5 8z" />
    <glyph glyph-name="eacute" unicode="&#xe9;" horiz-adv-x="1026" 
d="M584 1667h284l-346 -395h-94zM915 451h60q-44 -250 -158.5 -367t-304.5 -117q-210 0 -337.5 146.5t-127.5 416.5q0 161 55.5 299t167 226t258.5 88q94 0 169.5 -29.5t125 -80t82.5 -121.5t47.5 -149.5t14.5 -168.5h-557q8 -193 71 -288t189 -95q75 0 142.5 57.5
t102.5 182.5zM522 1026q-36 0 -58 -17.5t-34 -59.5t-16.5 -96t-5.5 -144h208q0 61 -1 98.5t-4 78.5t-9 63t-16.5 41.5t-26 27.5t-37.5 8z" />
    <glyph glyph-name="ecircumflex" unicode="&#xea;" horiz-adv-x="1026" 
d="M801 1272l-271 264l-270 -264h-96l215 395h301l215 -395h-94zM915 451h60q-44 -250 -158.5 -367t-304.5 -117q-210 0 -337.5 146.5t-127.5 416.5q0 161 55.5 299t167 226t258.5 88q94 0 169.5 -29.5t125 -80t82.5 -121.5t47.5 -149.5t14.5 -168.5h-557q8 -193 71 -288
t189 -95q75 0 142.5 57.5t102.5 182.5zM522 1026q-36 0 -58 -17.5t-34 -59.5t-16.5 -96t-5.5 -144h208q0 61 -1 98.5t-4 78.5t-9 63t-16.5 41.5t-26 27.5t-37.5 8z" />
    <glyph glyph-name="edieresis" unicode="&#xeb;" horiz-adv-x="1026" 
d="M295 1243q-70 0 -121 50.5t-51 119.5q0 72 50.5 122t121.5 50t120.5 -50t49.5 -122q0 -69 -50 -119.5t-120 -50.5zM766 1243q-70 0 -121 50.5t-51 119.5q0 72 50.5 122t121.5 50t120.5 -50t49.5 -122q0 -69 -50 -119.5t-120 -50.5zM915 451h60q-44 -250 -158.5 -367
t-304.5 -117q-210 0 -337.5 146.5t-127.5 416.5q0 161 55.5 299t167 226t258.5 88q94 0 169.5 -29.5t125 -80t82.5 -121.5t47.5 -149.5t14.5 -168.5h-557q8 -193 71 -288t189 -95q75 0 142.5 57.5t102.5 182.5zM522 1026q-36 0 -58 -17.5t-34 -59.5t-16.5 -96t-5.5 -144h208
q0 61 -1 98.5t-4 78.5t-9 63t-16.5 41.5t-26 27.5t-37.5 8z" />
    <glyph glyph-name="igrave" unicode="&#xec;" horiz-adv-x="759" 
d="M313 1667l158 -395h-94l-348 395h284zM47 0v59q100 0 133 38t33 145l-2 522q0 46 -1 69t-5 47.5t-11.5 32.5t-22.5 12.5t-36 -0.5t-53 -18l-25 60l469 188l54 -47v-866q0 -108 32.5 -145.5t130.5 -37.5v-59h-696z" />
    <glyph glyph-name="iacute" unicode="&#xed;" horiz-adv-x="759" 
d="M362 1272h-94l156 395h285zM47 0v59q100 0 133 38t33 145l-2 522q0 46 -1 69t-5 47.5t-11.5 32.5t-22.5 12.5t-36 -0.5t-53 -18l-25 60l469 188l54 -47v-866q0 -108 32.5 -145.5t130.5 -37.5v-59h-696z" />
    <glyph glyph-name="icircumflex" unicode="&#xee;" horiz-adv-x="759" 
d="M643 1272l-270 264l-271 -264h-96l215 395h301l215 -395h-94zM580 1108v-866q0 -108 32.5 -145.5t130.5 -37.5v-59h-696v59q100 0 133 38t33 145l-2 522q0 46 -1 69t-5 47.5t-11.5 32.5t-22.5 12.5t-36 -0.5t-53 -18l-25 60l469 188z" />
    <glyph glyph-name="idieresis" unicode="&#xef;" horiz-adv-x="759" 
d="M137 1243q-70 0 -121 50.5t-51 119.5q0 72 50.5 122t121.5 50t120.5 -50t49.5 -122q0 -69 -50 -119.5t-120 -50.5zM608 1243q-70 0 -121 50.5t-51 119.5q0 72 50.5 122t121.5 50t120.5 -50t49.5 -122q0 -69 -50 -119.5t-120 -50.5zM47 0v59q100 0 133 38t33 145l-2 522
q0 46 -1 69t-5 47.5t-11.5 32.5t-22.5 12.5t-36 -0.5t-53 -18l-25 60l469 188l54 -47v-866q0 -108 32.5 -145.5t130.5 -37.5v-59h-696z" />
    <glyph glyph-name="eth" unicode="&#xf0;" horiz-adv-x="1183" 
d="M946 1552l-223 -129q200 -150 307 -341.5t107 -440.5q0 -166 -46.5 -297t-126.5 -212t-181.5 -123t-217.5 -42q-163 0 -282 77t-177.5 205.5t-58.5 291.5q0 161 55 289.5t157 202t233 73.5q141 0 219 -105q-47 183 -148 328l-219 -127l-29 51l213 125q-100 127 -256 242
v59q241 -110 398 -217l245 144zM596 92q31 0 55 12.5t41 32.5t28.5 55t18.5 71.5t11 91t5 103t1 117.5q0 180 -21 314q-49 102 -135 102q-45 0 -78 -22.5t-51.5 -58t-29.5 -92t-14 -110.5t-3 -128q0 -245 41 -366.5t131 -121.5z" />
    <glyph glyph-name="ntilde" unicode="&#xf1;" horiz-adv-x="1396" 
d="M918 1276q-47 0 -95.5 23.5t-82.5 52t-79.5 52t-87.5 23.5q-33 0 -56.5 -10.5t-38.5 -34t-23.5 -45.5t-18.5 -61h-59q27 159 54 226q58 149 173 149q39 0 77 -15.5t69.5 -38t62 -45t66.5 -38t71 -15.5q63 0 90 37.5t45 114.5h60q-27 -159 -54 -226q-58 -149 -173 -149z
M51 0v59q91 0 120.5 37.5t29.5 145.5v524q0 46 -1 69t-5 47.5t-11.5 32.5t-22.5 12.5t-36 -1.5t-53 -19l-25 60l461 188l61 -47v-219h6q83 123 175.5 189.5t212.5 66.5q119 0 190.5 -83t71.5 -259v-561q0 -108 27.5 -145.5t113.5 -37.5v-59h-625v59q69 0 92 37.5t23 145.5
v538q0 140 -92 140q-99 0 -195 -150v-528q0 -108 23 -145.5t92 -37.5v-59h-633z" />
    <glyph glyph-name="ograve" unicode="&#xf2;" horiz-adv-x="1200" 
d="M520 1667l158 -395h-94l-348 395h284zM600 -33q-260 0 -406.5 154t-146.5 428q0 269 148 431.5t405 162.5q258 0 405.5 -154.5t147.5 -425.5q0 -269 -149 -432.5t-404 -163.5zM639 96q48 0 79.5 45.5t42.5 104.5t11 129q0 110 -12.5 218.5t-36.5 205t-66 156t-96 59.5
q-48 0 -79.5 -45.5t-42.5 -104.5t-11 -129q0 -110 12.5 -218.5t36.5 -205t66 -156t96 -59.5z" />
    <glyph glyph-name="oacute" unicode="&#xf3;" horiz-adv-x="1200" 
d="M569 1272h-94l156 395h284zM600 -33q-260 0 -406.5 154t-146.5 428q0 269 148 431.5t405 162.5q258 0 405.5 -154.5t147.5 -425.5q0 -269 -149 -432.5t-404 -163.5zM639 96q48 0 79.5 45.5t42.5 104.5t11 129q0 110 -12.5 218.5t-36.5 205t-66 156t-96 59.5
q-48 0 -79.5 -45.5t-42.5 -104.5t-11 -129q0 -110 12.5 -218.5t36.5 -205t66 -156t96 -59.5z" />
    <glyph glyph-name="ocircumflex" unicode="&#xf4;" horiz-adv-x="1200" 
d="M850 1272l-270 264l-271 -264h-96l215 395h301l215 -395h-94zM600 1143q258 0 405.5 -154.5t147.5 -425.5q0 -269 -149 -432.5t-404 -163.5q-260 0 -406.5 154t-146.5 428q0 269 148 431.5t405 162.5zM639 96q48 0 79.5 45.5t42.5 104.5t11 129q0 110 -12.5 218.5
t-36.5 205t-66 156t-96 59.5q-48 0 -79.5 -45.5t-42.5 -104.5t-11 -129q0 -110 12.5 -218.5t36.5 -205t66 -156t96 -59.5z" />
    <glyph glyph-name="otilde" unicode="&#xf5;" horiz-adv-x="1200" 
d="M735 1274q-39 0 -77 15.5t-69 38t-61.5 44.5t-66 37.5t-70.5 15.5q-33 0 -56.5 -10.5t-38.5 -34t-23.5 -45.5t-18.5 -61h-59q27 159 54 226q58 149 173 149q39 0 77 -15.5t69.5 -38t62 -45t66.5 -38t71 -15.5q63 0 90 37.5t45 114.5h60q-28 -162 -56 -231
q-59 -144 -172 -144zM600 -33q-260 0 -406.5 154t-146.5 428q0 269 148 431.5t405 162.5q258 0 405.5 -154.5t147.5 -425.5q0 -269 -149 -432.5t-404 -163.5zM639 96q48 0 79.5 45.5t42.5 104.5t11 129q0 110 -12.5 218.5t-36.5 205t-66 156t-96 59.5q-48 0 -79.5 -45.5
t-42.5 -104.5t-11 -129q0 -110 12.5 -218.5t36.5 -205t66 -156t96 -59.5z" />
    <glyph glyph-name="odieresis" unicode="&#xf6;" horiz-adv-x="1200" 
d="M344 1243q-70 0 -121 50.5t-51 119.5q0 72 50.5 122t121.5 50t120.5 -50t49.5 -122q0 -69 -50 -119.5t-120 -50.5zM815 1243q-70 0 -121 50.5t-51 119.5q0 72 50.5 122t121.5 50t120.5 -50t49.5 -122q0 -69 -50 -119.5t-120 -50.5zM600 -33q-260 0 -406.5 154t-146.5 428
q0 269 148 431.5t405 162.5q258 0 405.5 -154.5t147.5 -425.5q0 -269 -149 -432.5t-404 -163.5zM639 96q48 0 79.5 45.5t42.5 104.5t11 129q0 110 -12.5 218.5t-36.5 205t-66 156t-96 59.5q-48 0 -79.5 -45.5t-42.5 -104.5t-11 -129q0 -110 12.5 -218.5t36.5 -205t66 -156
t96 -59.5z" />
    <glyph glyph-name="divide" unicode="&#xf7;" horiz-adv-x="1081" 
d="M541 911q-51 0 -88 38t-37 91q0 51 37 90t88 39t88 -39t37 -90q0 -53 -37 -91t-88 -38zM979 494h-877v241h877v-241zM541 61q-51 0 -88 38t-37 91q0 51 37 90t88 39t88 -39t37 -90q0 -53 -37 -91t-88 -38z" />
    <glyph glyph-name="oslash" unicode="&#xf8;" horiz-adv-x="1202" 
d="M1032 1231l-102 -176q108 -73 166.5 -199t58.5 -293q0 -269 -149 -432.5t-404 -163.5q-153 0 -268 56l-107 -187l-55 37l104 180q-110 73 -168.5 199.5t-58.5 296.5q0 269 148 431.5t405 162.5q155 0 270 -56l105 181zM430 735q0 -197 33 -356l256 440q-59 195 -156 195
q-48 0 -79.5 -45.5t-42.5 -104.5t-11 -129zM639 96q37 0 64.5 25.5t42 68t21.5 88.5t7 97q0 193 -33 352l-254 -442q56 -189 152 -189z" />
    <glyph glyph-name="ugrave" unicode="&#xf9;" horiz-adv-x="1323" 
d="M586 1667l157 -395h-94l-348 395h285zM872 -35l-73 55v199h-6q-30 -48 -50.5 -77t-55 -66.5t-67 -58t-79.5 -35.5t-101 -15q-123 0 -201.5 89t-78.5 247v488q0 59 -4 88t-19 47.5t-43 17.5t-78 -16l-16 57l487 148l39 -35v-762q0 -83 21.5 -119.5t70.5 -36.5
q47 0 90 39.5t91 114.5v457q0 59 -4 88t-19 47.5t-43 17.5t-78 -16l-16 57l489 148l37 -35v-768q0 -44 1 -69t6 -49t14 -33t25 -14t38.5 -0.5t55.5 15.5l20 -61z" />
    <glyph glyph-name="uacute" unicode="&#xfa;" horiz-adv-x="1323" 
d="M637 1272h-94l155 395h285zM872 -35l-73 55v199h-6q-30 -48 -50.5 -77t-55 -66.5t-67 -58t-79.5 -35.5t-101 -15q-123 0 -201.5 89t-78.5 247v488q0 59 -4 88t-19 47.5t-43 17.5t-78 -16l-16 57l487 148l39 -35v-762q0 -83 21.5 -119.5t70.5 -36.5q47 0 90 39.5t91 114.5
v457q0 59 -4 88t-19 47.5t-43 17.5t-78 -16l-16 57l489 148l37 -35v-768q0 -44 1 -69t6 -49t14 -33t25 -14t38.5 -0.5t55.5 15.5l20 -61z" />
    <glyph glyph-name="ucircumflex" unicode="&#xfb;" horiz-adv-x="1323" 
d="M915 1272l-270 264l-270 -264h-96l215 395h301l215 -395h-95zM1305 180l20 -61l-453 -154l-73 55v199h-6q-30 -48 -50.5 -77t-55 -66.5t-67 -58t-79.5 -35.5t-101 -15q-123 0 -201.5 89t-78.5 247v488q0 59 -4 88t-19 47.5t-43 17.5t-78 -16l-16 57l487 148l39 -35v-762
q0 -83 21.5 -119.5t70.5 -36.5q47 0 90 39.5t91 114.5v457q0 59 -4 88t-19 47.5t-43 17.5t-78 -16l-16 57l489 148l37 -35v-768q0 -44 1 -69t6 -49t14 -33t25 -14t38.5 -0.5t55.5 15.5z" />
    <glyph glyph-name="udieresis" unicode="&#xfc;" horiz-adv-x="1323" 
d="M410 1243q-70 0 -121 50.5t-51 119.5q0 72 50.5 122t121.5 50t120.5 -50t49.5 -122q0 -69 -50 -119.5t-120 -50.5zM881 1243q-70 0 -121 50.5t-51 119.5q0 72 50.5 122t121.5 50t120.5 -50t49.5 -122q0 -69 -50 -119.5t-120 -50.5zM872 -35l-73 55v199h-6
q-30 -48 -50.5 -77t-55 -66.5t-67 -58t-79.5 -35.5t-101 -15q-123 0 -201.5 89t-78.5 247v488q0 59 -4 88t-19 47.5t-43 17.5t-78 -16l-16 57l487 148l39 -35v-762q0 -83 21.5 -119.5t70.5 -36.5q47 0 90 39.5t91 114.5v457q0 59 -4 88t-19 47.5t-43 17.5t-78 -16l-16 57
l489 148l37 -35v-768q0 -44 1 -69t6 -49t14 -33t25 -14t38.5 -0.5t55.5 15.5l20 -61z" />
    <glyph glyph-name="yacute" unicode="&#xfd;" horiz-adv-x="1163" 
d="M600 1272h-94l156 395h284zM258 -483q-86 0 -143.5 51.5t-57.5 134.5t47.5 127.5t118.5 44.5q33 0 61.5 -12.5t43.5 -25.5t37 -36q26 -28 45 -38.5t45 -10.5q54 0 67 96q0 53 -78 287l-251 737q-32 97 -73.5 133.5t-107.5 36.5v60h656v-60q-91 0 -106 -35.5t20 -138.5
l125 -428h14l135 430q36 103 24.5 137.5t-98.5 34.5v60h367v-60q-64 0 -103.5 -36t-72.5 -134l-295 -892q-78 -237 -170 -345.5t-250 -117.5z" />
    <glyph glyph-name="thorn" unicode="&#xfe;" horiz-adv-x="1302" 
d="M893 1143q170 0 266 -143t96 -400q0 -155 -37 -277t-98.5 -195t-137 -110.5t-157.5 -37.5q-83 0 -158 34t-116 99h-4v-322q0 -109 32 -145.5t132 -36.5v-60h-697v60q100 0 132 36.5t32 145.5v1483q0 33 -0.5 49t-2 37t-5 29t-10 17t-15.5 8.5t-24 -3t-33 -10.5t-43 -21
l-29 54l484 245l47 -39v-712h8q154 215 338 215zM696 127q146 0 146 420q0 205 -34.5 290t-102.5 85q-88 0 -158 -127v-349q0 -161 43 -240t106 -79z" />
    <glyph glyph-name="ydieresis" unicode="&#xff;" horiz-adv-x="1163" 
d="M375 1243q-70 0 -121 50.5t-51 119.5q0 72 50.5 122t121.5 50t120.5 -50t49.5 -122q0 -69 -50 -119.5t-120 -50.5zM846 1243q-70 0 -121 50.5t-51 119.5q0 72 50.5 122t121.5 50t120.5 -50t49.5 -122q0 -69 -50 -119.5t-120 -50.5zM258 -483q-86 0 -143.5 51.5
t-57.5 134.5t47.5 127.5t118.5 44.5q33 0 61.5 -12.5t43.5 -25.5t37 -36q26 -28 45 -38.5t45 -10.5q54 0 67 96q0 53 -78 287l-251 737q-32 97 -73.5 133.5t-107.5 36.5v60h656v-60q-91 0 -106 -35.5t20 -138.5l125 -428h14l135 430q36 103 24.5 137.5t-98.5 34.5v60h367
v-60q-64 0 -103.5 -36t-72.5 -134l-295 -892q-78 -237 -170 -345.5t-250 -117.5z" />
    <glyph glyph-name="Amacron" unicode="&#x100;" horiz-adv-x="1609" 
d="M455 1972h702v-145h-702v145zM899 1653l512 -1426q36 -98 90.5 -133t159.5 -35v-59h-866v59q97 0 141.5 18t49 56.5t-14.5 97.5l-72 226h-504l-76 -228q-20 -59 -17 -97t45 -55.5t134 -17.5v-59h-530v59q104 0 158 35.5t88 134.5l495 1424h207zM651 1214l-219 -651h434
l-207 651h-8z" />
    <glyph glyph-name="amacron" unicode="&#x101;" horiz-adv-x="1159" 
d="M201 1479h702v-146h-702v146zM1112 258h59q-14 -146 -79 -217.5t-199 -71.5q-119 0 -186 64.5t-80 216.5h-9q-20 -122 -103 -202.5t-214 -80.5q-122 0 -193 71t-71 181q0 51 17.5 97t43 81t71 70t84 59t100 52t102 44t105.5 41q44 17 65 25v119q0 127 -29.5 179t-93.5 52
q-46 0 -73.5 -24.5t-27.5 -63.5q0 -20 13.5 -66t13.5 -75q0 -62 -42.5 -101.5t-119.5 -39.5q-80 0 -124 42.5t-44 114.5q0 131 129 225.5t332 94.5q210 0 320 -103.5t110 -281.5v-555q0 -57 8.5 -78t32.5 -21q71 0 82 152zM471 225q46 0 88.5 37.5t65.5 102.5v239
q-105 -51 -170.5 -122.5t-65.5 -155.5q0 -51 23 -76t59 -25z" />
    <glyph glyph-name="Abreve" unicode="&#x102;" horiz-adv-x="1609" 
d="M807 1776q-67 0 -123 22t-103 67.5t-77.5 122.5t-40.5 181h59q25 -85 103.5 -129.5t181.5 -44.5q102 0 180 44.5t103 129.5h59q-19 -202 -111.5 -297.5t-230.5 -95.5zM899 1653l512 -1426q36 -98 90.5 -133t159.5 -35v-59h-866v59q97 0 141.5 18t49 56.5t-14.5 97.5
l-72 226h-504l-76 -228q-20 -59 -17 -97t45 -55.5t134 -17.5v-59h-530v59q104 0 158 35.5t88 134.5l495 1424h207zM651 1214l-219 -651h434l-207 651h-8z" />
    <glyph glyph-name="abreve" unicode="&#x103;" horiz-adv-x="1159" 
d="M553 1282q-67 0 -123 22t-103 67.5t-77.5 122.5t-40.5 181h59q25 -85 103.5 -129.5t181.5 -44.5q102 0 180 44.5t103 129.5h59q-19 -202 -111.5 -297.5t-230.5 -95.5zM1112 258h59q-14 -146 -79 -217.5t-199 -71.5q-119 0 -186 64.5t-80 216.5h-9q-20 -122 -103 -202.5
t-214 -80.5q-122 0 -193 71t-71 181q0 51 17.5 97t43 81t71 70t84 59t100 52t102 44t105.5 41q44 17 65 25v119q0 127 -29.5 179t-93.5 52q-46 0 -73.5 -24.5t-27.5 -63.5q0 -20 13.5 -66t13.5 -75q0 -62 -42.5 -101.5t-119.5 -39.5q-80 0 -124 42.5t-44 114.5
q0 131 129 225.5t332 94.5q210 0 320 -103.5t110 -281.5v-555q0 -57 8.5 -78t32.5 -21q71 0 82 152zM471 225q46 0 88.5 37.5t65.5 102.5v239q-105 -51 -170.5 -122.5t-65.5 -155.5q0 -51 23 -76t59 -25z" />
    <glyph glyph-name="Aogonek" unicode="&#x104;" horiz-adv-x="1609" 
d="M1661 0h-242q-74 -92 -104.5 -146t-30.5 -118q0 -61 30 -94t89 -33q63 0 178 47l12 -59q-137 -121 -301 -121q-48 0 -91.5 12t-80.5 36t-58.5 65.5t-21.5 95.5t24.5 98t64.5 74t80.5 53t83.5 47t63 43h-561v59q97 0 141.5 18t49 56.5t-14.5 97.5l-72 226h-504l-76 -228
q-20 -59 -17 -97t45 -55.5t134 -17.5v-59h-530v59q104 0 158 35.5t88 134.5l495 1424h207l512 -1426q36 -98 90.5 -133t159.5 -35v-59zM651 1214l-219 -651h434l-207 651h-8z" />
    <glyph glyph-name="aogonek" unicode="&#x105;" horiz-adv-x="1159" 
d="M973 -408q60 0 178 48l12 -60q-137 -121 -301 -121q-48 0 -91.5 12t-80.5 36t-58.5 65.5t-21.5 95.5q0 50 21.5 92t58.5 72t73 52t80.5 45.5t65.5 39.5h-16q-119 0 -186 64.5t-80 216.5h-9q-20 -122 -103 -202.5t-214 -80.5q-122 0 -193 71t-71 181q0 51 17.5 97t43 81
t71 70t84 59t100 52t102 44t105.5 41q44 17 65 25v119q0 127 -29.5 179t-93.5 52q-46 0 -73.5 -24.5t-27.5 -63.5q0 -20 13.5 -66t13.5 -75q0 -62 -42.5 -101.5t-119.5 -39.5q-80 0 -124 42.5t-44 114.5q0 131 129 225.5t332 94.5q210 0 320 -103.5t110 -281.5v-555
q0 -57 8.5 -78t32.5 -21q71 0 82 152h59q-11 -118 -54.5 -186.5t-129.5 -91.5q-72 -88 -102.5 -142.5t-30.5 -118.5q0 -61 30 -94t89 -33zM471 225q46 0 88.5 37.5t65.5 102.5v239q-105 -51 -170.5 -122.5t-65.5 -155.5q0 -51 23 -76t59 -25z" />
    <glyph glyph-name="Cacute" unicode="&#x106;" horiz-adv-x="1472" 
d="M807 1765h-94l155 396h285zM57 788q0 191 57 356t156.5 280.5t240 181t302.5 65.5q219 0 373 -131q20 -19 35 -13t18 32l14 96h60l30 -602h-59q-45 233 -143.5 362t-239.5 129q-115 0 -199 -87.5t-128 -245t-44 -367.5q0 -317 99.5 -496.5t281.5 -179.5q108 0 193.5 67.5
t137 179t73.5 257.5h69q-58 -705 -616 -705q-169 0 -305 63t-224 174t-135 260t-47 324z" />
    <glyph glyph-name="cacute" unicode="&#x107;" horiz-adv-x="1001" 
d="M551 1272h-94l155 395h285zM516 -33q-218 0 -343.5 151t-125.5 408q0 272 141 444.5t377 172.5q158 0 262.5 -79.5t104.5 -213.5q0 -83 -42.5 -132.5t-119.5 -49.5q-68 0 -110 39.5t-42 101.5q0 21 8.5 64t8.5 65q0 43 -20.5 64.5t-53.5 21.5q-143 0 -143 -352
q0 -136 23.5 -234t80.5 -158.5t146 -60.5q184 0 235 260h60q-21 -260 -138.5 -386t-308.5 -126z" />
    <glyph glyph-name="Cdotaccent" unicode="&#x10a;" horiz-adv-x="1472" 
d="M815 1737q-70 0 -121 50.5t-51 119.5q0 72 50.5 122t121.5 50t121.5 -50t50.5 -122q0 -69 -51 -119.5t-121 -50.5zM57 788q0 191 57 356t156.5 280.5t240 181t302.5 65.5q219 0 373 -131q20 -19 35 -13t18 32l14 96h60l30 -602h-59q-45 233 -143.5 362t-239.5 129
q-115 0 -199 -87.5t-128 -245t-44 -367.5q0 -317 99.5 -496.5t281.5 -179.5q108 0 193.5 67.5t137 179t73.5 257.5h69q-58 -705 -616 -705q-169 0 -305 63t-224 174t-135 260t-47 324z" />
    <glyph glyph-name="cdotaccent" unicode="&#x10b;" horiz-adv-x="1001" 
d="M559 1243q-70 0 -121 50.5t-51 119.5q0 72 50.5 122t121.5 50t121.5 -50t50.5 -122q0 -69 -51 -119.5t-121 -50.5zM516 -33q-218 0 -343.5 151t-125.5 408q0 272 141 444.5t377 172.5q158 0 262.5 -79.5t104.5 -213.5q0 -83 -42.5 -132.5t-119.5 -49.5q-68 0 -110 39.5
t-42 101.5q0 21 8.5 64t8.5 65q0 43 -20.5 64.5t-53.5 21.5q-143 0 -143 -352q0 -136 23.5 -234t80.5 -158.5t146 -60.5q184 0 235 260h60q-21 -260 -138.5 -386t-308.5 -126z" />
    <glyph glyph-name="Ccaron" unicode="&#x10c;" horiz-adv-x="1472" 
d="M666 1769l-215 398h94l270 -266l270 266h97l-215 -398h-301zM1315 672h69q-58 -705 -616 -705q-169 0 -305 63t-224 174t-135 260t-47 324q0 191 57 356t156.5 280.5t240 181t302.5 65.5q219 0 373 -131q20 -19 35 -13t18 32l14 96h60l30 -602h-59q-45 233 -143.5 362
t-239.5 129q-115 0 -199 -87.5t-128 -245t-44 -367.5q0 -317 99.5 -496.5t281.5 -179.5q108 0 193.5 67.5t137 179t73.5 257.5z" />
    <glyph glyph-name="ccaron" unicode="&#x10d;" horiz-adv-x="1001" 
d="M408 1276l-215 397h94l270 -266l270 266h97l-215 -397h-301zM903 479h60q-21 -260 -138.5 -386t-308.5 -126q-218 0 -343.5 151t-125.5 408q0 272 141 444.5t377 172.5q158 0 262.5 -79.5t104.5 -213.5q0 -83 -42.5 -132.5t-119.5 -49.5q-68 0 -110 39.5t-42 101.5
q0 21 8.5 64t8.5 65q0 43 -20.5 64.5t-53.5 21.5q-143 0 -143 -352q0 -136 23.5 -234t80.5 -158.5t146 -60.5q184 0 235 260z" />
    <glyph glyph-name="Dcaron" unicode="&#x10e;" horiz-adv-x="1736" 
d="M705 1769l-216 398h95l270 -266l270 266h97l-215 -398h-301zM846 1638q89 0 172 -11t168.5 -38.5t158.5 -69t137.5 -106.5t110 -147.5t71.5 -196t26 -248.5q0 -136 -26.5 -250.5t-72 -197.5t-110.5 -148t-137.5 -107t-158 -69t-167 -38t-168.5 -11h-815v59
q130 0 178.5 42.5t48.5 140.5v1155q0 98 -48.5 140t-178.5 42v59h811zM813 115q196 0 308 182.5t112 499.5q0 175 -35.5 316.5t-96 229.5t-137 134.5t-161.5 46.5q-48 0 -74 -13q-27 -15 -27 -49v-1261q0 -45 26.5 -65.5t84.5 -20.5z" />
    <glyph glyph-name="dcaron" unicode="&#x10f;" horiz-adv-x="1271" 
d="M1106 1659v-1329q0 -44 1 -68.5t6 -48t13.5 -32.5t24 -14t37.5 -0.5t55 15.5l23 -59l-455 -158l-74 55v177h-6q-48 -106 -130 -168t-191 -62q-159 0 -261 141t-102 400q0 155 36 278.5t97.5 200t140 116.5t166.5 40q79 0 146 -29.5t104 -79.5v250v39.5t-1 32.5t-2.5 27.5
t-4.5 20t-7.5 15t-11.5 7t-15.5 2.5t-20.5 -5t-26.5 -9.5t-33.5 -16.5l-26 51l479 250zM1208 1255v422h265l-170 -422h-95zM588 190q84 0 149 125v324q0 63 -8.5 121.5t-25 109t-46 81t-67.5 30.5q-72 0 -113 -100t-41 -308q0 -383 152 -383z" />
    <glyph glyph-name="Dcroat" unicode="&#x110;" horiz-adv-x="1736" 
d="M846 1638q89 0 172 -11t168.5 -38.5t158.5 -69t137.5 -106.5t110 -147.5t71.5 -196t26 -248.5q0 -136 -26.5 -250.5t-72 -197.5t-110.5 -148t-137.5 -107t-158 -69t-167 -38t-168.5 -11h-815v59q130 0 178.5 42.5t48.5 140.5v557h-180v78h180v520q0 98 -48.5 140
t-178.5 42v59h811zM813 115q196 0 308 182.5t112 499.5q0 175 -35.5 316.5t-96 229.5t-137 134.5t-161.5 46.5q-48 0 -74 -13q-27 -15 -27 -49v-585h285v-78h-285v-598q0 -45 26.5 -65.5t84.5 -20.5z" />
    <glyph glyph-name="dcroat" unicode="&#x111;" horiz-adv-x="1320" 
d="M1288 1280v-59h-182v-891q0 -44 1 -68.5t6 -48t13.5 -32.5t24 -14t37.5 -0.5t55 15.5l23 -59l-455 -158l-74 55v177h-6q-48 -106 -130 -168t-191 -62q-159 0 -261 141t-102 400q0 155 36 278.5t97.5 200t140 116.5t166.5 40q79 0 146 -29.5t104 -79.5v187h-372v59h372v4
v39.5t-1 32.5t-2.5 27.5t-4.5 20t-7.5 15t-11.5 7t-15.5 2.5t-20.5 -5t-26.5 -9.5t-33.5 -16.5l-26 51l479 250l39 -39v-379h182zM588 190q84 0 149 125v324q0 63 -8.5 121.5t-25 109t-46 81t-67.5 30.5q-72 0 -113 -100t-41 -308q0 -383 152 -383z" />
    <glyph glyph-name="Emacron" unicode="&#x112;" horiz-adv-x="1415" 
d="M379 1827v145h702v-145h-702zM1253 1638l11 -104l41 -360l-64 -7q-15 129 -46.5 203.5t-78 104.5t-117.5 30h-180q-117 0 -117 -116v-504h142q90 0 129 54t39 198h53v-600h-53q0 144 -39 197.5t-129 53.5h-142v-538q0 -72 18.5 -94.5t78.5 -22.5h196q116 0 188.5 90.5
t125.5 313.5l67 -17l-98 -422l-23 -98h-1220v59q130 0 178.5 42.5t48.5 140.5v1155q0 98 -48.5 140t-178.5 42v59h1218z" />
    <glyph glyph-name="emacron" unicode="&#x113;" horiz-adv-x="1026" 
d="M178 1479h703v-146h-703v146zM915 451h60q-44 -250 -158.5 -367t-304.5 -117q-210 0 -337.5 146.5t-127.5 416.5q0 161 55.5 299t167 226t258.5 88q94 0 169.5 -29.5t125 -80t82.5 -121.5t47.5 -149.5t14.5 -168.5h-557q8 -193 71 -288t189 -95q75 0 142.5 57.5
t102.5 182.5zM522 1026q-36 0 -58 -17.5t-34 -59.5t-16.5 -96t-5.5 -144h208q0 61 -1 98.5t-4 78.5t-9 63t-16.5 41.5t-26 27.5t-37.5 8z" />
    <glyph glyph-name="Edotaccent" unicode="&#x116;" horiz-adv-x="1415" 
d="M731 1737q-70 0 -121 50.5t-51 119.5q0 72 50.5 122t121.5 50t121.5 -50t50.5 -122q0 -69 -51 -119.5t-121 -50.5zM1253 1638l11 -104l41 -360l-64 -7q-15 129 -46.5 203.5t-78 104.5t-117.5 30h-180q-117 0 -117 -116v-504h142q90 0 129 54t39 198h53v-600h-53
q0 144 -39 197.5t-129 53.5h-142v-538q0 -72 18.5 -94.5t78.5 -22.5h196q116 0 188.5 90.5t125.5 313.5l67 -17l-98 -422l-23 -98h-1220v59q130 0 178.5 42.5t48.5 140.5v1155q0 98 -48.5 140t-178.5 42v59h1218z" />
    <glyph glyph-name="edotaccent" unicode="&#x117;" horiz-adv-x="1026" 
d="M530 1243q-70 0 -121 50.5t-51 119.5q0 72 50.5 122t121.5 50t121.5 -50t50.5 -122q0 -69 -51 -119.5t-121 -50.5zM915 451h60q-44 -250 -158.5 -367t-304.5 -117q-210 0 -337.5 146.5t-127.5 416.5q0 161 55.5 299t167 226t258.5 88q94 0 169.5 -29.5t125 -80
t82.5 -121.5t47.5 -149.5t14.5 -168.5h-557q8 -193 71 -288t189 -95q75 0 142.5 57.5t102.5 182.5zM522 1026q-36 0 -58 -17.5t-34 -59.5t-16.5 -96t-5.5 -144h208q0 61 -1 98.5t-4 78.5t-9 63t-16.5 41.5t-26 27.5t-37.5 8z" />
    <glyph glyph-name="Eogonek" unicode="&#x118;" horiz-adv-x="1415" 
d="M1419 -344l13 -59q-137 -121 -302 -121q-66 0 -120.5 20t-92.5 69t-38 120q0 54 24.5 98t64 74t80 53t83.5 47t63 43h-1159v59q130 0 178.5 42.5t48.5 140.5v1155q0 98 -48.5 140t-178.5 42v59h1218l11 -104l41 -360l-64 -7q-15 129 -46.5 203.5t-78 104.5t-117.5 30
h-180q-117 0 -117 -116v-504h142q90 0 129 54t39 198h53v-600h-53q0 144 -39 197.5t-129 53.5h-142v-538q0 -72 18.5 -94.5t78.5 -22.5h196q116 0 188.5 90.5t125.5 313.5l67 -17l-98 -422l-23 -98h2q-74 -92 -104.5 -146t-30.5 -118q0 -61 30 -94t89 -33q63 0 178 47z" />
    <glyph glyph-name="eogonek" unicode="&#x119;" horiz-adv-x="1026" 
d="M668 -393q63 0 178 47l12 -60q-136 -120 -301 -120q-48 0 -91.5 12t-80.5 36t-58.5 65.5t-21.5 95.5q0 48 18.5 87.5t53.5 69.5t66 50t77.5 44.5t65.5 36.5q-46 -4 -74 -4q-210 0 -337.5 146.5t-127.5 416.5q0 161 55.5 299t167 226t258.5 88q94 0 169.5 -29.5t125 -80
t82.5 -121.5t47.5 -149.5t14.5 -168.5h-557q8 -193 71 -288t189 -95q75 0 142.5 57.5t102.5 182.5h60q-65 -370 -293 -455q-52 -66 -73.5 -96.5t-40.5 -75.5t-19 -90q0 -61 30 -94t89 -33zM522 1026q-36 0 -58 -17.5t-34 -59.5t-16.5 -96t-5.5 -144h208q0 61 -1 98.5
t-4 78.5t-9 63t-16.5 41.5t-26 27.5t-37.5 8z" />
    <glyph glyph-name="Ecaron" unicode="&#x11a;" horiz-adv-x="1415" 
d="M580 1769l-215 398h94l270 -266l270 266h97l-215 -398h-301zM1309 537l67 -17l-98 -422l-23 -98h-1220v59q130 0 178.5 42.5t48.5 140.5v1155q0 98 -48.5 140t-178.5 42v59h1218l11 -104l41 -360l-64 -7q-15 129 -46.5 203.5t-78 104.5t-117.5 30h-180q-117 0 -117 -116
v-504h142q90 0 129 54t39 198h53v-600h-53q0 144 -39 197.5t-129 53.5h-142v-538q0 -72 18.5 -94.5t78.5 -22.5h196q116 0 188.5 90.5t125.5 313.5z" />
    <glyph glyph-name="ecaron" unicode="&#x11b;" horiz-adv-x="1026" 
d="M381 1276l-215 397h94l270 -266l271 266h96l-215 -397h-301zM915 451h60q-44 -250 -158.5 -367t-304.5 -117q-210 0 -337.5 146.5t-127.5 416.5q0 161 55.5 299t167 226t258.5 88q94 0 169.5 -29.5t125 -80t82.5 -121.5t47.5 -149.5t14.5 -168.5h-557q8 -193 71 -288
t189 -95q75 0 142.5 57.5t102.5 182.5zM522 1026q-36 0 -58 -17.5t-34 -59.5t-16.5 -96t-5.5 -144h208q0 61 -1 98.5t-4 78.5t-9 63t-16.5 41.5t-26 27.5t-37.5 8z" />
    <glyph glyph-name="Gbreve" unicode="&#x11e;" horiz-adv-x="1630" 
d="M1163 2169h60q-19 -202 -111.5 -297.5t-230.5 -95.5q-67 0 -123 22t-103 67.5t-77.5 122.5t-40.5 181h59q25 -85 103.5 -129.5t181.5 -44.5q102 0 179.5 44.5t102.5 129.5zM834 -33q-154 0 -281.5 41t-218.5 115t-154 177.5t-93 228t-30 266.5q0 195 57 359t158.5 277.5
t245 176.5t313.5 63q242 0 418 -143q19 -18 35 -12.5t19 30.5l18 109h57l25 -602h-60q-49 238 -157.5 364.5t-253.5 126.5q-181 0 -291.5 -187.5t-110.5 -504.5q0 -218 40.5 -382.5t123.5 -260.5t199 -96q66 0 117 25t80 67v418q0 98 -62.5 140t-228.5 42v59h821v-59
q-74 0 -97.5 -37t-23.5 -145v-371q-47 -56 -109 -104.5t-144 -90.5t-188.5 -66t-223.5 -24z" />
    <glyph glyph-name="gbreve" unicode="&#x11f;" horiz-adv-x="1196" 
d="M555 1288q-67 0 -123 22t-103 67.5t-77.5 122.5t-40.5 181h59q25 -85 103.5 -129.5t181.5 -44.5q102 0 180 44.5t103 129.5h59q-19 -202 -111.5 -297.5t-230.5 -95.5zM573 236h289q336 0 336 -246q0 -135 -90.5 -243.5t-251 -169t-360.5 -60.5q-135 0 -245 28t-177.5 85
t-67.5 134q0 146 234 207q-69 32 -106.5 80t-37.5 105q0 162 209 254q-103 50 -159 134.5t-56 194.5q0 173 132.5 288.5t357.5 115.5q145 0 256 -51q62 40 133.5 58.5t122.5 18.5q112 0 112 -90q0 -42 -23.5 -73t-62.5 -31q-38 0 -81 23.5t-81 44.5t-67 18
q160 -107 160 -307q0 -180 -129 -289t-349 -109q-91 0 -178 23q-51 -28 -51 -70q0 -26 15 -40.5t67 -23.5t149 -9zM541 1036q-90 0 -90 -180q0 -69 8.5 -136t25.5 -125t46.5 -94t66.5 -36q90 0 90 176q0 70 -8.5 137.5t-25.5 126.5t-46.5 95t-66.5 36zM588 -307
q120 0 220.5 28t153 67.5t52.5 78.5q0 31 -35.5 41t-130.5 10h-324q-94 0 -190 21q-33 -50 -33 -95q0 -22 7 -41.5t26.5 -40t50.5 -35.5t83 -24.5t120 -9.5z" />
    <glyph glyph-name="Gdotaccent" unicode="&#x120;" horiz-adv-x="1630" 
d="M879 1737q-70 0 -121 50.5t-51 119.5q0 72 50.5 122t121.5 50t121.5 -50t50.5 -122q0 -69 -51 -119.5t-121 -50.5zM834 -33q-154 0 -281.5 41t-218.5 115t-154 177.5t-93 228t-30 266.5q0 195 57 359t158.5 277.5t245 176.5t313.5 63q242 0 418 -143q19 -18 35 -12.5
t19 30.5l18 109h57l25 -602h-60q-49 238 -157.5 364.5t-253.5 126.5q-181 0 -291.5 -187.5t-110.5 -504.5q0 -218 40.5 -382.5t123.5 -260.5t199 -96q66 0 117 25t80 67v418q0 98 -62.5 140t-228.5 42v59h821v-59q-74 0 -97.5 -37t-23.5 -145v-371q-47 -56 -109 -104.5
t-144 -90.5t-188.5 -66t-223.5 -24z" />
    <glyph glyph-name="gdotaccent" unicode="&#x121;" horiz-adv-x="1196" 
d="M553 1249q-70 0 -121 50.5t-51 119.5q0 72 50.5 122t121.5 50t121.5 -50t50.5 -122q0 -69 -51 -119.5t-121 -50.5zM573 236h289q336 0 336 -246q0 -135 -90.5 -243.5t-251 -169t-360.5 -60.5q-135 0 -245 28t-177.5 85t-67.5 134q0 146 234 207q-69 32 -106.5 80
t-37.5 105q0 162 209 254q-103 50 -159 134.5t-56 194.5q0 173 132.5 288.5t357.5 115.5q145 0 256 -51q62 40 133.5 58.5t122.5 18.5q112 0 112 -90q0 -42 -23.5 -73t-62.5 -31q-38 0 -81 23.5t-81 44.5t-67 18q160 -107 160 -307q0 -180 -129 -289t-349 -109
q-91 0 -178 23q-51 -28 -51 -70q0 -26 15 -40.5t67 -23.5t149 -9zM541 1036q-90 0 -90 -180q0 -69 8.5 -136t25.5 -125t46.5 -94t66.5 -36q90 0 90 176q0 70 -8.5 137.5t-25.5 126.5t-46.5 95t-66.5 36zM588 -307q120 0 220.5 28t153 67.5t52.5 78.5q0 31 -35.5 41
t-130.5 10h-324q-94 0 -190 21q-33 -50 -33 -95q0 -22 7 -41.5t26.5 -40t50.5 -35.5t83 -24.5t120 -9.5z" />
    <glyph glyph-name="uni0122" unicode="&#x122;" horiz-adv-x="1630" 
d="M834 -33q-154 0 -281.5 41t-218.5 115t-154 177.5t-93 228t-30 266.5q0 195 57 359t158.5 277.5t245 176.5t313.5 63q242 0 418 -143q19 -18 35 -12.5t19 30.5l18 109h57l25 -602h-60q-49 238 -157.5 364.5t-253.5 126.5q-181 0 -291.5 -187.5t-110.5 -504.5
q0 -218 40.5 -382.5t123.5 -260.5t199 -96q66 0 117 25t80 67v418q0 98 -62.5 140t-228.5 42v59h821v-59q-74 0 -97.5 -37t-23.5 -145v-371q-47 -56 -109 -104.5t-144 -90.5t-188.5 -66t-223.5 -24zM811 -356q-37 0 -64.5 29.5t-27.5 82.5q0 63 40 98t111 35t114.5 -45
t43.5 -118q0 -97 -63.5 -168.5t-178.5 -100.5v60q53 15 92.5 49.5t39.5 66.5q0 13 -7 22t-18 9q-12 0 -36 -10t-46 -10z" />
    <glyph glyph-name="uni0123" unicode="&#x123;" horiz-adv-x="1196" 
d="M573 1278q-73 0 -116 45.5t-43 118.5q0 97 63 168t178 100v-59q-53 -15 -92 -50t-39 -67q0 -13 7 -22t18 -9t35.5 10.5t48.5 10.5q37 0 63.5 -29.5t26.5 -83.5q0 -63 -39.5 -98t-110.5 -35zM573 236h289q336 0 336 -246q0 -135 -90.5 -243.5t-251 -169t-360.5 -60.5
q-135 0 -245 28t-177.5 85t-67.5 134q0 146 234 207q-69 32 -106.5 80t-37.5 105q0 162 209 254q-103 50 -159 134.5t-56 194.5q0 173 132.5 288.5t357.5 115.5q145 0 256 -51q62 40 133.5 58.5t122.5 18.5q112 0 112 -90q0 -42 -23.5 -73t-62.5 -31q-38 0 -81 23.5
t-81 44.5t-67 18q160 -107 160 -307q0 -180 -129 -289t-349 -109q-91 0 -178 23q-51 -28 -51 -70q0 -26 15 -40.5t67 -23.5t149 -9zM541 1036q-90 0 -90 -180q0 -69 8.5 -136t25.5 -125t46.5 -94t66.5 -36q90 0 90 176q0 70 -8.5 137.5t-25.5 126.5t-46.5 95t-66.5 36z
M588 -307q120 0 220.5 28t153 67.5t52.5 78.5q0 31 -35.5 41t-130.5 10h-324q-94 0 -190 21q-33 -50 -33 -95q0 -22 7 -41.5t26.5 -40t50.5 -35.5t83 -24.5t120 -9.5z" />
    <glyph glyph-name="Hbar" unicode="&#x126;" horiz-adv-x="1918" 
d="M1882 1288v-78h-235v-968q0 -98 49 -140.5t180 -42.5v-59h-866v59q113 0 155.5 42.5t42.5 140.5v551h-497v-551q0 -98 42.5 -140.5t155.5 -42.5v-59h-866v59q131 0 180 42.5t49 140.5v968h-235v78h235v109q0 97 -49 139.5t-180 42.5v59h866v-59q-113 0 -155.5 -42
t-42.5 -140v-109h497v109q0 98 -42.5 140t-155.5 42v59h866v-59q-131 0 -180 -42.5t-49 -139.5v-109h235zM711 913h497v297h-497v-297z" />
    <glyph glyph-name="hbar" unicode="&#x127;" horiz-adv-x="1392" 
d="M1210 803v-561q0 -108 28 -145.5t116 -37.5v-59h-625v59q68 0 90.5 38t22.5 145v544q0 134 -94 134q-97 0 -193 -150v-528q0 -108 23 -145.5t92 -37.5v-59h-633v59q91 0 121 38t30 145l-2 968h-143v62h143v6v48.5t-2 36.5t-5 29t-9.5 16.5t-15.5 8.5t-23.5 -3.5
t-32.5 -11t-43 -22.5l-26 54l487 264l39 -41v-385h410v-62h-410v-321h6q84 123 175.5 189.5t211.5 66.5q119 0 190.5 -83t71.5 -259z" />
    <glyph glyph-name="Imacron" unicode="&#x12a;" horiz-adv-x="964" 
d="M131 1827v145h703v-145h-703zM262 242v1155q0 98 -48.5 140t-178.5 42v59h897v-59q-132 0 -181 -42t-49 -140v-1155q0 -98 49 -140.5t181 -42.5v-59h-897v59q130 0 178.5 42.5t48.5 140.5z" />
    <glyph glyph-name="imacron" unicode="&#x12b;" horiz-adv-x="759" 
d="M20 1333v146h703v-146h-703zM47 0v59q100 0 133 38t33 145l-2 522q0 46 -1 69t-5 47.5t-11.5 32.5t-22.5 12.5t-36 -0.5t-53 -18l-25 60l469 188l54 -47v-866q0 -108 32.5 -145.5t130.5 -37.5v-59h-696z" />
    <glyph glyph-name="Iogonek" unicode="&#x12e;" horiz-adv-x="964" 
d="M932 1638v-59q-132 0 -181 -42t-49 -140v-1155q0 -98 49 -140.5t181 -42.5v-59h-254q-74 -92 -104.5 -146t-30.5 -118q0 -61 30 -94t89 -33q63 0 178 47l12 -59q-137 -121 -301 -121q-48 0 -91.5 12t-80.5 36t-58.5 65.5t-21.5 95.5t24.5 98t64 74t80 53t83.5 47t63 43
h-579v59q130 0 178.5 42.5t48.5 140.5v1155q0 98 -48.5 140t-178.5 42v59h897z" />
    <glyph glyph-name="iogonek" unicode="&#x12f;" horiz-adv-x="759" 
d="M371 1243q-70 0 -121 50.5t-51 119.5q0 72 50.5 122t121.5 50t121.5 -50t50.5 -122q0 -69 -51 -119.5t-121 -50.5zM743 0h-215q-74 -92 -104.5 -146t-30.5 -118q0 -61 30 -94t89 -33q63 0 178 47l12 -59q-137 -121 -301 -121q-66 0 -120.5 20t-92.5 69t-38 120
q0 54 24.5 98t64 74t80 53t83.5 47t63 43h-418v59q100 0 133 38t33 145l-2 522q0 46 -1 69t-5 47.5t-11.5 32.5t-22.5 12.5t-36 -0.5t-53 -18l-25 60l469 188l54 -47v-866q0 -108 32.5 -145.5t130.5 -37.5v-59z" />
    <glyph glyph-name="Idotaccent" unicode="&#x130;" horiz-adv-x="964" 
d="M483 1737q-70 0 -121 50.5t-51 119.5q0 72 50.5 122t121.5 50t121.5 -50t50.5 -122q0 -69 -51 -119.5t-121 -50.5zM262 242v1155q0 98 -48.5 140t-178.5 42v59h897v-59q-132 0 -181 -42t-49 -140v-1155q0 -98 49 -140.5t181 -42.5v-59h-897v59q130 0 178.5 42.5
t48.5 140.5z" />
    <glyph glyph-name="dotlessi" unicode="&#x131;" horiz-adv-x="759" 
d="M47 0v59q100 0 133 38t33 145l-2 522q0 46 -1 69t-5 47.5t-11.5 32.5t-22.5 12.5t-36 -0.5t-53 -18l-25 60l469 188l54 -47v-866q0 -108 32.5 -145.5t130.5 -37.5v-59h-696z" />
    <glyph glyph-name="uni0136" unicode="&#x136;" horiz-adv-x="1871" 
d="M262 242v1155q0 98 -48.5 140t-178.5 42v59h897v-59q-132 0 -181 -42t-49 -140v-1155q0 -98 49 -140.5t181 -42.5v-59h-897v59q130 0 178.5 42.5t48.5 140.5zM1114 1106l500 -877q53 -95 106.5 -130.5t116.5 -35.5v-63h-807v59q123 0 137.5 30.5t-43.5 127.5l-370 664
l403 485q64 78 64 129q0 84 -160 84v59h708v-59q-114 0 -188 -23.5t-141 -95.5zM907 -356q-37 0 -64.5 29.5t-27.5 82.5q0 63 40.5 98t111.5 35t114 -45t43 -118q0 -97 -63 -168.5t-178 -100.5v60q53 15 92 49.5t39 66.5q0 13 -7 22t-18 9q-12 0 -36 -10t-46 -10z" />
    <glyph glyph-name="uni0137" unicode="&#x137;" horiz-adv-x="1435" 
d="M561 1659v-1417q0 -108 23.5 -145.5t97.5 -37.5v-59h-653v59q98 0 131 38t33 145v1050q0 42 -1 62.5t-5 42.5t-12 27.5t-23.5 7.5t-38 -7t-56.5 -26l-26 51l483 248zM922 774l309 -561q48 -89 101.5 -121.5t129.5 -32.5v-59h-698v59q21 0 37 0.5t27.5 3.5t20 5t12.5 9.5
t6.5 11.5t-0.5 16t-5.5 19t-11 25t-14.5 29t-19 35l-215 395l234 275q73 86 55.5 122.5t-133.5 36.5v60h620v-60q-102 0 -173 -22t-138 -92zM711 -356q-37 0 -65 29.5t-28 82.5q0 63 40.5 98t111.5 35t114.5 -45t43.5 -118q0 -97 -63.5 -168.5t-178.5 -100.5v60
q53 15 92 49.5t39 66.5q0 31 -24 31q-12 0 -36 -10t-46 -10z" />
    <glyph glyph-name="Lacute" unicode="&#x139;" horiz-adv-x="1406" 
d="M555 1765h-96l157 396h285zM932 1638v-59q-132 0 -181 -42t-49 -140v-1102q0 -103 32.5 -132.5t135.5 -29.5h129q116 0 188.5 92.5t125.5 323.5l69 -17l-100 -434l-20 -98h-1227v59q130 0 178.5 42.5t48.5 140.5v1155q0 98 -48.5 140t-178.5 42v59h897z" />
    <glyph glyph-name="lacute" unicode="&#x13a;" horiz-adv-x="741" 
d="M342 1753h-94l155 395h285zM561 1659v-1417q0 -108 32.5 -145.5t131.5 -37.5v-59h-696v59q98 0 131 38t33 145v1050q0 42 -1 62.5t-5 42.5t-12 27.5t-23.5 7.5t-38 -7t-56.5 -26l-26 51l483 248z" />
    <glyph glyph-name="uni013B" unicode="&#x13b;" horiz-adv-x="1406" 
d="M932 1638v-59q-132 0 -181 -42t-49 -140v-1102q0 -103 32.5 -132.5t135.5 -29.5h129q116 0 188.5 92.5t125.5 323.5l69 -17l-100 -434l-20 -98h-1227v59q130 0 178.5 42.5t48.5 140.5v1155q0 98 -48.5 140t-178.5 42v59h897zM641 -356q-37 0 -64.5 29.5t-27.5 82.5
q0 63 40 98t111 35t114.5 -45t43.5 -118q0 -97 -63.5 -168.5t-178.5 -100.5v60q53 15 92.5 49.5t39.5 66.5q0 13 -7 22t-18 9q-12 0 -36 -10t-46 -10z" />
    <glyph glyph-name="uni013C" unicode="&#x13c;" horiz-adv-x="741" 
d="M561 1659v-1417q0 -108 32.5 -145.5t131.5 -37.5v-59h-696v59q98 0 131 38t33 145v1050q0 42 -1 62.5t-5 42.5t-12 27.5t-23.5 7.5t-38 -7t-56.5 -26l-26 51l483 248zM299 -356q-37 0 -64.5 29.5t-27.5 82.5q0 63 40 98t111 35t114.5 -45t43.5 -118q0 -97 -63.5 -168.5
t-178.5 -100.5v60q53 15 92.5 49.5t39.5 66.5q0 13 -7 22t-18 9q-12 0 -36 -10t-46 -10z" />
    <glyph glyph-name="Lcaron" unicode="&#x13d;" horiz-adv-x="1406" 
d="M1184 1257h-94v422h264zM932 1638v-59q-132 0 -181 -42t-49 -140v-1102q0 -103 32.5 -132.5t135.5 -29.5h129q116 0 188.5 92.5t125.5 323.5l69 -17l-100 -434l-20 -98h-1227v59q130 0 178.5 42.5t48.5 140.5v1155q0 98 -48.5 140t-178.5 42v59h897z" />
    <glyph glyph-name="lcaron" unicode="&#x13e;" horiz-adv-x="741" 
d="M561 1659v-1417q0 -108 32.5 -145.5t131.5 -37.5v-59h-696v59q98 0 131 38t33 145v1050q0 42 -1 62.5t-5 42.5t-12 27.5t-23.5 7.5t-38 -7t-56.5 -26l-26 51l483 248zM756 1255h-94v422h264z" />
    <glyph glyph-name="Lslash" unicode="&#x141;" horiz-adv-x="1406" 
d="M1313 549l69 -17l-100 -434l-20 -98h-1227v59q130 0 178.5 42.5t48.5 140.5v387l-184 -84l-35 67l219 101v684q0 98 -48.5 140t-178.5 42v59h897v-59q-132 0 -181 -42t-49 -140v-479l504 231l33 -70l-537 -248v-536q0 -103 32.5 -132.5t135.5 -29.5h129q116 0 188.5 92.5
t125.5 323.5z" />
    <glyph glyph-name="lslash" unicode="&#x142;" horiz-adv-x="763" 
d="M561 920v-678q0 -108 32.5 -145.5t131.5 -37.5v-59h-696v59q98 0 131 38t33 145v463l-164 -95l-31 60l195 112v510q0 42 -1 62.5t-5 42.5t-12 27.5t-23.5 7.5t-38 -7t-56.5 -26l-26 51l483 248l47 -39v-664l158 90l29 -57z" />
    <glyph glyph-name="Nacute" unicode="&#x143;" horiz-adv-x="1652" 
d="M901 2161h285l-346 -396h-95zM1634 1638v-59q-131 0 -180 -42.5t-49 -139.5v-1401h-209l-817 1259v-1013q0 -98 52.5 -140.5t195.5 -42.5v-59h-592v59q130 0 178.5 42.5t48.5 140.5v1194q-54 83 -105.5 113t-109.5 30v59h602l641 -993v752q0 97 -49 139.5t-180 42.5v59
h573z" />
    <glyph glyph-name="nacute" unicode="&#x144;" horiz-adv-x="1396" 
d="M754 1274h-95l156 395h285zM51 0v59q91 0 120.5 37.5t29.5 145.5v524q0 46 -1 69t-5 47.5t-11.5 32.5t-22.5 12.5t-36 -1.5t-53 -19l-25 60l461 188l61 -47v-219h6q83 123 175.5 189.5t212.5 66.5q119 0 190.5 -83t71.5 -259v-561q0 -108 27.5 -145.5t113.5 -37.5v-59
h-625v59q69 0 92 37.5t23 145.5v538q0 140 -92 140q-99 0 -195 -150v-528q0 -108 23 -145.5t92 -37.5v-59h-633z" />
    <glyph glyph-name="uni0145" unicode="&#x145;" horiz-adv-x="1652" 
d="M1634 1638v-59q-131 0 -180 -42.5t-49 -139.5v-1401h-209l-817 1259v-1013q0 -98 52.5 -140.5t195.5 -42.5v-59h-592v59q130 0 178.5 42.5t48.5 140.5v1194q-54 83 -105.5 113t-109.5 30v59h602l641 -993v752q0 97 -49 139.5t-180 42.5v59h573zM848 -111q71 0 114.5 -45
t43.5 -118q0 -97 -63.5 -168.5t-178.5 -100.5v60q53 15 92 49.5t39 66.5q0 13 -7 22t-18 9q-12 0 -36 -10t-46 -10q-37 0 -64.5 29.5t-27.5 82.5q0 63 40.5 98t111.5 35z" />
    <glyph glyph-name="uni0146" unicode="&#x146;" horiz-adv-x="1396" 
d="M51 0v59q91 0 120.5 37.5t29.5 145.5v524q0 46 -1 69t-5 47.5t-11.5 32.5t-22.5 12.5t-36 -1.5t-53 -19l-25 60l461 188l61 -47v-219h6q83 123 175.5 189.5t212.5 66.5q119 0 190.5 -83t71.5 -259v-561q0 -108 27.5 -145.5t113.5 -37.5v-59h-625v59q69 0 92 37.5
t23 145.5v538q0 140 -92 140q-99 0 -195 -150v-528q0 -108 23 -145.5t92 -37.5v-59h-633zM637 -356q-37 0 -64.5 29.5t-27.5 82.5q0 63 40 98t111 35t114.5 -45t43.5 -118q0 -97 -63.5 -168.5t-178.5 -100.5v60q53 15 92 49.5t39 66.5q0 31 -24 31q-12 0 -36 -10t-46 -10z
" />
    <glyph glyph-name="Ncaron" unicode="&#x147;" horiz-adv-x="1652" 
d="M698 1769l-215 398h95l270 -266l270 266h96l-215 -398h-301zM1634 1638v-59q-131 0 -180 -42.5t-49 -139.5v-1401h-209l-817 1259v-1013q0 -98 52.5 -140.5t195.5 -42.5v-59h-592v59q130 0 178.5 42.5t48.5 140.5v1194q-54 83 -105.5 113t-109.5 30v59h602l641 -993v752
q0 97 -49 139.5t-180 42.5v59h573z" />
    <glyph glyph-name="ncaron" unicode="&#x148;" horiz-adv-x="1396" 
d="M610 1278l-215 397h94l271 -266l270 266h96l-215 -397h-301zM1225 803v-561q0 -108 27.5 -145.5t113.5 -37.5v-59h-625v59q69 0 92 37.5t23 145.5v538q0 140 -92 140q-99 0 -195 -150v-528q0 -108 23 -145.5t92 -37.5v-59h-633v59q91 0 120.5 37.5t29.5 145.5v524
q0 46 -1 69t-5 47.5t-11.5 32.5t-22.5 12.5t-36 -1.5t-53 -19l-25 60l461 188l61 -47v-219h6q83 123 175.5 189.5t212.5 66.5q119 0 190.5 -83t71.5 -259z" />
    <glyph glyph-name="Eng" unicode="&#x14a;" horiz-adv-x="1652" 
d="M1057 -481q-157 0 -248.5 63.5t-91.5 169.5q0 74 48.5 112t119.5 38q72 0 121 -35.5t49 -106.5q0 -63 20.5 -95t73.5 -32q141 0 141 320v47l-102 8l-809 1249v-1015q0 -98 52.5 -140.5t195.5 -42.5v-59h-592v59q130 0 178.5 42.5t48.5 140.5v1194q-54 83 -105.5 113
t-109.5 30v59h602l641 -991v750q0 97 -49 139.5t-180 42.5v59h573v-59q-131 0 -180 -42.5t-49 -139.5v-1442q0 -214 -80.5 -325t-267.5 -111z" />
    <glyph glyph-name="eng" unicode="&#x14b;" horiz-adv-x="1347" 
d="M971 1145q117 0 188.5 -83t71.5 -259v-840q0 -99 -24.5 -177t-64 -127.5t-95 -82t-113 -46t-121.5 -13.5q-170 0 -278.5 57.5t-108.5 157.5q0 64 42.5 99.5t115.5 35.5q70 0 107.5 -32.5t56.5 -108.5q15 -59 28.5 -81t34.5 -22q32 0 42.5 45t10.5 176v936q0 142 -94 142
q-98 0 -195 -152v-528q0 -108 23 -145.5t92 -37.5v-59h-633v59q91 0 121.5 38t30.5 145v503q0 43 -0.5 62.5t-5 42t-12 28t-23.5 7.5t-38 -7t-56 -26l-27 51l485 252l43 -43v-223h7q83 122 176 189t213 67z" />
    <glyph glyph-name="Omacron" unicode="&#x14c;" horiz-adv-x="1570" 
d="M434 1827v145h703v-145h-703zM793 -33q-167 0 -306 64.5t-233 178t-145.5 269.5t-51.5 338t54.5 340t149.5 269.5t229 175t288 63.5q168 0 307.5 -64.5t233.5 -178.5t145.5 -270.5t51.5 -338.5t-55 -340t-150.5 -269t-229.5 -174t-288 -63zM844 88q60 0 105 39t70 104
t36.5 139t11.5 156q0 138 -12 277t-39 273.5t-65.5 237.5t-96.5 166.5t-127 63.5q-60 0 -105 -39t-70 -104.5t-36.5 -139.5t-11.5 -155q0 -138 12 -277t39 -273.5t65.5 -237.5t96.5 -166.5t127 -63.5z" />
    <glyph glyph-name="omacron" unicode="&#x14d;" horiz-adv-x="1200" 
d="M227 1333v146h703v-146h-703zM600 -33q-260 0 -406.5 154t-146.5 428q0 269 148 431.5t405 162.5q258 0 405.5 -154.5t147.5 -425.5q0 -269 -149 -432.5t-404 -163.5zM639 96q48 0 79.5 45.5t42.5 104.5t11 129q0 110 -12.5 218.5t-36.5 205t-66 156t-96 59.5
q-48 0 -79.5 -45.5t-42.5 -104.5t-11 -129q0 -110 12.5 -218.5t36.5 -205t66 -156t96 -59.5z" />
    <glyph glyph-name="Ohungarumlaut" unicode="&#x150;" horiz-adv-x="1570" 
d="M584 1765h-60l99 396h178zM807 1765h-59l135 396h176zM793 -33q-167 0 -306 64.5t-233 178t-145.5 269.5t-51.5 338t54.5 340t149.5 269.5t229 175t288 63.5q168 0 307.5 -64.5t233.5 -178.5t145.5 -270.5t51.5 -338.5t-55 -340t-150.5 -269t-229.5 -174t-288 -63z
M844 88q60 0 105 39t70 104t36.5 139t11.5 156q0 138 -12 277t-39 273.5t-65.5 237.5t-96.5 166.5t-127 63.5q-60 0 -105 -39t-70 -104.5t-36.5 -139.5t-11.5 -155q0 -138 12 -277t39 -273.5t65.5 -237.5t96.5 -166.5t127 -63.5z" />
    <glyph glyph-name="ohungarumlaut" unicode="&#x151;" horiz-adv-x="1200" 
d="M375 1272h-60l99 395h178zM598 1272h-59l135 395h176zM600 -33q-260 0 -406.5 154t-146.5 428q0 269 148 431.5t405 162.5q258 0 405.5 -154.5t147.5 -425.5q0 -269 -149 -432.5t-404 -163.5zM639 96q48 0 79.5 45.5t42.5 104.5t11 129q0 110 -12.5 218.5t-36.5 205
t-66 156t-96 59.5q-48 0 -79.5 -45.5t-42.5 -104.5t-11 -129q0 -110 12.5 -218.5t36.5 -205t66 -156t96 -59.5z" />
    <glyph glyph-name="OE" unicode="&#x152;" horiz-adv-x="2181" 
d="M2073 537l69 -17l-98 -422l-23 -98h-718q-79 0 -220 -10t-237 -10q-184 0 -334.5 64.5t-249 177.5t-152 266t-53.5 331q0 142 33.5 269t100 231t160.5 180t220.5 118t274.5 42q96 0 237 -10.5t220 -10.5h714l11 -104l40 -356l-65 -7q-21 188 -77.5 261t-164.5 73h-211
q-84 0 -84 -84v-536h142q90 0 129 54t39 198h53v-600h-53q0 144 -39 197.5t-129 53.5h-142v-538q0 -72 18.5 -94.5t78.5 -22.5h196q117 0 189 90t125 314zM842 94q76 0 130 45.5t54 110.5v1184q0 53 -43.5 84.5t-120.5 31.5q-68 0 -121 -27.5t-88.5 -79.5t-60 -117
t-37 -151.5t-18 -170.5t-5.5 -185q0 -170 16.5 -299t52 -227t96 -148.5t145.5 -50.5z" />
    <glyph glyph-name="oe" unicode="&#x153;" horiz-adv-x="1970" 
d="M1862 451h57q-44 -250 -158.5 -367t-304.5 -117q-132 0 -234.5 61t-160.5 177q-70 -114 -188 -176t-273 -62q-260 0 -406.5 154t-146.5 428q0 269 148 431.5t405 162.5q167 0 289 -65.5t188 -188.5q64 119 164.5 186.5t231.5 67.5q117 0 204.5 -44.5t137.5 -122.5
t74 -173.5t24 -208.5h-557q8 -193 70 -288t188 -95q76 0 144.5 57.5t103.5 182.5zM1466 1026q-68 0 -89 -69t-23 -248h209q0 60 -1 99t-4.5 78t-10 62.5t-17 42.5t-26.5 27t-38 8zM639 96q48 0 79.5 45.5t42.5 104.5t11 129q0 110 -12.5 218.5t-36.5 205t-66 156t-96 59.5
q-48 0 -79.5 -45.5t-42.5 -104.5t-11 -129q0 -110 12.5 -218.5t36.5 -205t66 -156t96 -59.5z" />
    <glyph glyph-name="Racute" unicode="&#x154;" horiz-adv-x="1687" 
d="M801 2161h284l-346 -396h-94zM1405 416l88 -191q43 -97 87.5 -131.5t141.5 -34.5v-59h-196q-78 0 -127.5 1t-100 7t-79.5 13t-61 24t-50 35.5t-41 52.5t-40.5 69t-41.5 91l-211 475h-22h-52v-526q0 -98 49 -140.5t181 -42.5v-59h-895v59q130 0 178.5 42.5t48.5 140.5
v1155q0 98 -48.5 140t-178.5 42v59h811q332 0 483.5 -110t151.5 -322q0 -91 -28 -162t-73.5 -117t-113 -78t-137 -48t-154.5 -25v-2q80 -11 131 -27.5t106 -53.5t101 -104.5t92 -172.5zM700 1452v-586h54q60 0 109.5 18t90 57t63.5 108.5t23 164.5q0 155 -56 232.5
t-159 77.5q-41 0 -94 -21q-31 -11 -31 -51z" />
    <glyph glyph-name="racute" unicode="&#x155;" horiz-adv-x="1060" 
d="M582 1667h284l-346 -395h-94zM895 1143q143 0 143 -166q0 -92 -42 -151.5t-109 -59.5q-37 0 -60 13.5t-57 49.5q-29 32 -44 42t-34 10q-38 0 -73.5 -51t-49.5 -125v-431q0 -123 48.5 -164.5t197.5 -41.5v-68h-764v59q91 0 120.5 37.5t29.5 145.5v524q0 46 -1 69t-5 47.5
t-11.5 32.5t-22.5 12.5t-36 -1.5t-53 -19l-25 60l461 188l61 -47v-227h6q24 42 55.5 84t73.5 84t92.5 68t98.5 26z" />
    <glyph glyph-name="uni0156" unicode="&#x156;" horiz-adv-x="1687" 
d="M1405 416l88 -191q43 -97 87.5 -131.5t141.5 -34.5v-59h-196q-78 0 -127.5 1t-100 7t-79.5 13t-61 24t-50 35.5t-41 52.5t-40.5 69t-41.5 91l-211 475h-22h-52v-526q0 -98 49 -140.5t181 -42.5v-59h-895v59q130 0 178.5 42.5t48.5 140.5v1155q0 98 -48.5 140t-178.5 42
v59h811q332 0 483.5 -110t151.5 -322q0 -91 -28 -162t-73.5 -117t-113 -78t-137 -48t-154.5 -25v-2q80 -11 131 -27.5t106 -53.5t101 -104.5t92 -172.5zM700 1452v-586h54q60 0 109.5 18t90 57t63.5 108.5t23 164.5q0 155 -56 232.5t-159 77.5q-41 0 -94 -21
q-31 -11 -31 -51zM1001 -111q71 0 114.5 -45t43.5 -118q0 -97 -63 -168.5t-178 -100.5v60q53 15 92 49.5t39 66.5q0 13 -7 22t-18 9q-12 0 -36 -10t-46 -10q-37 0 -64.5 29.5t-27.5 82.5q0 63 40 98t111 35z" />
    <glyph glyph-name="uni0157" unicode="&#x157;" horiz-adv-x="1060" 
d="M895 1143q143 0 143 -166q0 -92 -42 -151.5t-109 -59.5q-37 0 -60 13.5t-57 49.5q-29 32 -44 42t-34 10q-38 0 -73.5 -51t-49.5 -125v-431q0 -123 48.5 -164.5t197.5 -41.5v-68h-764v59q91 0 120.5 37.5t29.5 145.5v524q0 46 -1 69t-5 47.5t-11.5 32.5t-22.5 12.5
t-36 -1.5t-53 -19l-25 60l461 188l61 -47v-227h6q24 42 55.5 84t73.5 84t92.5 68t98.5 26zM385 -111q71 0 114.5 -45t43.5 -118q0 -97 -63.5 -168.5t-178.5 -100.5v60q53 15 92 49.5t39 66.5q0 31 -24 31q-12 0 -36 -10t-46 -10q-37 0 -65 29.5t-28 82.5q0 63 40.5 98
t111.5 35z" />
    <glyph glyph-name="Rcaron" unicode="&#x158;" horiz-adv-x="1687" 
d="M598 1769l-215 398h94l271 -266l270 266h96l-215 -398h-301zM1405 416l88 -191q43 -97 87.5 -131.5t141.5 -34.5v-59h-196q-78 0 -127.5 1t-100 7t-79.5 13t-61 24t-50 35.5t-41 52.5t-40.5 69t-41.5 91l-211 475h-22h-52v-526q0 -98 49 -140.5t181 -42.5v-59h-895v59
q130 0 178.5 42.5t48.5 140.5v1155q0 98 -48.5 140t-178.5 42v59h811q332 0 483.5 -110t151.5 -322q0 -91 -28 -162t-73.5 -117t-113 -78t-137 -48t-154.5 -25v-2q80 -11 131 -27.5t106 -53.5t101 -104.5t92 -172.5zM700 1452v-586h54q60 0 109.5 18t90 57t63.5 108.5
t23 164.5q0 155 -56 232.5t-159 77.5q-41 0 -94 -21q-31 -11 -31 -51z" />
    <glyph glyph-name="rcaron" unicode="&#x159;" horiz-adv-x="1060" 
d="M379 1276l-215 397h94l270 -266l271 266h96l-215 -397h-301zM895 1143q143 0 143 -166q0 -92 -42 -151.5t-109 -59.5q-37 0 -60 13.5t-57 49.5q-29 32 -44 42t-34 10q-38 0 -73.5 -51t-49.5 -125v-431q0 -123 48.5 -164.5t197.5 -41.5v-68h-764v59q91 0 120.5 37.5
t29.5 145.5v524q0 46 -1 69t-5 47.5t-11.5 32.5t-22.5 12.5t-36 -1.5t-53 -19l-25 60l461 188l61 -47v-227h6q24 42 55.5 84t73.5 84t92.5 68t98.5 26z" />
    <glyph glyph-name="Sacute" unicode="&#x15a;" horiz-adv-x="1181" 
d="M571 1765h-94l156 396h285zM592 -31q-102 0 -197 34.5t-162 90.5q-20 18 -39.5 13.5t-25.5 -31.5l-21 -88h-63l8 651h70q4 -70 24.5 -145.5t57 -148.5t85 -131.5t114 -94t137.5 -35.5q96 0 147 56.5t51 140.5q0 103 -65.5 189.5t-198.5 186.5q-175 130 -232 183
q-130 119 -164 248q-16 60 -16 129q0 109 39 196.5t106 143t153.5 85t183.5 29.5q184 0 303 -104q28 -23 49 -16.5t29 40.5l12 60h59l23 -551h-66q-4 62 -22.5 126t-51.5 123t-75.5 105.5t-99.5 74t-119 27.5q-88 0 -136.5 -51.5t-48.5 -126.5q0 -84 59 -149.5t238 -196.5
q82 -60 137.5 -107t105 -101t78 -106.5t44.5 -115.5t16 -135q0 -119 -42.5 -215t-116 -157t-167.5 -93.5t-200 -32.5z" />
    <glyph glyph-name="sacute" unicode="&#x15b;" horiz-adv-x="894" 
d="M424 1276h-94l155 395h285zM475 -33q-151 0 -268 80q-40 27 -57 -12l-21 -43h-57l-21 469h60q27 -166 113.5 -270.5t207.5 -104.5q62 0 94.5 32t32.5 93q0 51 -39.5 89.5t-191.5 141.5q-144 97 -202 178t-58 181q0 158 105 250t259 92q125 0 223 -76q43 -30 62 12l20 49
h58l18 -385h-57q-30 120 -110 201.5t-179 81.5q-51 0 -79 -27.5t-28 -70.5q0 -49 35 -83.5t166 -125.5q80 -55 127 -93t89.5 -87t60.5 -103.5t18 -122.5q0 -88 -31 -156t-84.5 -108.5t-120.5 -61t-145 -20.5z" />
    <glyph glyph-name="Scedilla" unicode="&#x15e;" horiz-adv-x="1181" 
d="M1118 467q0 -107 -35 -196t-96 -150t-141 -98.5t-174 -49.5l-25 -45q40 -3 73 -8.5t71.5 -19.5t64.5 -35t44 -57t18 -84q0 -67 -36 -116t-95 -76t-135 -39.5t-153.5 -11t-154.5 14.5l12 60q318 -39 318 141q0 77 -61 118.5t-162 43.5l88 112q-179 18 -306 123
q-20 18 -39.5 13.5t-25.5 -31.5l-21 -88h-63l8 651h70q4 -70 24.5 -145.5t57 -148.5t85 -131.5t114 -94t137.5 -35.5q96 0 147 56.5t51 140.5q0 103 -65.5 189.5t-198.5 186.5q-175 130 -232 183q-130 119 -164 248q-16 60 -16 129q0 109 39 196.5t106 143t153.5 85
t183.5 29.5q184 0 303 -104q28 -23 49 -16.5t29 40.5l12 60h59l23 -551h-66q-4 62 -22.5 126t-51.5 123t-75.5 105.5t-99.5 74t-119 27.5q-88 0 -136.5 -51.5t-48.5 -126.5q0 -84 59 -149.5t238 -196.5q82 -60 137.5 -107t105 -101t78 -106.5t44.5 -115.5t16 -135z" />
    <glyph glyph-name="scedilla" unicode="&#x15f;" horiz-adv-x="894" 
d="M518 -31l-22 -41q40 -3 73 -8.5t71.5 -19.5t64.5 -35t43.5 -57t17.5 -84q0 -67 -36 -116t-94.5 -76t-134.5 -39.5t-153.5 -11t-154.5 14.5l12 60q317 -38 317 141q0 77 -61 118.5t-162 43.5l90 114q-98 16 -182 74q-40 27 -57 -12l-21 -43h-57l-21 469h60
q27 -166 113.5 -270.5t207.5 -104.5q62 0 94.5 32t32.5 93q0 51 -39.5 89.5t-191.5 141.5q-144 97 -202 178t-58 181q0 158 105 250t259 92q125 0 223 -76q43 -30 62 12l20 49h58l18 -385h-57q-30 120 -110 201.5t-179 81.5q-51 0 -79 -27.5t-28 -70.5q0 -49 35 -83.5
t166 -125.5q80 -55 127 -93t89.5 -87t60.5 -103.5t18 -122.5q0 -158 -95.5 -245.5t-242.5 -98.5z" />
    <glyph glyph-name="Scaron" unicode="&#x160;" horiz-adv-x="1181" 
d="M430 1769l-215 398h94l271 -266l270 266h96l-215 -398h-301zM737 1032q82 -60 137.5 -107t105 -101t78 -106.5t44.5 -115.5t16 -135q0 -119 -42.5 -215t-116 -157t-167.5 -93.5t-200 -32.5q-102 0 -197 34.5t-162 90.5q-20 18 -39.5 13.5t-25.5 -31.5l-21 -88h-63l8 651
h70q4 -70 24.5 -145.5t57 -148.5t85 -131.5t114 -94t137.5 -35.5q96 0 147 56.5t51 140.5q0 103 -65.5 189.5t-198.5 186.5q-175 130 -232 183q-130 119 -164 248q-16 60 -16 129q0 109 39 196.5t106 143t153.5 85t183.5 29.5q184 0 303 -104q28 -23 49 -16.5t29 40.5l12 60
h59l23 -551h-66q-4 62 -22.5 126t-51.5 123t-75.5 105.5t-99.5 74t-119 27.5q-88 0 -136.5 -51.5t-48.5 -126.5q0 -84 59 -149.5t238 -196.5z" />
    <glyph glyph-name="scaron" unicode="&#x161;" horiz-adv-x="894" 
d="M281 1280l-215 397h94l270 -266l270 266h97l-215 -397h-301zM561 719q80 -55 127 -93t89.5 -87t60.5 -103.5t18 -122.5q0 -88 -31 -156t-84.5 -108.5t-120.5 -61t-145 -20.5q-151 0 -268 80q-40 27 -57 -12l-21 -43h-57l-21 469h60q27 -166 113.5 -270.5t207.5 -104.5
q62 0 94.5 32t32.5 93q0 51 -39.5 89.5t-191.5 141.5q-144 97 -202 178t-58 181q0 158 105 250t259 92q125 0 223 -76q43 -30 62 12l20 49h58l18 -385h-57q-30 120 -110 201.5t-179 81.5q-51 0 -79 -27.5t-28 -70.5q0 -49 35 -83.5t166 -125.5z" />
    <glyph glyph-name="uni0162" unicode="&#x162;" horiz-adv-x="1456" 
d="M1384 1638l7 -102l22 -362l-72 -7q-12 192 -67 265t-172 73h-76q-78 0 -78 -80v-1183q0 -98 49 -140.5t179 -42.5v-59h-371l-39 -72q40 -3 73 -8.5t71.5 -19.5t64.5 -35t43.5 -57t17.5 -84q0 -67 -36 -116t-94.5 -76t-134.5 -39.5t-153.5 -11t-154.5 14.5l12 60
q318 -39 318 141q0 77 -62 118.5t-164 43.5l111 141h-399v59q132 0 180.5 42.5t48.5 140.5v1183q0 38 -21 59t-59 21h-74q-79 0 -127.5 -29t-77 -103.5t-36.5 -205.5l-70 7l20 362l9 102h1312z" />
    <glyph glyph-name="uni0163" unicode="&#x163;" horiz-adv-x="831" 
d="M512 -31l-23 -41q40 -3 73 -8.5t71.5 -19.5t64.5 -35t44 -57t18 -84q0 -67 -36 -116t-95 -76t-135 -39.5t-153.5 -11t-154.5 14.5l13 60q317 -38 317 141q0 77 -61 118.5t-162 43.5l90 116q-116 22 -174.5 120t-58.5 292v600h-134v109q83 5 156 38t134 106.5t83 178.5
h119v-317h240v-115h-232v-584q0 -229 100 -229q117 0 117 330h78q0 -259 -69.5 -388.5t-229.5 -146.5z" />
    <glyph glyph-name="Tcaron" unicode="&#x164;" horiz-adv-x="1456" 
d="M569 1769l-215 398h95l270 -266l270 266h96l-215 -398h-301zM1384 1638l7 -102l22 -362l-72 -7q-12 192 -67 265t-172 73h-76q-78 0 -78 -80v-1183q0 -98 49 -140.5t179 -42.5v-59h-897v59q132 0 180.5 42.5t48.5 140.5v1183q0 38 -21 59t-59 21h-74q-79 0 -127.5 -29
t-77 -103.5t-36.5 -205.5l-70 7l20 362l9 102h1312z" />
    <glyph glyph-name="tcaron" unicode="&#x165;" horiz-adv-x="831" 
d="M709 1208h-95v422h265zM733 504h78q0 -277 -80.5 -407t-265.5 -130q-156 0 -235.5 97t-79.5 323v600h-134v109q83 5 156 38t134 106.5t83 178.5h119v-317h240v-115h-232v-584q0 -229 100 -229q117 0 117 330z" />
    <glyph glyph-name="Tbar" unicode="&#x166;" horiz-adv-x="1456" 
d="M1102 1505h-76q-78 0 -78 -80v-569h342v-80h-342v-534q0 -98 49 -140.5t179 -42.5v-59h-897v59q132 0 180.5 42.5t48.5 140.5v534h-344v80h344v569q0 38 -21 59t-59 21h-74q-79 0 -127.5 -29t-77 -103.5t-36.5 -205.5l-70 7l20 362l9 102h1312l7 -102l22 -362l-72 -7
q-12 192 -67 265t-172 73z" />
    <glyph glyph-name="tbar" unicode="&#x167;" horiz-adv-x="831" 
d="M733 504h78q0 -277 -80.5 -407t-265.5 -130q-156 0 -235.5 97t-79.5 323v315h-136v89h136v196h-134v109q83 5 156 38t134 106.5t83 178.5h119v-317h240v-115h-232v-196h213v-89h-213v-299q0 -229 100 -229q117 0 117 330z" />
    <glyph glyph-name="Umacron" unicode="&#x16a;" horiz-adv-x="1675" 
d="M616 1827v145h703v-145h-703zM850 -33q-299 0 -458 164t-159 492v774q0 98 -48.5 140t-178.5 42v59h897v-59q-132 0 -180.5 -42t-48.5 -140v-774q0 -174 35 -280.5t100 -151t168 -44.5q336 0 336 490v760q0 98 -49 140t-181 42v59h586v-59q-130 0 -178.5 -42t-48.5 -140
v-760q0 -119 -17 -216t-59.5 -183t-108.5 -144.5t-169.5 -92.5t-237.5 -34z" />
    <glyph glyph-name="umacron" unicode="&#x16b;" horiz-adv-x="1323" 
d="M293 1333v146h702v-146h-702zM872 -35l-73 55v199h-6q-30 -48 -50.5 -77t-55 -66.5t-67 -58t-79.5 -35.5t-101 -15q-123 0 -201.5 89t-78.5 247v488q0 59 -4 88t-19 47.5t-43 17.5t-78 -16l-16 57l487 148l39 -35v-762q0 -83 21.5 -119.5t70.5 -36.5q47 0 90 39.5
t91 114.5v457q0 59 -4 88t-19 47.5t-43 17.5t-78 -16l-16 57l489 148l37 -35v-768q0 -44 1 -69t6 -49t14 -33t25 -14t38.5 -0.5t55.5 15.5l20 -61z" />
    <glyph glyph-name="Uring" unicode="&#x16e;" horiz-adv-x="1675" 
d="M969 1774q-100 0 -166 64t-66 161q0 94 66.5 157.5t165.5 63.5q97 0 162 -63.5t65 -157.5q0 -97 -65 -161t-162 -64zM969 1870q56 0 93.5 36.5t37.5 92.5q0 55 -37.5 90t-93.5 35q-57 0 -95 -35t-38 -90q0 -57 38 -93t95 -36zM850 -33q-299 0 -458 164t-159 492v774
q0 98 -48.5 140t-178.5 42v59h897v-59q-132 0 -180.5 -42t-48.5 -140v-774q0 -174 35 -280.5t100 -151t168 -44.5q336 0 336 490v760q0 98 -49 140t-181 42v59h586v-59q-130 0 -178.5 -42t-48.5 -140v-760q0 -119 -17 -216t-59.5 -183t-108.5 -144.5t-169.5 -92.5
t-237.5 -34z" />
    <glyph glyph-name="uring" unicode="&#x16f;" horiz-adv-x="1323" 
d="M645 1280q-100 0 -165.5 64t-65.5 161q0 94 66 157.5t165 63.5q97 0 162 -63.5t65 -157.5q0 -97 -65 -161t-162 -64zM645 1376q56 0 93.5 36.5t37.5 92.5q0 55 -37.5 90t-93.5 35q-57 0 -95 -35t-38 -90q0 -57 38 -93t95 -36zM872 -35l-73 55v199h-6q-30 -48 -50.5 -77
t-55 -66.5t-67 -58t-79.5 -35.5t-101 -15q-123 0 -201.5 89t-78.5 247v488q0 59 -4 88t-19 47.5t-43 17.5t-78 -16l-16 57l487 148l39 -35v-762q0 -83 21.5 -119.5t70.5 -36.5q47 0 90 39.5t91 114.5v457q0 59 -4 88t-19 47.5t-43 17.5t-78 -16l-16 57l489 148l37 -35v-768
q0 -44 1 -69t6 -49t14 -33t25 -14t38.5 -0.5t55.5 15.5l20 -61z" />
    <glyph glyph-name="Uhungarumlaut" unicode="&#x170;" horiz-adv-x="1675" 
d="M766 1765h-59l98 396h178zM989 1765h-59l135 396h176zM850 -33q-299 0 -458 164t-159 492v774q0 98 -48.5 140t-178.5 42v59h897v-59q-132 0 -180.5 -42t-48.5 -140v-774q0 -174 35 -280.5t100 -151t168 -44.5q336 0 336 490v760q0 98 -49 140t-181 42v59h586v-59
q-130 0 -178.5 -42t-48.5 -140v-760q0 -119 -17 -216t-59.5 -183t-108.5 -144.5t-169.5 -92.5t-237.5 -34z" />
    <glyph glyph-name="uhungarumlaut" unicode="&#x171;" horiz-adv-x="1323" 
d="M442 1272h-59l98 395h178zM666 1272h-60l135 395h177zM872 -35l-73 55v199h-6q-30 -48 -50.5 -77t-55 -66.5t-67 -58t-79.5 -35.5t-101 -15q-123 0 -201.5 89t-78.5 247v488q0 59 -4 88t-19 47.5t-43 17.5t-78 -16l-16 57l487 148l39 -35v-762q0 -83 21.5 -119.5
t70.5 -36.5q47 0 90 39.5t91 114.5v457q0 59 -4 88t-19 47.5t-43 17.5t-78 -16l-16 57l489 148l37 -35v-768q0 -44 1 -69t6 -49t14 -33t25 -14t38.5 -0.5t55.5 15.5l20 -61z" />
    <glyph glyph-name="Uogonek" unicode="&#x172;" horiz-adv-x="1675" 
d="M1669 1638v-59q-130 0 -178.5 -42t-48.5 -140v-760q0 -131 -21.5 -235.5t-70.5 -193.5t-135.5 -147.5t-208.5 -80.5q-64 -79 -91.5 -131t-27.5 -113t30 -94t89 -33q63 0 178 47l12 -59q-137 -121 -301 -121q-48 0 -91.5 12t-80.5 36t-58.5 65.5t-21.5 95.5q0 39 14 74
t34 59t52.5 48t58 38.5t62.5 34t54 30.5q-23 -2 -68 -2q-299 0 -458 164t-159 492v774q0 98 -48.5 140t-178.5 42v59h897v-59q-132 0 -180.5 -42t-48.5 -140v-774q0 -174 35 -280.5t100 -151t168 -44.5q336 0 336 490v760q0 98 -49 140t-181 42v59h586z" />
    <glyph glyph-name="uogonek" unicode="&#x173;" horiz-adv-x="1323" 
d="M1325 119l-178 -60l-273 -94q-51 -65 -74.5 -113t-23.5 -104q0 -61 30 -94t89 -33q63 0 178 47l12 -59q-137 -121 -301 -121q-48 0 -91.5 12t-80.5 36t-58.5 65.5t-21.5 95.5q0 50 21 92t58 71.5t73 51.5t80 46t65 40l-30 22v199h-6q-30 -48 -50.5 -77t-55 -66.5t-67 -58
t-79.5 -35.5t-101 -15q-123 0 -201.5 89t-78.5 247v488q0 59 -4 88t-19 47.5t-43 17.5t-78 -16l-16 57l487 148l39 -35v-762q0 -83 21.5 -119.5t70.5 -36.5q47 0 90 39.5t91 114.5v457q0 59 -4 88t-19 47.5t-43 17.5t-78 -16l-16 57l489 148l37 -35v-768q0 -44 1 -69t6 -49
t14 -33t25 -14t38.5 -0.5t55.5 15.5z" />
    <glyph glyph-name="Wcircumflex" unicode="&#x174;" horiz-adv-x="2306" 
d="M1559 1769l-271 265l-270 -265h-96l215 396h301l215 -396h-94zM2296 1638v-59q-94 0 -141 -36.5t-76 -137.5l-410 -1438h-201l-288 1061l-310 -1061h-198l-441 1440q-30 101 -77.5 136.5t-141.5 35.5v59h770v-59q-94 0 -114 -41.5t10 -132.5l235 -842h9l200 678l-45 164
q-27 100 -62.5 137t-94.5 37v59h753v-59q-81 0 -119 -18.5t-43.5 -58t9.5 -99.5l196 -840h10l230 842q30 91 0.5 132.5t-146.5 41.5v59h486z" />
    <glyph glyph-name="wcircumflex" unicode="&#x175;" horiz-adv-x="1785" 
d="M1227 1276l-271 264l-270 -264h-96l215 395h301l215 -395h-94zM1772 1102v-60q-65 0 -104 -36.5t-69 -135.5l-270 -886h-237l-183 659l-186 -659h-244l-295 888q-32 97 -71.5 133.5t-100.5 36.5v60h594v-60q-60 0 -63 -33t33 -131q1 -4 2 -6l145 -444h10l119 420l-6 20
q-28 98 -60 136t-77 38v60h585v-60q-71 0 -82 -36t17 -140l102 -438h10l142 442q36 103 25.5 137.5t-93.5 34.5v60h357z" />
    <glyph glyph-name="Ycircumflex" unicode="&#x176;" horiz-adv-x="1556" 
d="M1176 1765l-271 265l-270 -265h-96l215 396h301l215 -396h-94zM1573 1638v-59q-88 0 -142 -33.5t-98 -126.5l-321 -686v-491q0 -98 48.5 -140.5t180.5 -42.5v-59h-897v59q130 0 178.5 42.5t48.5 140.5v479l-356 702q-47 91 -99.5 123.5t-131.5 32.5v59h864v-59
q-106 0 -151 -16.5t-44 -52t29 -91.5l258 -538h6l260 538q18 37 25 60.5t5.5 44.5t-18.5 32t-50 17t-87 6v59h492z" />
    <glyph glyph-name="ycircumflex" unicode="&#x177;" horiz-adv-x="1163" 
d="M881 1272l-271 264l-270 -264h-96l215 395h301l215 -395h-94zM1149 1102v-60q-64 0 -103.5 -36t-72.5 -134l-295 -892q-78 -237 -170 -345.5t-250 -117.5q-86 0 -143.5 51.5t-57.5 134.5t47.5 127.5t118.5 44.5q33 0 61.5 -12.5t43.5 -25.5t37 -36q26 -28 45 -38.5
t45 -10.5q54 0 67 96q0 53 -78 287l-251 737q-32 97 -73.5 133.5t-107.5 36.5v60h656v-60q-91 0 -106 -35.5t20 -138.5l125 -428h14l135 430q36 103 24.5 137.5t-98.5 34.5v60h367z" />
    <glyph glyph-name="Ydieresis" unicode="&#x178;" horiz-adv-x="1556" 
d="M670 1737q-70 0 -121 50.5t-51 119.5q0 72 50.5 122t121.5 50t120.5 -50t49.5 -122q0 -69 -50 -119.5t-120 -50.5zM1141 1737q-70 0 -121 50.5t-51 119.5q0 72 50.5 122t121.5 50t120.5 -50t49.5 -122q0 -69 -50 -119.5t-120 -50.5zM1012 733v-491q0 -98 48.5 -140.5
t180.5 -42.5v-59h-897v59q130 0 178.5 42.5t48.5 140.5v479l-356 702q-47 91 -99.5 123.5t-131.5 32.5v59h864v-59q-106 0 -151 -16.5t-44 -52t29 -91.5l258 -538h6l260 538q18 37 25 60.5t5.5 44.5t-18.5 32t-50 17t-87 6v59h492v-59q-88 0 -142 -33.5t-98 -126.5z" />
    <glyph glyph-name="Zacute" unicode="&#x179;" horiz-adv-x="1325" 
d="M731 1765h-94l156 396h284zM158 1638h1104l-697 -1505h350q79 0 129.5 36t84.5 127t51 251l69 -8l-45 -443l-10 -96h-1141v59l695 1446h-306q-78 0 -125.5 -30.5t-75.5 -109t-34 -216.5l-70 4l17 383z" />
    <glyph glyph-name="zacute" unicode="&#x17a;" horiz-adv-x="966" 
d="M539 1272h-95l156 395h285zM481 115h152q82 0 123.5 27t59.5 96t18 206h65v-444h-856v59l438 928h-139q-82 0 -124 -22.5t-60.5 -82t-18.5 -175.5h-63v395h844v-60z" />
    <glyph glyph-name="Zdotaccent" unicode="&#x17b;" horiz-adv-x="1325" 
d="M739 1737q-70 0 -121 50.5t-51 119.5q0 72 50.5 122t121.5 50t121.5 -50t50.5 -122q0 -69 -51 -119.5t-121 -50.5zM158 1638h1104l-697 -1505h350q79 0 129.5 36t84.5 127t51 251l69 -8l-45 -443l-10 -96h-1141v59l695 1446h-306q-78 0 -125.5 -30.5t-75.5 -109
t-34 -216.5l-70 4l17 383z" />
    <glyph glyph-name="zdotaccent" unicode="&#x17c;" horiz-adv-x="966" 
d="M547 1243q-70 0 -121 50.5t-51 119.5q0 72 50.5 122t121.5 50t121.5 -50t50.5 -122q0 -69 -51 -119.5t-121 -50.5zM481 115h152q82 0 123.5 27t59.5 96t18 206h65v-444h-856v59l438 928h-139q-82 0 -124 -22.5t-60.5 -82t-18.5 -175.5h-63v395h844v-60z" />
    <glyph glyph-name="Zcaron" unicode="&#x17d;" horiz-adv-x="1325" 
d="M588 1769l-215 398h94l270 -266l271 266h96l-215 -398h-301zM565 133h350q79 0 129.5 36t84.5 127t51 251l69 -8l-45 -443l-10 -96h-1141v59l695 1446h-306q-78 0 -125.5 -30.5t-75.5 -109t-34 -216.5l-70 4l17 383l4 102h1104z" />
    <glyph glyph-name="zcaron" unicode="&#x17e;" horiz-adv-x="966" 
d="M397 1276l-215 397h94l271 -266l270 266h96l-215 -397h-301zM76 1102h844v-60l-439 -927h152q82 0 123.5 27t59.5 96t18 206h65v-444h-856v59l438 928h-139q-82 0 -124 -22.5t-60.5 -82t-18.5 -175.5h-63v395z" />
    <glyph glyph-name="uni0218" unicode="&#x218;" horiz-adv-x="1181" 
d="M592 -31q-102 0 -197 34.5t-162 90.5q-20 18 -39.5 13.5t-25.5 -31.5l-21 -88h-63l8 651h70q4 -70 24.5 -145.5t57 -148.5t85 -131.5t114 -94t137.5 -35.5q96 0 147 56.5t51 140.5q0 103 -65.5 189.5t-198.5 186.5q-175 130 -232 183q-130 119 -164 248q-16 60 -16 129
q0 109 39 196.5t106 143t153.5 85t183.5 29.5q184 0 303 -104q28 -23 49 -16.5t29 40.5l12 60h59l23 -551h-66q-4 62 -22.5 126t-51.5 123t-75.5 105.5t-99.5 74t-119 27.5q-88 0 -136.5 -51.5t-48.5 -126.5q0 -84 59 -149.5t238 -196.5q82 -60 137.5 -107t105 -101
t78 -106.5t44.5 -115.5t16 -135q0 -119 -42.5 -215t-116 -157t-167.5 -93.5t-200 -32.5zM522 -356q-37 0 -64.5 29.5t-27.5 82.5q0 63 40.5 98t111.5 35t114 -45t43 -118q0 -97 -63 -168.5t-178 -100.5v60q53 15 92 49.5t39 66.5q0 13 -7 22t-18 9q-12 0 -36 -10t-46 -10z
" />
    <glyph glyph-name="uni0219" unicode="&#x219;" horiz-adv-x="894" 
d="M475 -33q-151 0 -268 80q-40 27 -57 -12l-21 -43h-57l-21 469h60q27 -166 113.5 -270.5t207.5 -104.5q62 0 94.5 32t32.5 93q0 51 -39.5 89.5t-191.5 141.5q-144 97 -202 178t-58 181q0 158 105 250t259 92q125 0 223 -76q43 -30 62 12l20 49h58l18 -385h-57
q-30 120 -110 201.5t-179 81.5q-51 0 -79 -27.5t-28 -70.5q0 -49 35 -83.5t166 -125.5q80 -55 127 -93t89.5 -87t60.5 -103.5t18 -122.5q0 -88 -31 -156t-84.5 -108.5t-120.5 -61t-145 -20.5zM371 -356q-37 0 -64.5 29.5t-27.5 82.5q0 63 40 98t111 35t114.5 -45t43.5 -118
q0 -97 -63.5 -168.5t-178.5 -100.5v60q53 15 92 49.5t39 66.5q0 31 -24 31q-12 0 -36 -10t-46 -10z" />
    <glyph glyph-name="uni021A" unicode="&#x21a;" horiz-adv-x="1456" 
d="M428 1505h-74q-79 0 -127.5 -29t-77 -103.5t-36.5 -205.5l-70 7l20 362l9 102h1312l7 -102l22 -362l-72 -7q-12 192 -67 265t-172 73h-76q-78 0 -78 -80v-1183q0 -98 49 -140.5t179 -42.5v-59h-897v59q132 0 180.5 42.5t48.5 140.5v1183q0 38 -21 59t-59 21zM653 -356
q-37 0 -64.5 29.5t-27.5 82.5q0 63 40.5 98t111.5 35t114 -45t43 -118q0 -97 -63 -168.5t-178 -100.5v60q53 15 92 49.5t39 66.5q0 13 -7 22t-18 9q-12 0 -36 -10t-46 -10z" />
    <glyph glyph-name="uni021B" unicode="&#x21b;" horiz-adv-x="831" 
d="M733 504h78q0 -277 -80.5 -407t-265.5 -130q-156 0 -235.5 97t-79.5 323v600h-134v109q83 5 156 38t134 106.5t83 178.5h119v-317h240v-115h-232v-584q0 -229 100 -229q117 0 117 330zM422 -356q-37 0 -64.5 29.5t-27.5 82.5q0 63 40 98t111 35q72 0 116 -45.5t44 -117.5
q0 -96 -64 -168t-180 -101v60q53 15 92 49.5t39 66.5q0 31 -22 31q-13 0 -37.5 -10t-46.5 -10z" />
    <glyph glyph-name="circumflex" unicode="&#x2c6;" horiz-adv-x="894" 
d="M598 1667l215 -395h-96l-271 264l-270 -264h-94l215 395h301z" />
    <glyph glyph-name="caron" unicode="&#x2c7;" horiz-adv-x="894" 
d="M446 1407l271 266h96l-215 -397h-301l-215 397h94z" />
    <glyph glyph-name="breve" unicode="&#x2d8;" horiz-adv-x="890" 
d="M729 1675h59q-19 -202 -111.5 -297.5t-230.5 -95.5q-67 0 -123 22t-103 67.5t-77.5 122.5t-40.5 181h60q25 -85 103.5 -129.5t180.5 -44.5t180 44.5t103 129.5z" />
    <glyph glyph-name="dotaccent" unicode="&#x2d9;" horiz-adv-x="548" 
d="M274 1243q-70 0 -121 50.5t-51 119.5q0 72 50.5 122t121.5 50t121.5 -50t50.5 -122q0 -69 -51 -119.5t-121 -50.5z" />
    <glyph glyph-name="ring" unicode="&#x2da;" horiz-adv-x="663" 
d="M334 1280q-100 0 -166 64t-66 161q0 94 66.5 157.5t165.5 63.5q97 0 162 -63.5t65 -157.5q0 -97 -65 -161t-162 -64zM334 1376q56 0 93.5 36.5t37.5 92.5q0 55 -37.5 90t-93.5 35q-57 0 -95 -35t-38 -90q0 -57 38 -93t95 -36z" />
    <glyph glyph-name="ogonek" unicode="&#x2db;" horiz-adv-x="759" 
d="M424 -20h63q-74 -92 -104.5 -146.5t-30.5 -118.5q0 -61 30 -94t89 -33q63 0 178 47l13 -59q-137 -121 -302 -121q-66 0 -120.5 20t-92.5 69t-38 120q0 54 24.5 98t64 74.5t80 53.5t83.5 47t63 43z" />
    <glyph glyph-name="tilde" unicode="&#x2dc;" horiz-adv-x="972" 
d="M643 1274q-39 0 -77 15.5t-69 38t-61.5 44.5t-66 37.5t-70.5 15.5q-33 0 -56.5 -10.5t-38.5 -34t-23.5 -45.5t-18.5 -61h-60q28 162 56 231q59 144 172 144q39 0 77 -15.5t69.5 -38t62 -45t66.5 -38t71 -15.5q63 0 90 37.5t45 114.5h59q-27 -159 -54 -226
q-58 -149 -173 -149z" />
    <glyph glyph-name="hungarumlaut" unicode="&#x2dd;" horiz-adv-x="739" 
d="M162 1272h-60l99 395h178zM385 1272h-59l135 395h176z" />
    <glyph glyph-name="gravecomb" unicode="&#x300;" horiz-adv-x="0" 
d="M-283 1667l158 -395h-94l-348 395h284z" />
    <glyph glyph-name="acutecomb" unicode="&#x301;" horiz-adv-x="0" 
d="M-391 1272h-94l155 395h285z" />
    <glyph glyph-name="uni0302" unicode="&#x302;" horiz-adv-x="0" 
d="M-299 1667l215 -395h-94l-271 264l-270 -264h-96l215 395h301z" />
    <glyph glyph-name="tildecomb" unicode="&#x303;" horiz-adv-x="0" 
d="M-330 1274q-39 0 -77 15.5t-69 38t-61.5 44.5t-66 37.5t-70.5 15.5q-33 0 -56.5 -10.5t-38.5 -34t-23.5 -45.5t-18.5 -61h-59q27 159 54 226q58 149 173 149q39 0 77 -15.5t69.5 -38t62 -45t66.5 -38t71 -15.5q63 0 90 37.5t45 114.5h60q-28 -162 -56 -231
q-59 -144 -172 -144z" />
    <glyph glyph-name="uni0304" unicode="&#x304;" horiz-adv-x="0" 
d="M-858 1333v146h702v-146h-702z" />
    <glyph glyph-name="uni0306" unicode="&#x306;" horiz-adv-x="0" 
d="M-162 1675h60q-19 -202 -111.5 -297.5t-230.5 -95.5q-67 0 -123 22t-103 67.5t-77.5 122.5t-40.5 181h59q25 -85 103.5 -129.5t181.5 -44.5q102 0 179.5 44.5t102.5 129.5z" />
    <glyph glyph-name="uni0307" unicode="&#x307;" horiz-adv-x="0" 
d="M-274 1243q-70 0 -121 50.5t-51 119.5q0 72 50.5 122t121.5 50t121.5 -50t50.5 -122q0 -69 -51 -119.5t-121 -50.5z" />
    <glyph glyph-name="uni0308" unicode="&#x308;" horiz-adv-x="0" 
d="M-762 1243q-70 0 -121 50.5t-51 119.5q0 72 50.5 122t121.5 50t120.5 -50t49.5 -122q0 -69 -50 -119.5t-120 -50.5zM-291 1243q-70 0 -121 50.5t-51 119.5q0 72 50.5 122t121.5 50t120.5 -50t49.5 -122q0 -69 -50 -119.5t-120 -50.5z" />
    <glyph glyph-name="uni030A" unicode="&#x30a;" horiz-adv-x="0" 
d="M-330 1280q-100 0 -165.5 64t-65.5 161q0 94 66 157.5t165 63.5q97 0 162.5 -63.5t65.5 -157.5q0 -96 -65.5 -160.5t-162.5 -64.5zM-330 1376q56 0 93.5 36.5t37.5 92.5q0 55 -37.5 90t-93.5 35q-57 0 -95 -35t-38 -90q0 -57 38 -93t95 -36z" />
    <glyph glyph-name="uni030B" unicode="&#x30b;" horiz-adv-x="0" 
d="M-569 1272h-60l99 395h178zM-346 1272h-60l136 395h176z" />
    <glyph glyph-name="uni030C" unicode="&#x30c;" horiz-adv-x="0" 
d="M-449 1407l271 266h96l-215 -397h-301l-215 397h94z" />
    <glyph glyph-name="uni0312" unicode="&#x312;" horiz-adv-x="0" 
d="M-162 1563q37 0 63.5 -29.5t26.5 -83.5q0 -63 -39 -98t-110 -35q-73 0 -116.5 45.5t-43.5 118.5q0 96 63 167.5t179 100.5v-59q-53 -15 -92 -50t-39 -67q0 -31 24 -31q12 0 36 10.5t48 10.5z" />
    <glyph glyph-name="uni0326" unicode="&#x326;" horiz-adv-x="0" 
d="M-319 -356q-37 0 -65 29.5t-28 82.5q0 63 40.5 98t111.5 35t114.5 -45t43.5 -118q0 -97 -63.5 -168.5t-178.5 -100.5v60q53 15 92 49.5t39 66.5q0 13 -7 22t-18 9q-12 0 -35.5 -10t-45.5 -10z" />
    <glyph glyph-name="uni0327" unicode="&#x327;" horiz-adv-x="0" 
d="M-623 -141l154 198h115l-72 -129q40 -3 73 -8.5t71.5 -19.5t64.5 -35t43.5 -57t17.5 -84q0 -67 -36 -116t-94.5 -76t-134.5 -39.5t-153.5 -11t-154.5 14.5l12 60q318 -39 318 141q0 77 -61.5 118.5t-162.5 43.5z" />
    <glyph glyph-name="uni0328" unicode="&#x328;" horiz-adv-x="0" 
d="M-336 -20h64q-51 -63 -75 -96.5t-42.5 -78.5t-18.5 -90q0 -61 30 -94t89 -33q63 0 178 47l13 -59q-137 -121 -301 -121q-48 0 -91.5 12t-80.5 36t-58.5 65.5t-21.5 95.5t24.5 98t64 74.5t80 53.5t83.5 47t63 43z" />
    <glyph glyph-name="Wgrave" unicode="&#x1e80;" horiz-adv-x="2306" 
d="M1231 2165l158 -396h-95l-348 396h285zM2296 1638v-59q-94 0 -141 -36.5t-76 -137.5l-410 -1438h-201l-288 1061l-310 -1061h-198l-441 1440q-30 101 -77.5 136.5t-141.5 35.5v59h770v-59q-94 0 -114 -41.5t10 -132.5l235 -842h9l200 678l-45 164q-27 100 -62.5 137
t-94.5 37v59h753v-59q-81 0 -119 -18.5t-43.5 -58t9.5 -99.5l196 -840h10l230 842q30 91 0.5 132.5t-146.5 41.5v59h486z" />
    <glyph glyph-name="wgrave" unicode="&#x1e81;" horiz-adv-x="1785" 
d="M897 1671l158 -395h-94l-349 395h285zM1772 1102v-60q-65 0 -104 -36.5t-69 -135.5l-270 -886h-237l-183 659l-186 -659h-244l-295 888q-32 97 -71.5 133.5t-100.5 36.5v60h594v-60q-60 0 -63 -33t33 -131q1 -4 2 -6l145 -444h10l119 420l-6 20q-28 98 -60 136t-77 38v60
h585v-60q-71 0 -82 -36t17 -140l102 -438h10l142 442q36 103 25.5 137.5t-93.5 34.5v60h357z" />
    <glyph glyph-name="Wacute" unicode="&#x1e82;" horiz-adv-x="2306" 
d="M1341 2165h285l-346 -396h-94zM2296 1638v-59q-94 0 -141 -36.5t-76 -137.5l-410 -1438h-201l-288 1061l-310 -1061h-198l-441 1440q-30 101 -77.5 136.5t-141.5 35.5v59h770v-59q-94 0 -114 -41.5t10 -132.5l235 -842h9l200 678l-45 164q-27 100 -62.5 137t-94.5 37v59
h753v-59q-81 0 -119 -18.5t-43.5 -58t9.5 -99.5l196 -840h10l230 842q30 91 0.5 132.5t-146.5 41.5v59h486z" />
    <glyph glyph-name="wacute" unicode="&#x1e83;" horiz-adv-x="1785" 
d="M1010 1671h284l-346 -395h-94zM1772 1102v-60q-65 0 -104 -36.5t-69 -135.5l-270 -886h-237l-183 659l-186 -659h-244l-295 888q-32 97 -71.5 133.5t-100.5 36.5v60h594v-60q-60 0 -63 -33t33 -131q1 -4 2 -6l145 -444h10l119 420l-6 20q-28 98 -60 136t-77 38v60h585
v-60q-71 0 -82 -36t17 -140l102 -438h10l142 442q36 103 25.5 137.5t-93.5 34.5v60h357z" />
    <glyph glyph-name="Wdieresis" unicode="&#x1e84;" horiz-adv-x="2306" 
d="M1053 1741q-70 0 -121 50.5t-51 119.5q0 72 50.5 122t121.5 50t120.5 -50t49.5 -122q0 -69 -50 -119.5t-120 -50.5zM1524 1741q-70 0 -121 50.5t-51 119.5q0 72 50.5 122t121.5 50t120.5 -50t49.5 -122q0 -69 -50 -119.5t-120 -50.5zM2296 1638v-59q-94 0 -141 -36.5
t-76 -137.5l-410 -1438h-201l-288 1061l-310 -1061h-198l-441 1440q-30 101 -77.5 136.5t-141.5 35.5v59h770v-59q-94 0 -114 -41.5t10 -132.5l235 -842h9l200 678l-45 164q-27 100 -62.5 137t-94.5 37v59h753v-59q-81 0 -119 -18.5t-43.5 -58t9.5 -99.5l196 -840h10
l230 842q30 91 0.5 132.5t-146.5 41.5v59h486z" />
    <glyph glyph-name="wdieresis" unicode="&#x1e85;" horiz-adv-x="1785" 
d="M721 1247q-70 0 -121 50.5t-51 119.5q0 72 50.5 122t121.5 50t120.5 -50t49.5 -122q0 -69 -50 -119.5t-120 -50.5zM1192 1247q-70 0 -121 50.5t-51 119.5q0 72 50.5 122t121.5 50t120.5 -50t49.5 -122q0 -69 -50 -119.5t-120 -50.5zM1772 1102v-60q-65 0 -104 -36.5
t-69 -135.5l-270 -886h-237l-183 659l-186 -659h-244l-295 888q-32 97 -71.5 133.5t-100.5 36.5v60h594v-60q-60 0 -63 -33t33 -131q1 -4 2 -6l145 -444h10l119 420l-6 20q-28 98 -60 136t-77 38v60h585v-60q-71 0 -82 -36t17 -140l102 -438h10l142 442q36 103 25.5 137.5
t-93.5 34.5v60h357z" />
    <glyph glyph-name="Ygrave" unicode="&#x1ef2;" horiz-adv-x="1556" 
d="M846 2161l158 -396h-95l-348 396h285zM1012 733v-491q0 -98 48.5 -140.5t180.5 -42.5v-59h-897v59q130 0 178.5 42.5t48.5 140.5v479l-356 702q-47 91 -99.5 123.5t-131.5 32.5v59h864v-59q-106 0 -151 -16.5t-44 -52t29 -91.5l258 -538h6l260 538q18 37 25 60.5
t5.5 44.5t-18.5 32t-50 17t-87 6v59h492v-59q-88 0 -142 -33.5t-98 -126.5z" />
    <glyph glyph-name="ygrave" unicode="&#x1ef3;" horiz-adv-x="1163" 
d="M551 1667l158 -395h-95l-348 395h285zM258 -483q-86 0 -143.5 51.5t-57.5 134.5t47.5 127.5t118.5 44.5q33 0 61.5 -12.5t43.5 -25.5t37 -36q26 -28 45 -38.5t45 -10.5q54 0 67 96q0 53 -78 287l-251 737q-32 97 -73.5 133.5t-107.5 36.5v60h656v-60q-91 0 -106 -35.5
t20 -138.5l125 -428h14l135 430q36 103 24.5 137.5t-98.5 34.5v60h367v-60q-64 0 -103.5 -36t-72.5 -134l-295 -892q-78 -237 -170 -345.5t-250 -117.5z" />
    <glyph glyph-name="endash" unicode="&#x2013;" horiz-adv-x="1228" 
d="M1229 432h-1229v242h1229v-242z" />
    <glyph glyph-name="emdash" unicode="&#x2014;" horiz-adv-x="2457" 
d="M2458 432h-2458v242h2458v-242z" />
    <glyph glyph-name="quoteleft" unicode="&#x2018;" horiz-adv-x="587" 
d="M350 1337q73 0 113.5 -46.5t40.5 -114.5q0 -78 -53.5 -132.5t-149.5 -54.5q-92 0 -154.5 69.5t-62.5 178.5q0 135 92.5 235t269.5 140v-70q-114 -19 -183.5 -78.5t-69.5 -124.5q0 -49 32 -49q11 0 26 12t39.5 23.5t59.5 11.5z" />
    <glyph glyph-name="quoteright" unicode="&#x2019;" horiz-adv-x="587" 
d="M238 1346q-72 0 -113 47t-41 114q0 78 53.5 132.5t149.5 54.5q92 0 154.5 -69.5t62.5 -178.5q0 -135 -92.5 -235t-270.5 -140v70q115 19 184.5 78t69.5 124q0 50 -30 50q-11 0 -26.5 -11.5t-40.5 -23.5t-60 -12z" />
    <glyph glyph-name="quotesinglbase" unicode="&#x201a;" horiz-adv-x="587" 
d="M238 -33q-72 0 -113 47.5t-41 114.5q0 79 53 132.5t150 53.5q93 0 155 -68.5t62 -178.5q0 -135 -92.5 -235t-270.5 -140v69q116 21 185 80t69 125q0 49 -30 49q-11 0 -26.5 -12t-40.5 -24.5t-60 -12.5z" />
    <glyph glyph-name="quotedblleft" unicode="&#x201c;" horiz-adv-x="1107" 
d="M350 1337q73 0 113.5 -46.5t40.5 -114.5q0 -78 -53.5 -132.5t-149.5 -54.5q-92 0 -154.5 69.5t-62.5 178.5q0 135 92.5 235t269.5 140v-70q-114 -19 -183.5 -78.5t-69.5 -124.5q0 -49 32 -49q11 0 26 12t39.5 23.5t59.5 11.5zM870 1337q72 0 113 -46.5t41 -114.5
q0 -78 -53.5 -132.5t-149.5 -54.5q-92 0 -154.5 69.5t-62.5 178.5q0 135 92.5 235t270.5 140v-70q-115 -19 -184.5 -78.5t-69.5 -124.5q0 -49 30 -49q12 0 27 12t40 23.5t60 11.5z" />
    <glyph glyph-name="quotedblright" unicode="&#x201d;" horiz-adv-x="1107" 
d="M238 1346q-72 0 -113 47t-41 114q0 78 53.5 132.5t149.5 54.5q92 0 154.5 -69.5t62.5 -178.5q0 -135 -92.5 -235t-270.5 -140v70q115 19 184.5 78t69.5 124q0 50 -30 50q-11 0 -26.5 -11.5t-40.5 -23.5t-60 -12zM758 1346q-73 0 -113.5 47t-40.5 114q0 78 53.5 132.5
t149.5 54.5q92 0 154.5 -69.5t62.5 -178.5q0 -135 -92 -235t-270 -140v70q115 19 184 78t69 124q0 50 -32 50q-11 0 -26 -11.5t-39.5 -23.5t-59.5 -12z" />
    <glyph glyph-name="quotedblbase" unicode="&#x201e;" horiz-adv-x="1107" 
d="M238 -33q-72 0 -113 47.5t-41 114.5q0 79 53 132.5t150 53.5q93 0 155 -68.5t62 -178.5q0 -135 -92.5 -235t-270.5 -140v69q116 21 185 80t69 125q0 49 -30 49q-11 0 -26.5 -12t-40.5 -24.5t-60 -12.5zM758 -33q-73 0 -113.5 47.5t-40.5 114.5q0 79 53 132.5t150 53.5
q93 0 155 -68.5t62 -178.5q0 -135 -92 -235t-270 -140v69q116 21 184.5 80t68.5 125q0 49 -32 49q-11 0 -26 -12t-39.5 -24.5t-59.5 -12.5z" />
    <glyph glyph-name="dagger" unicode="&#x2020;" horiz-adv-x="1161" 
d="M918 1298q58 0 99.5 -44.5t41.5 -118.5q0 -73 -41.5 -116.5t-99.5 -43.5q-35 0 -73 19t-67.5 42t-75 44.5t-94.5 25.5q2 -61 12 -106t32 -81.5t40 -57.5t53 -56q-68 -111 -99.5 -247t-37.5 -417v-592h-55v592q-4 281 -36 417.5t-101 246.5q36 35 54.5 56t41 57.5t33 81.5
t12.5 106q-49 -4 -95.5 -25.5t-75.5 -44.5t-67.5 -42t-74.5 -19q-59 0 -100.5 43.5t-41.5 116.5q0 74 42 118.5t100 44.5q36 0 74.5 -20t67.5 -44t75.5 -46.5t95.5 -26.5q-3 48 -18 90.5t-34.5 73.5t-39 61.5t-32.5 68.5t-13 81q0 74 47.5 118t114.5 44t114 -44t47 -118
q0 -43 -13 -81t-32 -68.5t-38 -61.5t-34 -73.5t-18 -90.5q48 5 94 27.5t75.5 46.5t67.5 43.5t73 19.5z" />
    <glyph glyph-name="daggerdbl" unicode="&#x2021;" horiz-adv-x="1161" 
d="M102 -27q0 74 42 118t100 44q36 0 74 -19t67 -42t75 -45t95 -27q-7 115 -33.5 172t-101.5 129q10 13 34 42t37 46.5t29 45t23.5 57t7.5 61.5q0 30 -7.5 58t-24 56.5t-28.5 45.5t-37.5 48t-33.5 42q75 72 101.5 130t33.5 171q-49 -4 -95 -25.5t-75 -44.5t-67 -42t-74 -19
q-59 0 -100.5 43.5t-41.5 116.5q0 74 42 118.5t100 44.5q36 0 74 -20t67 -44t75 -46.5t95 -26.5q-6 65 -28.5 118.5t-46 84t-42 75.5t-18.5 97q0 74 47.5 118t114.5 44t114 -44t47 -118q0 -51 -19.5 -99t-43.5 -80.5t-46 -84.5t-26 -111q49 5 95.5 27.5t76 46.5t67 43.5
t71.5 19.5q58 0 99.5 -44.5t41.5 -118.5q0 -73 -41.5 -116.5t-99.5 -43.5q-35 0 -72 18.5t-66.5 41.5t-76 44.5t-95.5 26.5q2 -60 12 -105.5t32 -82t39 -57t52 -56.5q-7 -8 -34.5 -41.5t-38 -49t-28.5 -44.5t-25 -57t-7 -58q0 -33 7.5 -62t24 -57t29 -45t38 -46.5
t34.5 -41.5q-34 -34 -51.5 -55t-39.5 -57t-32 -82t-12 -107q49 5 95.5 27t76 45.5t66.5 42t72 18.5q58 0 99.5 -44t41.5 -118t-41.5 -117.5t-99.5 -43.5q-34 0 -71.5 19.5t-67 43.5t-76 46.5t-95.5 27.5q4 -59 26 -112t46 -85.5t43.5 -80.5t19.5 -99q0 -74 -47 -118
t-114 -44t-114.5 44t-47.5 118q0 51 18.5 97t42 77.5t46 85.5t28.5 117q-49 -5 -95 -27.5t-75 -46.5t-67 -43.5t-74 -19.5q-58 0 -100 44t-42 117z" />
    <glyph glyph-name="bullet" unicode="&#x2022;" horiz-adv-x="772" 
d="M395 449q-122 0 -207.5 85.5t-85.5 206.5q0 123 85.5 209t207.5 86q123 0 209 -86t86 -209q0 -122 -86 -207t-209 -85z" />
    <glyph glyph-name="ellipsis" unicode="&#x2026;" horiz-adv-x="1660" 
d="M274 -33q-72 0 -122 50t-50 122q0 71 50 121.5t122 50.5q70 0 121 -50.5t51 -121.5q0 -72 -50.5 -122t-121.5 -50zM831 -33q-72 0 -122 50t-50 122q0 71 50 121.5t122 50.5q71 0 122 -51t51 -121q0 -72 -51 -122t-122 -50zM1386 -33q-71 0 -121.5 50t-50.5 122
q0 71 51 121.5t121 50.5q72 0 122.5 -50.5t50.5 -121.5q0 -72 -50.5 -122t-122.5 -50z" />
    <glyph glyph-name="perthousand" unicode="&#x2030;" horiz-adv-x="2492" 
d="M442 819q-136 0 -238 124t-102 304q0 182 101.5 307t238.5 125q136 0 237 -124.5t101 -307.5q0 -180 -101 -304t-237 -124zM281 0l1017 1638h119l-1018 -1638h-118zM442 879q30 0 49.5 27.5t29.5 81t14 114.5t4 145q0 86 -4 147.5t-14 116t-29.5 82t-49.5 27.5
q-57 0 -77.5 -97t-20.5 -276q0 -176 20.5 -272t77.5 -96zM1268 -33q-136 0 -238 124.5t-102 305.5q0 182 101.5 307t238.5 125t238.5 -125t101.5 -307q0 -181 -102 -305.5t-238 -124.5zM2052 -33q-138 0 -239 124.5t-101 305.5q0 183 101 307.5t239 124.5q135 0 236.5 -125
t101.5 -307q0 -181 -101.5 -305.5t-236.5 -124.5zM1268 27q30 0 49.5 27.5t29.5 81.5t13.5 114.5t3.5 146.5q0 87 -3.5 147.5t-13.5 115t-29.5 81.5t-49.5 27q-57 0 -77 -96t-20 -275q0 -85 4 -146.5t14 -115t29.5 -81t49.5 -27.5zM2052 27q55 0 75.5 96.5t20.5 273.5
q0 178 -20.5 274.5t-75.5 96.5q-58 0 -78 -95t-20 -276q0 -179 20 -274.5t78 -95.5z" />
    <glyph glyph-name="guilsinglleft" unicode="&#x2039;" horiz-adv-x="653" 
d="M569 1094l-170 -494l170 -500h-59l-426 500l426 494h59z" />
    <glyph glyph-name="guilsinglright" unicode="&#x203a;" horiz-adv-x="653" 
d="M84 100l170 500l-170 494h59l426 -494l-426 -500h-59z" />
    <glyph glyph-name="fraction" unicode="&#x2044;" horiz-adv-x="931" 
d="M-102 0l1017 1638h119l-1018 -1638h-118z" />
    <glyph glyph-name="Euro" unicode="&#x20ac;" horiz-adv-x="1562" 
d="M1403 659h57q-14 -93 -29.5 -165.5t-40 -147t-55 -129.5t-74.5 -104t-98.5 -80t-127.5 -48.5t-161 -17.5q-299 0 -471.5 191t-187.5 522h-174l29 80h143q0 79 8 139h-180l29 80h161q51 319 231 509.5t453 190.5q267 0 476 -159v-381h-60q-38 426 -323 426
q-79 0 -137.5 -41.5t-95.5 -120.5t-57 -183.5t-26 -240.5h496l-31 -80h-469v-80v-59h432l-28 -80h-402q13 -274 84 -417.5t217 -143.5t257.5 137t154.5 403z" />
    <glyph glyph-name="trademark" unicode="&#x2122;" horiz-adv-x="2586" 
d="M418 1524h-58q-96 0 -147 -52.5t-74 -183.5l-57 10l41 246l14 94h910l16 -94l39 -246l-58 -10q-21 130 -73 183t-148 53h-65q-41 0 -41 -39v-506q0 -97 34.5 -139.5t125.5 -42.5v-60h-580v60q92 0 127 42.5t35 139.5v506q0 39 -41 39zM1608 1638l190 -489h6l209 489h492
v-59q-92 0 -126 -42t-34 -140v-418q0 -98 34 -140t126 -42v-60h-580v60q92 0 126 42t34 140v520h-6l-340 -803h-39l-320 803h-6v-520q0 -97 34.5 -139.5t125.5 -42.5v-60h-430v60q91 0 125.5 42.5t34.5 139.5v418q0 97 -34.5 139.5t-125.5 42.5v59h504z" />
    <glyph glyph-name="oneeighth" unicode="&#x215b;" 
d="M545 1647v-830q0 -65 21 -87.5t85 -22.5v-35h-493v35q70 0 93 22.5t23 87.5v586q0 51 -8 70t-35 18t-86 -27l-16 35l393 172zM346 0l1018 1638h119l-1018 -1638h-119zM1147 221q0 76 45.5 128.5t136.5 113.5q-81 72 -119.5 132.5t-38.5 135.5q0 119 97 192.5t241 73.5
q134 0 218.5 -61t84.5 -158q0 -69 -43.5 -120t-130.5 -109q52 -41 80 -66t62.5 -63.5t49.5 -78t15 -85.5q0 -124 -104 -199t-258 -75q-142 0 -239 65t-97 174zM1415 815q0 -42 26.5 -79.5t96.5 -98.5q68 80 68 164q0 55 -27 88t-70 33q-40 0 -67 -29.5t-27 -77.5zM1354 213
q0 -66 32.5 -110t98.5 -44q50 0 79 29.5t29 77.5q0 51 -34.5 92t-135.5 125q-69 -75 -69 -170z" />
    <glyph glyph-name="threeeighths" unicode="&#x215c;" horiz-adv-x="2070" 
d="M158 786q0 38 25.5 61t64.5 23q27 0 47.5 -12.5t28.5 -23.5t24 -37q21 -33 37.5 -46.5t44.5 -13.5q50 0 84.5 46t34.5 151q0 115 -61.5 173t-157.5 58v37q213 35 213 187q0 59 -33 95t-102 36q-62 0 -104.5 -32t-55.5 -89h-37q16 123 96 197.5t215 74.5
q116 0 194.5 -59.5t78.5 -165.5q0 -96 -76 -161t-191 -87v-4q76 -1 141 -25t110.5 -79.5t45.5 -135.5q0 -74 -33 -133t-90 -95t-128.5 -54.5t-153.5 -18.5q-109 0 -185.5 34t-76.5 99zM492 0l1017 1638h119l-1018 -1638h-118zM1294 221q0 41 13.5 75.5t42 64.5t55.5 51.5
t72 50.5q-83 71 -121.5 132t-38.5 136q0 119 97 192.5t243 73.5q132 0 216.5 -61t84.5 -158q0 -69 -43.5 -120t-130.5 -109q52 -40 81 -65.5t63 -63.5t49.5 -78t15.5 -86q0 -124 -105 -199t-260 -75q-140 0 -237 65t-97 174zM1561 815q0 -42 26 -79t96 -99q70 79 70 164
q0 55 -27 88t-69 33q-41 0 -68.5 -29.5t-27.5 -77.5zM1499 213q0 -65 33 -109.5t98 -44.5q52 0 81.5 29.5t29.5 77.5q0 51 -34.5 92t-135.5 125q-72 -78 -72 -170z" />
    <glyph glyph-name="fiveeighths" unicode="&#x215d;" horiz-adv-x="2017" 
d="M399 653q-67 0 -122.5 13.5t-93.5 44.5t-38 75q0 38 25.5 62t65.5 24q37 0 59 -18.5t43 -54.5q21 -34 35.5 -48t36.5 -14q53 0 84.5 61t31.5 173q0 233 -139 233q-78 0 -135 -80l-53 35l123 479h481l-47 -200h-371l-41 -172l4 -4q47 28 81 39.5t79 11.5q53 0 102.5 -16.5
t94.5 -50.5t72.5 -97.5t27.5 -147.5q0 -91 -35.5 -160.5t-95 -109t-129 -59t-146.5 -19.5zM438 0l1018 1638h119l-1018 -1638h-119zM1241 221q0 53 27 99.5t60.5 74.5t92.5 68q-81 71 -119 132t-38 136q0 119 97 192.5t243 73.5q132 0 216.5 -61t84.5 -158q0 -69 -43.5 -120
t-130.5 -109q51 -39 80.5 -65.5t62.5 -64t48 -77.5t15 -86q0 -124 -104 -199t-258 -75q-142 0 -238 65t-96 174zM1507 815q0 -42 26.5 -79.5t96.5 -98.5q68 80 68 164q0 55 -26 88t-68 33q-41 0 -69 -29.5t-28 -77.5zM1446 213q0 -65 33 -109.5t98 -44.5q51 0 81 29.5
t30 77.5q0 51 -34.5 92t-135.5 125q-72 -75 -72 -170z" />
    <glyph glyph-name="seveneighths" unicode="&#x215e;" horiz-adv-x="1880" 
d="M877 1638l-355 -985l-182 66l291 715v6h-289q-58 0 -90 -32.5t-49 -113.5l-35 9l31 149l41 186h637zM301 0l1018 1638h119l-1018 -1638h-119zM1102 221q0 76 45.5 128.5t136.5 113.5q-81 72 -119.5 132.5t-38.5 135.5q0 119 97 192.5t241 73.5q134 0 218.5 -61t84.5 -158
q0 -69 -43.5 -120t-130.5 -109q52 -41 80 -66t62.5 -63.5t49.5 -78t15 -85.5q0 -124 -104 -199t-258 -75q-142 0 -239 65t-97 174zM1370 815q0 -42 26.5 -79.5t96.5 -98.5q68 80 68 164q0 55 -27 88t-70 33q-40 0 -67 -29.5t-27 -77.5zM1309 213q0 -66 32.5 -110t98.5 -44
q50 0 79 29.5t29 77.5q0 51 -34.5 92t-135.5 125q-69 -75 -69 -170z" />
    <glyph glyph-name="arrowleft" unicode="&#x2190;" horiz-adv-x="1882" 
d="M1780 639v-172h-1018q-106 0 -234 32.5t-202 32.5v-6q89 -31 160 -66.5t117.5 -66.5t90 -75t68 -75t61.5 -83l-188 -152q-106 208 -221 310t-312 180v112q100 40 170 78.5t135 95t119 131.5t109 183l188 -150q-37 -52 -61.5 -84t-68 -76t-90 -75t-117.5 -66.5t-160 -66.5
v-7q73 0 201 33t235 33h1018z" />
    <glyph glyph-name="arrowup" unicode="&#x2191;" horiz-adv-x="1331" 
d="M752 827v-1017h-172v1017q0 107 32.5 235.5t32.5 203.5h-6q-38 -111 -80 -191.5t-92.5 -138t-90 -90.5t-104.5 -78l-151 186q208 106 309.5 220.5t179.5 312.5h113q40 -100 78.5 -170t94.5 -135t131.5 -119t182.5 -109l-149 -186q-52 35 -84 60t-76 68.5t-75.5 90.5
t-67 118.5t-66.5 160.5h-6q0 -75 33 -204t33 -235z" />
    <glyph glyph-name="arrowright" unicode="&#x2192;" horiz-adv-x="1882" 
d="M1120 467h-1018v172h1018q107 0 235 -33t201 -33v7q-89 31 -160.5 66.5t-117.5 66.5t-90 75.5t-68 75.5t-61 84l188 150q55 -108 109 -183t119 -131.5t135 -95t170 -78.5v-112q-197 -78 -312 -180t-221 -310l-188 152q37 53 61 83.5t68 74.5t90 75t117.5 66.5t160.5 66.5
v6q-74 0 -202 -32.5t-234 -32.5z" />
    <glyph glyph-name="arrowdown" unicode="&#x2193;" horiz-adv-x="1331" 
d="M580 1348h172v-1018q0 -106 -33 -235t-33 -204h6q31 89 66.5 160.5t67 118.5t75.5 90.5t76 68.5t84 60l149 -186q-107 -55 -182.5 -109t-131.5 -119t-94.5 -135t-78.5 -170h-113q-78 198 -179.5 312.5t-309.5 220.5l151 186q65 -45 104.5 -78t90 -90.5t92.5 -138
t80 -191.5h6q0 75 -32.5 203.5t-32.5 235.5v1018z" />
    <glyph glyph-name="arrowboth" unicode="&#x2194;" horiz-adv-x="2660" 
d="M1837 948l188 150q55 -108 109 -183t119 -131.5t135 -95t170 -78.5v-112q-197 -78 -312 -180t-221 -310l-188 152q37 52 61.5 83t68 75t90 75t118 66.5t160.5 66.5v6q-74 0 -202.5 -32.5t-234.5 -32.5h-1136q-106 0 -234 32.5t-202 32.5v-6q89 -31 160 -66.5t117.5 -66.5
t90 -75t68 -75t61.5 -83l-188 -152q-106 208 -221 310t-312 180v112q100 40 170 78.5t135 95t119 131.5t109 183l188 -150q-37 -52 -61.5 -84t-68 -76t-90 -75t-117.5 -66.5t-160 -66.5v-7q73 0 201 33t235 33h1136q107 0 235.5 -33t201.5 -33v7q-89 31 -160.5 66.5
t-118 66.5t-90 75t-68 75.5t-61.5 84.5z" />
    <glyph glyph-name="arrowupdn" unicode="&#x2195;" horiz-adv-x="1296" 
d="M668 -465h6q31 89 66.5 160t67 117.5t75 90t75.5 69t84 61.5l152 -189q-108 -55 -183.5 -108.5t-132 -119t-95 -135t-78.5 -169.5h-113q-78 197 -180 311t-310 221l152 189q65 -46 104 -79t90 -90.5t93 -138t80 -190.5h6q0 74 -33 202t-33 234v1137q0 106 33 234t33 202
h-6q-31 -89 -66.5 -160.5t-66.5 -117.5t-75.5 -90t-75 -67.5t-83.5 -61.5l-152 188q208 107 310 221t180 311h113q40 -100 78.5 -169.5t95 -135t132 -119t183.5 -108.5l-152 -188q-53 37 -84 61t-75.5 68t-75.5 90t-66.5 117.5t-66.5 160.5h-6q0 -73 32.5 -201t32.5 -235
v-1137q0 -107 -32.5 -235t-32.5 -201z" />
    <glyph glyph-name="uni2196" unicode="&#x2196;" horiz-adv-x="1511" 
d="M1382 57l-120 -123l-719 719q-48 48 -85.5 100t-57.5 89.5t-51 84t-68 83.5l-7 -4q51 -106 78.5 -192.5t32.5 -162.5t0.5 -128t-18.5 -130l-238 27q49 152 58.5 270.5t-12.5 219.5t-79 233l80 78q132 -56 232.5 -77.5t219.5 -12t271 58.5l25 -238q-78 -14 -129 -19
t-127.5 -0.5t-163 31.5t-191.5 78l-4 -4q37 -37 82.5 -68.5t83 -51t89.5 -57t100 -85.5z" />
    <glyph glyph-name="uni2197" unicode="&#x2197;" horiz-adv-x="1511" 
d="M969 653l-719 -719l-121 123l719 719q60 60 125.5 102t124 78t104.5 82l-4 4q-105 -51 -191 -78t-162.5 -31.5t-127 0.5t-129.5 19l24 238q152 -49 271 -58.5t219.5 12t232.5 77.5l80 -78q-57 -131 -78.5 -232.5t-11.5 -219.5t59 -271l-239 -27q-14 78 -18.5 130t0 128
t32 162.5t78.5 192.5l-4 4q-46 -46 -82.5 -106t-79 -125.5t-102.5 -125.5z" />
    <glyph glyph-name="uni2198" unicode="&#x2198;" horiz-adv-x="1511" 
d="M129 1049l121 122l719 -718q60 -60 102.5 -125.5t79 -125.5t82.5 -106l4 4q-51 106 -78.5 192.5t-32 162.5t0 128t18.5 130l239 -27q-49 -153 -59 -271t11.5 -219.5t78.5 -232.5l-80 -78q-132 56 -232.5 77.5t-219.5 12t-271 -58.5l-24 238q78 14 129 18.5t127.5 0
t162.5 -31.5t191 -78l4 5q-46 46 -104.5 82t-124 78t-125.5 102z" />
    <glyph glyph-name="uni2199" unicode="&#x2199;" horiz-adv-x="1511" 
d="M543 453l719 718l120 -122l-718 -719q-48 -48 -100 -85.5t-89.5 -57t-83 -51t-82.5 -68.5l4 -5q85 41 160 66t130.5 36t117 10.5t101.5 -5.5t102 -16l-25 -238q-152 49 -271 58.5t-219.5 -12t-232.5 -77.5l-80 78q57 132 79 233t12.5 219.5t-58.5 270.5l238 27
q14 -78 18.5 -130t-0.5 -128t-32.5 -162.5t-78.5 -192.5l7 -4q37 37 68 83.5t51 84t57.5 89.5t85.5 100z" />
    <glyph glyph-name="partialdiff" unicode="&#x2202;" horiz-adv-x="1304" 
d="M723 1659q236 0 359 -195.5t120 -562.5q-2 -128 -18 -243.5t-47 -219t-80 -187t-113 -144.5t-149.5 -94t-186.5 -33q-220 0 -363 154.5t-143 395.5q0 115 37.5 216.5t106 177t173.5 119.5t232 44q72 0 137.5 -16t111 -39.5t86.5 -56t64 -58t44 -53.5q-8 114 -37.5 202.5
t-72 143t-98.5 89.5t-111.5 48t-117.5 13q-107 0 -202.5 -42.5t-161.5 -119.5h-53q23 60 40 101.5t44 93.5t52.5 87t62.5 71.5t77 58.5t93 35.5t114 13.5zM666 106q115 0 214 94t156 244t60 316q-97 203 -252 203q-83 0 -154 -56.5t-115.5 -144.5t-69 -187.5t-24.5 -191.5
q0 -132 46.5 -204.5t138.5 -72.5z" />
    <glyph glyph-name="emptyset" unicode="&#x2205;" horiz-adv-x="1427" 
d="M1243 1241l82 -80l-197 -194q119 -148 119 -336q0 -145 -71.5 -268.5t-194.5 -195t-268 -71.5q-188 0 -336 119l-195 -195l-80 80l195 195q-119 148 -119 336q0 145 71.5 268t195 194.5t268.5 71.5q189 0 336 -118zM293 631q0 -140 86 -254l588 588q-114 86 -254 86
q-173 0 -296.5 -123.5t-123.5 -296.5zM1133 631q0 137 -86 254l-588 -588q117 -86 254 -86q173 0 296.5 123.5t123.5 296.5z" />
    <glyph glyph-name="product" unicode="&#x220f;" horiz-adv-x="2002" 
d="M1901 1638v-59q-131 0 -179.5 -42t-48.5 -140v-1524q0 -98 48.5 -140t179.5 -42v-60h-844v60q131 0 180 42.5t49 139.5v1651h-567v-1651q0 -98 48.5 -140t178.5 -42v-60h-844v60q131 0 180.5 42.5t49.5 139.5v1524q0 97 -49.5 139.5t-180.5 42.5v59h1799z" />
    <glyph glyph-name="summation" unicode="&#x2211;" horiz-adv-x="1613" 
d="M102 1638h1334l8 -88l33 -333l-58 -7q-18 176 -68 245t-147 69h-622l454 -637l-604 -905h791q97 0 149.5 83.5t77.5 299.5l59 -9l-49 -407l-37 -318h-1321v60l654 981v6l-654 901v59z" />
    <glyph glyph-name="minus" unicode="&#x2212;" horiz-adv-x="1081" 
d="M979 494h-877v241h877v-241z" />
    <glyph glyph-name="radical" unicode="&#x221a;" horiz-adv-x="1695" 
d="M1477 1905h116l-456 -2145h-113l-627 998l-241 -125l-54 102l551 285l469 -770h6z" />
    <glyph glyph-name="infinity" unicode="&#x221e;" horiz-adv-x="2310" 
d="M1712 1335q215 0 355.5 -124t140.5 -337q0 -210 -135 -344.5t-357 -134.5q-89 0 -170 23t-150.5 66.5t-125 92.5t-115.5 115q-320 -256 -602 -256q-210 0 -330.5 113t-120.5 303q0 198 125.5 320t317.5 122q84 0 161 -24.5t143 -70t117 -93t107 -111.5q109 95 181 151
t151 103t152 66.5t155 19.5zM1724 514q167 0 267 108.5t100 264.5q0 139 -81 217t-208 78q-55 0 -100.5 -14.5t-93.5 -51.5t-82 -69.5t-100.5 -102t-114.5 -115.5l-54 -51q112 -124 222.5 -194t244.5 -70zM467 590q54 0 102.5 16t113 61t121 92.5t163.5 143.5l2 2
q-125 140 -221.5 206.5t-206.5 66.5q-142 0 -233 -98t-91 -238q0 -119 70 -185.5t180 -66.5z" />
    <glyph glyph-name="integral" unicode="&#x222b;" horiz-adv-x="1216" 
d="M877 68q0 -226 -104.5 -331.5t-313.5 -105.5q-165 0 -261 60.5t-96 165.5q0 55 28.5 91t94.5 36q63 0 90.5 -33t34.5 -90q9 -67 22 -87q20 -28 64 -28q70 0 97.5 61t27.5 170q0 130 -34.5 315.5t-76 342.5t-76 339t-34.5 306q0 225 111 332.5t317 107.5q160 0 253 -60.5
t93 -166.5q0 -53 -28.5 -89t-94.5 -36q-64 0 -91 33t-34 90q-9 67 -22 87q-20 28 -64 28q-69 0 -97 -63.5t-28 -180.5q0 -113 23 -251.5t55.5 -270t65 -262t55.5 -266t23 -244.5z" />
    <glyph glyph-name="approxequal" unicode="&#x2248;" horiz-adv-x="1531" 
d="M1370 1124h60q-7 -102 -29.5 -184t-62.5 -144.5t-102.5 -97t-143.5 -34.5q-70 0 -141.5 22t-132.5 54t-122 63.5t-132.5 53.5t-141.5 22q-101 0 -168.5 -53.5t-91.5 -159.5h-60q7 102 29.5 184t62.5 144.5t102 97t142 34.5q70 0 142 -22t133.5 -54t122.5 -63.5t132 -53.5
t140 -22q103 0 170.5 53.5t91.5 159.5zM1370 653h60q-7 -102 -29.5 -184t-62.5 -144.5t-102.5 -97t-143.5 -34.5q-70 0 -141.5 22t-132.5 53.5t-122 63.5t-132.5 54t-141.5 22q-101 0 -168.5 -53.5t-91.5 -159.5h-60q7 102 29.5 184t62.5 144.5t102 97t142 34.5
q70 0 142 -22t133.5 -53.5t122.5 -63.5t132 -54t140 -22q103 0 170.5 53.5t91.5 159.5z" />
    <glyph glyph-name="notequal" unicode="&#x2260;" horiz-adv-x="1081" 
d="M979 954v-243h-369l-73 -193h442v-244h-537l-116 -305h-88l116 305h-252v244h347l75 193h-422v243h514l142 365h86l-139 -365h274z" />
    <glyph glyph-name="lessequal" unicode="&#x2264;" horiz-adv-x="1142" 
d="M1040 1317v-256l-739 -193v-6l739 -192v-500h-938v256h889l-889 254v369z" />
    <glyph glyph-name="greaterequal" unicode="&#x2265;" horiz-adv-x="1142" 
d="M102 1317l938 -268v-369l-888 -254h888v-256h-938v500l738 192v6l-738 193v256z" />
    <glyph glyph-name="uni2460" unicode="&#x2460;" 
d="M965 1679q140 0 271 -42.5t236.5 -121.5t185 -184.5t122.5 -238t43 -275.5q0 -174 -68 -333t-182.5 -274t-273.5 -183t-334 -68q-177 0 -337 68t-275 183t-183 274t-68 333q0 179 67.5 339t183 274.5t275 181.5t337.5 67zM965 1618q-221 0 -405.5 -107.5t-290 -291.5
t-105.5 -402q0 -164 62 -311.5t168.5 -254t255.5 -169t315 -62.5q216 0 399 106t290 289.5t107 401.5q0 163 -63.5 311t-170 255.5t-254 171t-308.5 63.5zM1116 1305v-830q0 -65 21 -87.5t86 -22.5v-35h-496v35q71 0 94 22.5t23 87.5v586q0 51 -7.5 70t-34 18t-85.5 -27
l-17 35l392 172z" />
    <glyph glyph-name="uni2461" unicode="&#x2461;" 
d="M965 1679q140 0 271 -42.5t236.5 -121.5t185 -184.5t122.5 -238t43 -275.5q0 -174 -68 -333t-182.5 -274t-273.5 -183t-334 -68q-177 0 -337 68t-275 183t-183 274t-68 333q0 179 67.5 339t183 274.5t275 181.5t337.5 67zM965 1618q-221 0 -405.5 -107.5t-290 -291.5
t-105.5 -402q0 -164 62 -311.5t168.5 -254t255.5 -169t315 -62.5q216 0 399 106t290 289.5t107 401.5q0 163 -63.5 311t-170 255.5t-254 171t-308.5 63.5zM862 528h293q63 0 96.5 29.5t61.5 106.5l33 -13l-52 -137l-67 -184h-606v35q83 84 126 128.5t100.5 106.5t85 100
t56 84.5t39 85t10.5 78.5q0 180 -168 180q-81 0 -128.5 -48.5t-59.5 -137.5h-39q0 173 105.5 280t273.5 107q131 0 203.5 -60.5t72.5 -172.5q0 -52 -25.5 -110t-61.5 -107t-100 -113t-115.5 -109t-133.5 -114v-15z" />
    <glyph glyph-name="uni2462" unicode="&#x2462;" 
d="M965 1679q140 0 271 -42.5t236.5 -121.5t185 -184.5t122.5 -238t43 -275.5q0 -174 -68 -333t-182.5 -274t-273.5 -183t-334 -68q-177 0 -337 68t-275 183t-183 274t-68 333q0 179 67.5 339t183 274.5t275 181.5t337.5 67zM965 1618q-221 0 -405.5 -107.5t-290 -291.5
t-105.5 -402q0 -164 62 -311.5t168.5 -254t255.5 -169t315 -62.5q216 0 399 106t290 289.5t107 401.5q0 163 -63.5 311t-170 255.5t-254 171t-308.5 63.5zM641 444q0 37 25.5 59.5t64.5 22.5q27 0 47 -11.5t28.5 -23t24.5 -36.5q21 -33 37.5 -46.5t44.5 -13.5q50 0 84.5 46
t34.5 151q0 115 -61.5 173t-157.5 58v35q101 19 157 62t56 124q0 60 -34 97t-101 37q-63 0 -104.5 -32t-55.5 -89h-39q18 123 98 197.5t214 74.5q118 0 196 -59.5t78 -165.5q0 -96 -75.5 -161t-190.5 -87v-4q56 -1 107 -15.5t94.5 -42.5t69.5 -75t26 -107q0 -98 -58.5 -168
t-149 -101.5t-200.5 -31.5q-69 0 -126 13.5t-95.5 44.5t-38.5 75z" />
    <glyph glyph-name="uni2463" unicode="&#x2463;" 
d="M965 1679q140 0 271 -42.5t236.5 -121.5t185 -184.5t122.5 -238t43 -275.5q0 -174 -68 -333t-182.5 -274t-273.5 -183t-334 -68q-177 0 -337 68t-275 183t-183 274t-68 333q0 179 67.5 339t183 274.5t275 181.5t337.5 67zM965 1618q-221 0 -405.5 -107.5t-290 -291.5
t-105.5 -402q0 -164 62 -311.5t168.5 -254t255.5 -169t315 -62.5q216 0 399 106t290 289.5t107 401.5q0 163 -63.5 311t-170 255.5t-254 171t-308.5 63.5zM913 569h-348v195l416 559h170v-559h135v-195h-135v-96q0 -66 20.5 -88.5t83.5 -22.5v-34h-454v34q68 0 90 22.5
t22 88.5v96zM651 768v-4h262v360z" />
    <glyph glyph-name="uni2464" unicode="&#x2464;" 
d="M965 1679q140 0 271 -42.5t236.5 -121.5t185 -184.5t122.5 -238t43 -275.5q0 -174 -68 -333t-182.5 -274t-273.5 -183t-334 -68q-177 0 -337 68t-275 183t-183 274t-68 333q0 179 67.5 339t183 274.5t275 181.5t337.5 67zM965 1618q-221 0 -405.5 -107.5t-290 -291.5
t-105.5 -402q0 -164 62 -311.5t168.5 -254t255.5 -169t315 -62.5q216 0 399 106t290 289.5t107 401.5q0 163 -63.5 311t-170 255.5t-254 171t-308.5 63.5zM883 313q-67 0 -122.5 13.5t-93.5 44.5t-38 75q0 38 25 62t65 24q37 0 59 -19t43 -56q21 -34 35.5 -48t36.5 -14
q54 0 85.5 61.5t31.5 174.5q0 119 -37 176t-103 57q-76 0 -135 -82l-53 37l123 479h481l-47 -200h-371l-41 -172l4 -4q47 28 81 39.5t79 11.5q41 0 81 -9.5t80 -33t69.5 -58.5t48 -90t18.5 -123q0 -91 -35.5 -160t-94.5 -108t-128.5 -58.5t-146.5 -19.5z" />
    <glyph glyph-name="uni2465" unicode="&#x2465;" 
d="M965 1679q140 0 271 -42.5t236.5 -121.5t185 -184.5t122.5 -238t43 -275.5q0 -174 -68 -333t-182.5 -274t-273.5 -183t-334 -68q-177 0 -337 68t-275 183t-183 274t-68 333q0 179 67.5 339t183 274.5t275 181.5t337.5 67zM965 1618q-221 0 -405.5 -107.5t-290 -291.5
t-105.5 -402q0 -164 62 -311.5t168.5 -254t255.5 -169t315 -62.5q216 0 399 106t290 289.5t107 401.5q0 163 -63.5 311t-170 255.5t-254 171t-308.5 63.5zM553 743q0 241 173.5 390t492.5 194v-35q-270 -62 -353 -329q77 53 170 53q127 0 201 -88.5t74 -229.5
q0 -77 -23.5 -146.5t-68 -124t-115 -86.5t-158.5 -32q-186 0 -289.5 114.5t-103.5 319.5zM834 680q0 -299 110 -299q35 0 54.5 22.5t28.5 81t9 168.5q0 70 -4 118.5t-14.5 90.5t-31.5 63t-52 21q-42 0 -82 -37q-18 -88 -18 -229z" />
    <glyph glyph-name="uni2466" unicode="&#x2466;" 
d="M965 1679q140 0 271 -42.5t236.5 -121.5t185 -184.5t122.5 -238t43 -275.5q0 -174 -68 -333t-182.5 -274t-273.5 -183t-334 -68q-177 0 -337 68t-275 183t-183 274t-68 333q0 179 67.5 339t183 274.5t275 181.5t337.5 67zM965 1618q-221 0 -405.5 -107.5t-290 -291.5
t-105.5 -402q0 -164 62 -311.5t168.5 -254t255.5 -169t315 -62.5q216 0 399 106t290 289.5t107 401.5q0 163 -63.5 311t-170 255.5t-254 171t-308.5 63.5zM1333 1292l-354 -985l-182 66l290 714v7h-288q-58 0 -91 -33t-51 -113l-34 8l32 150l41 186h637z" />
    <glyph glyph-name="uni2467" unicode="&#x2467;" 
d="M965 1679q140 0 271 -42.5t236.5 -121.5t185 -184.5t122.5 -238t43 -275.5q0 -174 -68 -333t-182.5 -274t-273.5 -183t-334 -68q-177 0 -337 68t-275 183t-183 274t-68 333q0 179 67.5 339t183 274.5t275 181.5t337.5 67zM965 1618q-221 0 -405.5 -107.5t-290 -291.5
t-105.5 -402q0 -164 62 -311.5t168.5 -254t255.5 -169t315 -62.5q216 0 399 106t290 289.5t107 401.5q0 163 -63.5 311t-170 255.5t-254 171t-308.5 63.5zM621 551q0 77 45.5 129.5t136.5 112.5q-83 71 -121.5 132t-38.5 136q0 118 98 192t242 74q132 0 216.5 -61t84.5 -158
q0 -70 -43 -120.5t-131 -108.5q52 -40 81 -65.5t63 -63.5t49.5 -78t15.5 -86q0 -124 -105 -199.5t-260 -75.5q-140 0 -236.5 65.5t-96.5 174.5zM889 1145q0 -42 26 -79.5t95 -100.5q69 81 69 165q0 55 -27 88t-69 33q-41 0 -67.5 -29t-26.5 -77zM827 543q0 -66 32.5 -111
t98.5 -45q50 0 79.5 30.5t29.5 78.5q0 51 -34.5 92t-135.5 125q-70 -79 -70 -170z" />
    <glyph glyph-name="uni2468" unicode="&#x2468;" 
d="M961 -41q-175 0 -334 67t-274 181.5t-183 274.5t-68 339q0 174 68 333t183 274t274 183t334 68q177 0 337 -68t275 -183t182.5 -274t67.5 -333q0 -179 -67.5 -339t-182.5 -274.5t-274.5 -181.5t-337.5 -67zM961 20q166 0 315 63.5t255 171t168 255.5t62 311
q0 164 -62 311.5t-168.5 254t-255 169t-314.5 62.5q-162 0 -309 -62.5t-254 -169t-170.5 -254.5t-63.5 -311t63.5 -311.5t170.5 -255.5t254.5 -170.5t308.5 -63.5zM1372 895q0 -242 -173 -390.5t-492 -193.5v35q269 62 352 330q-74 -51 -170 -51q-127 0 -201 87.5t-74 227.5
q0 77 24 146.5t68.5 124t115 86.5t157.5 32q186 0 289.5 -114.5t103.5 -319.5zM1094 958q0 299 -113 299q-52 0 -71 -55t-19 -217q0 -70 3.5 -118.5t14 -90.5t31 -63t51.5 -21q42 0 82 37q21 103 21 229z" />
    <glyph glyph-name="uni2469" unicode="&#x2469;" 
d="M965 1679q140 0 271 -42.5t236.5 -121.5t185 -184.5t122.5 -238t43 -275.5q0 -174 -68 -333t-182.5 -274t-273.5 -183t-334 -68q-177 0 -337 68t-275 183t-183 274t-68 333q0 179 67.5 339t183 274.5t275 181.5t337.5 67zM965 1618q-221 0 -405.5 -107.5t-290 -291.5
t-105.5 -402q0 -164 62 -311.5t168.5 -254t255.5 -169t315 -62.5q161 0 308 62.5t254 169t170.5 254.5t63.5 311t-63.5 311t-170 255.5t-254 171t-308.5 63.5zM1243 315q-122 0 -213.5 70t-137.5 184t-46 254q0 141 46 255.5t137.5 184.5t213.5 70t213.5 -69t138.5 -184
t47 -257q0 -141 -47 -255.5t-139 -183.5t-213 -69zM766 1305v-830q0 -65 21 -87.5t85 -22.5v-35h-493v35q71 0 94 22.5t23 87.5v586q0 51 -7.5 70t-34.5 18t-87 -27l-15 35l391 172zM1243 385q64 0 90.5 111t26.5 327q0 218 -26.5 329.5t-90.5 111.5q-63 0 -89 -111
t-26 -330q0 -218 26 -328t89 -110z" />
    <glyph glyph-name="uni246A" unicode="&#x246a;" 
d="M965 1679q140 0 271 -42.5t236.5 -121.5t185 -184.5t122.5 -238t43 -275.5q0 -174 -68 -333t-182.5 -274t-273.5 -183t-334 -68q-177 0 -337 68t-275 183t-183 274t-68 333q0 179 67.5 339t183 274.5t275 181.5t337.5 67zM965 1618q-221 0 -405.5 -107.5t-290 -291.5
t-105.5 -402q0 -164 62 -311.5t168.5 -254t255.5 -169t315 -62.5q216 0 399 106t290 289.5t107 401.5q0 163 -63.5 311t-170 255.5t-254 171t-308.5 63.5zM860 1305v-830q0 -65 21.5 -87.5t85.5 -22.5v-35h-494v35q70 0 93.5 22.5t23.5 87.5v586q0 51 -8 70t-35 18t-86 -27
l-17 35l394 172zM1382 1305v-830q0 -65 21.5 -87.5t85.5 -22.5v-35h-494v35q70 0 93.5 22.5t23.5 87.5v586q0 51 -8 70t-35 18t-86 -27l-16 35l393 172z" />
    <glyph glyph-name="uni246B" unicode="&#x246b;" 
d="M965 1679q140 0 271 -42.5t236.5 -121.5t185 -184.5t122.5 -238t43 -275.5q0 -174 -68 -333t-182.5 -274t-273.5 -183t-334 -68q-177 0 -337 68t-275 183t-183 274t-68 333q0 179 67.5 339t183 274.5t275 181.5t337.5 67zM965 1618q-221 0 -405.5 -107.5t-290 -291.5
t-105.5 -402q0 -164 62 -311.5t168.5 -254t255.5 -169t315 -62.5q216 0 399 106t290 289.5t107 401.5q0 163 -63.5 311t-170 255.5t-254 171t-308.5 63.5zM778 1305v-830q0 -65 21 -87.5t86 -22.5v-35h-496v35q71 0 94 22.5t23 87.5v586q0 51 -7.5 70t-34 18t-85.5 -27
l-17 35l392 172zM1169 528h293q63 0 96.5 29.5t61.5 106.5l33 -13l-51 -137l-68 -184h-604v35q85 86 125.5 128.5t99.5 106.5t85.5 100.5t55.5 84t39.5 86t10.5 77.5q0 93 -44 136.5t-122 43.5q-82 0 -130.5 -48.5t-60.5 -137.5h-39q0 173 106 280t275 107q131 0 203 -60.5
t72 -172.5q0 -52 -25.5 -110t-61.5 -107t-100.5 -113.5t-115.5 -109t-134 -113.5v-15z" />
    <glyph glyph-name="uni246C" unicode="&#x246c;" 
d="M965 1679q140 0 271 -42.5t236.5 -121.5t185 -184.5t122.5 -238t43 -275.5q0 -174 -68 -333t-182.5 -274t-273.5 -183t-334 -68q-177 0 -337 68t-275 183t-183 274t-68 333q0 179 67.5 339t183 274.5t275 181.5t337.5 67zM965 1618q-221 0 -405.5 -107.5t-290 -291.5
t-105.5 -402q0 -164 62 -311.5t168.5 -254t255.5 -169t315 -62.5q216 0 399 106t290 289.5t107 401.5q0 163 -63.5 311t-170 255.5t-254 171t-308.5 63.5zM887 440q0 38 25.5 61t64.5 23q27 0 47 -11.5t28.5 -23t24.5 -36.5q21 -35 37 -48.5t45 -13.5q50 0 84.5 46.5
t34.5 152.5q0 114 -61.5 172.5t-157.5 58.5v35q213 35 213 186q0 60 -33.5 96t-101.5 36q-63 0 -104.5 -32t-55.5 -89h-39q18 124 97 198t214 74q118 0 196.5 -59.5t78.5 -165.5q0 -95 -76.5 -160.5t-190.5 -85.5v-4q56 -2 107 -16.5t94.5 -42.5t69.5 -75.5t26 -107.5
q0 -74 -33.5 -133t-90.5 -95t-129 -54.5t-154 -18.5q-69 0 -126 13.5t-95.5 44.5t-38.5 75zM782 1296v-829q0 -64 21 -86.5t86 -22.5v-34h-496v34q71 0 95 22.5t24 86.5v586q0 51 -8 70t-35 18t-86 -27l-16 37l161 70l232 102z" />
    <glyph glyph-name="uni246D" unicode="&#x246d;" 
d="M965 1679q140 0 271 -42.5t236.5 -121.5t185 -184.5t122.5 -238t43 -275.5q0 -174 -68 -333t-182.5 -274t-273.5 -183t-334 -68q-177 0 -337 68t-275 183t-183 274t-68 333q0 179 67.5 339t183 274.5t275 181.5t337.5 67zM965 1618q-221 0 -405.5 -107.5t-290 -291.5
t-105.5 -402q0 -164 62 -311.5t168.5 -254t255.5 -169t315 -62.5q216 0 399 106t290 289.5t107 401.5q0 163 -63.5 311t-170 255.5t-254 171t-308.5 63.5zM770 1305v-830q0 -65 21 -87.5t86 -22.5v-35h-496v35q71 0 94 22.5t23 87.5v586q0 51 -7.5 70t-34 18t-85.5 -27
l-17 35l391 172zM1178 571h-349v195l416 559h170v-559h135v-195h-135v-96q0 -65 20.5 -87.5t84.5 -22.5v-35h-457v35q70 0 92.5 22.5t22.5 87.5v96zM913 770v-4h265v360z" />
    <glyph glyph-name="uni246E" unicode="&#x246e;" 
d="M965 1679q140 0 271 -42.5t236.5 -121.5t185 -184.5t122.5 -238t43 -275.5q0 -174 -68 -333t-182.5 -274t-273.5 -183t-334 -68q-177 0 -337 68t-275 183t-183 274t-68 333q0 179 67.5 339t183 274.5t275 181.5t337.5 67zM965 1618q-221 0 -405.5 -107.5t-290 -291.5
t-105.5 -402q0 -164 62 -311.5t168.5 -254t255.5 -169t315 -62.5q216 0 399 106t290 289.5t107 401.5q0 163 -63.5 311t-170 255.5t-254 171t-308.5 63.5zM776 1305v-830q0 -65 21 -87.5t86 -22.5v-35h-496v35q71 0 94 22.5t23 87.5v586q0 51 -7.5 70t-34 18t-85.5 -27
l-17 35l392 172zM1137 317q-67 0 -123 14t-94.5 45t-38.5 75q0 38 25.5 62t64.5 24q38 0 60.5 -19.5t43.5 -56.5q20 -33 35 -46.5t37 -13.5q54 0 85.5 60.5t31.5 173.5q0 233 -142 233q-78 0 -133 -82l-53 37l121 480h483l-47 -201h-371l-41 -172l4 -4q47 28 81 39.5
t79 11.5q42 0 81.5 -9.5t79.5 -32.5t69.5 -57.5t48 -89t18.5 -122.5q0 -91 -35.5 -161t-94.5 -109.5t-128.5 -59t-146.5 -19.5z" />
    <glyph glyph-name="uni246F" unicode="&#x246f;" 
d="M965 1679q140 0 271 -42.5t236.5 -121.5t185 -184.5t122.5 -238t43 -275.5q0 -174 -68 -333t-182.5 -274t-273.5 -183t-334 -68q-177 0 -337 68t-275 183t-183 274t-68 333q0 179 67.5 339t183 274.5t275 181.5t337.5 67zM965 1618q-221 0 -405.5 -107.5t-290 -291.5
t-105.5 -402q0 -164 62 -311.5t168.5 -254t255.5 -169t315 -62.5q216 0 399 106t290 289.5t107 401.5q0 163 -63.5 311t-170 255.5t-254 171t-308.5 63.5zM770 1305v-830q0 -65 21.5 -87.5t85.5 -22.5v-35h-494v35q70 0 93.5 22.5t23.5 87.5v586q0 51 -8 70t-35 18t-86 -27
l-17 35l394 172zM848 743q0 242 173 390.5t492 193.5v-35q-269 -62 -352 -329q77 53 170 53q127 0 201 -88.5t74 -229.5q0 -77 -23.5 -146.5t-68 -124t-115 -86.5t-158.5 -32q-186 0 -289.5 114.5t-103.5 319.5zM1128 680q0 -299 111 -299q35 0 54.5 22.5t28.5 81t9 168.5
q0 70 -4 118.5t-14.5 90.5t-31.5 63t-52 21q-42 0 -82 -37q-19 -93 -19 -229z" />
    <glyph glyph-name="uni2470" unicode="&#x2470;" 
d="M965 1679q140 0 271 -42.5t236.5 -121.5t185 -184.5t122.5 -238t43 -275.5q0 -174 -68 -333t-182.5 -274t-273.5 -183t-334 -68q-177 0 -337 68t-275 183t-183 274t-68 333q0 179 67.5 339t183 274.5t275 181.5t337.5 67zM965 1618q-221 0 -405.5 -107.5t-290 -291.5
t-105.5 -402q0 -164 62 -311.5t168.5 -254t255.5 -169t315 -62.5q216 0 399 106t290 289.5t107 401.5q0 163 -63.5 311t-170 255.5t-254 171t-308.5 63.5zM784 1305v-830q0 -65 21 -87.5t86 -22.5v-35h-496v35q71 0 94 22.5t23 87.5v586q0 51 -7.5 70t-34 18t-85.5 -27
l-16 35l391 172zM1556 1305l-354 -986l-182 66l291 715v6h-289q-58 0 -90.5 -31.5t-50.5 -111.5l-33 6l31 149l41 187h636z" />
    <glyph glyph-name="uni2471" unicode="&#x2471;" 
d="M965 1679q140 0 271 -42.5t236.5 -121.5t185 -184.5t122.5 -238t43 -275.5q0 -174 -68 -333t-182.5 -274t-273.5 -183t-334 -68q-177 0 -337 68t-275 183t-183 274t-68 333q0 179 67.5 339t183 274.5t275 181.5t337.5 67zM965 1618q-221 0 -405.5 -107.5t-290 -291.5
t-105.5 -402q0 -164 62 -311.5t168.5 -254t255.5 -169t315 -62.5q216 0 399 106t290 289.5t107 401.5q0 163 -63.5 311t-170 255.5t-254 171t-308.5 63.5zM778 1305v-830q0 -65 21.5 -87.5t85.5 -22.5v-35h-494v35q70 0 93.5 22.5t23.5 87.5v586q0 51 -8 70t-35 18t-86 -27
l-17 35l394 172zM877 551q0 77 46 131.5t134 110.5q-82 74 -120 133.5t-38 134.5q0 119 97 192.5t241 73.5q134 0 218.5 -60.5t84.5 -156.5q0 -70 -43.5 -121.5t-130.5 -109.5q51 -40 80.5 -66t63 -63.5t48.5 -77.5t15 -86q0 -124 -104.5 -199.5t-258.5 -75.5
q-141 0 -237 65.5t-96 174.5zM1143 1145q0 -41 26.5 -79t96.5 -99q67 79 67 163q0 56 -26.5 89.5t-69.5 33.5q-39 0 -66.5 -30t-27.5 -78zM1081 545q0 -67 32.5 -111.5t98.5 -44.5q50 0 79.5 29.5t29.5 77.5q0 52 -35.5 94.5t-132.5 122.5q-72 -75 -72 -168z" />
    <glyph glyph-name="uni2472" unicode="&#x2472;" 
d="M965 1679q140 0 271 -42.5t236.5 -121.5t185 -184.5t122.5 -238t43 -275.5q0 -174 -68 -333t-182.5 -274t-273.5 -183t-334 -68q-177 0 -337 68t-275 183t-183 274t-68 333q0 179 67.5 339t183 274.5t275 181.5t337.5 67zM965 1618q-221 0 -405.5 -107.5t-290 -291.5
t-105.5 -402q0 -164 62 -311.5t168.5 -254t255.5 -169t315 -62.5q216 0 399 106t290 289.5t107 401.5q0 163 -63.5 311t-170 255.5t-254 171t-308.5 63.5zM1599 924q0 -242 -173 -390.5t-492 -193.5v35q269 62 352 330q-75 -52 -170 -52q-127 0 -200.5 87.5t-73.5 228.5
q0 104 40 191t124.5 142.5t199.5 55.5q186 0 289.5 -114.5t103.5 -319.5zM776 1305v-830q0 -65 21.5 -87.5t85.5 -22.5v-35h-494v35q70 0 93.5 22.5t23.5 87.5v586q0 51 -8 70t-35 18t-86 -27l-17 35l394 172zM1321 987q0 299 -113 299q-52 0 -71 -55t-19 -217
q0 -70 4 -118.5t14 -90.5t31 -63t52 -21q41 0 81 37q21 103 21 229z" />
    <glyph glyph-name="uni2473" unicode="&#x2473;" 
d="M965 1679q140 0 271 -42.5t236.5 -121.5t185 -184.5t122.5 -238t43 -275.5q0 -174 -68 -333t-182.5 -274t-273.5 -183t-334 -68q-177 0 -337 68t-275 183t-183 274t-68 333q0 179 67.5 339t183 274.5t275 181.5t337.5 67zM965 20q216 0 399 106t290 289.5t107 401.5
q0 163 -63.5 311t-170 255.5t-254 171t-308.5 63.5q-221 0 -405.5 -107.5t-290 -291.5t-105.5 -402q0 -247 137 -452q75 82 113 124.5t90 103.5t76.5 97.5t50.5 82.5t35.5 84t9.5 77q0 93 -41.5 136.5t-114.5 43.5q-75 0 -119.5 -48.5t-56.5 -137.5h-37q0 173 98 280
t254 107q122 0 189 -61t67 -173q0 -65 -31 -133t-95 -143.5t-123 -133t-154 -143.5v-14h260q64 0 96 27.5t56 99.5l34 -12l-45 -129l-63 -185h-512q111 -138 274.5 -216.5t352.5 -78.5zM1329 1327q110 0 194 -69t126.5 -184t42.5 -257q0 -216 -99 -362t-264 -146
q-110 0 -192.5 70t-124 184t-41.5 254q0 141 41.5 255.5t124 184.5t192.5 70zM1329 379q59 0 83 111t24 327q0 217 -24 327.5t-83 110.5q-56 0 -79 -109.5t-23 -328.5q0 -218 23 -328t79 -110z" />
    <glyph glyph-name="uni24EA" unicode="&#x24ea;" 
d="M965 1679q140 0 271 -42.5t236.5 -121.5t185 -184.5t122.5 -238t43 -275.5q0 -174 -68 -333t-182.5 -274t-273.5 -183t-334 -68q-177 0 -337 68t-275 183t-183 274t-68 333q0 179 67.5 339t183 274.5t275 181.5t337.5 67zM965 1618q-221 0 -405.5 -107.5t-290 -291.5
t-105.5 -402q0 -164 62 -311.5t168.5 -254t255.5 -169t315 -62.5q216 0 399 106t290 289.5t107 401.5q0 163 -63.5 311t-170 255.5t-254 171t-308.5 63.5zM977 309q-121 0 -212.5 70t-137 184t-45.5 254q0 141 45.5 255.5t137 184.5t212.5 70q183 0 291 -146t108 -364
q0 -141 -46.5 -255.5t-138.5 -183.5t-214 -69zM977 379q64 0 90.5 111t26.5 327q0 217 -26.5 327.5t-90.5 110.5q-62 0 -87.5 -109.5t-25.5 -328.5q0 -217 25.5 -327.5t87.5 -110.5z" />
    <glyph glyph-name="uni24EB" unicode="&#x24eb;" 
d="M965 1679q-178 0 -337.5 -67t-275 -181.5t-183 -274.5t-67.5 -339q0 -174 68 -333t183 -274t275 -183t337 -68q175 0 334 68t273.5 183t182.5 274t68 333q0 143 -43 275.5t-122.5 238t-185 184.5t-236.5 121.5t-271 42.5zM852 1305v-830q0 -65 21 -87.5t85 -22.5v-35
h-493v35q70 0 93.5 22.5t23.5 87.5v586q0 51 -8 70t-35 18t-86 -27l-17 35l393 172zM1391 1305v-830q0 -65 21 -87.5t85 -22.5v-35h-493v35q70 0 93 22.5t23 87.5v586q0 51 -8 70t-35 18t-86 -27l-16 35l393 172z" />
    <glyph glyph-name="uni24EC" unicode="&#x24ec;" 
d="M965 1679q-178 0 -337.5 -67t-275 -181.5t-183 -274.5t-67.5 -339q0 -174 68 -333t183 -274t275 -183t337 -68q175 0 334 68t273.5 183t182.5 274t68 333q0 143 -43 275.5t-122.5 238t-185 184.5t-236.5 121.5t-271 42.5zM778 1305v-830q0 -65 21 -87.5t86 -22.5v-35
h-496v35q71 0 94 22.5t23 87.5v586q0 51 -7.5 70t-34 18t-85.5 -27l-17 35l392 172zM1171 528h293q63 0 96.5 29.5t61.5 106.5l35 -13l-53 -137l-68 -184h-604v35q76 77 109 111t89.5 94t80 90t57.5 75.5t47.5 76t24 66.5t10.5 70q0 180 -168 180q-82 0 -130 -48.5
t-59 -137.5h-41q0 172 106.5 279.5t274.5 107.5q131 0 203 -60.5t72 -172.5q0 -52 -25.5 -110t-61.5 -107t-100.5 -113.5t-115.5 -109t-134 -113.5v-15z" />
    <glyph glyph-name="uni24ED" unicode="&#x24ed;" 
d="M965 1679q-178 0 -337.5 -67t-275 -181.5t-183 -274.5t-67.5 -339q0 -174 68 -333t183 -274t275 -183t337 -68q175 0 334 68t273.5 183t182.5 274t68 333q0 143 -43 275.5t-122.5 238t-185 184.5t-236.5 121.5t-271 42.5zM770 1305v-830q0 -65 21.5 -87.5t85.5 -22.5v-35
h-494v35q70 0 93.5 22.5t23.5 87.5v586q0 51 -8 70t-35 18t-86 -27l-17 35l394 172zM877 442q0 38 25.5 61t64.5 23q27 0 47.5 -12.5t28.5 -23.5t24 -37q21 -33 37.5 -46.5t44.5 -13.5q50 0 83.5 46t33.5 151q0 115 -60.5 173t-156.5 58v37q101 16 157 59.5t56 126.5
q0 59 -34.5 95.5t-103.5 36.5q-61 0 -102 -32t-55 -89h-39q18 124 97 198t214 74q118 0 196 -59.5t78 -165.5q0 -96 -76 -161t-190 -87v-4q76 -1 141 -25t110.5 -79.5t45.5 -135.5q0 -74 -33.5 -133t-90.5 -95t-129 -54.5t-154 -18.5q-69 0 -126 13.5t-95.5 44.5t-38.5 75z
" />
    <glyph glyph-name="uni24EE" unicode="&#x24ee;" 
d="M965 1679q-178 0 -337.5 -67t-275 -181.5t-183 -274.5t-67.5 -339q0 -174 68 -333t183 -274t275 -183t337 -68q175 0 334 68t273.5 183t182.5 274t68 333q0 143 -43 275.5t-122.5 238t-185 184.5t-236.5 121.5t-271 42.5zM780 1305v-830q0 -65 21.5 -87.5t85.5 -22.5v-35
h-494v35q70 0 93.5 22.5t23.5 87.5v586q0 51 -8 70t-35 18t-86 -27l-16 35l393 172zM1174 571h-349v195l414 559h170v-559h137v-195h-137v-96q0 -65 21.5 -87.5t85.5 -22.5v-35h-457v35q70 0 92.5 22.5t22.5 87.5v96zM909 770v-4h265v360z" />
    <glyph glyph-name="uni24EF" unicode="&#x24ef;" 
d="M965 1679q-178 0 -337.5 -67t-275 -181.5t-183 -274.5t-67.5 -339q0 -174 68 -333t183 -274t275 -183t337 -68q175 0 334 68t273.5 183t182.5 274t68 333q0 143 -43 275.5t-122.5 238t-185 184.5t-236.5 121.5t-271 42.5zM784 1305v-830q0 -65 21.5 -87.5t85.5 -22.5v-35
h-494v35q70 0 93.5 22.5t23.5 87.5v586q0 51 -7.5 70t-34.5 18t-87 -27l-14 35l391 172zM1112 319q-67 0 -123 14t-94.5 45t-38.5 75q0 38 25.5 62t64.5 24q37 0 59 -18.5t46 -55.5q21 -35 35 -48.5t36 -13.5q52 0 84.5 61.5t32.5 172.5q0 119 -37 177t-104 58
q-78 0 -133 -81l-56 34l123 480h481l-45 -201h-370l-41 -172l4 -4q49 29 82 41t76 12q53 0 102.5 -16.5t95.5 -51t73.5 -98t27.5 -147.5q0 -73 -24 -133t-63.5 -99t-92.5 -66t-109.5 -39t-116.5 -12z" />
    <glyph glyph-name="uni24F0" unicode="&#x24f0;" 
d="M965 1679q-178 0 -337.5 -67t-275 -181.5t-183 -274.5t-67.5 -339q0 -174 68 -333t183 -274t275 -183t337 -68q175 0 334 68t273.5 183t182.5 274t68 333q0 143 -43 275.5t-122.5 238t-185 184.5t-236.5 121.5t-271 42.5zM768 1305v-830q0 -66 20.5 -88t85.5 -22v-35
h-495v35q71 0 94 22.5t23 87.5v586q0 51 -7.5 70t-34.5 18t-87 -27l-15 35l391 172zM829 743q0 243 173.5 392t492.5 192v-35q-269 -59 -352 -327q74 51 170 51q127 0 200.5 -88.5t73.5 -227.5q0 -78 -23.5 -147.5t-67.5 -124.5t-114.5 -87t-158.5 -32q-186 0 -290 114.5
t-104 319.5zM1110 680q0 -299 111 -299q52 0 72 56t20 216q0 69 -4 118.5t-15 91t-32 62.5t-52 21q-41 0 -82 -35q-18 -88 -18 -231z" />
    <glyph glyph-name="uni24F1" unicode="&#x24f1;" 
d="M965 1679q-178 0 -337.5 -67t-275 -181.5t-183 -274.5t-67.5 -339q0 -174 68 -333t183 -274t275 -183t337 -68q175 0 334 68t273.5 183t182.5 274t68 333q0 143 -43 275.5t-122.5 238t-185 184.5t-236.5 121.5t-271 42.5zM770 1303v-830q0 -66 21 -88.5t86 -22.5v-34
h-496v34q71 0 95 23t24 88v586q0 51 -8 70t-35 18t-86 -27l-17 35l394 172zM1556 1300l-354 -985l-182 66l291 717v4h-289q-57 0 -89.5 -32t-49.5 -112l-35 7l33 149l39 186h636z" />
    <glyph glyph-name="uni24F2" unicode="&#x24f2;" 
d="M965 1679q-178 0 -337.5 -67t-275 -181.5t-183 -274.5t-67.5 -339q0 -174 68 -333t183 -274t275 -183t337 -68q175 0 334 68t273.5 183t182.5 274t68 333q0 143 -43 275.5t-122.5 238t-185 184.5t-236.5 121.5t-271 42.5zM776 1305v-830q0 -65 21.5 -87.5t85.5 -22.5v-35
h-494v35q70 0 93.5 22.5t23.5 87.5v586q0 51 -8 70t-35 18t-86 -27l-17 35l394 172zM868 549q0 41 13.5 75.5t41.5 64.5t55 51t71 51q-81 72 -119.5 132.5t-38.5 135.5q0 119 97 192.5t241 73.5q134 0 218.5 -61t84.5 -158q0 -69 -43.5 -120t-130.5 -109q51 -40 80.5 -66
t63 -63.5t48.5 -77.5t15 -86q0 -124 -104.5 -199.5t-258.5 -75.5q-141 0 -237.5 65.5t-96.5 174.5zM1135 1143q0 -42 26 -79.5t96 -98.5q68 80 68 163q0 55 -26.5 88t-69.5 33q-40 0 -67 -29t-27 -77zM1073 541q0 -66 32.5 -110t98.5 -44q50 0 79.5 29.5t29.5 77.5
q0 51 -34.5 92.5t-133.5 124.5q-72 -75 -72 -170z" />
    <glyph glyph-name="uni24F3" unicode="&#x24f3;" 
d="M965 1679q-178 0 -337.5 -67t-275 -181.5t-183 -274.5t-67.5 -339q0 -174 68 -333t183 -274t275 -183t337 -68q175 0 334 68t273.5 183t182.5 274t68 333q0 143 -43 275.5t-122.5 238t-185 184.5t-236.5 121.5t-271 42.5zM1616 901q0 -241 -173.5 -390t-492.5 -194v35
q272 63 355 330q-77 -51 -170 -51q-128 0 -201.5 87t-73.5 228q0 162 96 275.5t267 113.5q187 0 290 -114t103 -320zM778 1305v-830q0 -65 21 -87.5t86 -22.5v-35h-496v35q71 0 95 22.5t24 87.5v586q0 51 -8 70t-35 18t-86 -27l-17 35l394 172zM1337 965q0 299 -110 299
q-36 0 -55.5 -23t-28 -81t-8.5 -169q0 -144 21 -218.5t79 -74.5q42 0 82 37q20 88 20 230z" />
    <glyph glyph-name="uni24F4" unicode="&#x24f4;" 
d="M965 1679q-178 0 -337.5 -67t-275 -181.5t-183 -274.5t-67.5 -339q0 -174 68 -333t183 -274t275 -183t337 -68q175 0 334 68t273.5 183t182.5 274t68 333q0 143 -43 275.5t-122.5 238t-185 184.5t-236.5 121.5t-271 42.5zM535 528h260q63 0 94.5 27.5t56.5 99.5l33 -12
l-43 -129l-64 -184h-559v35q79 86 116.5 128.5t92 106.5t79 100.5t51.5 84t36.5 86t9.5 77.5q0 180 -153 180q-75 0 -119.5 -48.5t-56.5 -137.5h-37q0 173 98 280t254 107q121 0 187.5 -60.5t66.5 -172.5q0 -65 -31 -133t-95 -143.5t-123 -133t-154 -143.5v-15zM1362 309
q-112 0 -196.5 70t-126.5 184t-42 254q0 141 42.5 255.5t126.5 184.5t196 70q111 0 195.5 -69t128 -184t43.5 -257q0 -141 -43 -255.5t-128 -183.5t-196 -69zM1362 379q58 0 82 110.5t24 327.5q0 218 -23.5 328t-82.5 110q-57 0 -81 -109.5t-24 -328.5q0 -218 24 -328
t81 -110z" />
    <glyph glyph-name="uni24FF" unicode="&#x24ff;" 
d="M965 1679q-178 0 -337.5 -67t-275 -181.5t-183 -274.5t-67.5 -339q0 -174 68 -333t183 -274t275 -183t337 -68q175 0 334 68t273.5 183t182.5 274t68 333q0 143 -43 275.5t-122.5 238t-185 184.5t-236.5 121.5t-271 42.5zM977 309q-121 0 -212.5 70t-137 184t-45.5 254
q0 141 45.5 255.5t137 184.5t212.5 70q183 0 291 -146t108 -364q0 -141 -46.5 -255.5t-138.5 -183.5t-214 -69zM977 379q64 0 90.5 111t26.5 327q0 217 -26.5 327.5t-90.5 110.5q-62 0 -87.5 -109.5t-25.5 -328.5q0 -217 25.5 -327.5t87.5 -110.5z" />
    <glyph glyph-name="lozenge" unicode="&#x25ca;" horiz-adv-x="1343" 
d="M524 1638h289l428 -882l-428 -883h-289l-422 883zM666 106h6l299 650l-299 649h-6l-293 -649z" />
    <glyph glyph-name="uni2776" unicode="&#x2776;" 
d="M965 1679q-178 0 -337.5 -67t-275 -181.5t-183 -274.5t-67.5 -339q0 -174 68 -333t183 -274t275 -183t337 -68q175 0 334 68t273.5 183t182.5 274t68 333q0 143 -43 275.5t-122.5 238t-185 184.5t-236.5 121.5t-271 42.5zM1090 1305v-830q0 -65 21 -87.5t85 -22.5v-35
h-494v35q70 0 93.5 22.5t23.5 87.5v586q0 51 -8 70t-35 18t-86 -27l-16 35l393 172z" />
    <glyph glyph-name="uni2777" unicode="&#x2777;" 
d="M965 1679q-178 0 -337.5 -67t-275 -181.5t-183 -274.5t-67.5 -339q0 -174 68 -333t183 -274t275 -183t337 -68q175 0 334 68t273.5 183t182.5 274t68 333q0 143 -43 275.5t-122.5 238t-185 184.5t-236.5 121.5t-271 42.5zM844 528h293q63 0 96 29.5t61 106.5l33 -13
l-51 -137l-68 -184h-606v35q84 85 126.5 128.5t100.5 106.5t85 100.5t56 84t39.5 85t10.5 78.5q0 93 -44 136.5t-122 43.5q-82 0 -130 -48.5t-60 -137.5h-39q0 173 105.5 280t273.5 107q131 0 203.5 -60.5t72.5 -172.5q0 -52 -25.5 -110t-61.5 -107t-100 -113t-115.5 -109
t-133.5 -114v-15z" />
    <glyph glyph-name="uni2778" unicode="&#x2778;" 
d="M965 1679q-178 0 -337.5 -67t-275 -181.5t-183 -274.5t-67.5 -339q0 -174 68 -333t183 -274t275 -183t337 -68q175 0 334 68t273.5 183t182.5 274t68 333q0 143 -43 275.5t-122.5 238t-185 184.5t-236.5 121.5t-271 42.5zM639 442q0 38 25.5 61t64.5 23q27 0 47.5 -12.5
t28.5 -23.5t24 -37q21 -33 37.5 -46.5t44.5 -13.5q50 0 83.5 46t33.5 151q0 115 -61 173t-156 58v37q213 35 213 186q0 59 -34 95.5t-103 36.5q-61 0 -102.5 -32t-55.5 -89h-39q16 123 96 197.5t215 74.5q118 0 196.5 -59.5t78.5 -165.5q0 -96 -76 -161t-190 -87v-4
q76 -1 140.5 -25t109.5 -79.5t45 -135.5q0 -98 -58 -168t-148 -101.5t-200 -31.5q-69 0 -126 13.5t-95.5 44.5t-38.5 75z" />
    <glyph glyph-name="uni2779" unicode="&#x2779;" 
d="M965 1679q-178 0 -337.5 -67t-275 -181.5t-183 -274.5t-67.5 -339q0 -174 68 -333t183 -274t275 -183t337 -68q175 0 334 68t273.5 183t182.5 274t68 333q0 143 -43 275.5t-122.5 238t-185 184.5t-236.5 121.5t-271 42.5zM905 571h-348v193l414 559h172v-559h135v-193
h-135v-98q0 -66 20.5 -88.5t83.5 -22.5v-34h-456v34q69 0 91.5 22.5t22.5 88.5v98zM641 768v-4h264v360z" />
    <glyph glyph-name="uni277A" unicode="&#x277a;" 
d="M965 1679q-178 0 -337.5 -67t-275 -181.5t-183 -274.5t-67.5 -339q0 -174 68 -333t183 -274t275 -183t337 -68q175 0 334 68t273.5 183t182.5 274t68 333q0 143 -43 275.5t-122.5 238t-185 184.5t-236.5 121.5t-271 42.5zM872 309q-67 0 -122.5 13.5t-93.5 44.5t-38 75
q0 38 25.5 62t65.5 24q37 0 59 -18.5t45 -56.5q21 -34 35 -47t37 -13q53 0 84.5 60.5t31.5 173.5q0 233 -141 233q-76 0 -135 -82l-53 37l123 479h481l-47 -200h-371l-41 -172l4 -4q47 28 81.5 39.5t78.5 11.5q53 0 102.5 -16.5t95.5 -50.5t73.5 -97.5t27.5 -147.5
q0 -91 -35.5 -160.5t-96 -109t-130 -59t-146.5 -19.5z" />
    <glyph glyph-name="uni277B" unicode="&#x277b;" 
d="M965 1679q-178 0 -337.5 -67t-275 -181.5t-183 -274.5t-67.5 -339q0 -174 68 -333t183 -274t275 -183t337 -68q175 0 334 68t273.5 183t182.5 274t68 333q0 143 -43 275.5t-122.5 238t-185 184.5t-236.5 121.5t-271 42.5zM567 737q0 243 173.5 392t492.5 192v-35
q-271 -60 -354 -328q79 52 170 52q128 0 202 -88t74 -228q0 -105 -40 -192.5t-124.5 -143t-199.5 -55.5q-187 0 -290.5 114t-103.5 320zM846 674q0 -299 110 -299q36 0 55.5 23t28.5 81t9 168q0 70 -4 118.5t-14 90.5t-31 63t-52 21q-41 0 -82 -35q-20 -98 -20 -231z" />
    <glyph glyph-name="uni277C" unicode="&#x277c;" 
d="M965 1679q-178 0 -337.5 -67t-275 -181.5t-183 -274.5t-67.5 -339q0 -174 68 -333t183 -274t275 -183t337 -68q175 0 334 68t273.5 183t182.5 274t68 333q0 143 -43 275.5t-122.5 238t-185 184.5t-236.5 121.5t-271 42.5zM1317 1294l-354 -985l-183 66l291 715v6h-289
q-57 0 -89.5 -33t-49.5 -113l-35 8l33 150l39 186h637z" />
    <glyph glyph-name="uni277D" unicode="&#x277d;" 
d="M965 1679q-178 0 -337.5 -67t-275 -181.5t-183 -274.5t-67.5 -339q0 -174 68 -333t183 -274t275 -183t337 -68q175 0 334 68t273.5 183t182.5 274t68 333q0 143 -43 275.5t-122.5 238t-185 184.5t-236.5 121.5t-271 42.5zM614 549q0 41 13.5 75.5t42 64.5t55.5 51.5
t72 50.5q-82 71 -120 131.5t-38 136.5q0 118 97 192t241 74q132 0 216.5 -61t84.5 -158q0 -70 -43 -120.5t-129 -108.5q52 -41 80 -66t62.5 -63.5t49.5 -78t15 -85.5q0 -124 -105 -199.5t-260 -75.5q-140 0 -237 65.5t-97 174.5zM883 1143q0 -42 26 -79.5t97 -100.5
q67 82 67 165q0 55 -27 88t-69 33q-40 0 -67 -29t-27 -77zM821 541q0 -66 32.5 -111t98.5 -45q50 0 79.5 30.5t29.5 78.5q0 51 -34.5 92t-135.5 125q-70 -79 -70 -170z" />
    <glyph glyph-name="uni277E" unicode="&#x277e;" 
d="M961 -41q178 0 337.5 67t274.5 181.5t182.5 274.5t67.5 339q0 174 -67.5 333t-182.5 274t-275 183t-337 68q-175 0 -334 -68t-274 -183t-183 -274t-68 -333q0 -179 68 -339t183 -274.5t274 -181.5t334 -67zM1358 901q0 -243 -173.5 -392t-492.5 -192v35q271 62 355 328
q-77 -51 -170 -51q-128 0 -201.5 87.5t-73.5 227.5q0 78 23.5 148t67.5 124.5t114.5 86.5t157.5 32q187 0 290 -114t103 -320zM1079 965q0 299 -110 299q-36 0 -55.5 -23t-28 -81t-8.5 -169q0 -144 21 -218.5t79 -74.5q41 0 82 35q20 90 20 232z" />
    <glyph glyph-name="uni277F" unicode="&#x277f;" 
d="M965 1679q-178 0 -337.5 -67t-275 -181.5t-183 -274.5t-67.5 -339q0 -174 68 -333t183 -274t275 -183t337 -68q175 0 334 68t273.5 183t182.5 274t68 333q0 143 -43 275.5t-122.5 238t-185 184.5t-236.5 121.5t-271 42.5zM748 1305v-830q0 -66 20.5 -88t85.5 -22v-35
h-496v35q71 0 95 22.5t24 87.5v586q0 51 -8 70t-35 18t-86 -27l-16 35l393 172zM1225 309q-122 0 -213.5 70t-137 184t-45.5 254q0 141 45.5 255.5t137 184.5t213.5 70t213.5 -69t138.5 -184t47 -257q0 -141 -47 -255.5t-139 -183.5t-213 -69zM1225 379q64 0 90 110.5
t26 327.5q0 218 -26 328t-90 110q-62 0 -88.5 -110.5t-26.5 -327.5q0 -216 26.5 -327t88.5 -111z" />
    <glyph glyph-name="fi" unicode="&#xfb01;" horiz-adv-x="1464" 
d="M1284 1104v-862q0 -107 33 -145t133 -38v-59h-1419v59q100 0 133 38t33 145v745h-144v100l144 9v32q0 133 41.5 237.5t104 166t145.5 101.5t156.5 54.5t146.5 14.5q180 0 289.5 -67t109.5 -189q0 -71 -45 -114.5t-121 -43.5q-15 0 -27 1.5t-24 6.5t-20 8t-19 13.5
t-16.5 15.5t-18 21.5t-18 24t-21 29.5t-22.5 32q-25 34 -37 48t-38.5 30t-57.5 16q-30 0 -53 -11.5t-43.5 -40.5t-32 -87t-11.5 -144v-149h279q227 0 403 41zM918 242v559q0 34 -1 53t-8 48.5t-20 45t-39 27.5t-64 12h-221v-745q0 -106 38.5 -144t156.5 -39q95 1 126.5 39
t31.5 144z" />
    <glyph glyph-name="fl" unicode="&#xfb02;" horiz-adv-x="1505" 
d="M1325 1604v-1362q0 -108 32.5 -145.5t131.5 -37.5v-59h-682v59q91 0 120 37.5t29 145.5v1052q-8 -2 -28 -2q-60 0 -96.5 35t-75.5 113q-23 45 -45 69.5t-49 24.5q-34 0 -53.5 -20.5t-31.5 -83.5t-12 -179v-149h191v-115h-191v-745q0 -108 36.5 -145.5t148.5 -37.5v-59
h-719v59q100 0 133 38t33 145v745h-144v100l144 9v112q0 89 23.5 163.5t64 125t90 88t106 58t106.5 30.5t97 10q139 0 248 -46t143 -128l205 131z" />
    <glyph glyph-name="i.loclTRK" horiz-adv-x="759" 
d="M371 1243q-70 0 -121 50.5t-51 119.5q0 72 50.5 122t121.5 50t121.5 -50t50.5 -122q0 -69 -51 -119.5t-121 -50.5zM47 0v59q100 0 133 38t33 145l-2 522q0 46 -1 69t-5 47.5t-11.5 32.5t-22.5 12.5t-36 -0.5t-53 -18l-25 60l469 188l54 -47v-866q0 -108 32.5 -145.5
t130.5 -37.5v-59h-696z" />
    <glyph glyph-name="C_O" horiz-adv-x="2547" 
d="M1993 696q-193 0 -316 136.5t-123 355.5q0 218 122.5 354.5t314.5 136.5q193 0 315.5 -136t122.5 -355t-122 -355.5t-314 -136.5zM57 788q0 191 57 356t156.5 280.5t240 181t302.5 65.5q219 0 373 -131q20 -19 35 -13t18 32l14 96h60l30 -602h-59q-45 233 -143.5 362
t-239.5 129q-115 0 -199 -87.5t-128 -245t-44 -367.5q0 -317 99.5 -496.5t281.5 -179.5q108 0 193.5 67.5t137 179t73.5 257.5h69q-58 -705 -616 -705q-169 0 -305 63t-224 174t-135 260t-47 324zM2009 813q88 0 134 78.5t46 226.5q0 82 -11.5 157.5t-35.5 142t-67.5 106
t-100.5 39.5q-86 0 -134 -78.5t-48 -220.5q0 -83 12 -159.5t36.5 -143.5t68 -107.5t100.5 -40.5zM2025 -33q-71 0 -121.5 50t-50.5 122q0 71 50.5 121.5t121.5 50.5q72 0 122.5 -50.5t50.5 -121.5q0 -72 -50.5 -122t-122.5 -50z" />
    <glyph glyph-name="L_L" horiz-adv-x="2306" 
d="M932 1638v-59q-132 0 -181 -42t-49 -140v-1102q0 -103 32.5 -132.5t135.5 -29.5h129q116 0 188.5 92.5t125.5 323.5l69 -17l-100 -434l-20 -98h-1227v59q130 0 178.5 42.5t48.5 140.5v1155q0 98 -48.5 140t-178.5 42v59h897zM1907 1638v-59q-109 0 -149 -42t-40 -140
v-496q0 -72 18.5 -94.5t78.5 -22.5h145q96 0 156 79.5t102 277.5l57 -13l-80 -374l-18 -86h-1061v59q108 0 148.5 43t40.5 141v486q0 98 -40 140t-149 42v59h791z" />
    <glyph glyph-name="L_T_D" horiz-adv-x="3336" 
d="M932 1638v-59q-132 0 -181 -42t-49 -140v-1102q0 -103 32.5 -132.5t135.5 -29.5h129q116 0 188.5 92.5t125.5 323.5l69 -17l-100 -434l-20 -98h-1227v59q130 0 178.5 42.5t48.5 140.5v1155q0 98 -48.5 140t-178.5 42v59h897zM1536 1524h-66q-96 0 -148 -53t-73 -183
l-57 10l39 246l16 94h918l16 -94l39 -246l-57 -10q-21 130 -73 183t-148 53h-66q-41 0 -41 -39v-506q0 -97 34.5 -139.5t125.5 -42.5v-60h-580v60q92 0 127 42.5t35 139.5v506q0 39 -41 39zM2802 737h-525v60q92 0 126 42t34 140v418q0 98 -34 140t-126 42v59h525
q240 0 363.5 -120t123.5 -330t-123.5 -330.5t-363.5 -120.5zM2798 852q92 0 150 90t58 246q0 157 -58 246.5t-150 89.5q-46 0 -70 -8q-31 -9 -31 -46v-565q0 -34 25 -43q33 -10 76 -10zM2154 -33q-71 0 -120 50t-49 122q0 71 49.5 121.5t119.5 50.5q72 0 122.5 -50.5
t50.5 -121.5q0 -72 -50.5 -122t-122.5 -50z" />
    <glyph glyph-name="O_O" horiz-adv-x="2461" 
d="M1616 1679q173 0 321.5 -68t250 -184.5t159 -274t57.5 -333.5t-57 -333.5t-158 -274t-250 -184.5t-323 -68q-207 0 -385 98q-175 -98 -383 -98q-231 0 -413 116.5t-280 312t-98 431.5t97.5 431.5t279.5 312t414 116.5q205 0 383 -98q178 98 385 98zM1624 59
q185 16 285.5 220t72.5 563q-30 367 -161 559t-322 178q-96 -6 -174 -63q148 -117 229.5 -300t81.5 -397q0 -200 -72.5 -374t-203.5 -293q117 -105 264 -93zM963 59q99 9 174 64q-148 119 -230 301t-82 395q0 200 72 373.5t203 292.5q-112 103 -260 94q-188 -12 -288 -219
t-71 -561q29 -368 159.5 -561.5t322.5 -178.5zM1262 276q103 208 77 566q-27 326 -141 516q-100 -208 -74 -561q23 -322 138 -521z" />
    <glyph glyph-name="S_T" horiz-adv-x="2246" 
d="M592 -31q-102 0 -197 34.5t-162 90.5q-20 18 -39.5 13.5t-25.5 -31.5l-21 -88h-63l8 651h70q4 -70 24.5 -145.5t57 -148.5t85 -131.5t114 -94t137.5 -35.5q96 0 147 56.5t51 140.5q0 103 -65.5 189.5t-198.5 186.5q-175 130 -232 183q-130 119 -164 248q-16 60 -16 129
q0 109 39 196.5t106 143t153.5 85t183.5 29.5q184 0 303 -104q28 -23 49 -16.5t29 40.5l12 60h59l23 -551h-66q-4 62 -22.5 126t-51.5 123t-75.5 105.5t-99.5 74t-119 27.5q-88 0 -136.5 -51.5t-48.5 -126.5q0 -84 59 -149.5t238 -196.5q82 -60 137.5 -107t105 -101
t78 -106.5t44.5 -115.5t16 -135q0 -119 -42.5 -215t-116 -157t-167.5 -93.5t-200 -32.5zM1520 1524h-58q-96 0 -148 -53t-73 -183l-57 10l39 246l16 94h909l17 -94l39 -246l-58 -10q-21 130 -73 183t-148 53h-65q-41 0 -41 -39v-506q0 -97 34 -139.5t125 -42.5v-60h-579v60
q92 0 127 42.5t35 139.5v506q0 39 -41 39zM1690 -33q-71 0 -121.5 50t-50.5 122q0 71 51 121.5t121 50.5q72 0 122 -50.5t50 -121.5q0 -72 -50 -122t-122 -50z" />
    <glyph glyph-name="s_t" horiz-adv-x="1712" 
d="M1614 504h78q0 -277 -80.5 -407t-265.5 -130q-157 0 -236.5 97t-79.5 323v600h-133v109q83 5 156 38t134 106.5t83 178.5q2 12 2 31q0 105 -67 162t-187 57q-143 0 -221 -90t-78 -250q0 -117 22.5 -263.5t67.5 -254.5l-64 -41q-80 123 -148.5 183.5t-137.5 60.5
q-47 0 -77 -23.5t-30 -66.5q0 -44 37 -81t160 -122q64 -45 105.5 -77.5t81.5 -72.5t62 -77t35 -84t13 -101q0 -84 -31.5 -151t-85 -108t-119.5 -62t-139 -21q-62 0 -118.5 14.5t-89 31.5t-62.5 31.5t-45 14.5q-21 0 -27 -13.5t-6 -53.5h-70v436h66q27 -146 106.5 -239
t190.5 -93q53 0 81.5 26t28.5 75q0 63 -43 112t-174 133q-138 90 -198 172.5t-60 190.5q0 154 103.5 246t246.5 92q68 0 127 -25t88.5 -51t61.5 -63l6 2q-80 160 -80 344q0 109 34.5 197t93 142.5t133.5 83.5t159 29q75 0 139 -21.5t115.5 -66t81 -120t29.5 -175.5v-317h239
v-115h-231v-584q0 -229 100 -229q117 0 117 330z" />
    <glyph glyph-name="zero.dnom" horiz-adv-x="839" 
d="M418 -18q-122 0 -213 69.5t-136.5 183.5t-45.5 254q0 141 45.5 255.5t136.5 184.5t213 70t213.5 -69t138.5 -184t47 -257q0 -141 -47 -255t-139 -183t-213 -69zM418 51q64 0 90.5 111t26.5 327q0 217 -26.5 328t-90.5 111q-62 0 -88.5 -111t-26.5 -328q0 -216 26.5 -327
t88.5 -111z" />
    <glyph glyph-name="one.dnom" horiz-adv-x="526" 
d="M401 975v-830q0 -65 21.5 -87.5t85.5 -22.5v-35h-494v35q70 0 93.5 22.5t23.5 87.5v586q0 51 -8 70t-35 18.5t-86 -26.5l-16 34l393 172z" />
    <glyph glyph-name="two.dnom" horiz-adv-x="763" 
d="M258 199h293q63 0 96.5 29t61.5 106l32 -12l-51 -138l-67 -184h-607v35q84 85 126.5 128.5t100.5 106.5t85 100.5t56 84t39.5 85t10.5 78.5q0 93 -44.5 137t-121.5 44q-82 0 -130 -49t-60 -138h-39q0 173 105.5 280t273.5 107q131 0 203.5 -60.5t72.5 -172.5
q0 -52 -25.5 -110t-61.5 -107t-100 -113t-115.5 -109t-133.5 -114v-14z" />
    <glyph glyph-name="three.dnom" horiz-adv-x="714" 
d="M12 115q0 38 25.5 61t64.5 23q27 0 47.5 -12.5t29 -24t24.5 -37.5q21 -33 37 -46t45 -13q50 0 84 45.5t34 150.5q0 115 -61.5 173.5t-157.5 58.5v36q213 35 213 187q0 59 -34 95t-101 36q-63 0 -104.5 -32t-55.5 -89h-39q18 124 97.5 198t214.5 74q118 0 196 -59.5
t78 -165.5q0 -96 -75.5 -161t-190.5 -87v-4q76 -1 141 -24.5t110.5 -79t45.5 -135.5q0 -98 -58.5 -168t-149 -101.5t-200.5 -31.5q-69 0 -126 13.5t-95.5 44.5t-38.5 75z" />
    <glyph glyph-name="four.dnom" horiz-adv-x="759" 
d="M365 242h-349v194l416 559h170v-559h135v-194h-135v-97q0 -65 20.5 -87.5t84.5 -22.5v-35h-455v35q68 0 90.5 22.5t22.5 87.5v97zM102 440v-4h263v361z" />
    <glyph glyph-name="five.dnom" horiz-adv-x="708" 
d="M258 -18q-67 0 -122.5 13.5t-93.5 44.5t-38 75q0 38 25 62t65 24q37 0 59 -18.5t46 -55.5q22 -35 35 -48t36 -13q53 0 85 61t32 172q0 233 -141 233q-79 0 -135 -79l-54 34l123 480h482l-48 -201h-370l-41 -172l4 -4q47 28 81.5 39.5t78.5 11.5q42 0 82 -9.5t80 -32.5
t70 -57.5t48.5 -89t18.5 -122.5q0 -91 -35.5 -160.5t-96 -109t-130 -59t-146.5 -19.5z" />
    <glyph glyph-name="six.dnom" horiz-adv-x="798" 
d="M25 434q0 242 173 390.5t492 193.5v-35q-269 -62 -352 -330q78 54 170 54q127 0 200.5 -88.5t73.5 -229.5q0 -105 -39.5 -191.5t-124 -142t-200.5 -55.5q-186 0 -289.5 114.5t-103.5 319.5zM305 371q0 -299 111 -299q35 0 54.5 22.5t28.5 81t9 168.5q0 70 -4 118.5
t-14.5 90.5t-31.5 63t-52 21q-42 0 -82 -37q-19 -93 -19 -229z" />
    <glyph glyph-name="seven.dnom" horiz-adv-x="741" 
d="M739 971l-354 -985l-182 63l291 717v6h-289q-59 0 -92 -32.5t-50 -112.5l-34 8l32 149l41 187h637z" />
    <glyph glyph-name="eight.dnom" horiz-adv-x="720" 
d="M10 221q0 41 13.5 75t42.5 64.5t55.5 51.5t71.5 51q-81 72 -119.5 132.5t-38.5 135.5q0 119 97 192.5t241 73.5q134 0 218.5 -61t84.5 -158q0 -69 -43.5 -120t-130.5 -109q52 -41 80 -66t62.5 -63.5t49.5 -78t15 -85.5q0 -124 -104.5 -199t-258.5 -75q-142 0 -239 65
t-97 174zM279 815q0 -42 26 -79.5t96 -98.5q68 80 68 164q0 55 -26.5 88t-69.5 33q-40 0 -67 -29.5t-27 -77.5zM217 213q0 -66 32.5 -110t98.5 -44q50 0 79.5 29.5t29.5 77.5q0 51 -34.5 92t-135.5 125q-70 -76 -70 -170z" />
    <glyph glyph-name="nine.dnom" horiz-adv-x="790" 
d="M774 565q0 -241 -173 -389.5t-492 -193.5v34q271 62 354 330q-80 -53 -170 -53q-128 0 -201.5 88t-73.5 229q0 162 96 275.5t267 113.5q187 0 290 -114t103 -320zM496 629q0 299 -111 299q-36 0 -55.5 -23t-28 -81t-8.5 -169q0 -144 21 -218.5t79 -74.5q42 0 82 37
q21 92 21 230z" />
    <glyph glyph-name="zero.numr" horiz-adv-x="839" 
d="M418 653q-122 0 -213 70t-136.5 184t-45.5 254q0 141 45.5 255.5t136.5 184.5t213 70t213.5 -69t138.5 -184t47 -257q0 -141 -47 -255.5t-139 -183.5t-213 -69zM418 723q64 0 90.5 111t26.5 327q0 217 -26.5 327.5t-90.5 110.5q-62 0 -88.5 -110.5t-26.5 -327.5
q0 -216 26.5 -327t88.5 -111z" />
    <glyph glyph-name="one.numr" horiz-adv-x="526" 
d="M401 1647v-830q0 -65 21.5 -87.5t85.5 -22.5v-35h-494v35q70 0 93.5 22.5t23.5 87.5v586q0 51 -8 70t-35 18t-86 -27l-16 35l393 172z" />
    <glyph glyph-name="two.numr" horiz-adv-x="763" 
d="M258 870h293q63 0 96.5 29.5t61.5 106.5l32 -13l-51 -137l-67 -184h-607v35q84 85 126.5 128.5t100.5 106.5t85 100.5t56 84t39.5 85t10.5 78.5q0 93 -44 136.5t-122 43.5q-82 0 -130 -48.5t-60 -137.5h-39q0 173 105.5 280t273.5 107q131 0 203.5 -60.5t72.5 -172.5
q0 -52 -25.5 -110t-61.5 -107t-100 -113t-115.5 -109t-133.5 -114v-15z" />
    <glyph glyph-name="three.numr" horiz-adv-x="714" 
d="M12 786q0 38 25.5 61t64.5 23q27 0 47.5 -12.5t29 -24t24.5 -36.5q21 -33 37.5 -46.5t44.5 -13.5q50 0 84 46t34 151q0 115 -61.5 173t-157.5 58v37q213 35 213 187q0 59 -34 95t-101 36q-63 0 -104.5 -32t-55.5 -89h-39q18 124 97.5 198t214.5 74q118 0 196 -59.5
t78 -165.5q0 -96 -75.5 -161t-190.5 -87v-4q76 -1 141 -25t110.5 -79.5t45.5 -135.5q0 -98 -58.5 -168t-149 -101.5t-200.5 -31.5q-69 0 -126 13.5t-95.5 44.5t-38.5 75z" />
    </font>
</defs>
</svg>
