<?xml version="1.0" standalone="no"?>
<!DOCTYPE svg PUBLIC "-//W3C//DTD SVG 1.1//EN" "http://www.w3.org/Graphics/SVG/1.1/DTD/svg11.dtd" >
<svg xmlns="http://www.w3.org/2000/svg" xmlns:xlink="http://www.w3.org/1999/xlink" version="1.1">
<metadata>
Created by FontForge 20201107 at Wed Nov  5 09:25:23 2025
 By 
Copyright (c) 2019 by Mathieu Desjardins. All rights reserved.
</metadata>
<defs>
<font id="PPEditorialNew-UltraboldItalic" horiz-adv-x="1972" >
  <font-face 
    font-family="PP Editorial New Ultrabold"
    font-weight="800"
    font-style="italic"
    font-stretch="normal"
    units-per-em="2048"
    panose-1="0 0 9 0 0 0 0 0 0 0"
    ascent="1638"
    descent="-410"
    x-height="1133"
    cap-height="1638"
    bbox="-1036 -688 3375 2220"
    underline-thickness="112"
    underline-position="-200"
    slope="-17"
    unicode-range="U+0020-FB02"
  />
<missing-glyph horiz-adv-x="1064" 
d="M199 1679h673v-2130h-673v2130zM709 1466v70h-351v-70h138v-77h-140v-72h353v72h-140v77h140zM569 1112v150h-213v-222h353v72h-140zM426 1190h70v-78h-70v78zM709 913v70h-353v-70h140v-79h-140v-70h213v149h140zM709 643v213h-70v-141h-283v-72h353zM709 354v242h-213
v-121h73v49h70v-100h-213v172h-70v-242h353zM709 -14v241h-353v-241h353zM426 156h213v-99h-213v99zM709 -133v70h-353v-70h148l-148 -100v-70h353v70h-217l149 100h68z" />
    <glyph glyph-name="f_f" unicode="ff" horiz-adv-x="1431" 
d="M1692 1679q107 0 161 -31.5t54 -88.5q0 -60 -46.5 -110t-109.5 -50q-38 0 -74.5 26t-60.5 57t-54.5 57t-58.5 26q-24 0 -38 -18.5t-23 -63.5q-4 -26 -16.5 -159t-32.5 -222h241l-28 -88h-236l-223 -729q-46 -150 -130.5 -284.5t-192 -234t-238.5 -158.5t-262 -59
q-72 0 -111 34t-39 91q0 70 55 126.5t121 56.5q28 0 54.5 -22.5t43 -49.5t38 -49.5t40.5 -22.5q16 0 29 7.5t29 32.5t30 56t36 94t43.5 130t56.5 180l245 801h-319l-12 -41l-189 -625q-52 -173 -152 -325t-222 -256t-260 -164t-267 -60q-71 0 -110 34t-39 91q0 70 55.5 125
t120.5 55q37 0 72 -22t56.5 -48.5t49 -48.5t51.5 -22q13 0 23.5 4t22 17t21.5 29t23.5 47.5t25.5 64.5t30.5 88.5t35.5 110.5t43 139l244 794q1 2 2 6.5t2 6.5h-160l27 88h164q101 256 275.5 400.5t396.5 144.5q76 0 118.5 -33t42.5 -90t-47.5 -103.5t-103.5 -46.5
q-29 0 -56 15t-47 37t-39 44t-38.5 37t-38.5 15q-48 0 -64 -82q-5 -32 -14 -147t-23 -191h328q45 121 111 224t149.5 183t189 125t218.5 45z" />
    <glyph glyph-name="f_f_i" unicode="ffi" horiz-adv-x="2138" 
d="M1841 145q44 0 104.5 70.5t106.5 173.5h59q-175 -420 -446 -420q-115 0 -166 50t-51 131q0 31 8 69.5t16.5 67t36.5 116.5q7 23 11 35l174 576h-310q-3 -9 -8 -28.5t-8 -29.5l-207 -671q-61 -203 -186 -370t-293 -266.5t-344 -99.5q-72 0 -111 34t-39 91q0 70 55.5 126.5
t121.5 56.5q28 0 54.5 -22.5t43 -49.5t38 -49.5t40.5 -22.5q28 0 55 41t65 144.5t103 314.5l240 774l8 27h-336l-12 -45l-187 -615q-52 -173 -152 -325t-222 -256t-260 -164t-267 -60q-71 0 -110 34t-39 91q0 70 55.5 126.5t120.5 56.5q37 0 72 -22.5t56.5 -49.5t49 -49.5
t51.5 -22.5q13 0 23.5 4t22 17t21.5 29t23.5 47.5t25.5 64.5t30.5 88.5t35.5 110.5t43 139l242 788q1 2 2 6.5t2 6.5h-160l27 88h164q101 256 275.5 400.5t396.5 144.5q76 0 118.5 -33t42.5 -90t-48 -103.5t-105 -46.5q-34 0 -67 23t-54.5 51t-47.5 51t-48 23q-48 0 -64 -82
q-5 -33 -14 -147t-23 -191h348q105 252 294.5 407.5t420.5 155.5q109 0 184.5 -13.5t113.5 -37.5t53.5 -51t15.5 -62q0 -64 -48.5 -114t-127.5 -50q-33 0 -63.5 15.5t-53 38.5t-47 50.5t-45 50.5t-48 38.5t-55.5 15.5q-43 0 -76.5 -30.5t-62 -103.5t-43 -122t-41.5 -157
q-5 -21 -8 -31h313q74 0 169.5 14t154.5 37l49 -31l-213 -702q-68 -201 -68 -238t29 -37z" />
    <glyph glyph-name="f_i" unicode="fi" horiz-adv-x="1429" 
d="M1135 145q44 0 103.5 70t107.5 174h59q-27 -64 -56.5 -120t-72 -112.5t-88.5 -96.5t-106 -65.5t-124 -25.5q-115 0 -166 50t-51 131q0 11 0.5 22t3 24t4 22.5t6 27.5l7 28t9.5 34t11 36.5t14 44.5t15 49l174 576h-307q-3 -9 -8 -28.5t-8 -29.5l-207 -671
q-60 -198 -196.5 -368t-311 -269t-342.5 -99q-178 0 -178 121q0 74 55 130.5t121 56.5q37 0 72 -22.5t56.5 -49.5t49 -49.5t51.5 -22.5q48 0 86.5 89t138.5 411l240 774l8 27h-162l27 88h168q105 251 295.5 407t419.5 156q110 0 185.5 -13.5t113.5 -37.5t53.5 -51t15.5 -62
q0 -64 -48.5 -114t-127.5 -50q-39 0 -74 21.5t-62 52t-53 61.5t-57.5 52.5t-64.5 21.5q-88 0 -150 -154q-29 -74 -84 -290h312q75 0 170 14t153 37l51 -31l-212 -702q-68 -201 -68 -238t29 -37z" />
    <glyph glyph-name="f_l" unicode="fl" horiz-adv-x="1421" 
d="M1139 145q44 0 103.5 70t107.5 174h59q-34 -82 -74 -150t-95 -132.5t-126 -101t-151 -36.5q-115 0 -166.5 50t-51.5 131q0 17 2.5 35t5 32t11 42.5t13.5 44.5t19.5 61t22.5 71l307 987q-31 13 -69.5 39.5t-66 48t-67.5 38t-81 16.5q-33 0 -61.5 -27t-32.5 -84
q-6 -189 -46 -352h222l-29 -88h-217l-223 -729q-60 -198 -196.5 -368t-311 -269t-342.5 -99q-178 0 -178 121q0 74 55 130.5t121 56.5q37 0 72 -22.5t56.5 -49.5t49 -49.5t51.5 -22.5q48 0 86.5 89t138.5 411l246 801h-160l27 88h162q99 277 272 427t410 150q178 0 194 -100
q185 9 332 121l25 -25l-387 -1255q-68 -201 -68 -238t29 -37z" />
    <glyph glyph-name=".notdef" horiz-adv-x="1064" 
d="M199 1679h673v-2130h-673v2130zM709 1466v70h-351v-70h138v-77h-140v-72h353v72h-140v77h140zM569 1112v150h-213v-222h353v72h-140zM426 1190h70v-78h-70v78zM709 913v70h-353v-70h140v-79h-140v-70h213v149h140zM709 643v213h-70v-141h-283v-72h353zM709 354v242h-213
v-121h73v49h70v-100h-213v172h-70v-242h353zM709 -14v241h-353v-241h353zM426 156h213v-99h-213v99zM709 -133v70h-353v-70h148l-148 -100v-70h353v70h-217l149 100h68z" />
    <glyph glyph-name=".null" horiz-adv-x="0" 
 />
    <glyph glyph-name="nonmarkingreturn" horiz-adv-x="682" 
 />
    <glyph glyph-name="space" unicode=" " horiz-adv-x="438" 
 />
    <glyph glyph-name="exclam" unicode="!" horiz-adv-x="548" 
d="M393 1487q60 192 217 192q67 0 102.5 -33t35.5 -94q0 -40 -15 -84q-19 -65 -73.5 -172t-114.5 -216t-138 -287t-137 -365h-57q55 187 86.5 367.5t39 292t20 222t34.5 177.5zM104 -31q-65 0 -103 36t-38 95q0 75 61.5 143t143.5 68q65 0 103 -36t38 -95q0 -75 -61.5 -143
t-143.5 -68z" />
    <glyph glyph-name="quotedbl" unicode="&#x22;" horiz-adv-x="798" 
d="M375 1556q17 59 51 91t78 32q68 0 97.5 -38t8.5 -103q-18 -60 -101 -214.5t-128 -252.5l-55 8q13 94 20.5 252t28.5 225zM725 1556q17 59 51 91t80 32q67 0 96.5 -38t8.5 -103q-18 -60 -101.5 -214t-128.5 -253l-55 8q13 96 21 253t28 224z" />
    <glyph glyph-name="numbersign" unicode="#" horiz-adv-x="1751" 
d="M1737 1272v-240h-277l-121 -420h254v-239h-323l-119 -414h-244l119 414h-393l-119 -414h-244l119 414h-209v239h279l121 420h-256v240h325l117 407h244l-117 -407h393l117 407h244l-117 -407h207zM702 612h394l121 420h-394z" />
    <glyph glyph-name="dollar" unicode="$" horiz-adv-x="1179" 
d="M991 1757l-51 -164q194 -23 299 -137l-94 -338h-58q23 80 23 148q0 99 -49.5 161.5t-149.5 69.5l-151 -500q6 -4 16 -14q47 -41 68 -59.5t60 -56t57.5 -60.5t45 -59.5t38.5 -67.5t21 -70t9 -80q0 -68 -24.5 -142.5t-76.5 -149t-124.5 -134.5t-178.5 -100t-229 -45
l-59 -195h-76l60 195q-122 7 -221 42t-152 71l131 477h59q-26 -79 -26 -168q0 -130 63 -216t178 -95l168 548l-41 35q-146 118 -206 214.5t-60 209.5q0 73 24 146t74 140.5t119 119.5t167.5 83t211.5 31h8l49 160h78zM592 1247q0 -44 24 -87t84 -105l134 438
q-106 -15 -174 -85.5t-68 -160.5zM723 344q0 108 -98 215l-148 -487q76 11 133.5 54.5t85 100.5t27.5 117z" />
    <glyph glyph-name="percent" unicode="%" horiz-adv-x="1769" 
d="M549 819q-114 0 -184 78t-70 205q0 126 67.5 261t176 225.5t217.5 90.5q114 0 185 -78.5t71 -205.5q0 -94 -41 -197.5t-105 -186.5t-149.5 -137.5t-167.5 -54.5zM301 0l1194 1638h127l-1192 -1638h-129zM532 879q54 0 124 132t117.5 291.5t47.5 245.5q0 72 -49 72
q-54 0 -123.5 -133t-116.5 -293t-47 -246q0 -69 47 -69zM1182 -31q-114 0 -185 79t-71 206q0 126 67.5 261t177 225.5t218.5 90.5q114 0 183.5 -78t69.5 -206q0 -94 -40.5 -198t-104.5 -187.5t-148.5 -138t-166.5 -54.5zM1165 31q54 0 123.5 132t116.5 291.5t47 245.5
q0 70 -47 70q-54 0 -124 -132.5t-117.5 -292t-47.5 -245.5q0 -69 49 -69z" />
    <glyph glyph-name="ampersand" unicode="&#x26;" horiz-adv-x="1730" 
d="M1724 963l-20 -60q-113 0 -174.5 -31t-110.5 -122q-125 -220 -237 -361q115 -125 231 -125q86 0 135 68.5t49 199.5q0 27 -8 109l60 18q12 -62 12 -145q0 -243 -122 -394t-325 -151q-181 0 -333 129q-195 -131 -412 -131q-129 0 -231.5 41.5t-166 128.5t-63.5 207
q0 63 17 120.5t51 106t75 90.5t98.5 81.5t112.5 70.5t125 66q-14 83 -14 161q0 117 41 222.5t108.5 181.5t151.5 132t172.5 84t169.5 28q127 0 205 -67.5t78 -188.5q0 -50 -14.5 -95t-37.5 -80.5t-60.5 -69.5t-74.5 -59.5t-88 -52.5t-93 -46.5t-98 -44.5q-23 -10 -34 -15
q35 -135 92.5 -270.5t130.5 -237.5q77 123 148 278q45 98 27.5 131t-126.5 33l23 60h530zM1130 1593q-102 0 -184 -117.5t-82 -271.5q0 -60 15 -139q350 192 350 408q0 120 -99 120zM428 432q0 -148 69 -221.5t185 -73.5q67 0 131 25q-99 107 -172.5 254t-116.5 303
q-96 -125 -96 -287z" />
    <glyph glyph-name="quotesingle" unicode="'" horiz-adv-x="391" 
d="M350 1556q19 59 53 91t78 32q68 0 97.5 -38t9.5 -103q-18 -59 -102 -212.5t-130 -254.5l-55 8q15 100 22 255.5t27 221.5z" />
    <glyph glyph-name="parenleft" unicode="(" horiz-adv-x="966" 
d="M602 -453l-29 -45q-503 262 -503 760q0 229 86 464t235.5 436t361.5 362.5t453 244.5l21 -47q-136 -92 -275 -292t-245.5 -438.5t-174 -502t-67.5 -475.5q0 -299 137 -467z" />
    <glyph glyph-name="parenright" unicode=")" horiz-adv-x="966" 
d="M358 1722l29 45q504 -262 504 -759q0 -229 -86.5 -464.5t-236 -436.5t-361.5 -362.5t-453 -244.5l-22 47q136 92 276 292.5t246.5 439t174 502t67.5 474.5q0 295 -138 467z" />
    <glyph glyph-name="asterisk" unicode="*" horiz-adv-x="929" 
d="M508 758q-38 0 -66 25t-28 65q0 36 13.5 65.5t37 55.5t49.5 53t57 71t54 97q-50 -25 -92 -61.5t-66.5 -66.5t-59 -62t-71.5 -50t-66 -18q-41 0 -67.5 30.5t-26.5 77.5q0 45 28 75.5t75 43.5q39 10 145 19.5t188 40.5q-69 32 -188 41q-30 1 -48.5 3t-39 8t-31.5 15
t-18.5 25t-7.5 39q0 61 54 111t116 50q49 0 73 -34t39 -93q28 -92 78 -139q9 71 4 105.5t-16 81t-11 75.5q0 70 45.5 121t116.5 51q51 0 77 -27t26 -73q0 -38 -16 -73t-42 -64t-53 -57t-54.5 -65t-41.5 -75q20 12 39.5 26t31.5 23.5t32 27.5t25.5 23t27 27t22.5 23
q47 56 87 86t89 30q43 0 67.5 -28t24.5 -72q0 -148 -227 -151q-3 0 -29.5 -2.5t-33.5 -3.5t-30.5 -4.5t-37 -7t-35 -10.5t-41.5 -15q57 -29 156 -33q40 -1 66.5 -4t54 -12.5t41.5 -29.5t14 -51q0 -47 -41 -98q-23 -27 -55.5 -45t-65.5 -18q-88 0 -121 125q-30 91 -78 135
q-4 -27 -4 -66q0 -42 13 -106.5t12 -93.5q-1 -69 -51.5 -115.5t-118.5 -46.5z" />
    <glyph glyph-name="plus" unicode="+" horiz-adv-x="1089" 
d="M420 494h-334l74 241h332l106 340h256l-104 -340h329l-73 -241h-330l-105 -340h-256z" />
    <glyph glyph-name="comma" unicode="," horiz-adv-x="577" 
d="M-53 -281l-21 58q238 81 267 225q-44 -20 -97 -20q-60 0 -95.5 39t-35.5 96q0 80 54 137t149 57q80 0 128 -49.5t48 -146.5q0 -123 -107.5 -232t-289.5 -164z" />
    <glyph glyph-name="hyphen" unicode="-" horiz-adv-x="980" 
d="M879 432h-811l73 242h813z" />
    <glyph glyph-name="period" unicode="." horiz-adv-x="520" 
d="M92 -31q-64 0 -102.5 36t-38.5 95q0 75 61.5 143t143.5 68q65 0 103 -36t38 -95q0 -75 -60.5 -143t-144.5 -68z" />
    <glyph glyph-name="slash" unicode="/" horiz-adv-x="749" 
d="M-113 -35l895 1716h248l-899 -1716h-244z" />
    <glyph glyph-name="zero" unicode="0" horiz-adv-x="1351" 
d="M590 -33q-222 0 -353 165.5t-131 445.5q0 124 28.5 254.5t79.5 252.5t127 230.5t165 189t199 127.5t225 47q221 0 352 -164.5t131 -443.5q0 -149 -39.5 -306.5t-115 -299t-174.5 -253.5t-228 -178.5t-266 -66.5zM565 82q65 0 136.5 100t130.5 255.5t108 332t76.5 341.5
t27.5 271q0 181 -88 181q-66 0 -138.5 -100t-132 -255t-108.5 -331.5t-76.5 -341t-27.5 -271.5q0 -182 92 -182z" />
    <glyph glyph-name="one" unicode="1" horiz-adv-x="866" 
d="M948 1638l-426 -1407q-33 -103 -5.5 -137.5t149.5 -34.5l-25 -59h-764l23 59q111 0 162 35t83 137l326 1063q11 36 16 57t7.5 41t-3.5 28t-16.5 13.5t-33 1.5t-51 -11.5t-71.5 -22.5l7 69l594 207z" />
    <glyph glyph-name="two" unicode="2" horiz-adv-x="1167" 
d="M356 315h387q103 0 177.5 58.5t142.5 177.5h63l-286 -551h-967l4 63q240 191 400.5 326.5t280 250t184 202.5t94.5 163.5t30 153.5q0 114 -53.5 168.5t-161.5 54.5q-258 0 -399 -348h-59q74 295 262.5 466t449.5 171q162 0 249 -82t87 -221q0 -113 -51.5 -226.5
t-165.5 -241.5t-272.5 -264t-395.5 -312v-9z" />
    <glyph glyph-name="three" unicode="3" horiz-adv-x="1138" 
d="M344 -33q-102 0 -194.5 22t-155 67t-62.5 104q0 57 50.5 107t119.5 50q45 0 73.5 -24t43 -58.5t28 -69.5t39 -59t64.5 -24q76 0 150.5 73t122 192t47.5 243q0 137 -64.5 192.5t-226.5 55.5l18 71q185 19 309.5 118.5t124.5 246.5q0 74 -40 122t-127 48q-103 0 -187.5 -64
t-124.5 -159h-59q62 207 210.5 328.5t366.5 121.5q86 0 152.5 -24t106 -65.5t59.5 -92.5t20 -109q0 -118 -71 -223.5t-183.5 -173.5t-240.5 -90l-2 -14q184 -10 275 -93t91 -229q0 -125 -61.5 -236.5t-163.5 -188t-235 -121t-273 -44.5z" />
    <glyph glyph-name="four" unicode="4" horiz-adv-x="1267" 
d="M588 406h-563l65 315l957 946h278l-289 -948h219l-96 -313h-219l-53 -175q-34 -103 -8 -137.5t147 -34.5l-25 -59h-731l23 59q110 0 160 35t82 137zM240 727l-2 -8h446l197 645z" />
    <glyph glyph-name="five" unicode="5" horiz-adv-x="1126" 
d="M324 -33q-85 0 -168.5 22.5t-144 69t-60.5 105.5q0 60 49 106.5t113 46.5q46 0 75.5 -24t44.5 -58.5t29.5 -69.5t41 -59t67.5 -24q74 0 145.5 87t114.5 216.5t43 253.5q0 154 -47.5 219.5t-118.5 65.5q-70 0 -114.5 -32.5t-98.5 -103.5l-82 62l268 788h703l-99 -315h-587
l-123 -356l14 -13q70 73 149.5 108.5t186.5 35.5q70 0 132.5 -23t113.5 -68.5t80.5 -121.5t29.5 -174q0 -138 -57.5 -272t-155.5 -238.5t-241 -169t-303 -64.5z" />
    <glyph glyph-name="six" unicode="6" horiz-adv-x="1234" 
d="M903 1141q157 0 241.5 -103.5t84.5 -273.5q0 -81 -19.5 -169t-57 -177.5t-98 -170t-137 -143.5t-181 -100t-222.5 -37q-220 0 -341.5 120.5t-121.5 350.5q0 171 61 337t180 312.5t284 266t383 204.5t466 121l13 -59q-192 -44 -372.5 -178t-324.5 -326q89 25 162 25z
M492 82q66 0 137 92.5t122 220.5t84 260t33 215q0 74 -28.5 115t-81.5 41q-52 0 -109 -45q-115 -183 -179 -373.5t-64 -353.5q0 -172 86 -172z" />
    <glyph glyph-name="seven" unicode="7" horiz-adv-x="1132" 
d="M1403 1638l-1032 -1667l-260 133l804 1213l7 8h-418q-94 0 -155 -57t-99 -183l-51 35l69 223l90 295h1045z" />
    <glyph glyph-name="eight" unicode="8" horiz-adv-x="1249" 
d="M1380 1346q0 -61 -23 -118t-59 -101.5t-94 -90.5t-113 -80t-130 -75q50 -54 80.5 -90.5t65 -88.5t51 -104.5t16.5 -108.5q0 -97 -55.5 -191.5t-148 -167t-223 -117t-270.5 -44.5q-209 0 -339 94t-130 252q0 68 26.5 131.5t67 113t106.5 102t125.5 90.5t143.5 86
q-78 93 -121 174t-43 172q0 92 47 181.5t127.5 159t198 112t248.5 42.5q196 0 321 -89.5t125 -243.5zM817 1038q123 82 190.5 169.5t67.5 193.5q0 72 -34 113.5t-97 41.5q-90 0 -160.5 -74.5t-70.5 -187.5q0 -126 104 -256zM748 369q0 84 -36.5 159.5t-103.5 157.5
q-137 -87 -213 -182t-76 -215q0 -87 43 -141t127 -54q104 0 181.5 74.5t77.5 200.5z" />
    <glyph glyph-name="nine" unicode="9" horiz-adv-x="1239" 
d="M889 1679q220 0 340.5 -120.5t120.5 -350.5q0 -171 -61 -337t-180 -312.5t-283.5 -266t-382.5 -204.5t-466 -121l-14 60q193 44 372.5 177.5t323.5 325.5q-85 -24 -159 -24q-157 0 -241.5 103.5t-84.5 273.5q0 98 26.5 204t85 212t140 190.5t202 137t261.5 52.5zM643 621
q54 0 111 45q115 183 179 373.5t64 353.5q0 172 -88 172q-66 0 -137 -92.5t-122 -220t-84.5 -260.5t-33.5 -216q0 -73 29 -114t82 -41z" />
    <glyph glyph-name="colon" unicode=":" horiz-adv-x="520" 
d="M338 768q-64 0 -101.5 36t-37.5 95q0 77 60 145t144 68q64 0 102 -36t38 -95q0 -76 -60.5 -144.5t-144.5 -68.5zM92 -31q-64 0 -101.5 36t-37.5 95q0 75 60.5 143t144.5 68q64 0 101.5 -36t37.5 -95q0 -75 -60.5 -143t-144.5 -68z" />
    <glyph glyph-name="semicolon" unicode=";" horiz-adv-x="577" 
d="M346 768q-65 0 -103 36t-38 95q0 76 60.5 144.5t144.5 68.5q65 0 103 -36t38 -95q0 -76 -61 -144.5t-144 -68.5zM-53 -281l-21 58q238 81 267 225q-44 -20 -97 -20q-60 0 -95.5 39t-35.5 96q0 80 54 137t149 57q80 0 128 -49.5t48 -146.5q0 -123 -107.5 -232t-289.5 -164
z" />
    <glyph glyph-name="less" unicode="&#x3c;" horiz-adv-x="1144" 
d="M190 842l992 268l-97 -279l-749 -192l-4 -8l674 -193l-93 -233l-833 268z" />
    <glyph glyph-name="equal" unicode="=" horiz-adv-x="1038" 
d="M983 711h-811l72 243h813zM870 276h-811l74 242h813z" />
    <glyph glyph-name="greater" unicode="&#x3e;" horiz-adv-x="1144" 
d="M1018 471l-993 -266l98 278l749 193l5 8l-674 193l90 233l835 -268z" />
    <glyph glyph-name="question" unicode="?" horiz-adv-x="901" 
d="M408 1249h-56l49 381q37 19 116.5 34t158.5 15q173 0 276 -80.5t103 -232.5q0 -123 -76.5 -224t-267.5 -233q-31 -22 -78.5 -54t-72.5 -49.5t-59 -41.5t-51.5 -39t-35 -33t-24.5 -32.5t-7 -28.5q0 -31 24.5 -55t88.5 -46l-29 -47q-121 31 -195.5 101.5t-74.5 160.5
q0 106 73 191t271 221q136 95 186.5 157t50.5 124q0 49 -30 77.5t-78 28.5q-171 0 -262 -295zM305 -31q-65 0 -103 36t-38 95q0 75 60.5 143t144.5 68q64 0 101.5 -36t37.5 -95q0 -75 -60.5 -143t-142.5 -68z" />
    <glyph glyph-name="at" unicode="@" horiz-adv-x="2260" 
d="M2081 274h78q-69 -134 -155 -250t-197.5 -218t-237.5 -174.5t-280 -114t-320 -41.5q-267 0 -468.5 101.5t-311 289.5t-109.5 438q0 156 44.5 314t123.5 301t195.5 268t254 215.5t305.5 143t343 52.5q143 0 264 -36.5t208.5 -102t149 -155t91.5 -196.5t30 -226
q0 -139 -41 -276t-113 -250t-164 -200.5t-202 -136.5t-219 -49q-114 0 -176 50.5t-62 148.5q0 99 70 266l12 27h-25q-38 -78 -73 -140.5t-81.5 -128.5t-92.5 -110.5t-102.5 -73t-114.5 -28.5q-96 0 -152.5 74t-56.5 202q0 138 64 293t161 278.5t222 205t239 81.5
q108 0 154 -70t36 -172h2l66 150q90 0 166.5 32.5t124.5 78.5l47 -29l-334 -758q-51 -111 -51 -174q0 -82 92 -82q83 0 176.5 71.5t168 182t124 255t49.5 280.5q0 124 -41.5 237t-121.5 203.5t-210.5 144.5t-294.5 54q-160 0 -312 -49.5t-276.5 -135.5t-228.5 -204
t-175 -252.5t-110.5 -283t-39.5 -294.5q0 -231 98.5 -400t277.5 -257t420 -88q356 0 631 190.5t461 527.5zM872 225q70 0 187.5 137.5t185.5 305.5q47 112 47 188q0 51 -20 79t-53 28q-70 0 -165.5 -113t-164 -268.5t-68.5 -268.5q0 -88 51 -88z" />
    <glyph glyph-name="A" unicode="A" horiz-adv-x="1540" 
d="M1327 1671l-45 -1429q-3 -107 32 -145t138 -38l-20 -59h-842l18 59q124 0 175 43t57 140l12 211h-504l-162 -250q-28 -42 -36 -67t4 -43.5t53.5 -26t118.5 -7.5l-21 -59h-551l17 59q91 0 150 29t114 115l966 1468h326zM879 1270l-459 -709h440l43 709h-24z" />
    <glyph glyph-name="B" unicode="B" horiz-adv-x="1527" 
d="M682 0h-811l16 59q116 0 178.5 41t90.5 131l358 1176q29 94 -2 133t-158 39l19 59h727q246 0 374 -90t128 -239q0 -117 -71 -216t-189 -157.5t-257 -67.5l-6 -16q165 -5 274 -97t109 -231q0 -132 -61.5 -234t-169.5 -164.5t-247 -94t-302 -31.5zM946 1489l-172 -561
q28 -8 64 -8q106 0 192.5 57.5t133 149.5t46.5 196q0 99 -45.5 151t-122.5 52q-39 0 -65.5 -10t-30.5 -27zM733 801l-184 -602q-10 -37 20.5 -60.5t112.5 -23.5q75 0 141 44.5t109 115t67.5 155t24.5 166.5q0 60 -17 104t-46.5 67t-63 33.5t-72.5 10.5q-44 0 -92 -10z" />
    <glyph glyph-name="C" unicode="C" horiz-adv-x="1400" 
d="M664 -33q-134 0 -239.5 47t-172 130.5t-101 194.5t-34.5 243q0 153 44.5 310t130 296t198.5 247.5t262 172t309 63.5q216 0 336 -129q16 -17 25.5 -21.5t18.5 2t19 27.5l43 97h60l-187 -594h-59q55 485 -203 485q-93 0 -178.5 -61.5t-148.5 -162.5t-110 -225t-71 -253
t-24 -244q0 -202 71 -295.5t189 -93.5q79 0 153 39.5t132.5 107t104.5 145.5t81 167h69q-42 -108 -81.5 -193t-89 -167t-105 -140.5t-122 -104t-147 -68t-173.5 -22.5z" />
    <glyph glyph-name="D" unicode="D" horiz-adv-x="1728" 
d="M678 0h-807l16 59q116 0 178.5 41t90.5 131l358 1176q29 94 -2 133t-158 39l19 59h667q154 0 285 -40t229.5 -115.5t154.5 -194.5t56 -268q0 -295 -141 -528.5t-388.5 -362.5t-557.5 -129zM678 115q106 0 208 63t180.5 168t138.5 235.5t92 272.5t32 272q0 106 -21.5 186
t-58.5 124.5t-80 66t-92 21.5q-41 0 -75 -14.5t-44 -41.5l-395 -1278q-10 -34 21.5 -54.5t93.5 -20.5z" />
    <glyph glyph-name="E" unicode="E" horiz-adv-x="1411" 
d="M1552 1638l-129 -450h-67q36 163 0.5 240t-137.5 77h-154q-89 0 -115 -86l-155 -506h159q77 0 128.5 41t84.5 136h60l-150 -500h-59q32 122 12 174.5t-104 52.5h-160l-162 -532q-16 -51 -19.5 -80.5t6.5 -46t28.5 -21t54.5 -4.5h153q65 0 118 13.5t110.5 48t113.5 104
t109 172.5l70 -27l-211 -444h-1266l16 59q116 0 178.5 41t90.5 131l358 1176q29 94 -2 133t-158 39l19 59h1179z" />
    <glyph glyph-name="F" unicode="F" horiz-adv-x="1409" 
d="M1681 1638l-129 -450h-67q75 317 -144 317h-292q-72 0 -93 -67l-178 -578h203q95 0 149 39t89 135h57l-154 -542h-63q25 145 2.5 199t-111.5 54h-207l-155 -514q-19 -59 -8 -97.5t67.5 -56.5t169.5 -18l-22 -59h-924l16 59q116 0 178.5 41t90.5 131l358 1176
q29 94 -2 133t-158 39l19 59h1308z" />
    <glyph glyph-name="G" unicode="G" horiz-adv-x="1624" 
d="M1180 1538q-106 0 -204 -67t-170 -176.5t-126 -245.5t-81.5 -279.5t-27.5 -273.5q0 -383 236 -383q131 0 201 192l86 289q28 94 -20 134t-212 40l21 59h757l-8 -59q-59 0 -83 -24.5t-50 -112.5l-133 -434q-121 -99 -294.5 -164.5t-354.5 -65.5q-153 0 -269.5 47.5
t-188 132t-107 195.5t-35.5 244q0 157 47.5 315t137.5 296t210.5 245t278 169t327.5 62q246 0 367 -133q14 -16 22.5 -21t17.5 1t19 26l45 101h60l-168 -586h-60q27 227 -30.5 352t-210.5 125z" />
    <glyph glyph-name="H" unicode="H" horiz-adv-x="1853" 
d="M2134 1638l-16 -59q-106 0 -166 -41t-88 -131l-361 -1176q-29 -94 3 -133t159 -39l-18 -59h-830l14 59q100 0 157 41t85 131l172 562h-487l-172 -562q-19 -59 -17 -97.5t36.5 -56.5t109.5 -18l-15 -59h-829l16 59q116 0 178.5 41t90.5 131l358 1176q29 94 -2 133t-158 39
l19 59h829l-14 -59q-101 0 -158.5 -41t-83.5 -131l-151 -494h487l152 494q33 89 6 130.5t-137 41.5l16 59h815z" />
    <glyph glyph-name="I" unicode="I" horiz-adv-x="937" 
d="M156 231l358 1176q29 94 -2 133t-158 39l19 59h841l-16 -59q-106 0 -165 -41t-87 -131l-358 -1176q-29 -94 2 -133t158 -39l-17 -59h-860l16 59q116 0 178.5 41t90.5 131z" />
    <glyph glyph-name="J" unicode="J" horiz-adv-x="1232" 
d="M543 410l305 997q19 59 9 97.5t-62.5 56.5t-157.5 18l22 59h887l-16 -59q-106 0 -165 -41t-87 -131l-262 -860q-41 -134 -96 -235.5t-116 -166.5t-135.5 -105.5t-149 -56.5t-161.5 -16q-192 0 -296.5 84t-104.5 211q0 110 66.5 177t164.5 67q70 0 114 -35t44 -96
q0 -49 -42 -122t-42 -110q0 -67 74 -67q61 0 104.5 71t102.5 263z" />
    <glyph glyph-name="K" unicode="K" horiz-adv-x="1798" 
d="M156 231l358 1176q29 94 -2 133t-158 39l19 59h841l-16 -59q-106 0 -165 -41t-87 -131l-358 -1176q-29 -94 2 -133t158 -39l-17 -59h-860l16 59q116 0 178.5 41t90.5 131zM1208 1077l232 -844q29 -100 82 -137t159 -37l-20 -59h-832l13 59q122 0 149.5 32.5t1.5 127.5
l-178 666l514 475q103 97 103 156q0 63 -109 63l18 59h666l-14 -59q-181 0 -332 -125z" />
    <glyph glyph-name="L" unicode="L" horiz-adv-x="1374" 
d="M1245 1638l-18 -59q-117 0 -180 -41t-91 -131l-340 -1116q-16 -53 -17.5 -84.5t14.5 -47.5t40.5 -21t69.5 -5h106q120 0 224 87.5t209 285.5l71 -23l-243 -483h-1219l16 59q117 0 181 41t90 131l358 1176q19 59 13.5 97.5t-47.5 56.5t-130 18l19 59h874z" />
    <glyph glyph-name="M" unicode="M" horiz-adv-x="2164" 
d="M1106 1638l-23 -952h7l538 952h752l-17 -59q-100 0 -154 -41t-79 -133l-309 -1172q-16 -60 -6.5 -99t58 -57t146.5 -18l-20 -59h-883l17 59q114 0 173.5 41t84.5 133l333 1287h-12l-899 -1561h-156l25 1540h-12l-389 -1268q-29 -94 2.5 -133t158.5 -39l-18 -59h-551
l16 59q115 0 178 41t89 131l358 1176q28 94 -4 133t-158 39l19 59h735z" />
    <glyph glyph-name="N" unicode="N" horiz-adv-x="1617" 
d="M1929 1638l-16 -59q-116 0 -178 -41t-90 -131l-431 -1411h-239l-385 1241l-309 -1006q-28 -94 8.5 -133t175.5 -39l-19 -59h-575l16 59q116 0 178.5 41t90.5 131l368 1211q-28 77 -62.5 107t-82.5 30l10 59h529l337 -1044h13l250 813q29 94 -9 133t-180 39l19 59h581z
" />
    <glyph glyph-name="O" unicode="O" horiz-adv-x="1603" 
d="M682 -31q-116 0 -210.5 34t-159 92t-108 138.5t-63.5 171t-20 191.5q0 199 75 394t201 345t306 243t376 93q144 0 254 -51t175 -139.5t97.5 -198.5t32.5 -238q0 -199 -74.5 -394t-200.5 -345t-305.5 -243t-375.5 -93zM686 84q94 0 194 133t173 323.5t120.5 402.5
t47.5 368q0 245 -144 245q-77 0 -158 -86.5t-147 -225.5t-119 -301.5t-82.5 -325.5t-29.5 -287t35 -185t110 -61z" />
    <glyph glyph-name="P" unicode="P" horiz-adv-x="1515" 
d="M-129 0l16 59q116 0 178.5 41t90.5 131l358 1176q29 94 -2 133t-158 39l19 59h698q299 0 437.5 -95t138.5 -292q0 -126 -54.5 -242t-146 -200.5t-219.5 -135t-269 -50.5q-156 0 -247 41l-133 -433q-28 -94 9.5 -133t180.5 -39l-20 -59h-877zM860 770q80 0 153 48.5
t123 125.5t79.5 173.5t29.5 191.5q0 215 -188 215q-81 0 -99 -51l-208 -676q35 -27 110 -27z" />
    <glyph glyph-name="Q" unicode="Q" horiz-adv-x="1605" 
d="M1219 -205q83 0 131 19.5t77 79.5l64 -37q-16 -80 -51.5 -149.5t-86.5 -123.5t-122 -85t-152 -31q-79 0 -163.5 25.5t-140 53.5t-146.5 80q-133 77 -224 111.5t-202 34.5q-83 0 -172 -29l90 266q179 -22 344 -4q-117 42 -196 134t-113.5 206.5t-34.5 249.5q0 199 75 394
t201 345t306 243t376 93q144 0 254 -51t175 -139.5t97.5 -198.5t32.5 -238q0 -220 -87 -430.5t-245 -370.5t-356 -229q-287 -112 -678 -120l-8 -27q56 6 160 6q153 0 422 -41q235 -37 373 -37zM1077 1556q-77 0 -158 -86.5t-147 -225.5t-119 -301.5t-82.5 -325.5t-29.5 -287
t35 -185t110 -61q94 0 194 133t173 323.5t120.5 402.5t47.5 368q0 245 -144 245z" />
    <glyph glyph-name="R" unicode="R" horiz-adv-x="1622" 
d="M-129 0l16 59q116 0 178.5 41t90.5 131l358 1176q29 94 -2 133t-158 39l19 59h760q485 0 485 -350q0 -206 -186 -333t-490 -132l-8 -20q119 -10 210.5 -91.5t133.5 -246.5l39 -146q17 -68 34 -109.5t45 -79t71 -54.5t104 -17l-19 -59h-305q-75 0 -128.5 11.5t-101 41.5
t-79.5 87.5t-51 144.5l-86 385q-22 92 -64 98l-162 -537q-28 -94 10.5 -133t180.5 -39l-21 -59h-874zM950 1468l-164 -538q12 -2 37 -2q180 9 291 119.5t111 273.5q0 96 -42 149.5t-120 53.5q-96 0 -113 -56z" />
    <glyph glyph-name="S" unicode="S" horiz-adv-x="1122" 
d="M537 -16q-110 0 -197 35.5t-176 109.5q-49 41 -76 -25l-41 -104h-65l165 641h60q-12 -86 1 -176t46 -166t93.5 -124t137.5 -48q95 0 139 56.5t44 133.5q0 48 -21.5 104t-45 95t-72.5 115q-11 17 -17 26l-129 203q-58 90 -85.5 163.5t-27.5 162.5q0 100 38.5 189
t105.5 155t163 104.5t207 38.5q188 0 334 -127q24 -20 36.5 -16t23.5 31l41 104h59l-139 -518h-60q11 182 -65.5 286.5t-192.5 104.5q-87 0 -131.5 -54.5t-44.5 -133.5q0 -62 26.5 -119t92.5 -156l108 -168q5 -8 34 -52t35.5 -54t29 -47.5t29 -53t21 -49t19 -56.5t9 -54.5
t4.5 -63.5q0 -105 -35 -195t-100 -156t-163 -104t-218 -38z" />
    <glyph glyph-name="T" unicode="T" horiz-adv-x="1409" 
d="M104 0l17 59q116 0 178 41t90 131l371 1205q9 32 -5 50.5t-46 18.5h-52q-121 0 -203 -79t-145 -238h-73l153 450h1305l-109 -450h-74q39 175 5 246t-148 71h-86q-71 0 -92 -67l-371 -1207q-19 -59 -12.5 -97.5t51.5 -56.5t139 -18l-18 -59h-875z" />
    <glyph glyph-name="U" unicode="U" horiz-adv-x="1613" 
d="M715 -33q-332 0 -446.5 178t-14.5 502l231 760q19 59 15.5 97.5t-41.5 56.5t-119 18l16 59h844l-18 -59q-114 0 -176.5 -41t-90.5 -131l-245 -807q-33 -109 -43 -195.5t4.5 -153.5t63.5 -103.5t130 -36.5q155 0 270 125.5t197 394.5l238 776q19 59 13.5 97.5t-47.5 56.5
t-130 18l16 59h531l-15 -59q-93 0 -148 -41t-81 -131l-239 -784q-25 -84 -50 -150.5t-60.5 -136.5t-75 -122.5t-93 -101t-116.5 -79t-144 -48.5t-176 -18z" />
    <glyph glyph-name="V" unicode="V" horiz-adv-x="1536" 
d="M868 1397l-59 -875h16l645 918q24 34 35 54t13.5 38.5t-13 27.5t-46.5 14t-85 5l17 59h532l-18 -59q-95 0 -157 -28t-122 -111l-1040 -1473h-201l45 1430q3 107 -32 144.5t-136 37.5l19 59h821l-17 -59q-115 0 -163 -42.5t-54 -139.5z" />
    <glyph glyph-name="W" unicode="W" horiz-adv-x="2150" 
d="M2497 1638l-17 -59q-94 0 -152.5 -30.5t-109.5 -118.5l-872 -1463h-203l55 1051l-618 -1051h-203l37 1430q3 107 -28.5 144.5t-123.5 37.5l17 59h733l-13 -59q-84 0 -119.5 -42.5t-41.5 -139.5l-54 -834h15l413 699l7 135q6 108 -10.5 145t-73.5 37l10 59h702l-14 -59
q-96 0 -139 -43t-54 -139l-88 -834h15l512 867q18 30 27.5 49t14.5 37.5t-0.5 29t-20.5 19t-42.5 11.5t-68.5 3l16 59h492z" />
    <glyph glyph-name="X" unicode="X" horiz-adv-x="1622" 
d="M1360 1579l20 59h541l-16 -57q-74 0 -146.5 -36t-156.5 -122l-512 -512l174 -675q26 -102 78.5 -139.5t158.5 -37.5l-18 -59h-869l21 59q132 0 165.5 39.5t8.5 137.5l-104 405l-386 -408q-171 -174 68 -174l-18 -59h-566l17 57q92 0 170.5 49.5t208.5 178.5l473 483
l-164 635q-25 101 -68.5 138.5t-120.5 37.5l15 59h807l-21 -59q-122 0 -152 -39t-5 -137l94 -369l342 361q65 68 78.5 109.5t-16.5 58t-101 16.5z" />
    <glyph glyph-name="Y" unicode="Y" horiz-adv-x="1503" 
d="M1030 733l-156 -502q-29 -94 6 -133t171 -39l-21 -59h-874l18 59q114 0 177 41t91 131l154 490l-131 680q-21 102 -59.5 140t-112.5 38l12 59h811l-20 -59q-131 0 -170 -40.5t-23 -139.5l86 -518h12l433 565q22 28 32.5 44.5t17.5 34t1.5 26t-21 16t-44.5 10t-74 2.5
l18 59h496l-17 -59q-84 0 -144.5 -26.5t-121.5 -106.5z" />
    <glyph glyph-name="Z" unicode="Z" horiz-adv-x="1335" 
d="M451 1638h1091l-1081 -1505h327q116 0 207.5 83t173.5 278h78l-186 -494h-1133v59l1061 1446h-266q-122 0 -203.5 -68t-142.5 -249h-78z" />
    <glyph glyph-name="bracketleft" unicode="[" horiz-adv-x="796" 
d="M412 -512h-633l700 2294h633l-35 -115h-192l-633 -2064h194z" />
    <glyph glyph-name="backslash" unicode="\" horiz-adv-x="964" 
d="M354 1696h246l184 -1729h-243z" />
    <glyph glyph-name="bracketright" unicode="]" horiz-adv-x="796" 
d="M395 1782h633l-700 -2294h-633l35 115h192l633 2064h-193z" />
    <glyph glyph-name="asciicircum" unicode="^" horiz-adv-x="1343" 
d="M434 756h-268l692 882h291l154 -882h-252l-99 649h-22z" />
    <glyph glyph-name="underscore" unicode="_" horiz-adv-x="1406" 
d="M1180 -184l-50 -170h-1406l51 170h1405z" />
    <glyph glyph-name="grave" unicode="`" horiz-adv-x="561" 
d="M471 1667l158 -395h-101l-344 395h287z" />
    <glyph glyph-name="a" unicode="a" horiz-adv-x="1327" 
d="M1032 145q44 0 103.5 70t107.5 174h57q-175 -420 -444 -420q-115 0 -166 50t-51 131q0 24 7 52t16 52t29.5 78t37.5 100l10 31h-18q-25 -53 -44.5 -92t-50.5 -94t-58.5 -94.5t-64.5 -82.5t-73 -69.5t-79.5 -44t-88.5 -17.5q-112 0 -178 91.5t-66 238.5q0 144 58.5 296
t149.5 270t209 194t231 76q61 0 105.5 -20.5t68 -57t34 -78.5t9.5 -92h8l55 151q106 0 190 33.5t134 81.5l51 -31l-242 -704q-2 -6 -18 -49.5t-22 -60t-16.5 -48t-14.5 -49.5t-4 -29q0 -21 6.5 -29t21.5 -8zM444 221q68 0 170 145.5t154 311.5q27 89 27 162q0 135 -78 135
q-60 0 -139.5 -107.5t-136 -259t-56.5 -266.5q0 -121 59 -121z" />
    <glyph glyph-name="b" unicode="b" horiz-adv-x="1241" 
d="M530 -33q-161 0 -325.5 43.5t-212.5 89.5l416 1266q40 117 20.5 165t-113.5 48l15 59q395 0 516 62l24 -25l-374 -1075l20 2q23 64 54.5 130.5t79 140.5t100 131t119.5 94t135 37q105 0 159 -90t54 -238q0 -157 -53.5 -309.5t-143.5 -269.5t-219 -189t-271 -72zM539 127
q79 0 155 109.5t119 255t43 264.5q0 127 -68 127q-125 0 -299 -459l-83 -225q58 -72 133 -72z" />
    <glyph glyph-name="c" unicode="c" horiz-adv-x="944" 
d="M381 -33q-157 0 -252.5 105.5t-95.5 292.5q0 134 52 273t138 250t208.5 182t252.5 71q114 0 187 -68t73 -182q0 -100 -52.5 -175t-133.5 -75q-52 0 -82.5 30t-30.5 77q0 33 17.5 61t38 45t38 46t17.5 63q0 71 -62 71q-65 0 -132 -91t-110.5 -231.5t-43.5 -275.5
q0 -254 141 -254q152 0 287 260h57q-187 -475 -512 -475z" />
    <glyph glyph-name="d" unicode="d" horiz-adv-x="1323" 
d="M1040 145q44 0 103.5 70t107.5 174h58q-175 -420 -445 -420q-115 0 -166 50t-51 131q0 25 7 54.5t13.5 49.5t29.5 80.5t36 97.5l10 31h-32q-25 -55 -43.5 -92.5t-49.5 -94t-57 -95t-63 -82.5t-72 -70.5t-79 -44t-89 -17.5q-105 0 -172.5 93.5t-67.5 238.5q0 144 58.5 296
t149.5 270t209 194t231 76q61 0 105 -20.5t67.5 -57t34 -78.5t10.5 -92h8l166 479q73 213 -131 213l14 59q424 0 535 62l24 -25l-414 -1257q-73 -196 -73 -236q0 -21 6.5 -29t21.5 -8zM444 219q68 0 170 146t154 313q27 89 27 162q0 135 -78 135q-60 0 -139.5 -107.5
t-136 -259t-56.5 -266.5q0 -123 59 -123z" />
    <glyph glyph-name="e" unicode="e" horiz-adv-x="985" 
d="M569 180q83 0 156 63t154 206h57q-210 -482 -539 -482q-164 0 -265 101t-101 290q0 143 56.5 286t147.5 252t212.5 177t244.5 68q127 0 203 -64.5t76 -169.5q0 -92 -50 -170.5t-133.5 -131.5t-182 -87t-204.5 -47q-4 -62 -4 -84q0 -207 172 -207zM690 1034
q-57 0 -114 -73.5t-97.5 -179t-62.5 -220.5q139 47 235.5 155.5t96.5 231.5q0 45 -13 65.5t-45 20.5z" />
    <glyph glyph-name="f" unicode="f" horiz-adv-x="735" 
d="M997 1679q215 0 215 -114q0 -57 -49.5 -111.5t-103.5 -54.5q-32 0 -62 17t-52.5 41.5t-43.5 49t-45 41.5t-47 17q-56 0 -61 -82q-10 -229 -48 -381h224l-27 -88h-221l-223 -729q-60 -198 -196.5 -368t-311 -269t-342.5 -99q-178 0 -178 117q0 69 56 130t120 61
q37 0 72 -22.5t56.5 -49.5t49 -49.5t51.5 -22.5q48 0 86.5 89t138.5 411l246 801h-160l29 88h160q97 276 267 426.5t400 150.5z" />
    <glyph glyph-name="g" unicode="g" horiz-adv-x="1087" 
d="M1130 1143q91 0 91 -62q0 -45 -30.5 -78.5t-78.5 -33.5q-33 0 -93.5 23t-84.5 26q72 -78 72 -203q0 -121 -53.5 -224.5t-160.5 -173t-249 -81.5h4q-158 -13 -158 -72q0 -25 28.5 -42t123.5 -46l170 -51q156 -46 215 -102.5t59 -145.5q0 -84 -58.5 -151t-155.5 -109
t-217.5 -64t-250.5 -22q-140 0 -252 24.5t-177.5 64t-99.5 83.5t-34 88q0 75 96.5 127t274.5 72q-84 49 -84 116q0 47 34.5 88.5t91 70.5t117.5 48t125 29q-123 24 -202.5 107.5t-79.5 205.5q0 95 38.5 182t106 153t166 105.5t211.5 39.5q146 0 250 -72q134 80 245 80z
M489 434q60 0 111.5 72t78 172t26.5 196q0 83 -17.5 122.5t-56.5 39.5q-61 0 -112.5 -73.5t-78 -174t-26.5 -194.5q0 -84 17.5 -122t57.5 -38zM555 -164l-311 98q-9 2 -24 7.5t-21 7.5q-97 -18 -150 -58t-53 -90q0 -71 100.5 -120.5t274.5 -49.5q153 0 241 35t88 90
q0 20 -32.5 37.5t-112.5 42.5z" />
    <glyph glyph-name="h" unicode="h" horiz-adv-x="1298" 
d="M328 0h-369l449 1366q39 116 19.5 164.5t-112.5 48.5l15 59q184 0 336 17.5t180 44.5l24 -25l-428 -1237h27q59 133 108 230.5t107 190t111.5 150t116.5 92t128 34.5q98 0 151.5 -55t53.5 -140q0 -55 -34 -158t-66 -176.5t-86 -191.5q-3 -8 -20.5 -48.5t-25 -58t-19 -48
t-16.5 -48.5t-5 -29q0 -37 28 -37q44 0 104.5 70.5t106.5 173.5h60q-175 -420 -447 -420q-115 0 -166 50t-51 131q0 31 10.5 61.5t42.5 99.5t56 129q145 364 145 404q0 43 -33 43q-11 0 -26.5 -8t-41.5 -33t-56 -64t-71 -108.5t-86 -159t-102 -222t-118 -292.5z" />
    <glyph glyph-name="i" unicode="i" horiz-adv-x="751" 
d="M633 1257q-86 0 -139.5 51.5t-53.5 133.5q0 83 53 133.5t140 50.5q86 0 139 -50.5t53 -133.5q0 -82 -53 -133.5t-139 -51.5zM152 432l92 246q82 213 82 252q0 28 -23 28q-32 0 -79.5 -48t-121.5 -154h-59q91 171 219.5 274t267.5 103q81 0 122.5 -44.5t41.5 -111.5
q0 -35 -14.5 -88.5t-29 -94t-48.5 -126.5l-96 -252q-80 -201 -80 -234q0 -37 29 -37q44 0 104.5 70.5t106.5 173.5h59q-175 -420 -446 -420q-115 0 -166.5 50t-51.5 131q0 24 7 52.5t16.5 52.5t30.5 77.5t37 99.5z" />
    <glyph glyph-name="j" unicode="j" horiz-adv-x="702" 
d="M602 1257q-86 0 -139 51.5t-53 133.5q0 83 53 133.5t139 50.5q87 0 140 -50.5t53 -133.5q0 -82 -53.5 -133.5t-139.5 -51.5zM612 666l-127 -377q-80 -236 -215 -403.5t-304.5 -251t-362.5 -83.5q-76 0 -115 35t-39 95q0 67 55.5 121.5t120.5 54.5q37 0 72 -22t57 -49
t49.5 -49t51.5 -22q48 0 107 134t169 466l125 361q76 208 76 254q0 28 -23 28q-32 0 -79 -47.5t-121 -154.5h-60q91 172 219 274.5t269 102.5q80 0 121.5 -44.5t41.5 -111.5q0 -82 -88 -311z" />
    <glyph glyph-name="k" unicode="k" horiz-adv-x="1337" 
d="M1075 184q41 0 89 54t89 147h60q-40 -92 -81.5 -161t-96 -130t-123.5 -93t-150 -32q-57 0 -99 20t-69.5 54t-45 88t-25.5 114t-11 140q-5 60 -2 135q88 17 155.5 49t104.5 66t61 73.5t31 67t7 49.5q0 62 -49 62q-15 0 -36.5 -7t-58 -30.5t-76.5 -61.5t-91.5 -106.5
t-103 -158t-111 -225t-115.5 -298.5h-369l449 1366q39 116 19.5 164.5t-112.5 48.5l15 59q185 0 335.5 17.5t180.5 44.5l24 -25l-424 -1237h19q131 311 314.5 503t350.5 192q93 0 141 -52t48 -118q0 -38 -12 -80.5t-39.5 -91t-68 -91.5t-103 -83t-138.5 -66
q2 -29 15.5 -120.5t15.5 -108.5q11 -73 30.5 -105.5t55.5 -32.5z" />
    <glyph glyph-name="l" unicode="l" horiz-adv-x="692" 
d="M836 1700l24 -25l-407 -1255q-72 -199 -72 -238q0 -21 6.5 -29t22.5 -8q44 0 103.5 70t107.5 174h57q-175 -420 -445 -420q-115 0 -166 50t-51 131q0 20 2.5 38t10.5 48t13.5 47.5t23.5 70t28 82.5l303 930q39 116 21 164.5t-111 48.5l15 59q408 0 514 62z" />
    <glyph glyph-name="m" unicode="m" horiz-adv-x="1927" 
d="M381 0h-367l234 676q78 214 78 254q0 28 -23 28q-32 0 -79.5 -48t-121.5 -154h-59q91 171 219.5 274t267.5 103q81 0 122.5 -44.5t41.5 -111.5q0 -15 -2.5 -32t-9 -39t-12 -38t-17.5 -45t-19 -45t-23 -52.5t-23 -53.5l-90 -234h24q45 98 78.5 168t75 148t76 130.5
t75.5 103.5t80 81t84 48t92 18q73 0 117.5 -54t44.5 -118q0 -37 -6.5 -74.5t-27 -96t-32.5 -91t-51.5 -127t-56.5 -136.5h27q59 134 108.5 232t106.5 190t111.5 149.5t117 91.5t127.5 34q99 0 152 -54.5t53 -140.5q0 -55 -34 -158t-66 -176.5t-86 -191.5q-3 -8 -20.5 -48.5
t-25 -58t-19 -48t-16.5 -48.5t-5 -29q0 -37 28 -37q44 0 104.5 70.5t106.5 173.5h60q-175 -420 -445 -420q-116 0 -167.5 50t-51.5 131q0 31 10.5 61.5t42.5 99.5t56 129q126 325 139 380q4 16 4 24q0 43 -33 43q-12 0 -29 -9t-45.5 -36t-60 -69.5t-74.5 -118.5t-88 -173
q-100 -213 -198 -481h-367l139 352q170 420 170 492q0 43 -33 43q-11 0 -26.5 -8t-41 -33t-54.5 -64t-69 -108.5t-83.5 -159t-99.5 -222t-115 -292.5z" />
    <glyph glyph-name="n" unicode="n" horiz-adv-x="1351" 
d="M381 0h-369l236 676q78 214 78 254q0 28 -23 28q-32 0 -79.5 -48t-121.5 -154h-59q91 171 219.5 274t267.5 103q81 0 122.5 -44.5t41.5 -111.5q0 -21 -4.5 -44.5t-17.5 -60t-20.5 -55.5t-30.5 -73t-31 -72l-90 -234h24q49 102 82 168t76.5 147t77.5 131.5t76.5 103.5
t81 81.5t84 47t92.5 18.5q98 0 151 -55t53 -140q0 -126 -188 -526q-7 -17 -25.5 -62t-29 -71t-20 -56t-9.5 -43q0 -37 29 -37q44 0 103.5 70t107.5 174h59q-34 -82 -74 -150t-95 -132.5t-126 -101t-151 -36.5q-115 0 -166 50t-51 131q0 31 10 61t42 100t56 129
q145 364 145 404q0 43 -32 43q-11 0 -26.5 -8t-40.5 -33t-54.5 -64t-70.5 -108.5t-86 -159t-103 -222t-121 -292.5z" />
    <glyph glyph-name="o" unicode="o" horiz-adv-x="1181" 
d="M477 -33q-120 0 -217.5 51.5t-156 151.5t-58.5 229q0 192 87.5 362.5t240.5 274t332 103.5q185 0 308.5 -118.5t123.5 -313.5q0 -192 -87.5 -362t-240.5 -274t-332 -104zM459 90q73 0 153.5 138t131.5 326t51 335q0 129 -70 129q-73 0 -154 -139t-132.5 -327t-51.5 -333
q0 -129 72 -129z" />
    <glyph glyph-name="p" unicode="p" horiz-adv-x="1275" 
d="M1018 1135q97 0 164 -77.5t67 -238.5q0 -118 -28 -237t-82.5 -225.5t-128 -189t-171.5 -131t-206 -48.5q-126 0 -221 65l-84 -272q-34 -103 -6 -137.5t153 -34.5l-24 -60h-715l18 60q91 0 135 35.5t76 136.5l340 1098q-118 -214 -256 -320l-37 43q127 96 241.5 280
t154.5 332v-2l8 25h336l-199 -578h27q200 476 438 476zM575 111q68 0 143.5 114t123 264t47.5 259q0 67 -13.5 101t-52.5 34q-68 0 -154 -130t-149 -339l-51 -166q10 -137 106 -137z" />
    <glyph glyph-name="q" unicode="q" horiz-adv-x="1236" 
d="M1315 1135l-479 -1356q-38 -101 -20.5 -135.5t116.5 -34.5l-19 -60h-712l22 60q114 0 168 34t90 134l248 686h-18q-26 -56 -43.5 -92.5t-48.5 -94t-56.5 -95t-62 -82t-71.5 -70.5t-78 -44t-87 -18q-111 0 -178.5 92.5t-67.5 247.5q0 140 58.5 290.5t149.5 268t210 193.5
t232 76q109 0 163.5 -62.5t61.5 -161.5l45 127q192 0 326 125zM444 219q46 0 109.5 68.5t122 175t92.5 215.5q27 89 27 160q0 137 -70 137q-66 0 -147 -108t-137 -259.5t-56 -269.5q0 -119 59 -119z" />
    <glyph glyph-name="r" unicode="r" horiz-adv-x="1050" 
d="M391 0h-368l225 676q78 202 78 254q0 28 -23 28q-32 0 -79.5 -48t-121.5 -154h-59q91 171 219.5 274t267.5 103q81 0 122.5 -44.5t41.5 -111.5q0 -21 -4.5 -44.5t-17.5 -60t-20.5 -55.5t-30.5 -73t-31 -72l-90 -234h24q40 87 66.5 142.5t64 130t65.5 121.5t63.5 101.5
t67.5 87.5t68 62.5t73.5 42.5t76.5 13q98 0 98 -103q0 -76 -54 -141.5t-114 -65.5q-29 0 -67 11.5t-58 11.5q-22 0 -48.5 -16t-71.5 -70.5t-95 -143t-120.5 -249t-147.5 -373.5z" />
    <glyph glyph-name="s" unicode="s" horiz-adv-x="864" 
d="M324 -33q-84 0 -164.5 24.5t-137.5 74.5t-57 114q0 58 41.5 98.5t99.5 40.5q41 0 65 -22t50 -78q35 -81 70.5 -115t77.5 -34q44 0 67 28t23 80q0 42 -20 85t-40.5 68t-66.5 77l-41 47q-67 77 -101 143.5t-34 153.5q0 115 65.5 205t173.5 138t236 48q147 0 220 -50
t73 -116q0 -59 -42.5 -100t-99.5 -41q-43 0 -66.5 27.5t-39.5 86.5q-29 94 -113 94q-44 0 -76 -30.5t-32 -83.5t30.5 -103t96.5 -129l32 -43q72 -85 110 -155t38 -152q0 -154 -127 -267.5t-311 -113.5z" />
    <glyph glyph-name="t" unicode="t" horiz-adv-x="786" 
d="M664 1014l-191 -537q-25 -71 -36.5 -104.5t-22.5 -77t-11 -70.5q0 -25 9 -38t34 -13q116 0 250 254h60q-203 -459 -520 -459q-106 0 -157.5 50t-51.5 141q0 98 86 332l188 522h-137l39 86q298 31 485 289h109l-107 -287h195l-29 -88h-192z" />
    <glyph glyph-name="u" unicode="u" horiz-adv-x="1353" 
d="M260 -33q-97 0 -151 54t-54 133q0 152 181 528q4 9 17 40.5t18.5 44.5t16 39.5t15.5 41t11.5 33.5t9 31t2.5 20q0 26 -23 26q-33 0 -80.5 -48t-120.5 -154h-59q91 171 219.5 274t267.5 103q81 0 122.5 -44.5t41.5 -111.5q0 -21 -4.5 -45.5t-17.5 -60t-22 -58.5
t-31.5 -76.5t-32.5 -79.5t-27 -66.5t-26 -63t-22.5 -56t-21 -53t-17 -44.5t-15 -40.5t-10.5 -32t-7 -26.5t-2 -17q0 -43 33 -43q13 0 30 8.5t45.5 36.5t61 71.5t77 121t91.5 178.5q152 322 154 471h413l-239 -686q-5 -14 -18.5 -50.5t-21 -58t-17.5 -50t-14.5 -47.5
t-4.5 -30q0 -22 7 -29.5t22 -7.5q44 0 104.5 70.5t106.5 173.5h59q-173 -420 -444 -420q-116 0 -167.5 49.5t-51.5 130.5q0 31 10 61t39.5 97t50.5 121l92 236h-25q-52 -112 -92 -192.5t-88 -165.5t-91.5 -141.5t-92 -103.5t-100.5 -69.5t-107 -22.5z" />
    <glyph glyph-name="v" unicode="v" horiz-adv-x="1044" 
d="M922 1133q55 0 93 -44.5t38 -121.5q0 -69 -27 -169.5t-74 -211.5t-115.5 -221.5t-145 -199t-170 -143.5t-183.5 -55q-122 0 -194 86t-72 217q0 148 96.5 303t261.5 322q-26 3 -110 25t-113 22q-41 0 -41 -37q0 -25 32.5 -61.5t32.5 -65.5q0 -28 -19.5 -48.5t-51.5 -20.5
q-31 0 -54.5 22.5t-23.5 63.5q0 54 55 170q41 77 84.5 118t102.5 41q30 0 128.5 -17t133.5 -17q16 0 28.5 2t23 7.5t15.5 8.5t14.5 11t10.5 9l49 -41q-128 -164 -210.5 -342t-82.5 -319q0 -90 32.5 -143.5t92.5 -53.5q70 0 144.5 79.5t122.5 197.5t48 223q0 72 -32.5 161.5
t-32.5 121.5q0 51 31.5 86t81.5 35z" />
    <glyph glyph-name="w" unicode="w" horiz-adv-x="1564" 
d="M1440 1135q51 0 89 -43t38 -131q0 -80 -33 -204.5t-93.5 -260t-135 -255t-168.5 -197t-183 -77.5q-103 0 -164 64.5t-61 181.5q0 51 37 184h-18q-75 -189 -190.5 -309.5t-244.5 -120.5q-101 0 -174 81.5t-73 211.5q0 268 354 635q-21 4 -105 25.5t-112 21.5
q-39 0 -39 -37q0 -25 30.5 -61.5t30.5 -65.5q0 -28 -19 -48.5t-50 -20.5q-32 0 -54 21.5t-22 57.5q0 29 16.5 81.5t38.5 95.5q78 159 187 159q26 0 122 -17t125 -17q50 0 84 30q2 1 5.5 4t5.5 4l47 -41q-128 -173 -206.5 -357.5t-78.5 -336.5q0 -164 82 -164q72 0 143 125.5
t115 308t47 351.5h383q-16 -83 -51 -203.5t-57.5 -220.5t-22.5 -189q0 -172 82 -172q57 0 115 86t92.5 203.5t34.5 214.5q0 74 -30 160t-30 119q0 53 31 88t80 35z" />
    <glyph glyph-name="x" unicode="x" horiz-adv-x="1226" 
d="M1217 1139q56 0 79 -28t23 -64q0 -69 -51.5 -139t-112.5 -70q-23 0 -66.5 8t-68.5 8q-54 0 -110 -38.5t-132 -149.5l31 -377q10 -135 72 -135q42 0 98.5 63t99.5 162h60q-66 -182 -178 -296t-263 -114q-115 0 -181.5 80t-80.5 264l-2 31q-246 -373 -426 -373
q-92 0 -92 80q0 78 56 147.5t118 69.5q15 0 64 -7t79 -7q82 0 195 158l-31 370q-8 99 -18.5 132.5t-36.5 33.5q-32 0 -71.5 -57.5t-94.5 -167.5h-59q162 410 426 410q108 0 158 -72.5t65 -261.5l6 -62q121 196 227.5 299t217.5 103z" />
    <glyph glyph-name="y" unicode="y" horiz-adv-x="1050" 
d="M-47 -451q-82 0 -125 33t-43 92q0 73 57.5 128t126.5 55q31 0 59 -12.5t49 -30.5t40.5 -36.5t41.5 -31t44 -12.5q51 0 84 59.5t45 140.5q3 90 -9.5 400t-21.5 457q-6 88 -19.5 122.5t-39.5 34.5q-28 0 -55 -48.5t-83 -182.5h-57q41 108 75.5 178t79 127.5t98.5 84
t122 26.5q110 0 161 -75t58 -257q5 -118 5 -300.5t-5 -283.5q101 128 167 269t66 251q0 66 -32.5 154.5t-32.5 120.5q0 50 33.5 85.5t83.5 35.5q55 0 93 -47.5t38 -127.5q0 -340 -506 -981q-55 -72 -102 -127t-109 -114.5t-120 -98t-128 -63.5t-139 -25z" />
    <glyph glyph-name="z" unicode="z" horiz-adv-x="980" 
d="M1053 1057q0 -52 -50.5 -117t-141.5 -139t-185.5 -142.5t-216 -157t-199.5 -153.5q32 4 51 4q61 0 121 -22t100 -48.5t89.5 -48.5t91.5 -22q112 0 112 147q0 43 -10 95l66 22q10 -72 10 -127q0 -229 -75 -351t-198 -122q-56 0 -111 31t-99.5 75t-88.5 88.5t-94.5 75.5
t-99.5 31q-41 0 -63.5 -17t-22.5 -38q0 -14 18.5 -38.5t18.5 -43.5q0 -29 -23 -48.5t-51 -19.5q-31 0 -52.5 24.5t-21.5 65.5t23 88t70 98t97 98t126.5 105.5t135.5 102t145.5 106t136.5 99.5q-33 -10 -66 -10q-55 0 -160.5 39.5t-148.5 39.5q-48 0 -73.5 -31t-51.5 -98
l-58 13q41 130 79.5 216t77 131t73 62t76.5 17q44 0 89 -17.5t84.5 -42.5t80.5 -50t94 -42.5t108 -17.5q86 0 86 43q0 15 -18.5 37.5t-18.5 39.5q0 18 17.5 32t46.5 14q36 0 55 -22t19 -54z" />
    <glyph glyph-name="braceleft" unicode="{" horiz-adv-x="976" 
d="M602 -438l-16 -60q-77 1 -139 8.5t-128 28.5t-109.5 54.5t-72 92t-28.5 136.5q0 76 24.5 159.5t59.5 155t70.5 139t60 134t24.5 118.5q0 92 -61 129t-191 37l21 64q85 1 146 11t101 33.5t64.5 46t38.5 68t19.5 78t11.5 95.5q22 188 57 290q29 88 73 152t99 107
t131.5 70.5t160.5 40.5t195 19l-18 -59q-75 -12 -129 -35.5t-84 -49.5t-48 -64t-23.5 -71t-6.5 -79q-2 -184 -29 -306.5t-90 -203t-156.5 -121t-236.5 -57.5l-2 -10q56 -12 107 -35t96 -58.5t71.5 -90t26.5 -119.5q0 -67 -28 -141t-68.5 -140.5l-81 -133t-68.5 -140
t-28 -138.5q0 -64 39 -104.5t145 -50.5z" />
    <glyph glyph-name="bar" unicode="|" horiz-adv-x="655" 
d="M-63 -328l614 2007h244l-615 -2007h-243z" />
    <glyph glyph-name="braceright" unicode="}" horiz-adv-x="974" 
d="M424 1708l16 59q78 -1 139.5 -8.5t127.5 -28t110 -54.5t72.5 -92t28.5 -136q0 -76 -24.5 -159.5t-60 -155t-71 -139.5t-60 -134.5t-24.5 -118.5q0 -92 61 -129t191 -37l-21 -63q-84 -1 -146 -11t-101.5 -33.5t-64 -46t-38.5 -67.5t-19.5 -77.5t-11.5 -94.5
q-22 -190 -57 -293q-29 -88 -73 -152t-99 -107t-131.5 -70.5t-160.5 -40.5t-195 -19l18 60q75 12 129 35.5t84 49.5t48 64t23.5 71t6.5 79q2 184 29 306.5t90 203t156.5 121t236.5 57.5l2 10q-56 12 -107 35t-96 58.5t-71.5 90t-26.5 119.5q0 67 28 141t68.5 140.5t81 132.5
t68.5 139.5t28 138.5t-39 105.5t-145 50.5z" />
    <glyph glyph-name="asciitilde" unicode="~" horiz-adv-x="1531" 
d="M1473 893l59 -8q-171 -457 -447 -457q-74 0 -142 22t-120 54t-103 63.5t-113 53.5t-128 22q-112 0 -204 -55t-148 -160l-59 6q170 457 448 457q74 0 141.5 -22t119 -53.5t102.5 -63.5t112.5 -54t126.5 -22q115 0 207 55.5t148 161.5z" />
    <glyph glyph-name="exclamdown" unicode="&#xa1;" horiz-adv-x="548" 
d="M446 1143q65 0 103.5 -36t38.5 -95q0 -76 -60.5 -144.5t-144.5 -68.5q-65 0 -103 36t-38 95q0 76 60.5 144.5t143.5 68.5zM160 -377q-63 -192 -219 -192q-67 0 -102.5 33.5t-35.5 95.5q0 38 15 84q19 64 73.5 171t114.5 215.5t138 286.5t137 365h59q-56 -186 -88 -366
t-39 -291.5t-19.5 -223t-33.5 -178.5z" />
    <glyph glyph-name="cent" unicode="&#xa2;" horiz-adv-x="991" 
d="M758 641q-67 0 -96 47l-236 -399q29 -107 123 -107q152 0 287 260h57q-187 -475 -512 -475q-66 0 -133 23l-260 -441h-80l278 474q-72 48 -112.5 135.5t-40.5 206.5q0 134 52 273t138 250t208.5 182t252.5 71q81 0 143 -35l316 532h82l-342 -577q61 -67 61 -170
q0 -100 -52.5 -175t-133.5 -75zM408 436v-39l346 584q-6 53 -60 53q-65 0 -132 -91t-110.5 -231.5t-43.5 -275.5z" />
    <glyph glyph-name="sterling" unicode="&#xa3;" horiz-adv-x="1456" 
d="M1315 1161q-62 0 -97.5 27.5t-35.5 77.5q0 36 15 68t33 51.5t33 47t15 54.5q0 36 -24 57t-70 21q-88 0 -162 -123t-96 -361q-7 -91 -29 -235h289l-31 -80h-270q-16 -78 -43 -166q-42 -128 -115 -250q147 -33 272 -33q58 0 106.5 12.5t96.5 43t85 89.5t59 144h65
q-34 -133 -82 -244t-113.5 -202.5t-153 -143t-188.5 -51.5q-93 0 -167 42t-158 118q-177 -160 -373 -160q-102 0 -161.5 45.5t-59.5 126.5q0 112 103.5 199.5t263.5 87.5q27 0 81 -4q35 139 72 346h-203l31 80h189q26 131 62 244t94.5 224.5t131.5 189.5t176.5 126.5
t225.5 48.5q85 0 149.5 -24.5t101 -66.5t54.5 -92.5t18 -109.5q0 -97 -53.5 -161t-136.5 -64zM166 86q65 0 110.5 44.5t83.5 145.5q-64 33 -120 33q-73 0 -114.5 -42.5t-41.5 -100.5q0 -37 22.5 -58.5t59.5 -21.5z" />
    <glyph glyph-name="currency" unicode="&#xa4;" horiz-adv-x="1437" 
d="M1520 1192l-236 -186q16 -56 16 -113q0 -105 -47 -217.5t-131 -208.5l127 -186l-200 -156l-123 180q-139 -76 -285 -76q-147 0 -252 78l-233 -182l-127 170l237 186q-16 59 -16 117q0 107 48.5 220.5t133.5 209.5l-127 184l199 152l123 -178q136 76 280 76q150 0 254 -80
l234 182zM487 641q0 -85 50.5 -136.5t144.5 -51.5q79 0 151 36t121 93t78 127.5t29 140.5q0 85 -49.5 136.5t-143.5 51.5q-79 0 -151.5 -36t-122 -93t-78.5 -127.5t-29 -140.5z" />
    <glyph glyph-name="yen" unicode="&#xa5;" horiz-adv-x="1503" 
d="M1860 1638l-17 -59q-84 0 -144.5 -26.5t-121.5 -106.5l-444 -580h413l-22 -80h-453l-41 -53l-45 -147h475l-22 -78h-477l-87 -277q-29 -94 6 -133t171 -39l-21 -59h-874l18 59q114 0 177 41t91 131l86 277h-446l22 78h449l43 135l-12 65h-416l22 80h377l-102 535
q-21 102 -59.5 140t-112.5 38l12 59h811l-20 -59q-131 0 -170 -40.5t-23 -139.5l86 -518h12l433 565q22 28 32.5 44.5t17.5 34t1.5 26t-21 16t-44.5 10t-74 2.5l18 59h496z" />
    <glyph glyph-name="brokenbar" unicode="&#xa6;" horiz-adv-x="655" 
d="M299 860l252 819h244l-252 -819h-244zM-63 -328l249 820h244l-250 -820h-243z" />
    <glyph glyph-name="section" unicode="&#xa7;" horiz-adv-x="1054" 
d="M872 1673q132 0 219 -63.5t87 -155.5q0 -62 -39.5 -106.5t-108.5 -44.5q-52 0 -81 27.5t-29 72.5q0 20 11 52t11 54q0 40 -25.5 65t-82.5 25q-96 0 -164 -71t-68 -160q0 -46 21.5 -92.5t56.5 -87t76.5 -82t83.5 -84t77 -86t56.5 -95t21.5 -104.5q0 -202 -286 -397
q34 -61 34 -139q0 -102 -56.5 -200t-163.5 -164t-236 -66q-132 0 -218.5 63t-86.5 156q0 63 38.5 107t106.5 44q53 0 83 -27.5t30 -72.5q0 -22 -11.5 -54.5t-11.5 -52.5q0 -90 109 -90q96 0 162.5 70.5t66.5 161.5q0 45 -21.5 91.5t-56 87t-76 82t-83.5 84.5t-76.5 86.5
t-56 95t-21.5 104.5q0 203 287 397q-35 65 -35 139q0 102 56.5 200t163.5 164t236 66zM793 625q0 62 -33.5 121.5t-75.5 99t-102 97t-93 99.5q-122 -109 -122 -225q0 -61 33.5 -120.5t75 -99.5t102 -97.5t92.5 -98.5q123 110 123 224z" />
    <glyph glyph-name="dieresis" unicode="&#xa8;" horiz-adv-x="1034" 
d="M578 1245q-70 0 -121 50.5t-51 121.5q0 72 50.5 122t121.5 50q72 0 122 -50t50 -122q0 -71 -50 -121.5t-122 -50.5zM1020 1245q-70 0 -121 50.5t-51 121.5q0 72 50.5 122t121.5 50q72 0 122 -50t50 -122q0 -71 -50 -121.5t-122 -50.5z" />
    <glyph glyph-name="copyright" unicode="&#xa9;" horiz-adv-x="1853" 
d="M1909 1075q0 -138 -40 -276t-111.5 -261t-175.5 -229.5t-227 -184t-271.5 -121.5t-303.5 -44q-158 0 -283.5 46.5t-207.5 131t-125 201.5t-43 260q0 162 53.5 324t155.5 302t238 248.5t313 171t368 62.5q162 0 288.5 -46t207 -130.5t122.5 -199.5t42 -255zM1829 1059
q0 262 -153 415.5t-447 153.5q-148 0 -286 -40t-250 -110.5t-205 -167.5t-155.5 -209.5t-97 -237.5t-34.5 -251q0 -267 155 -420t441 -153q144 0 280.5 40t249 110t207 167t159 209t100.5 239t36 255zM463 680q0 129 56.5 254t150 219t222.5 151.5t265 57.5q74 0 135 -17.5
t92 -39t58 -39t41 -17.5q21 0 39 64h59l-92 -379h-57q14 131 -47.5 218t-194.5 87q-126 0 -232 -84t-163.5 -212.5t-57.5 -266.5q0 -135 60.5 -202.5t175.5 -67.5q130 0 248.5 78.5t210.5 226.5h57q-99 -199 -262 -310.5t-359 -111.5q-194 0 -299.5 106t-105.5 285z" />
    <glyph glyph-name="guillemotleft" unicode="&#xab;" horiz-adv-x="1067" 
d="M711 1094l-320 -494l49 -500h-49l-309 500l563 494h66zM1149 1094l-320 -494l48 -500h-48l-311 500l565 494h66z" />
    <glyph glyph-name="logicalnot" unicode="&#xac;" horiz-adv-x="1157" 
d="M59 743l76 248h1053l-230 -745h-241l151 497h-809z" />
    <glyph glyph-name="registered" unicode="&#xae;" horiz-adv-x="1853" 
d="M1249 1706q162 0 288.5 -46t207 -130.5t122.5 -199.5t42 -255q0 -138 -40 -276t-111.5 -261t-175.5 -229.5t-227 -184t-271.5 -121.5t-303.5 -44q-158 0 -283.5 46.5t-207.5 131t-125 201.5t-43 260q0 162 53.5 324t155.5 302t238 248.5t313 171t368 62.5zM797 39
q144 0 280.5 40t249 110t207 167t159 209t100.5 239t36 255q0 262 -153 415.5t-447 153.5q-148 0 -286 -40t-250 -110.5t-205 -167.5t-155.5 -209.5t-97 -237.5t-34.5 -251q0 -267 155 -420t441 -153zM1479 1124q0 -130 -113 -213t-295 -86l-2 -8q68 -11 112 -53t70 -135
l35 -129q22 -76 55 -109t103 -33l-10 -51h-242q-97 0 -137.5 34.5t-61.5 145.5l-47 252q-10 50 -35 82l-86 -286q-32 -88 -18 -129t92 -41l-10 -58h-516l8 58q62 0 104 41t70 129l180 589q31 89 12.5 130.5t-108.5 41.5l12 58h510q149 0 233.5 -55.5t84.5 -174.5zM1120 1280
q-69 0 -82 -37l-102 -342q8 -2 27 -2q115 0 189.5 75t74.5 175q0 61 -30 96t-77 35z" />
    <glyph glyph-name="macron" unicode="&#xaf;" horiz-adv-x="995" 
d="M358 1362l41 133h723l-39 -133h-725z" />
    <glyph glyph-name="degree" unicode="&#xb0;" horiz-adv-x="827" 
d="M510 975q-135 0 -213 71t-78 197q0 116 68 222t183 170.5t245 64.5q135 0 213 -71t78 -195q0 -117 -67.5 -223t-182.5 -171t-246 -65zM561 1153q91 0 162.5 73t71.5 163q0 62 -35 97.5t-96 35.5q-90 0 -161 -73.5t-71 -164.5q0 -61 34.5 -96t94.5 -35z" />
    <glyph glyph-name="plusminus" unicode="&#xb1;" horiz-adv-x="1107" 
d="M1128 897l-71 -242h-330l-68 -221h355l-86 -241h-916l82 241h307l68 221h-332l72 242h334l104 340h258l-104 -340h327z" />
    <glyph glyph-name="acute" unicode="&#xb4;" horiz-adv-x="561" 
d="M397 1272h-100l219 395h291z" />
    <glyph glyph-name="paragraph" unicode="&#xb6;" horiz-adv-x="1415" 
d="M1624 1638l-16 -59q-116 0 -178.5 -41t-90.5 -131l-565 -1858h-117l605 1975h-269l-602 -1975h-117l394 1246q-186 0 -292 70.5t-106 213.5q0 164 83.5 292.5t226.5 197.5t319 69h725z" />
    <glyph glyph-name="periodcentered" unicode="&#xb7;" horiz-adv-x="518" 
d="M299 647q-64 0 -101.5 36t-37.5 95q0 76 60 144.5t142 68.5q65 0 103.5 -36t38.5 -95q0 -76 -60.5 -144.5t-144.5 -68.5z" />
    <glyph glyph-name="cedilla" unicode="&#xb8;" horiz-adv-x="761" 
d="M-41 -188l113 208h110l-67 -129q100 0 163.5 -38t63.5 -125q0 -106 -115.5 -180t-322.5 -74q-92 0 -178 22l26 58q87 -5 103 -5q71 0 121.5 15.5t76 42t36.5 53.5t11 57q0 95 -141 95z" />
    <glyph glyph-name="guillemotright" unicode="&#xbb;" horiz-adv-x="1067" 
d="M-53 100l319 494l-49 500h49l309 -500l-563 -494h-65zM383 100l322 494l-50 500h47l312 -500l-563 -494h-68z" />
    <glyph glyph-name="onequarter" unicode="&#xbc;" horiz-adv-x="1830" 
d="M856 1636l-246 -825q-20 -61 -3 -82.5t91 -21.5l-14 -35h-520l14 35q68 0 99.5 21.5t50.5 82.5l180 598q10 31 13 45.5t1.5 26t-14.5 11t-33 -6t-57 -19.5l2 41l405 164zM305 0l1194 1638h127l-1192 -1638h-129zM1241 242h-340l55 194l578 559h178l-172 -559h123
l-59 -194h-121l-33 -103q-20 -61 -4 -82.5t88 -21.5l-14 -35h-469l12 35q68 0 98 21.5t49 82.5zM1051 440l-4 -4h253l117 361z" />
    <glyph glyph-name="onehalf" unicode="&#xbd;" horiz-adv-x="1927" 
d="M856 1636l-246 -825q-20 -61 -3 -82.5t91 -21.5l-14 -35h-520l14 35q68 0 99.5 21.5t50.5 82.5l180 598q10 31 13 45.5t1.5 26t-14.5 11t-33 -6t-57 -19.5l2 41l405 164zM311 0l1194 1638h127l-1192 -1638h-129zM1536 0h-567l12 35q93 75 145.5 118.5t122.5 104.5
t108 99.5t82 88.5t65 88t35.5 80.5t14.5 83.5q0 101 -112 101q-72 0 -131 -48t-97 -139h-38q52 172 186 279.5t291 107.5q98 0 151.5 -44t53.5 -124q0 -60 -34 -125.5t-84 -122t-134 -125.5t-157 -121.5t-179 -123.5l-4 -14h262q57 0 99.5 33.5t90.5 105.5h37z" />
    <glyph glyph-name="threequarters" unicode="&#xbe;" horiz-adv-x="1933" 
d="M406 653q-92 0 -157 30t-65 83q0 43 32 73.5t79 30.5q27 0 44 -13.5t25 -33t15.5 -39.5t23.5 -33.5t41 -13.5q70 0 129.5 82t59.5 201q0 73 -44.5 110t-119.5 37l10 37q130 23 203.5 85.5t73.5 148.5q0 40 -27.5 64t-79.5 24q-134 0 -186 -131h-41q51 134 151.5 205
t239.5 71q96 0 150.5 -43t54.5 -127q0 -103 -96 -186.5t-244 -108.5l-2 -10q99 0 167 -49t68 -148q0 -138 -145 -242t-360 -104zM389 0l1194 1638h127l-1192 -1638h-129zM1346 242h-340l53 194l577 559h181l-175 -559h123l-59 -194h-121l-31 -103q-21 -61 -5 -82.5t87 -21.5
l-14 -35h-469l14 35q67 0 98 21.5t50 82.5zM1153 440l-4 -4h256l115 361z" />
    <glyph glyph-name="questiondown" unicode="&#xbf;" horiz-adv-x="903" 
d="M600 1143q64 0 102.5 -36t38.5 -95q0 -76 -60.5 -144.5t-143.5 -68.5q-65 0 -103.5 36t-38.5 95q0 76 60.5 144.5t144.5 68.5zM496 -137h55l-47 -383q-40 -19 -119 -34t-156 -15q-174 0 -277.5 81t-103.5 232q0 124 77.5 226t269.5 233q32 22 78.5 53.5t72.5 49t59 41.5
t50.5 39t35 33t24.5 33t7 29q0 29 -24.5 53.5t-87.5 47.5l28 47q121 -31 195 -101.5t74 -162.5q0 -105 -73 -191t-269 -221q-138 -95 -188 -156t-50 -125q0 -49 30.5 -77.5t78.5 -28.5q172 0 260 297z" />
    <glyph glyph-name="Agrave" unicode="&#xc0;" horiz-adv-x="1540" 
d="M1073 2161l158 -396h-101l-344 396h287zM1327 1671l-45 -1429q-3 -107 32 -145t138 -38l-20 -59h-842l18 59q124 0 175 43t57 140l12 211h-504l-162 -250q-28 -42 -36 -67t4 -43.5t53.5 -26t118.5 -7.5l-21 -59h-551l17 59q91 0 150 29t114 115l966 1468h326zM879 1270
l-459 -709h440l43 709h-24z" />
    <glyph glyph-name="Aacute" unicode="&#xc1;" horiz-adv-x="1540" 
d="M1354 2161h291l-410 -396h-100zM1327 1671l-45 -1429q-3 -107 32 -145t138 -38l-20 -59h-842l18 59q124 0 175 43t57 140l12 211h-504l-162 -250q-28 -42 -36 -67t4 -43.5t53.5 -26t118.5 -7.5l-21 -59h-551l17 59q91 0 150 29t114 115l966 1468h326zM879 1270l-459 -709
h440l43 709h-24z" />
    <glyph glyph-name="Acircumflex" unicode="&#xc2;" horiz-adv-x="1540" 
d="M1401 1765l-139 242l-320 -242h-100l329 396h277l37 -396h-84zM1327 1671l-45 -1429q-3 -107 32 -145t138 -38l-20 -59h-842l18 59q124 0 175 43t57 140l12 211h-504l-162 -250q-28 -42 -36 -67t4 -43.5t53.5 -26t118.5 -7.5l-21 -59h-551l17 59q91 0 150 29t114 115
l966 1468h326zM879 1270l-459 -709h440l43 709h-24z" />
    <glyph glyph-name="Atilde" unicode="&#xc3;" horiz-adv-x="1540" 
d="M1610 2152l63 -8q-22 -53 -39 -91.5t-49.5 -95.5t-63 -93t-73 -63t-86.5 -27q-42 0 -77.5 15.5t-59.5 37t-47 43.5t-50.5 37.5t-58.5 15.5q-71 0 -117.5 -40.5t-87.5 -115.5l-61 9q146 372 311 372q42 0 77.5 -15.5t59.5 -38t46.5 -44.5t50 -37.5t57.5 -15.5q72 0 118 40
t87 115zM1327 1671l-45 -1429q-3 -107 32 -145t138 -38l-20 -59h-842l18 59q124 0 175 43t57 140l12 211h-504l-162 -250q-28 -42 -36 -67t4 -43.5t53.5 -26t118.5 -7.5l-21 -59h-551l17 59q91 0 150 29t114 115l966 1468h326zM879 1270l-459 -709h440l43 709h-24z" />
    <glyph glyph-name="Adieresis" unicode="&#xc4;" horiz-adv-x="1540" 
d="M989 1757q-71 0 -121.5 50.5t-50.5 121.5q0 72 50.5 122t121.5 50q72 0 122 -50t50 -122q0 -71 -50 -121.5t-122 -50.5zM1432 2101q72 0 122 -50t50 -122q0 -71 -50 -121.5t-122 -50.5q-70 0 -121 50.5t-51 121.5q0 72 50.5 122t121.5 50zM1327 1671l-45 -1429
q-3 -107 32 -145t138 -38l-20 -59h-842l18 59q124 0 175 43t57 140l12 211h-504l-162 -250q-28 -42 -36 -67t4 -43.5t53.5 -26t118.5 -7.5l-21 -59h-551l17 59q91 0 150 29t114 115l966 1468h326zM879 1270l-459 -709h440l43 709h-24z" />
    <glyph glyph-name="Aring" unicode="&#xc5;" horiz-adv-x="1540" 
d="M1200 1774q-86 0 -134 49t-48 129q0 110 83.5 189t196.5 79q84 0 132.5 -49t48.5 -127q0 -109 -83.5 -189.5t-195.5 -80.5zM1286 2134q-71 0 -121.5 -55t-50.5 -123q0 -45 26 -69.5t70 -24.5q71 0 121.5 55t50.5 123q0 45 -26 69.5t-70 24.5zM1327 1671l-45 -1429
q-3 -107 32 -145t138 -38l-20 -59h-842l18 59q124 0 175 43t57 140l12 211h-504l-162 -250q-28 -42 -36 -67t4 -43.5t53.5 -26t118.5 -7.5l-21 -59h-551l17 59q91 0 150 29t114 115l966 1468h326zM879 1270l-459 -709h440l43 709h-24z" />
    <glyph glyph-name="AE" unicode="&#xc6;" horiz-adv-x="2011" 
d="M2154 1638l-129 -450h-69q75 317 -135 317h-154q-89 0 -115 -86l-155 -506h159q77 0 127.5 41t85.5 136h60l-150 -500h-59q32 122 12 174.5t-104 52.5h-162l-160 -532q-16 -51 -19.5 -80.5t6.5 -46t28.5 -21t54.5 -4.5h154q64 0 116.5 13.5t110.5 48t114 104t109 172.5
l70 -27l-211 -444h-1266l16 59q115 0 178 41t91 131l88 287h-416l-221 -319q-20 -29 -30.5 -46.5t-16.5 -35t-0.5 -27t21.5 -17.5t45 -11t73 -3l-16 -59h-535l21 59q102 0 167 28.5t123 111.5l877 1241q20 28 30 46t14.5 35t-3 27t-26 17.5t-51 10.5t-81.5 3l19 59h1314z
M1145 1548l-647 -932h376l287 932h-16z" />
    <glyph glyph-name="Ccedilla" unicode="&#xc7;" horiz-adv-x="1400" 
d="M842 203q79 0 153 39.5t132.5 107t104.5 145.5t81 167h69q-42 -108 -81.5 -193t-89 -167t-105 -140.5t-122 -104t-147 -68t-173.5 -22.5h-15l-31 -57q100 0 164 -38.5t64 -125.5q0 -106 -115.5 -180t-320.5 -74q-102 0 -181 23l27 57q35 -4 102 -4q71 0 122 15.5
t76.5 41.5t36.5 53t11 58q0 50 -36 72t-105 22l80 147q-207 39 -316.5 202.5t-109.5 402.5q0 153 44.5 310t130 296t198.5 247.5t262 172t309 63.5q216 0 336 -129q16 -17 25.5 -21.5t18.5 2t19 27.5l43 97h60l-187 -594h-59q55 485 -203 485q-93 0 -178.5 -61.5
t-148.5 -162.5t-110 -225t-71 -253t-24 -244q0 -202 71 -295.5t189 -93.5z" />
    <glyph glyph-name="Egrave" unicode="&#xc8;" horiz-adv-x="1411" 
d="M924 2161l157 -396h-100l-344 396h287zM1552 1638l-129 -450h-67q36 163 0.5 240t-137.5 77h-154q-89 0 -115 -86l-155 -506h159q77 0 128.5 41t84.5 136h60l-150 -500h-59q32 122 12 174.5t-104 52.5h-160l-162 -532q-16 -51 -19.5 -80.5t6.5 -46t28.5 -21t54.5 -4.5
h153q65 0 118 13.5t110.5 48t113.5 104t109 172.5l70 -27l-211 -444h-1266l16 59q116 0 178.5 41t90.5 131l358 1176q29 94 -2 133t-158 39l19 59h1179z" />
    <glyph glyph-name="Eacute" unicode="&#xc9;" horiz-adv-x="1411" 
d="M1083 1765h-100l219 396h291zM1552 1638l-129 -450h-67q36 163 0.5 240t-137.5 77h-154q-89 0 -115 -86l-155 -506h159q77 0 128.5 41t84.5 136h60l-150 -500h-59q32 122 12 174.5t-104 52.5h-160l-162 -532q-16 -51 -19.5 -80.5t6.5 -46t28.5 -21t54.5 -4.5h153
q65 0 118 13.5t110.5 48t113.5 104t109 172.5l70 -27l-211 -444h-1266l16 59q116 0 178.5 41t90.5 131l358 1176q29 94 -2 133t-158 39l19 59h1179z" />
    <glyph glyph-name="Ecircumflex" unicode="&#xca;" horiz-adv-x="1411" 
d="M1251 1765l-139 242l-319 -242h-101l330 396h276l37 -396h-84zM373 1638h1179l-129 -450h-67q36 163 0.5 240t-137.5 77h-154q-89 0 -115 -86l-155 -506h159q77 0 128.5 41t84.5 136h60l-150 -500h-59q32 122 12 174.5t-104 52.5h-160l-162 -532q-16 -51 -19.5 -80.5
t6.5 -46t28.5 -21t54.5 -4.5h153q65 0 118 13.5t110.5 48t113.5 104t109 172.5l70 -27l-211 -444h-1266l16 59q116 0 178.5 41t90.5 131l358 1176q29 94 -2 133t-158 39z" />
    <glyph glyph-name="Edieresis" unicode="&#xcb;" horiz-adv-x="1411" 
d="M840 1757q-70 0 -121 50.5t-51 121.5q0 72 50.5 122t121.5 50q72 0 122 -50t50 -122q0 -71 -50 -121.5t-122 -50.5zM1282 1757q-70 0 -121 50.5t-51 121.5q0 72 50.5 122t121.5 50q72 0 122 -50t50 -122q0 -71 -50 -121.5t-122 -50.5zM1552 1638l-129 -450h-67
q36 163 0.5 240t-137.5 77h-154q-89 0 -115 -86l-155 -506h159q77 0 128.5 41t84.5 136h60l-150 -500h-59q32 122 12 174.5t-104 52.5h-160l-162 -532q-16 -51 -19.5 -80.5t6.5 -46t28.5 -21t54.5 -4.5h153q65 0 118 13.5t110.5 48t113.5 104t109 172.5l70 -27l-211 -444
h-1266l16 59q116 0 178.5 41t90.5 131l358 1176q29 94 -2 133t-158 39l19 59h1179z" />
    <glyph glyph-name="Igrave" unicode="&#xcc;" horiz-adv-x="937" 
d="M686 2161l158 -396h-101l-344 396h287zM156 231l358 1176q29 94 -2 133t-158 39l19 59h841l-16 -59q-106 0 -165 -41t-87 -131l-358 -1176q-29 -94 2 -133t158 -39l-17 -59h-860l16 59q116 0 178.5 41t90.5 131z" />
    <glyph glyph-name="Iacute" unicode="&#xcd;" horiz-adv-x="937" 
d="M846 1765h-101l220 396h290zM156 231l358 1176q29 94 -2 133t-158 39l19 59h841l-16 -59q-106 0 -165 -41t-87 -131l-358 -1176q-29 -94 2 -133t158 -39l-17 -59h-860l16 59q116 0 178.5 41t90.5 131z" />
    <glyph glyph-name="Icircumflex" unicode="&#xce;" horiz-adv-x="937" 
d="M1012 1765l-140 242l-319 -242h-100l329 396h277l37 -396h-84zM1214 1638l-16 -59q-106 0 -165 -41t-87 -131l-358 -1176q-29 -94 2 -133t158 -39l-17 -59h-860l16 59q116 0 178.5 41t90.5 131l358 1176q29 94 -2 133t-158 39l19 59h841z" />
    <glyph glyph-name="Idieresis" unicode="&#xcf;" horiz-adv-x="937" 
d="M600 1757q-70 0 -121 50.5t-51 121.5q0 72 50.5 122t121.5 50q72 0 122 -50t50 -122q0 -71 -50 -121.5t-122 -50.5zM1042 1757q-70 0 -121 50.5t-51 121.5q0 72 50.5 122t121.5 50q72 0 122 -50t50 -122q0 -71 -50 -121.5t-122 -50.5zM156 231l358 1176q29 94 -2 133
t-158 39l19 59h841l-16 -59q-106 0 -165 -41t-87 -131l-358 -1176q-29 -94 2 -133t158 -39l-17 -59h-860l16 59q116 0 178.5 41t90.5 131z" />
    <glyph glyph-name="Eth" unicode="&#xd0;" horiz-adv-x="1728" 
d="M1040 1638q154 0 285 -40t229.5 -115.5t154.5 -194.5t56 -268q0 -295 -141 -528.5t-388.5 -362.5t-557.5 -129h-807l16 59q116 0 178.5 41t90.5 131l172 568h-197l23 78h198l162 530q29 94 -2 133t-158 39l19 59h667zM678 115q106 0 208 63t180.5 168t138.5 235.5
t92 272.5t32 272q0 106 -21.5 186t-58.5 124.5t-80 66t-92 21.5q-41 0 -75 -14.5t-44 -41.5l-182 -591h264l-22 -78h-266l-189 -609q-10 -34 21.5 -54.5t93.5 -20.5z" />
    <glyph glyph-name="Ntilde" unicode="&#xd1;" horiz-adv-x="1617" 
d="M1085 1923q-71 0 -117 -40t-87 -116l-62 9q146 372 311 372q42 0 77.5 -15.5t59.5 -38t46.5 -44.5t50 -37.5t57.5 -15.5q72 0 118 40t87 115l64 -8q-17 -43 -32 -75.5t-39 -79.5t-48.5 -81.5t-54.5 -67t-65.5 -49.5t-72.5 -17q-42 0 -77.5 15.5t-59.5 37t-47 43.5
t-50.5 37.5t-58.5 15.5zM1929 1638l-16 -59q-116 0 -178 -41t-90 -131l-431 -1411h-239l-385 1241l-309 -1006q-28 -94 8.5 -133t175.5 -39l-19 -59h-575l16 59q116 0 178.5 41t90.5 131l368 1211q-28 77 -62.5 107t-82.5 30l10 59h529l337 -1044h13l250 813q29 94 -9 133
t-180 39l19 59h581z" />
    <glyph glyph-name="Ograve" unicode="&#xd2;" horiz-adv-x="1603" 
d="M1063 2161l158 -396h-101l-344 396h287zM682 -31q-116 0 -210.5 34t-159 92t-108 138.5t-63.5 171t-20 191.5q0 199 75 394t201 345t306 243t376 93q144 0 254 -51t175 -139.5t97.5 -198.5t32.5 -238q0 -199 -74.5 -394t-200.5 -345t-305.5 -243t-375.5 -93zM686 84
q94 0 194 133t173 323.5t120.5 402.5t47.5 368q0 245 -144 245q-77 0 -158 -86.5t-147 -225.5t-119 -301.5t-82.5 -325.5t-29.5 -287t35 -185t110 -61z" />
    <glyph glyph-name="Oacute" unicode="&#xd3;" horiz-adv-x="1603" 
d="M1225 1765h-101l219 396h291zM682 -31q-116 0 -210.5 34t-159 92t-108 138.5t-63.5 171t-20 191.5q0 199 75 394t201 345t306 243t376 93q144 0 254 -51t175 -139.5t97.5 -198.5t32.5 -238q0 -199 -74.5 -394t-200.5 -345t-305.5 -243t-375.5 -93zM686 84q94 0 194 133
t173 323.5t120.5 402.5t47.5 368q0 245 -144 245q-77 0 -158 -86.5t-147 -225.5t-119 -301.5t-82.5 -325.5t-29.5 -287t35 -185t110 -61z" />
    <glyph glyph-name="Ocircumflex" unicode="&#xd4;" horiz-adv-x="1603" 
d="M1391 1765l-140 242l-319 -242h-101l330 396h277l37 -396h-84zM1079 1671q144 0 254 -51t175 -139.5t97.5 -198.5t32.5 -238q0 -199 -74.5 -394t-200.5 -345t-305.5 -243t-375.5 -93q-116 0 -210.5 34t-159 92t-108 138.5t-63.5 171t-20 191.5q0 199 75 394t201 345
t306 243t376 93zM686 84q94 0 194 133t173 323.5t120.5 402.5t47.5 368q0 245 -144 245q-77 0 -158 -86.5t-147 -225.5t-119 -301.5t-82.5 -325.5t-29.5 -287t35 -185t110 -61z" />
    <glyph glyph-name="Otilde" unicode="&#xd5;" horiz-adv-x="1603" 
d="M1352 1774q-42 0 -77.5 15.5t-59.5 37t-47 43.5t-50.5 37.5t-58.5 15.5q-71 0 -117.5 -40.5t-87.5 -115.5l-61 9q146 372 311 372q42 0 77.5 -15.5t59.5 -38t46.5 -44.5t50 -37.5t57.5 -15.5q71 0 117 40t87 115l64 -8q-22 -53 -39 -91.5t-49.5 -95.5t-63 -93t-73 -63
t-86.5 -27zM682 -31q-116 0 -210.5 34t-159 92t-108 138.5t-63.5 171t-20 191.5q0 199 75 394t201 345t306 243t376 93q144 0 254 -51t175 -139.5t97.5 -198.5t32.5 -238q0 -199 -74.5 -394t-200.5 -345t-305.5 -243t-375.5 -93zM686 84q94 0 194 133t173 323.5t120.5 402.5
t47.5 368q0 245 -144 245q-77 0 -158 -86.5t-147 -225.5t-119 -301.5t-82.5 -325.5t-29.5 -287t35 -185t110 -61z" />
    <glyph glyph-name="Odieresis" unicode="&#xd6;" horiz-adv-x="1603" 
d="M979 1757q-71 0 -121.5 50.5t-50.5 121.5q0 72 50.5 122t121.5 50q72 0 122 -50t50 -122q0 -71 -50 -121.5t-122 -50.5zM1421 1757q-71 0 -121.5 50.5t-50.5 121.5q0 72 50.5 122t121.5 50q72 0 122 -50t50 -122q0 -71 -50 -121.5t-122 -50.5zM682 -31q-116 0 -210.5 34
t-159 92t-108 138.5t-63.5 171t-20 191.5q0 199 75 394t201 345t306 243t376 93q144 0 254 -51t175 -139.5t97.5 -198.5t32.5 -238q0 -199 -74.5 -394t-200.5 -345t-305.5 -243t-375.5 -93zM686 84q94 0 194 133t173 323.5t120.5 402.5t47.5 368q0 245 -144 245
q-77 0 -158 -86.5t-147 -225.5t-119 -301.5t-82.5 -325.5t-29.5 -287t35 -185t110 -61z" />
    <glyph glyph-name="multiply" unicode="&#xd7;" horiz-adv-x="1093" 
d="M877 997l167 -174l-286 -250l207 -233l-195 -166l-205 232l-268 -232l-162 174l271 238l-218 245l195 166l215 -243z" />
    <glyph glyph-name="Oslash" unicode="&#xd8;" horiz-adv-x="1603" 
d="M1626 1767l-166 -233q89 -85 133.5 -212.5t44.5 -277.5q0 -199 -74.5 -394t-200.5 -345t-305.5 -243t-375.5 -93q-165 0 -293 72l-192 -270l-64 43l193 270q-102 85 -153.5 219.5t-51.5 292.5q0 199 75 394t201 345t306 243t376 93q189 0 320 -88l164 227zM1077 1556
q-91 0 -187.5 -122.5t-168.5 -302t-121 -382t-57 -364.5l678 948q-6 223 -144 223zM686 84q70 0 143.5 73t135.5 192.5t114.5 264.5t87.5 296.5t47 281.5l-669 -936q18 -172 141 -172z" />
    <glyph glyph-name="Ugrave" unicode="&#xd9;" horiz-adv-x="1613" 
d="M1208 2161l158 -396h-100l-344 396h286zM715 -33q-332 0 -446.5 178t-14.5 502l231 760q19 59 15.5 97.5t-41.5 56.5t-119 18l16 59h844l-18 -59q-114 0 -176.5 -41t-90.5 -131l-245 -807q-33 -109 -43 -195.5t4.5 -153.5t63.5 -103.5t130 -36.5q155 0 270 125.5
t197 394.5l238 776q19 59 13.5 97.5t-47.5 56.5t-130 18l16 59h531l-15 -59q-93 0 -148 -41t-81 -131l-239 -784q-25 -84 -50 -150.5t-60.5 -136.5t-75 -122.5t-93 -101t-116.5 -79t-144 -48.5t-176 -18z" />
    <glyph glyph-name="Uacute" unicode="&#xda;" horiz-adv-x="1613" 
d="M1370 1765h-100l219 396h291zM715 -33q-332 0 -446.5 178t-14.5 502l231 760q19 59 15.5 97.5t-41.5 56.5t-119 18l16 59h844l-18 -59q-114 0 -176.5 -41t-90.5 -131l-245 -807q-33 -109 -43 -195.5t4.5 -153.5t63.5 -103.5t130 -36.5q155 0 270 125.5t197 394.5l238 776
q19 59 13.5 97.5t-47.5 56.5t-130 18l16 59h531l-15 -59q-93 0 -148 -41t-81 -131l-239 -784q-25 -84 -50 -150.5t-60.5 -136.5t-75 -122.5t-93 -101t-116.5 -79t-144 -48.5t-176 -18z" />
    <glyph glyph-name="Ucircumflex" unicode="&#xdb;" horiz-adv-x="1613" 
d="M1536 1765l-139 242l-320 -242h-100l330 396h276l37 -396h-84zM1913 1638l-15 -59q-93 0 -148 -41t-81 -131l-239 -784q-25 -84 -50 -150.5t-60.5 -136.5t-75 -122.5t-93 -101t-116.5 -79t-144 -48.5t-176 -18q-332 0 -446.5 178t-14.5 502l231 760q19 59 15.5 97.5
t-41.5 56.5t-119 18l16 59h844l-18 -59q-114 0 -176.5 -41t-90.5 -131l-245 -807q-33 -109 -43 -195.5t4.5 -153.5t63.5 -103.5t130 -36.5q155 0 270 125.5t197 394.5l238 776q19 59 13.5 97.5t-47.5 56.5t-130 18l16 59h531z" />
    <glyph glyph-name="Udieresis" unicode="&#xdc;" horiz-adv-x="1613" 
d="M1124 1757q-70 0 -121 50.5t-51 121.5q0 72 50.5 122t121.5 50q72 0 122 -50t50 -122q0 -71 -50 -121.5t-122 -50.5zM1567 1757q-71 0 -121.5 50.5t-50.5 121.5q0 72 50.5 122t121.5 50q72 0 122 -50t50 -122q0 -71 -50 -121.5t-122 -50.5zM715 -33q-332 0 -446.5 178
t-14.5 502l231 760q19 59 15.5 97.5t-41.5 56.5t-119 18l16 59h844l-18 -59q-114 0 -176.5 -41t-90.5 -131l-245 -807q-33 -109 -43 -195.5t4.5 -153.5t63.5 -103.5t130 -36.5q155 0 270 125.5t197 394.5l238 776q19 59 13.5 97.5t-47.5 56.5t-130 18l16 59h531l-15 -59
q-93 0 -148 -41t-81 -131l-239 -784q-25 -84 -50 -150.5t-60.5 -136.5t-75 -122.5t-93 -101t-116.5 -79t-144 -48.5t-176 -18z" />
    <glyph glyph-name="Yacute" unicode="&#xdd;" horiz-adv-x="1503" 
d="M1284 1765h-100l219 396h291zM1030 733l-156 -502q-29 -94 6 -133t171 -39l-21 -59h-874l18 59q114 0 177 41t91 131l154 490l-131 680q-21 102 -59.5 140t-112.5 38l12 59h811l-20 -59q-131 0 -170 -40.5t-23 -139.5l86 -518h12l433 565q22 28 32.5 44.5t17.5 34t1.5 26
t-21 16t-44.5 10t-74 2.5l18 59h496l-17 -59q-84 0 -144.5 -26.5t-121.5 -106.5z" />
    <glyph glyph-name="Thorn" unicode="&#xde;" horiz-adv-x="1505" 
d="M1051 1366q150 0 261 -42.5t175.5 -131t64.5 -215.5q0 -126 -52.5 -242t-141.5 -201t-213.5 -135.5t-261.5 -50.5q-140 0 -246 45l-49 -162q-29 -94 2 -133t158 -39l-17 -59h-860l16 59q116 0 178.5 41t90.5 131l358 1176q29 94 -2 133t-158 39l19 59h841l-16 -59
q-106 0 -165 -41t-87 -131l-14 -49q49 8 119 8zM782 496q103 0 189.5 88t132 214.5t45.5 254.5q0 106 -33 151t-96 45q-103 0 -160 -123l-184 -604q49 -26 106 -26z" />
    <glyph glyph-name="germandbls" unicode="&#xdf;" horiz-adv-x="1357" 
d="M1188 1092q-20 -11 -51 -28.5t-46.5 -26t-37.5 -21.5t-32.5 -21.5t-21.5 -18.5t-15.5 -19.5t-4.5 -18.5q0 -46 121 -152q46 -41 74.5 -70t63.5 -72.5t52 -89.5t17 -95q0 -83 -35.5 -167t-100 -155.5t-167.5 -116.5t-226 -45q-94 0 -167 22t-101 42l111 399l61 -4
q-12 -49 -12 -98q0 -88 34.5 -150.5t100.5 -62.5q91 0 139.5 59.5t48.5 153.5q0 66 -35 123.5t-102 124.5q-51 53 -75 81.5t-46 69t-22 76.5q0 40 24 80t57.5 72t106.5 94q217 183 217 385q0 61 -25 92t-69 31q-35 0 -67.5 -14t-69.5 -51.5t-72.5 -98.5t-75.5 -159t-80 -228
l-223 -729q-61 -199 -192 -368t-301 -268.5t-338 -99.5q-178 0 -178 121q0 74 55 130.5t121 56.5q37 0 72 -22.5t56.5 -49.5t49 -49.5t51.5 -22.5q48 0 86.5 89t138.5 411l240 780h-186l34 109h187q99 272 280.5 424.5t413.5 152.5q206 0 311 -80t105 -200q0 -97 -63.5 -167
t-190.5 -140z" />
    <glyph glyph-name="agrave" unicode="&#xe0;" horiz-adv-x="1327" 
d="M795 1667l157 -395h-100l-344 395h287zM1032 145q44 0 103.5 70t107.5 174h57q-175 -420 -444 -420q-115 0 -166 50t-51 131q0 24 7 52t16 52t29.5 78t37.5 100l10 31h-18q-25 -53 -44.5 -92t-50.5 -94t-58.5 -94.5t-64.5 -82.5t-73 -69.5t-79.5 -44t-88.5 -17.5
q-112 0 -178 91.5t-66 238.5q0 144 58.5 296t149.5 270t209 194t231 76q61 0 105.5 -20.5t68 -57t34 -78.5t9.5 -92h8l55 151q106 0 190 33.5t134 81.5l51 -31l-242 -704q-2 -6 -18 -49.5t-22 -60t-16.5 -48t-14.5 -49.5t-4 -29q0 -21 6.5 -29t21.5 -8zM444 221
q68 0 170 145.5t154 311.5q27 89 27 162q0 135 -78 135q-60 0 -139.5 -107.5t-136 -259t-56.5 -266.5q0 -121 59 -121z" />
    <glyph glyph-name="aacute" unicode="&#xe1;" horiz-adv-x="1327" 
d="M1075 1667h291l-410 -395h-100zM1270 1153l51 -31l-242 -704q-2 -6 -18 -49.5t-22 -60t-16.5 -48t-14.5 -49.5t-4 -29q0 -21 6.5 -29t21.5 -8q44 0 103.5 70t107.5 174h57q-175 -420 -444 -420q-115 0 -166 50t-51 131q0 24 7 52t16 52t29.5 78t37.5 100l10 31h-18
q-25 -53 -44.5 -92t-50.5 -94t-58.5 -94.5t-64.5 -82.5t-73 -69.5t-79.5 -44t-88.5 -17.5q-112 0 -178 91.5t-66 238.5q0 144 58.5 296t149.5 270t209 194t231 76q61 0 105.5 -20.5t68 -57t34 -78.5t9.5 -92h8l55 151q106 0 190 33.5t134 81.5zM444 221q68 0 170 145.5
t154 311.5q27 89 27 162q0 135 -78 135q-60 0 -139.5 -107.5t-136 -259t-56.5 -266.5q0 -121 59 -121z" />
    <glyph glyph-name="acircumflex" unicode="&#xe2;" horiz-adv-x="1327" 
d="M1122 1272l-139 241l-319 -241h-101l330 395h276l37 -395h-84zM1032 145q44 0 103.5 70t107.5 174h57q-175 -420 -444 -420q-115 0 -166 50t-51 131q0 24 7 52t16 52t29.5 78t37.5 100l10 31h-18q-25 -53 -44.5 -92t-50.5 -94t-58.5 -94.5t-64.5 -82.5t-73 -69.5
t-79.5 -44t-88.5 -17.5q-112 0 -178 91.5t-66 238.5q0 144 58.5 296t149.5 270t209 194t231 76q61 0 105.5 -20.5t68 -57t34 -78.5t9.5 -92h8l55 151q106 0 190 33.5t134 81.5l51 -31l-242 -704q-2 -6 -18 -49.5t-22 -60t-16.5 -48t-14.5 -49.5t-4 -29q0 -21 6.5 -29
t21.5 -8zM444 221q68 0 170 145.5t154 311.5q27 89 27 162q0 135 -78 135q-60 0 -139.5 -107.5t-136 -259t-56.5 -266.5q0 -121 59 -121z" />
    <glyph glyph-name="atilde" unicode="&#xe3;" horiz-adv-x="1327" 
d="M791 1430q-71 0 -117.5 -40.5t-87.5 -115.5l-62 8q146 373 312 373q42 0 77 -15.5t59.5 -38t46.5 -45t49.5 -38t57.5 -15.5q71 0 117.5 40.5t87.5 115.5l64 -8q-21 -53 -39 -92t-50 -95.5t-63 -93t-73.5 -63.5t-86.5 -27q-42 0 -77 15.5t-59.5 37.5t-47 44t-50 37.5
t-58.5 15.5zM1270 1153l51 -31l-242 -704q-2 -6 -18 -49.5t-22 -60t-16.5 -48t-14.5 -49.5t-4 -29q0 -21 6.5 -29t21.5 -8q44 0 103.5 70t107.5 174h57q-175 -420 -444 -420q-115 0 -166 50t-51 131q0 24 7 52t16 52t29.5 78t37.5 100l10 31h-18q-25 -53 -44.5 -92
t-50.5 -94t-58.5 -94.5t-64.5 -82.5t-73 -69.5t-79.5 -44t-88.5 -17.5q-112 0 -178 91.5t-66 238.5q0 144 58.5 296t149.5 270t209 194t231 76q61 0 105.5 -20.5t68 -57t34 -78.5t9.5 -92h8l55 151q106 0 190 33.5t134 81.5zM444 221q68 0 170 145.5t154 311.5q27 89 27 162
q0 135 -78 135q-60 0 -139.5 -107.5t-136 -259t-56.5 -266.5q0 -121 59 -121z" />
    <glyph glyph-name="adieresis" unicode="&#xe4;" horiz-adv-x="1327" 
d="M711 1264q-71 0 -121.5 51t-50.5 121q0 72 50.5 122t121.5 50q72 0 122 -50t50 -122q0 -71 -50 -121.5t-122 -50.5zM1153 1264q-71 0 -121.5 51t-50.5 121q0 72 50.5 122t121.5 50q72 0 122 -50t50 -122q0 -71 -50 -121.5t-122 -50.5zM1270 1153l51 -31l-242 -704
q-2 -6 -18 -49.5t-22 -60t-16.5 -48t-14.5 -49.5t-4 -29q0 -21 6.5 -29t21.5 -8q44 0 103.5 70t107.5 174h57q-175 -420 -444 -420q-115 0 -166 50t-51 131q0 24 7 52t16 52t29.5 78t37.5 100l10 31h-18q-25 -53 -44.5 -92t-50.5 -94t-58.5 -94.5t-64.5 -82.5t-73 -69.5
t-79.5 -44t-88.5 -17.5q-112 0 -178 91.5t-66 238.5q0 144 58.5 296t149.5 270t209 194t231 76q61 0 105.5 -20.5t68 -57t34 -78.5t9.5 -92h8l55 151q106 0 190 33.5t134 81.5zM444 221q68 0 170 145.5t154 311.5q27 89 27 162q0 135 -78 135q-60 0 -139.5 -107.5t-136 -259
t-56.5 -266.5q0 -121 59 -121z" />
    <glyph glyph-name="aring" unicode="&#xe5;" horiz-adv-x="1327" 
d="M922 1280q-86 0 -134.5 49t-48.5 129q0 110 84 189t197 79q84 0 132 -49t48 -127q0 -109 -83 -189.5t-195 -80.5zM1008 1640q-71 0 -121.5 -55t-50.5 -123q0 -45 26 -69.5t70 -24.5q71 0 121.5 55t50.5 123q0 45 -26 69.5t-70 24.5zM1032 145q44 0 103.5 70t107.5 174h57
q-175 -420 -444 -420q-115 0 -166 50t-51 131q0 24 7 52t16 52t29.5 78t37.5 100l10 31h-18q-25 -53 -44.5 -92t-50.5 -94t-58.5 -94.5t-64.5 -82.5t-73 -69.5t-79.5 -44t-88.5 -17.5q-112 0 -178 91.5t-66 238.5q0 144 58.5 296t149.5 270t209 194t231 76q61 0 105.5 -20.5
t68 -57t34 -78.5t9.5 -92h8l55 151q106 0 190 33.5t134 81.5l51 -31l-242 -704q-2 -6 -18 -49.5t-22 -60t-16.5 -48t-14.5 -49.5t-4 -29q0 -21 6.5 -29t21.5 -8zM444 221q68 0 170 145.5t154 311.5q27 89 27 162q0 135 -78 135q-60 0 -139.5 -107.5t-136 -259t-56.5 -266.5
q0 -121 59 -121z" />
    <glyph glyph-name="ae" unicode="&#xe6;" horiz-adv-x="1544" 
d="M1143 182q73 0 140.5 60.5t158.5 206.5h53q-104 -247 -231 -364.5t-289 -117.5q-158 0 -253 95t-106 251h-12q-64 -148 -176 -247t-260 -99q-95 0 -155 52.5t-60 146.5q0 77 38.5 145.5t103.5 121t153.5 95t186 70.5t204.5 45q43 147 43 258q0 69 -25 103t-79 34
q-61 0 -104.5 -41.5t-43.5 -107.5q0 -17 4 -49.5t4 -46.5q0 -58 -43.5 -92.5t-101.5 -34.5q-56 0 -94.5 33t-38.5 94q0 89 71.5 171t181 130.5t220.5 48.5q223 0 282 -178q188 170 379 170q122 0 192 -63t70 -165q0 -91 -76 -163t-201.5 -113t-283.5 -53q-24 -99 -24 -187
q0 -108 47.5 -158.5t124.5 -50.5zM1288 1028q-72 0 -146.5 -107t-123.5 -259q150 35 240 107.5t90 184.5q0 74 -60 74zM377 223q62 0 122.5 88.5t114.5 249.5q-129 -20 -217 -96t-88 -162q0 -37 18.5 -58.5t49.5 -21.5z" />
    <glyph glyph-name="ccedilla" unicode="&#xe7;" horiz-adv-x="944" 
d="M549 182q152 0 287 260h57q-187 -475 -512 -475h-6l-21 -39q100 0 164 -38.5t64 -125.5q0 -106 -115.5 -179.5t-321.5 -73.5q-104 0 -180 22l27 57q35 -4 102 -4q71 0 122 15.5t76.5 41.5t36.5 53t11 58q0 50 -36 72t-105 22l71 136q-110 33 -173.5 131.5t-63.5 249.5
q0 134 52 273t138 250t208.5 182t252.5 71q114 0 187 -68t73 -182q0 -100 -52.5 -175t-133.5 -75q-52 0 -82.5 30t-30.5 77q0 33 17.5 61t38 45t38 46t17.5 63q0 71 -62 71q-65 0 -132 -91t-110.5 -231.5t-43.5 -275.5q0 -254 141 -254z" />
    <glyph glyph-name="egrave" unicode="&#xe8;" horiz-adv-x="985" 
d="M668 1667l157 -395h-100l-344 395h287zM569 180q83 0 156 63t154 206h57q-210 -482 -539 -482q-164 0 -265 101t-101 290q0 143 56.5 286t147.5 252t212.5 177t244.5 68q127 0 203 -64.5t76 -169.5q0 -92 -50 -170.5t-133.5 -131.5t-182 -87t-204.5 -47q-4 -62 -4 -84
q0 -207 172 -207zM690 1034q-57 0 -114 -73.5t-97.5 -179t-62.5 -220.5q139 47 235.5 155.5t96.5 231.5q0 45 -13 65.5t-45 20.5z" />
    <glyph glyph-name="eacute" unicode="&#xe9;" horiz-adv-x="985" 
d="M946 1667h291l-410 -395h-100zM971 907q0 -92 -50 -170.5t-133.5 -131.5t-182 -87t-204.5 -47q-4 -62 -4 -84q0 -207 172 -207q83 0 156 63t154 206h57q-210 -482 -539 -482q-164 0 -265 101t-101 290q0 143 56.5 286t147.5 252t212.5 177t244.5 68q127 0 203 -64.5
t76 -169.5zM690 1034q-57 0 -114 -73.5t-97.5 -179t-62.5 -220.5q139 47 235.5 155.5t96.5 231.5q0 45 -13 65.5t-45 20.5z" />
    <glyph glyph-name="ecircumflex" unicode="&#xea;" horiz-adv-x="985" 
d="M1040 1667l37 -395h-84l-139 241l-319 -241h-101l330 395h276zM971 907q0 -92 -50 -170.5t-133.5 -131.5t-182 -87t-204.5 -47q-4 -62 -4 -84q0 -207 172 -207q83 0 156 63t154 206h57q-210 -482 -539 -482q-164 0 -265 101t-101 290q0 143 56.5 286t147.5 252t212.5 177
t244.5 68q127 0 203 -64.5t76 -169.5zM690 1034q-57 0 -114 -73.5t-97.5 -179t-62.5 -220.5q139 47 235.5 155.5t96.5 231.5q0 45 -13 65.5t-45 20.5z" />
    <glyph glyph-name="edieresis" unicode="&#xeb;" horiz-adv-x="985" 
d="M582 1264q-70 0 -121 51t-51 121q0 72 50.5 122t121.5 50q72 0 122 -50t50 -122q0 -71 -50 -121.5t-122 -50.5zM1024 1608q72 0 122 -50t50 -122q0 -71 -50 -121.5t-122 -50.5q-70 0 -121 51t-51 121q0 72 50.5 122t121.5 50zM971 907q0 -92 -50 -170.5t-133.5 -131.5
t-182 -87t-204.5 -47q-4 -62 -4 -84q0 -207 172 -207q83 0 156 63t154 206h57q-210 -482 -539 -482q-164 0 -265 101t-101 290q0 143 56.5 286t147.5 252t212.5 177t244.5 68q127 0 203 -64.5t76 -169.5zM690 1034q-57 0 -114 -73.5t-97.5 -179t-62.5 -220.5
q139 47 235.5 155.5t96.5 231.5q0 45 -13 65.5t-45 20.5z" />
    <glyph glyph-name="igrave" unicode="&#xec;" horiz-adv-x="751" 
d="M475 1667l158 -395h-101l-344 395h287zM152 432l92 246q82 213 82 252q0 28 -23 28q-32 0 -79.5 -48t-121.5 -154h-59q91 171 219.5 274t267.5 103q81 0 122.5 -44.5t41.5 -111.5q0 -35 -14.5 -88.5t-29 -94t-48.5 -126.5l-96 -252q-80 -201 -80 -234q0 -37 29 -37
q44 0 104.5 70.5t106.5 173.5h59q-175 -420 -446 -420q-115 0 -166.5 50t-51.5 131q0 24 7 52.5t16.5 52.5t30.5 77.5t37 99.5z" />
    <glyph glyph-name="iacute" unicode="&#xed;" horiz-adv-x="751" 
d="M637 1272h-100l219 395h291zM152 432l92 246q82 213 82 252q0 28 -23 28q-32 0 -79.5 -48t-121.5 -154h-59q91 171 219.5 274t267.5 103q81 0 122.5 -44.5t41.5 -111.5q0 -35 -14.5 -88.5t-29 -94t-48.5 -126.5l-96 -252q-80 -201 -80 -234q0 -37 29 -37q44 0 104.5 70.5
t106.5 173.5h59q-175 -420 -446 -420q-115 0 -166.5 50t-51.5 131q0 24 7 52.5t16.5 52.5t30.5 77.5t37 99.5z" />
    <glyph glyph-name="icircumflex" unicode="&#xee;" horiz-adv-x="751" 
d="M850 1667l37 -395h-84l-139 241l-320 -241h-100l329 395h277zM455 145q44 0 104.5 70.5t106.5 173.5h59q-175 -420 -446 -420q-115 0 -166.5 50t-51.5 131q0 24 7 52.5t16.5 52.5t30.5 77.5t37 99.5l92 246q82 213 82 252q0 28 -23 28q-32 0 -79.5 -48t-121.5 -154h-59
q91 171 219.5 274t267.5 103q81 0 122.5 -44.5t41.5 -111.5q0 -35 -14.5 -88.5t-29 -94t-48.5 -126.5l-96 -252q-80 -201 -80 -234q0 -37 29 -37z" />
    <glyph glyph-name="idieresis" unicode="&#xef;" horiz-adv-x="751" 
d="M391 1264q-71 0 -121.5 51t-50.5 121q0 72 50.5 122t121.5 50q72 0 122 -50t50 -122q0 -71 -50 -121.5t-122 -50.5zM834 1264q-70 0 -121 51t-51 121q0 72 50.5 122t121.5 50q72 0 122 -50t50 -122q0 -71 -50 -121.5t-122 -50.5zM152 432l92 246q82 213 82 252
q0 28 -23 28q-32 0 -79.5 -48t-121.5 -154h-59q91 171 219.5 274t267.5 103q81 0 122.5 -44.5t41.5 -111.5q0 -35 -14.5 -88.5t-29 -94t-48.5 -126.5l-96 -252q-80 -201 -80 -234q0 -37 29 -37q44 0 104.5 70.5t106.5 173.5h59q-175 -420 -446 -420q-115 0 -166.5 50
t-51.5 131q0 24 7 52.5t16.5 52.5t30.5 77.5t37 99.5z" />
    <glyph glyph-name="eth" unicode="&#xf0;" horiz-adv-x="1196" 
d="M1229 1608l31 -58l-289 -147q213 -240 213 -547q0 -137 -35.5 -270t-101 -243.5t-151 -195.5t-193 -132.5t-220.5 -47.5q-207 0 -323.5 121.5t-116.5 314.5q0 128 49 255.5t129.5 226t191 160t226.5 61.5q123 0 197 -47q0 126 -50 250l-213 -109l-28 55l217 111
q-72 141 -203 260l53 51q189 -100 314 -225zM469 90q68 0 147.5 138.5t138 336.5t74.5 377q-22 25 -57 25q-89 0 -178.5 -128t-143 -298.5t-53.5 -304.5q0 -146 72 -146z" />
    <glyph glyph-name="ntilde" unicode="&#xf1;" horiz-adv-x="1351" 
d="M1051 1280q-42 0 -77.5 15.5t-59.5 37.5t-47 44t-50.5 37.5t-58.5 15.5q-71 0 -117.5 -40.5t-87.5 -115.5l-61 8q146 373 311 373q42 0 77.5 -15.5t59.5 -38t46.5 -45t50 -38t57.5 -15.5q71 0 117 40t87 116l64 -8q-22 -53 -39 -91.5t-49.5 -96t-63 -93.5t-73 -63
t-86.5 -27zM381 0h-369l236 676q78 214 78 254q0 28 -23 28q-32 0 -79.5 -48t-121.5 -154h-59q91 171 219.5 274t267.5 103q81 0 122.5 -44.5t41.5 -111.5q0 -21 -4.5 -44.5t-17.5 -60t-20.5 -55.5t-30.5 -73t-31 -72l-90 -234h24q49 102 82 168t76.5 147t77.5 131.5
t76.5 103.5t81 81.5t84 47t92.5 18.5q98 0 151 -55t53 -140q0 -126 -188 -526q-7 -17 -25.5 -62t-29 -71t-20 -56t-9.5 -43q0 -37 29 -37q44 0 103.5 70t107.5 174h59q-34 -82 -74 -150t-95 -132.5t-126 -101t-151 -36.5q-115 0 -166 50t-51 131q0 31 10 61t42 100t56 129
q145 364 145 404q0 43 -32 43q-11 0 -26.5 -8t-40.5 -33t-54.5 -64t-70.5 -108.5t-86 -159t-103 -222t-121 -292.5z" />
    <glyph glyph-name="ograve" unicode="&#xf2;" horiz-adv-x="1181" 
d="M725 1667l158 -395h-101l-344 395h287zM477 -33q-120 0 -217.5 51.5t-156 151.5t-58.5 229q0 192 87.5 362.5t240.5 274t332 103.5q185 0 308.5 -118.5t123.5 -313.5q0 -192 -87.5 -362t-240.5 -274t-332 -104zM459 90q73 0 153.5 138t131.5 326t51 335q0 129 -70 129
q-73 0 -154 -139t-132.5 -327t-51.5 -333q0 -129 72 -129z" />
    <glyph glyph-name="oacute" unicode="&#xf3;" horiz-adv-x="1181" 
d="M887 1272h-101l220 395h290zM477 -33q-120 0 -217.5 51.5t-156 151.5t-58.5 229q0 192 87.5 362.5t240.5 274t332 103.5q185 0 308.5 -118.5t123.5 -313.5q0 -192 -87.5 -362t-240.5 -274t-332 -104zM459 90q73 0 153.5 138t131.5 326t51 335q0 129 -70 129
q-73 0 -154 -139t-132.5 -327t-51.5 -333q0 -129 72 -129z" />
    <glyph glyph-name="ocircumflex" unicode="&#xf4;" horiz-adv-x="1181" 
d="M1053 1272l-140 241l-319 -241h-100l329 395h277l37 -395h-84zM705 1139q185 0 308.5 -118.5t123.5 -313.5q0 -192 -87.5 -362t-240.5 -274t-332 -104q-120 0 -217.5 51.5t-156 151.5t-58.5 229q0 192 87.5 362.5t240.5 274t332 103.5zM459 90q73 0 153.5 138t131.5 326
t51 335q0 129 -70 129q-73 0 -154 -139t-132.5 -327t-51.5 -333q0 -129 72 -129z" />
    <glyph glyph-name="otilde" unicode="&#xf5;" horiz-adv-x="1181" 
d="M1014 1280q-42 0 -77.5 15.5t-59.5 37.5t-47 44t-50.5 37.5t-58.5 15.5q-71 0 -117.5 -40.5t-87.5 -115.5l-61 8q146 373 311 373q42 0 77.5 -15.5t59.5 -38t46.5 -45t50 -38t57.5 -15.5q71 0 117.5 40.5t87.5 115.5l63 -8q-22 -53 -39 -91.5t-49.5 -96t-63 -93.5
t-73 -63t-86.5 -27zM477 -33q-120 0 -217.5 51.5t-156 151.5t-58.5 229q0 192 87.5 362.5t240.5 274t332 103.5q185 0 308.5 -118.5t123.5 -313.5q0 -192 -87.5 -362t-240.5 -274t-332 -104zM459 90q73 0 153.5 138t131.5 326t51 335q0 129 -70 129q-73 0 -154 -139
t-132.5 -327t-51.5 -333q0 -129 72 -129z" />
    <glyph glyph-name="odieresis" unicode="&#xf6;" horiz-adv-x="1181" 
d="M641 1264q-71 0 -121.5 51t-50.5 121q0 72 50.5 122t121.5 50q72 0 122 -50t50 -122q0 -71 -50 -121.5t-122 -50.5zM1083 1264q-71 0 -121.5 51t-50.5 121q0 72 50.5 122t121.5 50q72 0 122 -50t50 -122q0 -71 -50 -121.5t-122 -50.5zM477 -33q-120 0 -217.5 51.5
t-156 151.5t-58.5 229q0 192 87.5 362.5t240.5 274t332 103.5q185 0 308.5 -118.5t123.5 -313.5q0 -192 -87.5 -362t-240.5 -274t-332 -104zM459 90q73 0 153.5 138t131.5 326t51 335q0 129 -70 129q-73 0 -154 -139t-132.5 -327t-51.5 -333q0 -129 72 -129z" />
    <glyph glyph-name="divide" unicode="&#xf7;" horiz-adv-x="1048" 
d="M670 909q-49 0 -78 28t-29 73q0 58 46.5 109.5t109.5 51.5q50 0 79 -27.5t29 -72.5q0 -58 -46.5 -110t-110.5 -52zM967 494h-881l74 241h880zM410 59q-50 0 -79.5 28t-29.5 73q0 57 47.5 109.5t110.5 52.5q49 0 77.5 -28t28.5 -73q0 -59 -46 -110.5t-109 -51.5z" />
    <glyph glyph-name="oslash" unicode="&#xf8;" horiz-adv-x="1183" 
d="M1169 1268l54 -37l-195 -223q113 -119 113 -301q0 -192 -87.5 -362t-240.5 -274t-332 -104q-156 0 -276 90l-191 -221l-53 37l197 227q-109 119 -109 299q0 192 87.5 362.5t240 274t330.5 103.5q157 0 274 -88zM729 1018q-61 0 -128.5 -99t-118 -243t-74.5 -289l389 451
q2 18 2 51q0 129 -70 129zM461 90q61 0 128.5 99.5t119 244.5t75.5 291l-391 -453q-2 -18 -2 -53q0 -129 70 -129z" />
    <glyph glyph-name="ugrave" unicode="&#xf9;" horiz-adv-x="1353" 
d="M743 1667l158 -395h-100l-344 395h286zM260 -33q-97 0 -151 54t-54 133q0 152 181 528q4 9 17 40.5t18.5 44.5t16 39.5t15.5 41t11.5 33.5t9 31t2.5 20q0 26 -23 26q-33 0 -80.5 -48t-120.5 -154h-59q91 171 219.5 274t267.5 103q81 0 122.5 -44.5t41.5 -111.5
q0 -21 -4.5 -45.5t-17.5 -60t-22 -58.5t-31.5 -76.5t-32.5 -79.5t-27 -66.5t-26 -63t-22.5 -56t-21 -53t-17 -44.5t-15 -40.5t-10.5 -32t-7 -26.5t-2 -17q0 -43 33 -43q13 0 30 8.5t45.5 36.5t61 71.5t77 121t91.5 178.5q152 322 154 471h413l-239 -686q-5 -14 -18.5 -50.5
t-21 -58t-17.5 -50t-14.5 -47.5t-4.5 -30q0 -22 7 -29.5t22 -7.5q44 0 104.5 70.5t106.5 173.5h59q-173 -420 -444 -420q-116 0 -167.5 49.5t-51.5 130.5q0 31 10 61t39.5 97t50.5 121l92 236h-25q-52 -112 -92 -192.5t-88 -165.5t-91.5 -141.5t-92 -103.5t-100.5 -69.5
t-107 -22.5z" />
    <glyph glyph-name="uacute" unicode="&#xfa;" horiz-adv-x="1353" 
d="M905 1272h-100l219 395h291zM260 -33q-97 0 -151 54t-54 133q0 152 181 528q4 9 17 40.5t18.5 44.5t16 39.5t15.5 41t11.5 33.5t9 31t2.5 20q0 26 -23 26q-33 0 -80.5 -48t-120.5 -154h-59q91 171 219.5 274t267.5 103q81 0 122.5 -44.5t41.5 -111.5q0 -21 -4.5 -45.5
t-17.5 -60t-22 -58.5t-31.5 -76.5t-32.5 -79.5t-27 -66.5t-26 -63t-22.5 -56t-21 -53t-17 -44.5t-15 -40.5t-10.5 -32t-7 -26.5t-2 -17q0 -43 33 -43q13 0 30 8.5t45.5 36.5t61 71.5t77 121t91.5 178.5q152 322 154 471h413l-239 -686q-5 -14 -18.5 -50.5t-21 -58t-17.5 -50
t-14.5 -47.5t-4.5 -30q0 -22 7 -29.5t22 -7.5q44 0 104.5 70.5t106.5 173.5h59q-173 -420 -444 -420q-116 0 -167.5 49.5t-51.5 130.5q0 31 10 61t39.5 97t50.5 121l92 236h-25q-52 -112 -92 -192.5t-88 -165.5t-91.5 -141.5t-92 -103.5t-100.5 -69.5t-107 -22.5z" />
    <glyph glyph-name="ucircumflex" unicode="&#xfb;" horiz-adv-x="1353" 
d="M1071 1272l-139 241l-320 -241h-100l330 395h276l37 -395h-84zM1057 143q44 0 104.5 70.5t106.5 173.5h59q-173 -420 -444 -420q-116 0 -167.5 49.5t-51.5 130.5q0 31 10 61t39.5 97t50.5 121l92 236h-25q-52 -112 -92 -192.5t-88 -165.5t-91.5 -141.5t-92 -103.5
t-100.5 -69.5t-107 -22.5q-97 0 -151 54t-54 133q0 152 181 528q4 9 17 40.5t18.5 44.5t16 39.5t15.5 41t11.5 33.5t9 31t2.5 20q0 26 -23 26q-33 0 -80.5 -48t-120.5 -154h-59q91 171 219.5 274t267.5 103q81 0 122.5 -44.5t41.5 -111.5q0 -21 -4.5 -45.5t-17.5 -60
t-22 -58.5t-31.5 -76.5t-32.5 -79.5t-27 -66.5t-26 -63t-22.5 -56t-21 -53t-17 -44.5t-15 -40.5t-10.5 -32t-7 -26.5t-2 -17q0 -43 33 -43q13 0 30 8.5t45.5 36.5t61 71.5t77 121t91.5 178.5q152 322 154 471h413l-239 -686q-5 -14 -18.5 -50.5t-21 -58t-17.5 -50
t-14.5 -47.5t-4.5 -30q0 -22 7 -29.5t22 -7.5z" />
    <glyph glyph-name="udieresis" unicode="&#xfc;" horiz-adv-x="1353" 
d="M659 1264q-71 0 -121.5 51t-50.5 121q0 72 50.5 122t121.5 50q72 0 122 -50t50 -122q0 -71 -50 -121.5t-122 -50.5zM1102 1264q-70 0 -121 51t-51 121q0 72 50.5 122t121.5 50q72 0 122 -50t50 -122q0 -71 -50 -121.5t-122 -50.5zM260 -33q-97 0 -151 54t-54 133
q0 152 181 528q4 9 17 40.5t18.5 44.5t16 39.5t15.5 41t11.5 33.5t9 31t2.5 20q0 26 -23 26q-33 0 -80.5 -48t-120.5 -154h-59q91 171 219.5 274t267.5 103q81 0 122.5 -44.5t41.5 -111.5q0 -21 -4.5 -45.5t-17.5 -60t-22 -58.5t-31.5 -76.5t-32.5 -79.5t-27 -66.5t-26 -63
t-22.5 -56t-21 -53t-17 -44.5t-15 -40.5t-10.5 -32t-7 -26.5t-2 -17q0 -43 33 -43q13 0 30 8.5t45.5 36.5t61 71.5t77 121t91.5 178.5q152 322 154 471h413l-239 -686q-5 -14 -18.5 -50.5t-21 -58t-17.5 -50t-14.5 -47.5t-4.5 -30q0 -22 7 -29.5t22 -7.5q44 0 104.5 70.5
t106.5 173.5h59q-173 -420 -444 -420q-116 0 -167.5 49.5t-51.5 130.5q0 31 10 61t39.5 97t50.5 121l92 236h-25q-52 -112 -92 -192.5t-88 -165.5t-91.5 -141.5t-92 -103.5t-100.5 -69.5t-107 -22.5z" />
    <glyph glyph-name="yacute" unicode="&#xfd;" horiz-adv-x="1050" 
d="M727 1272h-100l219 395h291zM-47 -451q-82 0 -125 33t-43 92q0 73 57.5 128t126.5 55q31 0 59 -12.5t49 -30.5t40.5 -36.5t41.5 -31t44 -12.5q51 0 84 59.5t45 140.5q3 90 -9.5 400t-21.5 457q-6 88 -19.5 122.5t-39.5 34.5q-28 0 -55 -48.5t-83 -182.5h-57
q41 108 75.5 178t79 127.5t98.5 84t122 26.5q110 0 161 -75t58 -257q5 -118 5 -300.5t-5 -283.5q101 128 167 269t66 251q0 66 -32.5 154.5t-32.5 120.5q0 50 33.5 85.5t83.5 35.5q55 0 93 -47.5t38 -127.5q0 -340 -506 -981q-55 -72 -102 -127t-109 -114.5t-120 -98
t-128 -63.5t-139 -25z" />
    <glyph glyph-name="thorn" unicode="&#xfe;" horiz-adv-x="1269" 
d="M1016 1135q97 0 164 -77.5t67 -238.5q0 -119 -27.5 -238.5t-81.5 -225.5t-127 -188.5t-171.5 -130.5t-208.5 -48q-125 0 -217 63l-84 -274q-33 -103 -6 -137.5t149 -34.5l-24 -60h-715l18 60q89 0 134 35.5t77 136.5l340 1100q-119 -212 -254 -318l-37 43q116 87 222 250
t157 311l164 531h336l-340 -1035h27q200 476 438 476zM573 111q71 0 146.5 114.5t121.5 263.5t46 259q0 67 -13.5 101t-52.5 34q-67 0 -148.5 -128.5t-146.5 -340.5l-57 -185q6 -55 32 -86.5t72 -31.5z" />
    <glyph glyph-name="ydieresis" unicode="&#xff;" horiz-adv-x="1050" 
d="M481 1264q-71 0 -121.5 51t-50.5 121q0 72 50.5 122t121.5 50q72 0 122 -50t50 -122q0 -71 -50 -121.5t-122 -50.5zM924 1264q-70 0 -121 51t-51 121q0 72 50.5 122t121.5 50q72 0 122 -50t50 -122q0 -71 -50 -121.5t-122 -50.5zM-47 -451q-82 0 -125 33t-43 92
q0 73 57.5 128t126.5 55q31 0 59 -12.5t49 -30.5t40.5 -36.5t41.5 -31t44 -12.5q51 0 84 59.5t45 140.5q3 90 -9.5 400t-21.5 457q-6 88 -19.5 122.5t-39.5 34.5q-28 0 -55 -48.5t-83 -182.5h-57q41 108 75.5 178t79 127.5t98.5 84t122 26.5q110 0 161 -75t58 -257
q5 -118 5 -300.5t-5 -283.5q101 128 167 269t66 251q0 66 -32.5 154.5t-32.5 120.5q0 50 33.5 85.5t83.5 35.5q55 0 93 -47.5t38 -127.5q0 -340 -506 -981q-55 -72 -102 -127t-109 -114.5t-120 -98t-128 -63.5t-139 -25z" />
    <glyph glyph-name="Amacron" unicode="&#x100;" horiz-adv-x="1540" 
d="M844 1855l41 134h723l-39 -134h-725zM1327 1671l-45 -1429q-3 -107 32 -145t138 -38l-20 -59h-842l18 59q124 0 175 43t57 140l12 211h-504l-162 -250q-28 -42 -36 -67t4 -43.5t53.5 -26t118.5 -7.5l-21 -59h-551l17 59q91 0 150 29t114 115l966 1468h326zM879 1270
l-459 -709h440l43 709h-24z" />
    <glyph glyph-name="amacron" unicode="&#x101;" horiz-adv-x="1327" 
d="M606 1495h723l-39 -133h-725zM1270 1153l51 -31l-242 -704q-2 -6 -18 -49.5t-22 -60t-16.5 -48t-14.5 -49.5t-4 -29q0 -21 6.5 -29t21.5 -8q44 0 103.5 70t107.5 174h57q-175 -420 -444 -420q-115 0 -166 50t-51 131q0 24 7 52t16 52t29.5 78t37.5 100l10 31h-18
q-25 -53 -44.5 -92t-50.5 -94t-58.5 -94.5t-64.5 -82.5t-73 -69.5t-79.5 -44t-88.5 -17.5q-112 0 -178 91.5t-66 238.5q0 144 58.5 296t149.5 270t209 194t231 76q61 0 105.5 -20.5t68 -57t34 -78.5t9.5 -92h8l55 151q106 0 190 33.5t134 81.5zM444 221q68 0 170 145.5
t154 311.5q27 89 27 162q0 135 -78 135q-60 0 -139.5 -107.5t-136 -259t-56.5 -266.5q0 -121 59 -121z" />
    <glyph glyph-name="Abreve" unicode="&#x102;" horiz-adv-x="1540" 
d="M1579 2173h57q-21 -84 -58 -152.5t-80 -113t-93.5 -75t-99 -43.5t-97.5 -13q-116 0 -193 62.5t-77 180.5q0 71 29 154h55q-4 -14 -4 -39q0 -80 53 -109.5t164 -29.5q115 0 209 43t135 135zM1327 1671l-45 -1429q-3 -107 32 -145t138 -38l-20 -59h-842l18 59q124 0 175 43
t57 140l12 211h-504l-162 -250q-28 -42 -36 -67t4 -43.5t53.5 -26t118.5 -7.5l-21 -59h-551l17 59q91 0 150 29t114 115l966 1468h326zM879 1270l-459 -709h440l43 709h-24z" />
    <glyph glyph-name="abreve" unicode="&#x103;" horiz-adv-x="1327" 
d="M930 1282q-116 0 -193.5 63t-77.5 181q0 70 29 153h55q-4 -14 -4 -39q0 -80 53 -109.5t164 -29.5q115 0 209 43t135 135h58q-21 -84 -58 -152.5t-80 -113t-93.5 -75t-99 -43.5t-97.5 -13zM1270 1153l51 -31l-242 -704q-2 -6 -18 -49.5t-22 -60t-16.5 -48t-14.5 -49.5
t-4 -29q0 -21 6.5 -29t21.5 -8q44 0 103.5 70t107.5 174h57q-175 -420 -444 -420q-115 0 -166 50t-51 131q0 24 7 52t16 52t29.5 78t37.5 100l10 31h-18q-25 -53 -44.5 -92t-50.5 -94t-58.5 -94.5t-64.5 -82.5t-73 -69.5t-79.5 -44t-88.5 -17.5q-112 0 -178 91.5t-66 238.5
q0 144 58.5 296t149.5 270t209 194t231 76q61 0 105.5 -20.5t68 -57t34 -78.5t9.5 -92h8l55 151q106 0 190 33.5t134 81.5zM444 221q68 0 170 145.5t154 311.5q27 89 27 162q0 135 -78 135q-60 0 -139.5 -107.5t-136 -259t-56.5 -266.5q0 -121 59 -121z" />
    <glyph glyph-name="Aogonek" unicode="&#x104;" horiz-adv-x="1540" 
d="M1432 0h-107q-120 -59 -201.5 -143t-81.5 -164q0 -84 93 -84q59 0 174 49l18 -64q-157 -114 -317 -114q-59 0 -105 14t-78 52.5t-32 97.5q0 48 20.5 92t59.5 78.5t80 62.5t98 52.5t96 39t90 31.5h-649l18 59q124 0 175 43t57 140l12 211h-504l-162 -250q-28 -42 -36 -67
t4 -43.5t53.5 -26t118.5 -7.5l-21 -59h-551l17 59q91 0 150 29t114 115l966 1468h326l-45 -1429q-3 -107 32 -145t138 -38zM879 1270l-459 -709h440l43 709h-24z" />
    <glyph glyph-name="aogonek" unicode="&#x105;" horiz-adv-x="1327" 
d="M1032 145q44 0 103.5 70t107.5 174h57q-142 -336 -342 -403h3q-123 -58 -207 -144.5t-84 -167.5q0 -84 92 -84q57 0 174 50l18 -64q-159 -115 -317 -115q-59 0 -105 14t-78 52.5t-32 97.5q0 54 27.5 103t67.5 83.5t99 67t107.5 52t107.5 38.5q-102 6 -147 55.5t-45 125.5
q0 24 7 52t16 52t29.5 78t37.5 100l10 31h-18q-25 -53 -44.5 -92t-50.5 -94t-58.5 -94.5t-64.5 -82.5t-73 -69.5t-79.5 -44t-88.5 -17.5q-112 0 -178 91.5t-66 238.5q0 144 58.5 296t149.5 270t209 194t231 76q61 0 105.5 -20.5t68 -57t34 -78.5t9.5 -92h8l55 151
q106 0 190 33.5t134 81.5l51 -31l-242 -704q-2 -6 -18 -49.5t-22 -60t-16.5 -48t-14.5 -49.5t-4 -29q0 -21 6.5 -29t21.5 -8zM444 221q68 0 170 145.5t154 311.5q27 89 27 162q0 135 -78 135q-60 0 -139.5 -107.5t-136 -259t-56.5 -266.5q0 -121 59 -121z" />
    <glyph glyph-name="Cacute" unicode="&#x106;" horiz-adv-x="1400" 
d="M1143 1749h-101l220 395h290zM664 -33q-134 0 -239.5 47t-172 130.5t-101 194.5t-34.5 243q0 153 44.5 310t130 296t198.5 247.5t262 172t309 63.5q216 0 336 -129q16 -17 25.5 -21.5t18.5 2t19 27.5l43 97h60l-187 -594h-59q55 485 -203 485q-93 0 -178.5 -61.5
t-148.5 -162.5t-110 -225t-71 -253t-24 -244q0 -202 71 -295.5t189 -93.5q79 0 153 39.5t132.5 107t104.5 145.5t81 167h69q-42 -108 -81.5 -193t-89 -167t-105 -140.5t-122 -104t-147 -68t-173.5 -22.5z" />
    <glyph glyph-name="cacute" unicode="&#x107;" horiz-adv-x="944" 
d="M780 1272h-100l219 395h291zM381 -33q-157 0 -252.5 105.5t-95.5 292.5q0 134 52 273t138 250t208.5 182t252.5 71q114 0 187 -68t73 -182q0 -100 -52.5 -175t-133.5 -75q-52 0 -82.5 30t-30.5 77q0 33 17.5 61t38 45t38 46t17.5 63q0 71 -62 71q-65 0 -132 -91
t-110.5 -231.5t-43.5 -275.5q0 -254 141 -254q152 0 287 260h57q-187 -475 -512 -475z" />
    <glyph glyph-name="Cdotaccent" unicode="&#x10a;" horiz-adv-x="1400" 
d="M1141 1741q-71 0 -121.5 50.5t-50.5 121.5q0 72 50.5 122t121.5 50q72 0 122 -50t50 -122q0 -71 -50 -121.5t-122 -50.5zM664 -33q-134 0 -239.5 47t-172 130.5t-101 194.5t-34.5 243q0 153 44.5 310t130 296t198.5 247.5t262 172t309 63.5q216 0 336 -129
q16 -17 25.5 -21.5t18.5 2t19 27.5l43 97h60l-187 -594h-59q55 485 -203 485q-93 0 -178.5 -61.5t-148.5 -162.5t-110 -225t-71 -253t-24 -244q0 -202 71 -295.5t189 -93.5q79 0 153 39.5t132.5 107t104.5 145.5t81 167h69q-42 -108 -81.5 -193t-89 -167t-105 -140.5
t-122 -104t-147 -68t-173.5 -22.5z" />
    <glyph glyph-name="cdotaccent" unicode="&#x10b;" horiz-adv-x="944" 
d="M778 1264q-70 0 -121 51t-51 121q0 72 50.5 122t121.5 50q72 0 122 -50t50 -122q0 -71 -50 -121.5t-122 -50.5zM381 -33q-157 0 -252.5 105.5t-95.5 292.5q0 134 52 273t138 250t208.5 182t252.5 71q114 0 187 -68t73 -182q0 -100 -52.5 -175t-133.5 -75q-52 0 -82.5 30
t-30.5 77q0 33 17.5 61t38 45t38 46t17.5 63q0 71 -62 71q-65 0 -132 -91t-110.5 -231.5t-43.5 -275.5q0 -254 141 -254q152 0 287 260h57q-187 -475 -512 -475z" />
    <glyph glyph-name="Ccaron" unicode="&#x10c;" horiz-adv-x="1400" 
d="M918 1749l-35 395h82l139 -243l319 243h103l-332 -395h-276zM842 203q79 0 153 39.5t132.5 107t104.5 145.5t81 167h69q-42 -108 -81.5 -193t-89 -167t-105 -140.5t-122 -104t-147 -68t-173.5 -22.5q-134 0 -239.5 47t-172 130.5t-101 194.5t-34.5 243q0 153 44.5 310
t130 296t198.5 247.5t262 172t309 63.5q216 0 336 -129q16 -17 25.5 -21.5t18.5 2t19 27.5l43 97h60l-187 -594h-59q55 485 -203 485q-93 0 -178.5 -61.5t-148.5 -162.5t-110 -225t-71 -253t-24 -244q0 -202 71 -295.5t189 -93.5z" />
    <glyph glyph-name="ccaron" unicode="&#x10d;" horiz-adv-x="944" 
d="M555 1272l-35 395h82l139 -244l320 244h102l-332 -395h-276zM758 641q-52 0 -82.5 30t-30.5 77q0 33 17.5 61t38 45t38 46t17.5 63q0 71 -62 71q-65 0 -132 -91t-110.5 -231.5t-43.5 -275.5q0 -254 141 -254q152 0 287 260h57q-187 -475 -512 -475q-157 0 -252.5 105.5
t-95.5 292.5q0 134 52 273t138 250t208.5 182t252.5 71q114 0 187 -68t73 -182q0 -100 -52.5 -175t-133.5 -75z" />
    <glyph glyph-name="Dcaron" unicode="&#x10e;" horiz-adv-x="1728" 
d="M973 1765l-35 396h82l139 -244l320 244h102l-332 -396h-276zM1040 1638q154 0 285 -40t229.5 -115.5t154.5 -194.5t56 -268q0 -295 -141 -528.5t-388.5 -362.5t-557.5 -129h-807l16 59q116 0 178.5 41t90.5 131l358 1176q29 94 -2 133t-158 39l19 59h667zM678 115
q106 0 208 63t180.5 168t138.5 235.5t92 272.5t32 272q0 106 -21.5 186t-58.5 124.5t-80 66t-92 21.5q-41 0 -75 -14.5t-44 -41.5l-395 -1278q-10 -34 21.5 -54.5t93.5 -20.5z" />
    <glyph glyph-name="dcaron" unicode="&#x10f;" horiz-adv-x="1323" 
d="M1475 1700l24 -25l-414 -1257q-73 -196 -73 -236q0 -21 6.5 -29t21.5 -8q44 0 103.5 70t107.5 174h58q-175 -420 -445 -420q-115 0 -166 50t-51 131q0 25 7 54.5t13.5 49.5t29.5 80.5t36 97.5l10 31h-32q-25 -55 -43.5 -92.5t-49.5 -94t-57 -95t-63 -82.5t-72 -70.5
t-79 -44t-89 -17.5q-105 0 -172.5 93.5t-67.5 238.5q0 144 58.5 296t149.5 270t209 194t231 76q61 0 105 -20.5t67.5 -57t34 -78.5t10.5 -92h8l166 479q73 213 -131 213l14 59q424 0 535 62zM1511 1260l131 421h263l-297 -421h-97zM444 219q68 0 170 146t154 313
q27 89 27 162q0 135 -78 135q-60 0 -139.5 -107.5t-136 -259t-56.5 -266.5q0 -123 59 -123z" />
    <glyph glyph-name="Dcroat" unicode="&#x110;" horiz-adv-x="1728" 
d="M1040 1638q154 0 285 -40t229.5 -115.5t154.5 -194.5t56 -268q0 -295 -141 -528.5t-388.5 -362.5t-557.5 -129h-807l16 59q116 0 178.5 41t90.5 131l172 568h-197l23 78h198l162 530q29 94 -2 133t-158 39l19 59h667zM678 115q106 0 208 63t180.5 168t138.5 235.5
t92 272.5t32 272q0 106 -21.5 186t-58.5 124.5t-80 66t-92 21.5q-41 0 -75 -14.5t-44 -41.5l-182 -591h264l-22 -78h-266l-189 -609q-10 -34 21.5 -54.5t93.5 -20.5z" />
    <glyph glyph-name="dcroat" unicode="&#x111;" horiz-adv-x="1318" 
d="M1511 1221h-161l-265 -803q-73 -196 -73 -236q0 -21 6.5 -29t21.5 -8q44 0 103.5 70t107.5 174h58q-175 -420 -445 -420q-115 0 -166 50t-51 131q0 25 7 54.5t13.5 49.5t29.5 80.5t36 97.5l10 31h-32q-25 -55 -43.5 -92.5t-49.5 -94t-57 -95t-63 -82.5t-72 -70.5t-79 -44
t-89 -17.5q-105 0 -172.5 93.5t-67.5 238.5q0 144 58.5 296t149.5 270t209 194t231 76q61 0 105 -20.5t67.5 -57t34 -78.5t10.5 -92h8l115 334h-400l19 59h401l31 86q73 213 -131 213l14 59q424 0 535 62l24 -25l-129 -395h160zM444 219q68 0 170 146t154 313q27 89 27 162
q0 135 -78 135q-60 0 -139.5 -107.5t-136 -259t-56.5 -266.5q0 -123 59 -123z" />
    <glyph glyph-name="Emacron" unicode="&#x112;" horiz-adv-x="1411" 
d="M692 1855l41 134h723l-39 -134h-725zM1552 1638l-129 -450h-67q36 163 0.5 240t-137.5 77h-154q-89 0 -115 -86l-155 -506h159q77 0 128.5 41t84.5 136h60l-150 -500h-59q32 122 12 174.5t-104 52.5h-160l-162 -532q-16 -51 -19.5 -80.5t6.5 -46t28.5 -21t54.5 -4.5h153
q65 0 118 13.5t110.5 48t113.5 104t109 172.5l70 -27l-211 -444h-1266l16 59q116 0 178.5 41t90.5 131l358 1176q29 94 -2 133t-158 39l19 59h1179z" />
    <glyph glyph-name="emacron" unicode="&#x113;" horiz-adv-x="985" 
d="M436 1362l41 133h723l-39 -133h-725zM971 907q0 -92 -50 -170.5t-133.5 -131.5t-182 -87t-204.5 -47q-4 -62 -4 -84q0 -207 172 -207q83 0 156 63t154 206h57q-210 -482 -539 -482q-164 0 -265 101t-101 290q0 143 56.5 286t147.5 252t212.5 177t244.5 68
q127 0 203 -64.5t76 -169.5zM690 1034q-57 0 -114 -73.5t-97.5 -179t-62.5 -220.5q139 47 235.5 155.5t96.5 231.5q0 45 -13 65.5t-45 20.5z" />
    <glyph glyph-name="Edotaccent" unicode="&#x116;" horiz-adv-x="1411" 
d="M1081 1757q-71 0 -121.5 50.5t-50.5 121.5q0 72 50.5 122t121.5 50q72 0 122 -50t50 -122q0 -71 -50 -121.5t-122 -50.5zM1552 1638l-129 -450h-67q36 163 0.5 240t-137.5 77h-154q-89 0 -115 -86l-155 -506h159q77 0 128.5 41t84.5 136h60l-150 -500h-59
q32 122 12 174.5t-104 52.5h-160l-162 -532q-16 -51 -19.5 -80.5t6.5 -46t28.5 -21t54.5 -4.5h153q65 0 118 13.5t110.5 48t113.5 104t109 172.5l70 -27l-211 -444h-1266l16 59q116 0 178.5 41t90.5 131l358 1176q29 94 -2 133t-158 39l19 59h1179z" />
    <glyph glyph-name="edotaccent" unicode="&#x117;" horiz-adv-x="985" 
d="M825 1264q-71 0 -121.5 51t-50.5 121q0 72 50.5 122t121.5 50q72 0 122 -50t50 -122q0 -71 -50 -121.5t-122 -50.5zM971 907q0 -92 -50 -170.5t-133.5 -131.5t-182 -87t-204.5 -47q-4 -62 -4 -84q0 -207 172 -207q83 0 156 63t154 206h57q-210 -482 -539 -482
q-164 0 -265 101t-101 290q0 143 56.5 286t147.5 252t212.5 177t244.5 68q127 0 203 -64.5t76 -169.5zM690 1034q-57 0 -114 -73.5t-97.5 -179t-62.5 -220.5q139 47 235.5 155.5t96.5 231.5q0 45 -13 65.5t-45 20.5z" />
    <glyph glyph-name="Eogonek" unicode="&#x118;" horiz-adv-x="1411" 
d="M373 1638h1179l-129 -450h-67q36 163 0.5 240t-137.5 77h-154q-89 0 -115 -86l-155 -506h159q77 0 128.5 41t84.5 136h60l-150 -500h-59q32 122 12 174.5t-104 52.5h-160l-162 -532q-16 -51 -19.5 -80.5t6.5 -46t28.5 -21t54.5 -4.5h153q65 0 118 13.5t110.5 48
t113.5 104t109 172.5l70 -27l-211 -444q-123 -59 -207 -144.5t-84 -166.5q0 -84 92 -84q59 0 174 49l18 -64q-157 -114 -317 -114q-59 0 -105 14t-78 52.5t-32 97.5q0 50 21.5 94.5t62.5 80t83 63.5t101.5 52.5t98 38.5t90.5 31h-1184l16 59q116 0 178.5 41t90.5 131
l358 1176q29 94 -2 133t-158 39z" />
    <glyph glyph-name="eogonek" unicode="&#x119;" horiz-adv-x="985" 
d="M569 180q83 0 156 63t154 206h57q-152 -348 -365 -445h2q-123 -58 -206.5 -144t-83.5 -167q0 -84 92 -84q59 0 174 49l18 -64q-157 -114 -317 -114q-59 0 -105 14t-78 52.5t-32 97.5q0 194 350 323q-160 5 -257 105.5t-97 285.5q0 143 56.5 286t147.5 252t212.5 177
t244.5 68q127 0 203 -64.5t76 -169.5q0 -92 -50 -170.5t-133.5 -131.5t-182 -87t-204.5 -47q-4 -62 -4 -84q0 -207 172 -207zM690 1034q-57 0 -114 -73.5t-97.5 -179t-62.5 -220.5q139 47 235.5 155.5t96.5 231.5q0 45 -13 65.5t-45 20.5z" />
    <glyph glyph-name="Ecaron" unicode="&#x11a;" horiz-adv-x="1411" 
d="M860 1765l-35 396h82l140 -244l319 244h102l-331 -396h-277zM373 1638h1179l-129 -450h-67q36 163 0.5 240t-137.5 77h-154q-89 0 -115 -86l-155 -506h159q77 0 128.5 41t84.5 136h60l-150 -500h-59q32 122 12 174.5t-104 52.5h-160l-162 -532q-16 -51 -19.5 -80.5
t6.5 -46t28.5 -21t54.5 -4.5h153q65 0 118 13.5t110.5 48t113.5 104t109 172.5l70 -27l-211 -444h-1266l16 59q116 0 178.5 41t90.5 131l358 1176q29 94 -2 133t-158 39z" />
    <glyph glyph-name="ecaron" unicode="&#x11b;" horiz-adv-x="985" 
d="M602 1272l-35 395h82l139 -244l320 244h102l-331 -395h-277zM971 907q0 -92 -50 -170.5t-133.5 -131.5t-182 -87t-204.5 -47q-4 -62 -4 -84q0 -207 172 -207q83 0 156 63t154 206h57q-210 -482 -539 -482q-164 0 -265 101t-101 290q0 143 56.5 286t147.5 252t212.5 177
t244.5 68q127 0 203 -64.5t76 -169.5zM690 1034q-57 0 -114 -73.5t-97.5 -179t-62.5 -220.5q139 47 235.5 155.5t96.5 231.5q0 45 -13 65.5t-45 20.5z" />
    <glyph glyph-name="Gbreve" unicode="&#x11e;" horiz-adv-x="1624" 
d="M1540 2173h57q-21 -84 -58 -152.5t-80 -113t-93.5 -75t-99 -43.5t-97.5 -13q-116 0 -193 62.5t-77 180.5q0 71 29 154h55q-4 -14 -4 -39q0 -80 53 -109.5t164 -29.5q115 0 209 43t135 135zM1180 1538q-106 0 -204 -67t-170 -176.5t-126 -245.5t-81.5 -279.5t-27.5 -273.5
q0 -383 236 -383q131 0 201 192l86 289q28 94 -20 134t-212 40l21 59h757l-8 -59q-59 0 -83 -24.5t-50 -112.5l-133 -434q-121 -99 -294.5 -164.5t-354.5 -65.5q-153 0 -269.5 47.5t-188 132t-107 195.5t-35.5 244q0 157 47.5 315t137.5 296t210.5 245t278 169t327.5 62
q246 0 367 -133q14 -16 22.5 -21t17.5 1t19 26l45 101h60l-168 -586h-60q27 227 -30.5 352t-210.5 125z" />
    <glyph glyph-name="gbreve" unicode="&#x11f;" horiz-adv-x="1087" 
d="M719 1284q-116 0 -193 62.5t-77 181.5q0 73 28 153h55q-4 -14 -4 -39q0 -80 53 -109.5t164 -29.5q115 0 209.5 43t135.5 135h57q-21 -84 -58 -152.5t-80 -113t-93.5 -75t-99 -43.5t-97.5 -13zM1130 1143q91 0 91 -62q0 -45 -30.5 -78.5t-78.5 -33.5q-33 0 -93.5 23
t-84.5 26q72 -78 72 -203q0 -121 -53.5 -224.5t-160.5 -173t-249 -81.5h4q-158 -13 -158 -72q0 -25 28.5 -42t123.5 -46l170 -51q156 -46 215 -102.5t59 -145.5q0 -84 -58.5 -151t-155.5 -109t-217.5 -64t-250.5 -22q-140 0 -252 24.5t-177.5 64t-99.5 83.5t-34 88
q0 75 96.5 127t274.5 72q-84 49 -84 116q0 47 34.5 88.5t91 70.5t117.5 48t125 29q-123 24 -202.5 107.5t-79.5 205.5q0 95 38.5 182t106 153t166 105.5t211.5 39.5q146 0 250 -72q134 80 245 80zM489 434q60 0 111.5 72t78 172t26.5 196q0 83 -17.5 122.5t-56.5 39.5
q-61 0 -112.5 -73.5t-78 -174t-26.5 -194.5q0 -84 17.5 -122t57.5 -38zM555 -164l-311 98q-9 2 -24 7.5t-21 7.5q-97 -18 -150 -58t-53 -90q0 -71 100.5 -120.5t274.5 -49.5q153 0 241 35t88 90q0 20 -32.5 37.5t-112.5 42.5z" />
    <glyph glyph-name="Gdotaccent" unicode="&#x120;" horiz-adv-x="1624" 
d="M1192 1757q-70 0 -121 50.5t-51 121.5q0 72 50.5 122t121.5 50q72 0 122 -50t50 -122q0 -71 -50 -121.5t-122 -50.5zM1180 1538q-106 0 -204 -67t-170 -176.5t-126 -245.5t-81.5 -279.5t-27.5 -273.5q0 -383 236 -383q131 0 201 192l86 289q28 94 -20 134t-212 40l21 59
h757l-8 -59q-59 0 -83 -24.5t-50 -112.5l-133 -434q-121 -99 -294.5 -164.5t-354.5 -65.5q-153 0 -269.5 47.5t-188 132t-107 195.5t-35.5 244q0 157 47.5 315t137.5 296t210.5 245t278 169t327.5 62q246 0 367 -133q14 -16 22.5 -21t17.5 1t19 26l45 101h60l-168 -586h-60
q27 227 -30.5 352t-210.5 125z" />
    <glyph glyph-name="gdotaccent" unicode="&#x121;" horiz-adv-x="1087" 
d="M743 1266q-71 0 -121.5 51t-50.5 121q0 72 50.5 122t121.5 50q72 0 122 -50t50 -122q0 -71 -50 -121.5t-122 -50.5zM1130 1143q91 0 91 -62q0 -45 -30.5 -78.5t-78.5 -33.5q-33 0 -93.5 23t-84.5 26q72 -78 72 -203q0 -121 -53.5 -224.5t-160.5 -173t-249 -81.5h4
q-158 -13 -158 -72q0 -25 28.5 -42t123.5 -46l170 -51q156 -46 215 -102.5t59 -145.5q0 -84 -58.5 -151t-155.5 -109t-217.5 -64t-250.5 -22q-140 0 -252 24.5t-177.5 64t-99.5 83.5t-34 88q0 75 96.5 127t274.5 72q-84 49 -84 116q0 47 34.5 88.5t91 70.5t117.5 48t125 29
q-123 24 -202.5 107.5t-79.5 205.5q0 95 38.5 182t106 153t166 105.5t211.5 39.5q146 0 250 -72q134 80 245 80zM489 434q60 0 111.5 72t78 172t26.5 196q0 83 -17.5 122.5t-56.5 39.5q-61 0 -112.5 -73.5t-78 -174t-26.5 -194.5q0 -84 17.5 -122t57.5 -38zM555 -164
l-311 98q-9 2 -24 7.5t-21 7.5q-97 -18 -150 -58t-53 -90q0 -71 100.5 -120.5t274.5 -49.5q153 0 241 35t88 90q0 20 -32.5 37.5t-112.5 42.5z" />
    <glyph glyph-name="uni0122" unicode="&#x122;" horiz-adv-x="1624" 
d="M1180 1538q-106 0 -204 -67t-170 -176.5t-126 -245.5t-81.5 -279.5t-27.5 -273.5q0 -383 236 -383q131 0 201 192l86 289q28 94 -20 134t-212 40l21 59h757l-8 -59q-59 0 -83 -24.5t-50 -112.5l-133 -434q-121 -99 -294.5 -164.5t-354.5 -65.5q-153 0 -269.5 47.5
t-188 132t-107 195.5t-35.5 244q0 157 47.5 315t137.5 296t210.5 245t278 169t327.5 62q246 0 367 -133q14 -16 22.5 -21t17.5 1t19 26l45 101h60l-168 -586h-60q27 227 -30.5 352t-210.5 125zM709 -141q61 0 97 -38.5t36 -94.5q0 -91 -85.5 -157.5t-215.5 -94.5l-13 59
q66 13 128.5 53t62.5 68q0 12 -10 12q-5 0 -31.5 -15.5t-50.5 -15.5q-32 0 -52 22.5t-20 57.5q0 59 45 101.5t109 42.5z" />
    <glyph glyph-name="uni0123" unicode="&#x123;" horiz-adv-x="1087" 
d="M745 1350q-61 0 -97 38.5t-36 94.5q0 91 85.5 157.5t215.5 94.5l13 -60q-65 -14 -128 -53.5t-63 -67.5q0 -12 13 -12q4 0 29.5 15.5t49.5 15.5q32 0 52 -22.5t20 -57.5q0 -59 -45 -101t-109 -42zM1130 1143q91 0 91 -62q0 -45 -30.5 -78.5t-78.5 -33.5q-33 0 -93.5 23
t-84.5 26q72 -78 72 -203q0 -121 -53.5 -224.5t-160.5 -173t-249 -81.5h4q-158 -13 -158 -72q0 -25 28.5 -42t123.5 -46l170 -51q156 -46 215 -102.5t59 -145.5q0 -84 -58.5 -151t-155.5 -109t-217.5 -64t-250.5 -22q-140 0 -252 24.5t-177.5 64t-99.5 83.5t-34 88
q0 75 96.5 127t274.5 72q-84 49 -84 116q0 47 34.5 88.5t91 70.5t117.5 48t125 29q-123 24 -202.5 107.5t-79.5 205.5q0 95 38.5 182t106 153t166 105.5t211.5 39.5q146 0 250 -72q134 80 245 80zM489 434q60 0 111.5 72t78 172t26.5 196q0 83 -17.5 122.5t-56.5 39.5
q-61 0 -112.5 -73.5t-78 -174t-26.5 -194.5q0 -84 17.5 -122t57.5 -38zM555 -164l-311 98q-9 2 -24 7.5t-21 7.5q-97 -18 -150 -58t-53 -90q0 -71 100.5 -120.5t274.5 -49.5q153 0 241 35t88 90q0 20 -32.5 37.5t-112.5 42.5z" />
    <glyph glyph-name="Hbar" unicode="&#x126;" horiz-adv-x="1853" 
d="M2134 1638l-16 -59q-106 0 -166 -41t-88 -131l-37 -119h225l-22 -78h-226l-301 -979q-29 -94 3 -133t159 -39l-18 -59h-830l14 59q100 0 157 41t85 131l172 562h-487l-172 -562q-19 -59 -17 -97.5t36.5 -56.5t109.5 -18l-15 -59h-829l16 59q116 0 178.5 41t90.5 131
l299 979h-234l25 78h231l37 119q29 94 -2 133t-158 39l19 59h829l-14 -59q-101 0 -158.5 -41t-83.5 -131l-37 -119h488l37 119q33 89 6 130.5t-137 41.5l16 59h815zM795 913h487l92 297h-487z" />
    <glyph glyph-name="hbar" unicode="&#x127;" horiz-adv-x="1294" 
d="M1212 389h60q-175 -420 -447 -420q-115 0 -166 50t-51 131q0 31 10.5 61.5t42.5 99.5t56 129q145 364 145 404q0 43 -33 43q-11 0 -26.5 -8t-41.5 -33t-56 -64t-71 -108.5t-86 -159t-102 -222t-118 -292.5h-369l397 1210h-172l17 62h176l31 94q39 116 19.5 164.5
t-112.5 48.5l15 59q184 0 336 17.5t180 44.5l24 -25l-139 -403h375l-21 -62h-376l-267 -772h27q59 133 108 230.5t107 190t111.5 150t116.5 92t128 34.5q98 0 151.5 -55t53.5 -140q0 -55 -34 -158t-66 -176.5t-86 -191.5q-3 -8 -20.5 -48.5t-25 -58t-19 -48t-16.5 -48.5
t-5 -29q0 -37 28 -37q44 0 104.5 70.5t106.5 173.5z" />
    <glyph glyph-name="Imacron" unicode="&#x12a;" horiz-adv-x="937" 
d="M455 1855l41 134h723l-39 -134h-725zM156 231l358 1176q29 94 -2 133t-158 39l19 59h841l-16 -59q-106 0 -165 -41t-87 -131l-358 -1176q-29 -94 2 -133t158 -39l-17 -59h-860l16 59q116 0 178.5 41t90.5 131z" />
    <glyph glyph-name="imacron" unicode="&#x12b;" horiz-adv-x="751" 
d="M246 1362l41 133h723l-39 -133h-725zM152 432l92 246q82 213 82 252q0 28 -23 28q-32 0 -79.5 -48t-121.5 -154h-59q91 171 219.5 274t267.5 103q81 0 122.5 -44.5t41.5 -111.5q0 -35 -14.5 -88.5t-29 -94t-48.5 -126.5l-96 -252q-80 -201 -80 -234q0 -37 29 -37
q44 0 104.5 70.5t106.5 173.5h59q-175 -420 -446 -420q-115 0 -166.5 50t-51.5 131q0 24 7 52.5t16.5 52.5t30.5 77.5t37 99.5z" />
    <glyph glyph-name="Iogonek" unicode="&#x12e;" horiz-adv-x="937" 
d="M1214 1638l-16 -59q-106 0 -165 -41t-87 -131l-358 -1176q-29 -94 2 -133t158 -39l-17 -59h-201q-123 -58 -206.5 -144t-83.5 -167q0 -84 92 -84q59 0 174 49l18 -64q-157 -114 -317 -114q-59 0 -105 14t-78 52.5t-32 97.5q0 50 21.5 94.5t62.5 80t83 63.5t101.5 52.5
t98 38.5t90.5 31h-578l16 59q116 0 178.5 41t90.5 131l358 1176q29 94 -2 133t-158 39l19 59h841z" />
    <glyph glyph-name="iogonek" unicode="&#x12f;" horiz-adv-x="751" 
d="M635 1608q72 0 122 -50t50 -122q0 -71 -50 -121.5t-122 -50.5q-71 0 -121.5 51t-50.5 121q0 72 50.5 122t121.5 50zM455 145q44 0 104.5 70.5t106.5 173.5h59q-139 -332 -336 -401q-111 -58 -183.5 -138t-72.5 -155q0 -84 92 -84q59 0 174 49l19 -63q-159 -115 -318 -115
q-59 0 -105 14t-78 52.5t-32 97.5q0 194 355 325q-94 8 -136.5 56.5t-42.5 122.5q0 24 7 52.5t16.5 52.5t30.5 77.5t37 99.5l92 246q82 213 82 252q0 28 -23 28q-32 0 -79.5 -48t-121.5 -154h-59q91 171 219.5 274t267.5 103q81 0 122.5 -44.5t41.5 -111.5
q0 -35 -14.5 -88.5t-29 -94t-48.5 -126.5l-96 -252q-80 -201 -80 -234q0 -37 29 -37z" />
    <glyph glyph-name="Idotaccent" unicode="&#x130;" horiz-adv-x="937" 
d="M844 1757q-70 0 -121 50.5t-51 121.5q0 72 50.5 122t121.5 50q72 0 122 -50t50 -122q0 -71 -50 -121.5t-122 -50.5zM156 231l358 1176q29 94 -2 133t-158 39l19 59h841l-16 -59q-106 0 -165 -41t-87 -131l-358 -1176q-29 -94 2 -133t158 -39l-17 -59h-860l16 59
q116 0 178.5 41t90.5 131z" />
    <glyph glyph-name="dotlessi" unicode="&#x131;" horiz-adv-x="751" 
d="M152 432l92 246q82 213 82 252q0 28 -23 28q-32 0 -79.5 -48t-121.5 -154h-59q91 171 219.5 274t267.5 103q81 0 122.5 -44.5t41.5 -111.5q0 -35 -14.5 -88.5t-29 -94t-48.5 -126.5l-96 -252q-80 -201 -80 -234q0 -37 29 -37q44 0 104.5 70.5t106.5 173.5h59
q-175 -420 -446 -420q-115 0 -166.5 50t-51.5 131q0 24 7 52.5t16.5 52.5t30.5 77.5t37 99.5z" />
    <glyph glyph-name="uni0136" unicode="&#x136;" horiz-adv-x="1798" 
d="M156 231l358 1176q29 94 -2 133t-158 39l19 59h841l-16 -59q-106 0 -165 -41t-87 -131l-358 -1176q-29 -94 2 -133t158 -39l-17 -59h-860l16 59q116 0 178.5 41t90.5 131zM1208 1077l232 -844q29 -100 82 -137t159 -37l-20 -59h-832l13 59q122 0 149.5 32.5t1.5 127.5
l-178 666l514 475q103 97 103 156q0 63 -109 63l18 59h666l-14 -59q-181 0 -332 -125zM741 -141q61 0 97 -38.5t36 -94.5q0 -91 -85.5 -157.5t-215.5 -94.5l-12 59q66 13 128.5 53t62.5 68q0 12 -11 12q-5 0 -31.5 -15.5t-50.5 -15.5q-32 0 -51.5 22t-19.5 58
q0 59 44.5 101.5t108.5 42.5z" />
    <glyph glyph-name="uni0137" unicode="&#x137;" horiz-adv-x="1337" 
d="M1075 184q41 0 89 54t89 147h60q-40 -92 -81.5 -161t-96 -130t-123.5 -93t-150 -32q-57 0 -99 20t-69.5 54t-45 88t-25.5 114t-11 140q-5 60 -2 135q88 17 155.5 49t104.5 66t61 73.5t31 67t7 49.5q0 62 -49 62q-15 0 -36.5 -7t-58 -30.5t-76.5 -61.5t-91.5 -106.5
t-103 -158t-111 -225t-115.5 -298.5h-369l449 1366q39 116 19.5 164.5t-112.5 48.5l15 59q185 0 335.5 17.5t180.5 44.5l24 -25l-424 -1237h19q131 311 314.5 503t350.5 192q93 0 141 -52t48 -118q0 -38 -12 -80.5t-39.5 -91t-68 -91.5t-103 -83t-138.5 -66
q2 -29 15.5 -120.5t15.5 -108.5q11 -73 30.5 -105.5t55.5 -32.5zM489 -141q61 0 97.5 -38.5t36.5 -94.5q0 -91 -85.5 -157.5t-215.5 -94.5l-13 59q66 13 128.5 53t62.5 68q0 12 -11 12q-5 0 -31 -15.5t-50 -15.5q-32 0 -52 22.5t-20 57.5q0 59 44.5 101.5t108.5 42.5z" />
    <glyph glyph-name="Lacute" unicode="&#x139;" horiz-adv-x="1374" 
d="M846 1765h-101l220 396h288zM1245 1638l-18 -59q-117 0 -180 -41t-91 -131l-340 -1116q-16 -53 -17.5 -84.5t14.5 -47.5t40.5 -21t69.5 -5h106q120 0 224 87.5t209 285.5l71 -23l-243 -483h-1219l16 59q117 0 181 41t90 131l358 1176q19 59 13.5 97.5t-47.5 56.5t-130 18
l19 59h874z" />
    <glyph glyph-name="lacute" unicode="&#x13a;" horiz-adv-x="692" 
d="M690 1753h-100l219 395h291zM836 1700l24 -25l-407 -1255q-72 -199 -72 -238q0 -21 6.5 -29t22.5 -8q44 0 103.5 70t107.5 174h57q-175 -420 -445 -420q-115 0 -166 50t-51 131q0 20 2.5 38t10.5 48t13.5 47.5t23.5 70t28 82.5l303 930q39 116 21 164.5t-111 48.5l15 59
q408 0 514 62z" />
    <glyph glyph-name="uni013B" unicode="&#x13b;" horiz-adv-x="1374" 
d="M1245 1638l-18 -59q-117 0 -180 -41t-91 -131l-340 -1116q-16 -53 -17.5 -84.5t14.5 -47.5t40.5 -21t69.5 -5h106q120 0 224 87.5t209 285.5l71 -23l-243 -483h-1219l16 59q117 0 181 41t90 131l358 1176q19 59 13.5 97.5t-47.5 56.5t-130 18l19 59h874zM582 -141
q61 0 86.5 -38.5t11.5 -94.5q-25 -91 -129 -157.5t-242 -94.5l6 59q68 14 141.5 53.5t80.5 67.5q3 12 -9 12q-5 0 -34.5 -15.5t-53.5 -15.5q-32 0 -46 22.5t-5 57.5q15 59 72 101.5t121 42.5z" />
    <glyph glyph-name="uni013C" unicode="&#x13c;" horiz-adv-x="692" 
d="M836 1700l24 -25l-407 -1255q-72 -199 -72 -238q0 -21 6.5 -29t22.5 -8q44 0 103.5 70t107.5 174h57q-175 -420 -445 -420q-115 0 -166 50t-51 131q0 20 2.5 38t10.5 48t13.5 47.5t23.5 70t28 82.5l303 930q39 116 21 164.5t-111 48.5l15 59q408 0 514 62zM111 -141
q61 0 97 -38.5t36 -94.5q0 -91 -85.5 -157.5t-215.5 -94.5l-13 59q66 13 128.5 53t62.5 68q0 12 -10 12q-5 0 -31.5 -15.5t-50.5 -15.5q-32 0 -52 22.5t-20 57.5q0 59 45 101.5t109 42.5z" />
    <glyph glyph-name="Lcaron" unicode="&#x13d;" horiz-adv-x="1374" 
d="M1376 1260h-96l131 421h262zM1245 1638l-18 -59q-117 0 -180 -41t-91 -131l-340 -1116q-16 -53 -17.5 -84.5t14.5 -47.5t40.5 -21t69.5 -5h106q120 0 224 87.5t209 285.5l71 -23l-243 -483h-1219l16 59q117 0 181 41t90 131l358 1176q19 59 13.5 97.5t-47.5 56.5t-130 18
l19 59h874z" />
    <glyph glyph-name="lcaron" unicode="&#x13e;" horiz-adv-x="692" 
d="M836 1700l24 -25l-407 -1255q-72 -199 -72 -238q0 -21 6.5 -29t22.5 -8q44 0 103.5 70t107.5 174h57q-175 -420 -445 -420q-115 0 -166 50t-51 131q0 20 2.5 38t10.5 48t13.5 47.5t23.5 70t28 82.5l303 930q39 116 21 164.5t-111 48.5l15 59q408 0 514 62zM973 1260h-96
l131 421h262z" />
    <glyph glyph-name="Lslash" unicode="&#x141;" horiz-adv-x="1378" 
d="M1266 506l71 -23l-243 -483h-1221l18 59q117 0 180 41t91 131l125 410l-201 -90l-29 63l256 115l207 678q19 59 13.5 97.5t-47.5 56.5t-130 18l17 59h876l-18 -59q-117 0 -179.5 -40.5t-90.5 -131.5l-138 -449l391 177l29 -62l-446 -201l-176 -581q-16 -53 -18 -84.5
t13.5 -47.5t39.5 -21t69 -5h109q120 0 223.5 87.5t208.5 285.5z" />
    <glyph glyph-name="lslash" unicode="&#x142;" horiz-adv-x="690" 
d="M856 967l-256 -97l-147 -450q-72 -199 -72 -238q0 -21 6.5 -29t22.5 -8q44 0 103.5 70t107.5 174h57q-175 -420 -445 -420q-115 0 -166 50t-51 131q0 20 2.5 38t10.5 48t13.5 47.5t23.5 70t28 82.5l92 283l-196 -74l-19 55l238 88l188 578q39 116 21 164.5t-111 48.5
l15 59q408 0 514 62l24 -25l-237 -733l213 80z" />
    <glyph glyph-name="Nacute" unicode="&#x143;" horiz-adv-x="1617" 
d="M1370 2161h291l-410 -396h-100zM1929 1638l-16 -59q-116 0 -178 -41t-90 -131l-431 -1411h-239l-385 1241l-309 -1006q-28 -94 8.5 -133t175.5 -39l-19 -59h-575l16 59q116 0 178.5 41t90.5 131l368 1211q-28 77 -62.5 107t-82.5 30l10 59h529l337 -1044h13l250 813
q29 94 -9 133t-180 39l19 59h581z" />
    <glyph glyph-name="nacute" unicode="&#x144;" horiz-adv-x="1351" 
d="M924 1272h-101l219 395h291zM381 0h-369l236 676q78 214 78 254q0 28 -23 28q-32 0 -79.5 -48t-121.5 -154h-59q91 171 219.5 274t267.5 103q81 0 122.5 -44.5t41.5 -111.5q0 -21 -4.5 -44.5t-17.5 -60t-20.5 -55.5t-30.5 -73t-31 -72l-90 -234h24q49 102 82 168
t76.5 147t77.5 131.5t76.5 103.5t81 81.5t84 47t92.5 18.5q98 0 151 -55t53 -140q0 -126 -188 -526q-7 -17 -25.5 -62t-29 -71t-20 -56t-9.5 -43q0 -37 29 -37q44 0 103.5 70t107.5 174h59q-34 -82 -74 -150t-95 -132.5t-126 -101t-151 -36.5q-115 0 -166 50t-51 131
q0 31 10 61t42 100t56 129q145 364 145 404q0 43 -32 43q-11 0 -26.5 -8t-40.5 -33t-54.5 -64t-70.5 -108.5t-86 -159t-103 -222t-121 -292.5z" />
    <glyph glyph-name="uni0145" unicode="&#x145;" horiz-adv-x="1617" 
d="M1929 1638l-16 -59q-116 0 -178 -41t-90 -131l-431 -1411h-239l-385 1241l-309 -1006q-28 -94 8.5 -133t175.5 -39l-19 -59h-575l16 59q116 0 178.5 41t90.5 131l368 1211q-28 77 -62.5 107t-82.5 30l10 59h529l337 -1044h13l250 813q29 94 -9 133t-180 39l19 59h581z
M651 -141q61 0 97 -38.5t36 -94.5q0 -91 -85.5 -157.5t-215.5 -94.5l-12 59q66 13 128.5 53t62.5 68q0 12 -11 12q-5 0 -31.5 -15.5t-50.5 -15.5q-32 0 -51.5 22t-19.5 58q0 59 44.5 101.5t108.5 42.5z" />
    <glyph glyph-name="uni0146" unicode="&#x146;" horiz-adv-x="1351" 
d="M381 0h-369l236 676q78 214 78 254q0 28 -23 28q-32 0 -79.5 -48t-121.5 -154h-59q91 171 219.5 274t267.5 103q81 0 122.5 -44.5t41.5 -111.5q0 -21 -4.5 -44.5t-17.5 -60t-20.5 -55.5t-30.5 -73t-31 -72l-90 -234h24q49 102 82 168t76.5 147t77.5 131.5t76.5 103.5
t81 81.5t84 47t92.5 18.5q98 0 151 -55t53 -140q0 -126 -188 -526q-7 -17 -25.5 -62t-29 -71t-20 -56t-9.5 -43q0 -37 29 -37q44 0 103.5 70t107.5 174h59q-34 -82 -74 -150t-95 -132.5t-126 -101t-151 -36.5q-115 0 -166 50t-51 131q0 31 10 61t42 100t56 129
q145 364 145 404q0 43 -32 43q-11 0 -26.5 -8t-40.5 -33t-54.5 -64t-70.5 -108.5t-86 -159t-103 -222t-121 -292.5zM504 -141q61 0 97 -38.5t36 -94.5q0 -91 -85.5 -157.5t-215.5 -94.5l-12 59q66 13 128 53t62 68q0 12 -10 12q-5 0 -31.5 -15.5t-50.5 -15.5q-32 0 -52 22.5
t-20 57.5q0 59 45 101.5t109 42.5z" />
    <glyph glyph-name="Ncaron" unicode="&#x147;" horiz-adv-x="1617" 
d="M1028 1765l-35 396h82l139 -244l320 244h102l-331 -396h-277zM1929 1638l-16 -59q-116 0 -178 -41t-90 -131l-431 -1411h-239l-385 1241l-309 -1006q-28 -94 8.5 -133t175.5 -39l-19 -59h-575l16 59q116 0 178.5 41t90.5 131l368 1211q-28 77 -62.5 107t-82.5 30l10 59
h529l337 -1044h13l250 813q29 94 -9 133t-180 39l19 59h581z" />
    <glyph glyph-name="ncaron" unicode="&#x148;" horiz-adv-x="1351" 
d="M700 1272l-34 395h82l139 -244l319 244h103l-332 -395h-277zM1266 389h59q-34 -82 -74 -150t-95 -132.5t-126 -101t-151 -36.5q-115 0 -166 50t-51 131q0 31 10 61t42 100t56 129q145 364 145 404q0 43 -32 43q-11 0 -26.5 -8t-40.5 -33t-54.5 -64t-70.5 -108.5t-86 -159
t-103 -222t-121 -292.5h-369l236 676q78 214 78 254q0 28 -23 28q-32 0 -79.5 -48t-121.5 -154h-59q91 171 219.5 274t267.5 103q81 0 122.5 -44.5t41.5 -111.5q0 -21 -4.5 -44.5t-17.5 -60t-20.5 -55.5t-30.5 -73t-31 -72l-90 -234h24q49 102 82 168t76.5 147t77.5 131.5
t76.5 103.5t81 81.5t84 47t92.5 18.5q98 0 151 -55t53 -140q0 -126 -188 -526q-7 -17 -25.5 -62t-29 -71t-20 -56t-9.5 -43q0 -37 29 -37q44 0 103.5 70t107.5 174z" />
    <glyph glyph-name="Eng" unicode="&#x14a;" horiz-adv-x="1617" 
d="M1929 1638l-16 -59q-116 0 -178 -41t-90 -131l-431 -1411l-14 -45q-65 -217 -177.5 -324.5t-297.5 -107.5q-268 0 -268 125q0 78 53 139t119 61q41 0 71.5 -21.5t48.5 -52t33.5 -61.5t35.5 -52.5t46 -21.5q57 0 114 84t122 277h-125l-385 1241l-309 -1006
q-28 -94 8.5 -133t175.5 -39l-19 -59h-575l16 59q116 0 178.5 41t90.5 131l368 1211q-28 77 -62.5 107t-82.5 30l10 59h529l337 -1044h13l250 813q29 94 -9 133t-180 39l19 59h581z" />
    <glyph glyph-name="eng" unicode="&#x14b;" horiz-adv-x="1318" 
d="M203 -475q-76 0 -115 34t-39 93q0 68 54.5 123t119.5 55q38 0 69 -22t48.5 -48.5t41 -48.5t48.5 -22q33 0 100.5 144t214.5 501q7 19 26 65.5t27.5 68.5t25 64.5t25 66t21 59t19 58t13.5 48.5t10 45.5t3 34.5q0 43 -32 43q-11 0 -26.5 -8t-40.5 -33t-54.5 -64
t-70.5 -108.5t-86 -159t-103 -222t-121 -292.5h-369l236 676q78 214 78 254q0 28 -23 28q-32 0 -79.5 -48t-121.5 -154h-59q91 171 219.5 274t267.5 103q81 0 122.5 -44.5t41.5 -111.5q0 -21 -4.5 -44.5t-17.5 -60t-20.5 -55.5t-30.5 -73t-31 -72l-90 -234h24q49 102 82 168
t76.5 147t77.5 131.5t76.5 103.5t81 81.5t84 47t92.5 18.5q98 0 151 -55t53 -140q0 -160 -172 -584q-78 -187 -171 -334.5t-206.5 -261t-252.5 -174.5t-293 -61z" />
    <glyph glyph-name="Omacron" unicode="&#x14c;" horiz-adv-x="1603" 
d="M834 1855l40 134h723l-38 -134h-725zM682 -31q-116 0 -210.5 34t-159 92t-108 138.5t-63.5 171t-20 191.5q0 199 75 394t201 345t306 243t376 93q144 0 254 -51t175 -139.5t97.5 -198.5t32.5 -238q0 -199 -74.5 -394t-200.5 -345t-305.5 -243t-375.5 -93zM686 84
q94 0 194 133t173 323.5t120.5 402.5t47.5 368q0 245 -144 245q-77 0 -158 -86.5t-147 -225.5t-119 -301.5t-82.5 -325.5t-29.5 -287t35 -185t110 -61z" />
    <glyph glyph-name="omacron" unicode="&#x14d;" horiz-adv-x="1181" 
d="M496 1362l41 133h723l-39 -133h-725zM477 -33q-120 0 -217.5 51.5t-156 151.5t-58.5 229q0 192 87.5 362.5t240.5 274t332 103.5q185 0 308.5 -118.5t123.5 -313.5q0 -192 -87.5 -362t-240.5 -274t-332 -104zM459 90q73 0 153.5 138t131.5 326t51 335q0 129 -70 129
q-73 0 -154 -139t-132.5 -327t-51.5 -333q0 -129 72 -129z" />
    <glyph glyph-name="Ohungarumlaut" unicode="&#x150;" horiz-adv-x="1603" 
d="M1081 1765h-96l219 396h195zM1298 1765h-96l258 396h215zM682 -31q-116 0 -210.5 34t-159 92t-108 138.5t-63.5 171t-20 191.5q0 199 75 394t201 345t306 243t376 93q144 0 254 -51t175 -139.5t97.5 -198.5t32.5 -238q0 -199 -74.5 -394t-200.5 -345t-305.5 -243
t-375.5 -93zM686 84q94 0 194 133t173 323.5t120.5 402.5t47.5 368q0 245 -144 245q-77 0 -158 -86.5t-147 -225.5t-119 -301.5t-82.5 -325.5t-29.5 -287t35 -185t110 -61z" />
    <glyph glyph-name="ohungarumlaut" unicode="&#x151;" horiz-adv-x="1181" 
d="M741 1272h-96l219 395h195zM958 1272h-96l258 395h215zM477 -33q-120 0 -217.5 51.5t-156 151.5t-58.5 229q0 192 87.5 362.5t240.5 274t332 103.5q185 0 308.5 -118.5t123.5 -313.5q0 -192 -87.5 -362t-240.5 -274t-332 -104zM459 90q73 0 153.5 138t131.5 326t51 335
q0 129 -70 129q-73 0 -154 -139t-132.5 -327t-51.5 -333q0 -129 72 -129z" />
    <glyph glyph-name="OE" unicode="&#x152;" horiz-adv-x="2160" 
d="M666 -14q-117 0 -210.5 32t-155 87t-102.5 132.5t-59 164t-18 186.5q0 160 44.5 316.5t130.5 292t202 239.5t268.5 163.5t320.5 59.5q51 0 192.5 -10.5t213.5 -10.5h811l-129 -450h-70q75 317 -137 317h-153q-89 0 -115 -86l-156 -506h162q77 0 127.5 41t85.5 136h57
l-149 -500h-60q32 122 12 174.5t-102 52.5h-161l-162 -532q-15 -51 -19 -81t6.5 -46t29 -20.5t54.5 -4.5h152q51 0 93.5 7.5t90.5 29.5t90.5 59t88.5 98t90 144l69 -27l-211 -444h-671q-103 0 -279 -7t-272 -7zM698 74q69 0 125 36.5t82 120.5l361 1176q25 86 -5.5 130
t-103.5 44q-84 0 -167.5 -62.5t-151.5 -165t-126.5 -235.5t-98.5 -273t-62.5 -278t-22.5 -250q0 -125 39.5 -184t130.5 -59z" />
    <glyph glyph-name="oe" unicode="&#x153;" horiz-adv-x="1638" 
d="M1231 178q84 0 157.5 64t149.5 207h53q-97 -239 -231 -360.5t-289 -121.5q-192 0 -270 172q-81 -81 -180 -126.5t-203 -45.5q-164 0 -266.5 118.5t-102.5 324.5q0 192 83.5 359.5t226.5 267.5t309 102q125 1 207 -56t122 -159q89 98 196.5 154.5t213.5 56.5
q111 0 178.5 -62.5t67.5 -179.5q0 -89 -51.5 -165t-136.5 -127t-183.5 -83.5t-204.5 -46.5q-4 -54 -4 -76q0 -112 43 -164.5t115 -52.5zM453 90q56 0 117 84.5t106.5 207t75.5 262t30 245.5q0 139 -71 139q-75 0 -153 -139.5t-125.5 -326.5t-47.5 -331q0 -73 16.5 -107
t51.5 -34zM1374 1028q-58 0 -117 -72.5t-100 -176t-65 -216.5q142 47 238.5 150t96.5 219q0 96 -53 96z" />
    <glyph glyph-name="Racute" unicode="&#x154;" horiz-adv-x="1622" 
d="M1151 1765h-100l219 396h291zM-129 0l16 59q116 0 178.5 41t90.5 131l358 1176q29 94 -2 133t-158 39l19 59h760q485 0 485 -350q0 -206 -186 -333t-490 -132l-8 -20q119 -10 210.5 -91.5t133.5 -246.5l39 -146q17 -68 34 -109.5t45 -79t71 -54.5t104 -17l-19 -59h-305
q-75 0 -128.5 11.5t-101 41.5t-79.5 87.5t-51 144.5l-86 385q-22 92 -64 98l-162 -537q-28 -94 10.5 -133t180.5 -39l-21 -59h-874zM950 1468l-164 -538q12 -2 37 -2q180 9 291 119.5t111 273.5q0 96 -42 149.5t-120 53.5q-96 0 -113 -56z" />
    <glyph glyph-name="racute" unicode="&#x155;" horiz-adv-x="1050" 
d="M891 1272h-100l219 395h290zM391 0h-368l225 676q78 202 78 254q0 28 -23 28q-32 0 -79.5 -48t-121.5 -154h-59q91 171 219.5 274t267.5 103q81 0 122.5 -44.5t41.5 -111.5q0 -21 -4.5 -44.5t-17.5 -60t-20.5 -55.5t-30.5 -73t-31 -72l-90 -234h24q40 87 66.5 142.5
t64 130t65.5 121.5t63.5 101.5t67.5 87.5t68 62.5t73.5 42.5t76.5 13q98 0 98 -103q0 -76 -54 -141.5t-114 -65.5q-29 0 -67 11.5t-58 11.5q-22 0 -48.5 -16t-71.5 -70.5t-95 -143t-120.5 -249t-147.5 -373.5z" />
    <glyph glyph-name="uni0156" unicode="&#x156;" horiz-adv-x="1622" 
d="M-129 0l16 59q116 0 178.5 41t90.5 131l358 1176q29 94 -2 133t-158 39l19 59h760q485 0 485 -350q0 -206 -186 -333t-490 -132l-8 -20q119 -10 210.5 -91.5t133.5 -246.5l39 -146q17 -68 34 -109.5t45 -79t71 -54.5t104 -17l-19 -59h-305q-75 0 -128.5 11.5t-101 41.5
t-79.5 87.5t-51 144.5l-86 385q-22 92 -64 98l-162 -537q-28 -94 10.5 -133t180.5 -39l-21 -59h-874zM950 1468l-164 -538q12 -2 37 -2q180 9 291 119.5t111 273.5q0 96 -42 149.5t-120 53.5q-96 0 -113 -56zM809 -141q61 0 97 -38.5t36 -94.5q0 -91 -85.5 -157.5
t-215.5 -94.5l-12 59q66 13 128 53t62 68q0 12 -10 12q-5 0 -31.5 -15.5t-50.5 -15.5q-32 0 -52 22.5t-20 57.5q0 59 45 101.5t109 42.5z" />
    <glyph glyph-name="uni0157" unicode="&#x157;" horiz-adv-x="1050" 
d="M391 0h-368l225 676q78 202 78 254q0 28 -23 28q-32 0 -79.5 -48t-121.5 -154h-59q91 171 219.5 274t267.5 103q81 0 122.5 -44.5t41.5 -111.5q0 -21 -4.5 -44.5t-17.5 -60t-20.5 -55.5t-30.5 -73t-31 -72l-90 -234h24q40 87 66.5 142.5t64 130t65.5 121.5t63.5 101.5
t67.5 87.5t68 62.5t73.5 42.5t76.5 13q98 0 98 -103q0 -76 -54 -141.5t-114 -65.5q-29 0 -67 11.5t-58 11.5q-22 0 -48.5 -16t-71.5 -70.5t-95 -143t-120.5 -249t-147.5 -373.5zM166 -141q61 0 97 -38.5t36 -94.5q0 -91 -85.5 -157.5t-215.5 -94.5l-12 59q66 13 128 53
t62 68q0 12 -10 12q-5 0 -31.5 -15.5t-50.5 -15.5q-32 0 -52 22.5t-20 57.5q0 59 45 101.5t109 42.5z" />
    <glyph glyph-name="Rcaron" unicode="&#x158;" horiz-adv-x="1622" 
d="M926 1765l-35 396h82l139 -244l320 244h102l-332 -396h-276zM1278 465l39 -146q17 -68 34 -109.5t45 -79t71 -54.5t104 -17l-19 -59h-305q-75 0 -128.5 11.5t-101 41.5t-79.5 87.5t-51 144.5l-86 385q-22 92 -64 98l-162 -537q-28 -94 10.5 -133t180.5 -39l-21 -59h-874
l16 59q116 0 178.5 41t90.5 131l358 1176q29 94 -2 133t-158 39l19 59h760q485 0 485 -350q0 -206 -186 -333t-490 -132l-8 -20q119 -10 210.5 -91.5t133.5 -246.5zM823 928q180 9 291 119.5t111 273.5q0 96 -42 149.5t-120 53.5q-96 0 -113 -56l-164 -538q12 -2 37 -2z" />
    <glyph glyph-name="rcaron" unicode="&#x159;" horiz-adv-x="1050" 
d="M668 1272l-35 395h82l139 -244l320 244h102l-332 -395h-276zM1069 1139q98 0 98 -103q0 -76 -54 -141.5t-114 -65.5q-29 0 -67 11.5t-58 11.5q-22 0 -48.5 -16t-71.5 -70.5t-95 -143t-120.5 -249t-147.5 -373.5h-368l225 676q78 202 78 254q0 28 -23 28q-32 0 -79.5 -48
t-121.5 -154h-59q91 171 219.5 274t267.5 103q81 0 122.5 -44.5t41.5 -111.5q0 -21 -4.5 -44.5t-17.5 -60t-20.5 -55.5t-30.5 -73t-31 -72l-90 -234h24q40 87 66.5 142.5t64 130t65.5 121.5t63.5 101.5t67.5 87.5t68 62.5t73.5 42.5t76.5 13z" />
    <glyph glyph-name="Sacute" unicode="&#x15a;" horiz-adv-x="1122" 
d="M928 1765h-101l220 396h290zM537 -16q-110 0 -197 35.5t-176 109.5q-49 41 -76 -25l-41 -104h-65l165 641h60q-12 -86 1 -176t46 -166t93.5 -124t137.5 -48q95 0 139 56.5t44 133.5q0 48 -21.5 104t-45 95t-72.5 115q-11 17 -17 26l-129 203q-58 90 -85.5 163.5
t-27.5 162.5q0 100 38.5 189t105.5 155t163 104.5t207 38.5q188 0 334 -127q24 -20 36.5 -16t23.5 31l41 104h59l-139 -518h-60q11 182 -65.5 286.5t-192.5 104.5q-87 0 -131.5 -54.5t-44.5 -133.5q0 -62 26.5 -119t92.5 -156l108 -168q5 -8 34 -52t35.5 -54t29 -47.5
t29 -53t21 -49t19 -56.5t9 -54.5t4.5 -63.5q0 -105 -35 -195t-100 -156t-163 -104t-218 -38z" />
    <glyph glyph-name="sacute" unicode="&#x15b;" horiz-adv-x="864" 
d="M698 1274h-100l219 395h291zM324 -33q-84 0 -164.5 24.5t-137.5 74.5t-57 114q0 58 41.5 98.5t99.5 40.5q41 0 65 -22t50 -78q35 -81 70.5 -115t77.5 -34q44 0 67 28t23 80q0 42 -20 85t-40.5 68t-66.5 77l-41 47q-67 77 -101 143.5t-34 153.5q0 115 65.5 205t173.5 138
t236 48q147 0 220 -50t73 -116q0 -59 -42.5 -100t-99.5 -41q-43 0 -66.5 27.5t-39.5 86.5q-29 94 -113 94q-44 0 -76 -30.5t-32 -83.5t30.5 -103t96.5 -129l32 -43q72 -85 110 -155t38 -152q0 -154 -127 -267.5t-311 -113.5z" />
    <glyph glyph-name="Scedilla" unicode="&#x15e;" horiz-adv-x="1122" 
d="M1178 1561l41 104h59l-139 -518h-60q11 182 -65.5 286.5t-192.5 104.5q-87 0 -131.5 -54.5t-44.5 -133.5q0 -62 26.5 -119t92.5 -156l108 -168q5 -8 34 -52t35.5 -54t29 -47.5t29 -53t21 -49t19 -56.5t9 -54.5t4.5 -63.5q0 -105 -35 -195t-100 -156t-163 -104t-218 -38
h-23l-39 -74q100 0 163.5 -38.5t63.5 -125.5q0 -106 -115.5 -180t-320.5 -74q-101 0 -180 23l27 57q35 -4 102 -4q71 0 122 15.5t76.5 41.5t36.5 53t11 58q0 94 -142 94l91 168q-124 27 -246 131q-49 41 -76 -25l-41 -104h-65l165 641h60q-12 -86 1 -176t46 -166t93.5 -124
t137.5 -48q95 0 139 56.5t44 133.5q0 48 -21.5 104t-45 95t-72.5 115q-11 17 -17 26l-129 203q-58 90 -85.5 163.5t-27.5 162.5q0 100 38.5 189t105.5 155t163 104.5t207 38.5q188 0 334 -127q24 -20 36.5 -16t23.5 31z" />
    <glyph glyph-name="scedilla" unicode="&#x15f;" horiz-adv-x="864" 
d="M631 1143q147 0 220 -50t73 -116q0 -59 -42.5 -100t-99.5 -41q-43 0 -66.5 27.5t-39.5 86.5q-29 94 -113 94q-44 0 -76 -30.5t-32 -83.5t30.5 -103t96.5 -129l32 -43q72 -85 110 -155t38 -152q0 -96 -52.5 -180.5t-147.5 -139t-210 -61.5l-22 -41q100 0 163.5 -38.5
t63.5 -125.5q0 -106 -115.5 -180t-320.5 -74q-101 0 -180 23l26 57q35 -4 103 -4q71 0 121.5 15.5t76 41.5t36.5 53t11 58q0 50 -36 72t-105 22l68 127q-113 16 -195 71.5t-82 135.5q0 58 41.5 98.5t99.5 40.5q41 0 65 -22t50 -78q35 -81 70.5 -115t77.5 -34q44 0 67 28
t23 80q0 42 -20 85t-40.5 68t-66.5 77l-41 47q-67 77 -101 143.5t-34 153.5q0 115 65.5 205t173.5 138t236 48z" />
    <glyph glyph-name="Scaron" unicode="&#x160;" horiz-adv-x="1122" 
d="M705 1765l-35 396h82l139 -244l319 244h103l-332 -396h-276zM1178 1561l41 104h59l-139 -518h-60q11 182 -65.5 286.5t-192.5 104.5q-87 0 -131.5 -54.5t-44.5 -133.5q0 -62 26.5 -119t92.5 -156l108 -168q5 -8 34 -52t35.5 -54t29 -47.5t29 -53t21 -49t19 -56.5t9 -54.5
t4.5 -63.5q0 -105 -35 -195t-100 -156t-163 -104t-218 -38q-110 0 -197 35.5t-176 109.5q-49 41 -76 -25l-41 -104h-65l165 641h60q-12 -86 1 -176t46 -166t93.5 -124t137.5 -48q95 0 139 56.5t44 133.5q0 48 -21.5 104t-45 95t-72.5 115q-11 17 -17 26l-129 203
q-58 90 -85.5 163.5t-27.5 162.5q0 100 38.5 189t105.5 155t163 104.5t207 38.5q188 0 334 -127q24 -20 36.5 -16t23.5 31z" />
    <glyph glyph-name="scaron" unicode="&#x161;" horiz-adv-x="864" 
d="M473 1274l-35 395h82l139 -244l320 244h102l-331 -395h-277zM631 1143q147 0 220 -50t73 -116q0 -59 -42.5 -100t-99.5 -41q-43 0 -66.5 27.5t-39.5 86.5q-29 94 -113 94q-44 0 -76 -30.5t-32 -83.5t30.5 -103t96.5 -129l32 -43q72 -85 110 -155t38 -152
q0 -154 -127 -267.5t-311 -113.5q-84 0 -164.5 24.5t-137.5 74.5t-57 114q0 58 41.5 98.5t99.5 40.5q41 0 65 -22t50 -78q35 -81 70.5 -115t77.5 -34q44 0 67 28t23 80q0 42 -20 85t-40.5 68t-66.5 77l-41 47q-67 77 -101 143.5t-34 153.5q0 115 65.5 205t173.5 138t236 48z
" />
    <glyph glyph-name="uni0162" unicode="&#x162;" horiz-adv-x="1409" 
d="M236 1188l153 450h1305l-109 -450h-74q39 175 5 246t-148 71h-86q-71 0 -92 -67l-371 -1207q-19 -59 -12.5 -97.5t51.5 -56.5t139 -18l-18 -59h-410l-49 -90q47 0 86.5 -8.5t72.5 -26.5t52 -51t19 -78q0 -106 -116.5 -180t-322.5 -74q-102 0 -178 23l25 57q35 -4 104 -4
q133 0 188.5 50t55.5 118q0 94 -139 94l90 170h-353l17 59q116 0 178 41t90 131l371 1205q9 32 -5 50.5t-46 18.5h-52q-121 0 -203 -79t-145 -238h-73z" />
    <glyph glyph-name="uni0163" unicode="&#x163;" horiz-adv-x="786" 
d="M856 1014h-192l-191 -537q-25 -71 -36.5 -104.5t-22.5 -77t-11 -70.5q0 -25 9 -38t34 -13q116 0 250 254h60q-203 -459 -520 -459h-3l-20 -41q100 0 163.5 -38.5t63.5 -125.5q0 -106 -115.5 -179.5t-320.5 -73.5q-104 0 -180 22l26 57q35 -4 103 -4q71 0 122 15.5
t76.5 41.5t36.5 53t11 58q0 94 -142 94l74 138q-104 42 -104 174q0 98 86 332l188 522h-137l39 86q298 31 485 289h109l-107 -287h195z" />
    <glyph glyph-name="Tcaron" unicode="&#x164;" horiz-adv-x="1409" 
d="M889 1765l-35 396h82l139 -244l320 244h102l-332 -396h-276zM236 1188l153 450h1305l-109 -450h-74q39 175 5 246t-148 71h-86q-71 0 -92 -67l-371 -1207q-19 -59 -12.5 -97.5t51.5 -56.5t139 -18l-18 -59h-875l17 59q116 0 178 41t90 131l371 1205q9 32 -5 50.5
t-46 18.5h-52q-121 0 -203 -79t-145 -238h-73z" />
    <glyph glyph-name="tcaron" unicode="&#x165;" horiz-adv-x="786" 
d="M967 1208h-97l131 422h263zM664 1014l-191 -537q-25 -71 -36.5 -104.5t-22.5 -77t-11 -70.5q0 -25 9 -38t34 -13q116 0 250 254h60q-203 -459 -520 -459q-106 0 -157.5 50t-51.5 141q0 98 86 332l188 522h-137l39 86q298 31 485 289h109l-107 -287h195l-29 -88h-192z" />
    <glyph glyph-name="Tbar" unicode="&#x166;" horiz-adv-x="1409" 
d="M236 1188l153 450h1305l-109 -450h-74q39 175 5 246t-148 71h-86q-71 0 -92 -67l-178 -582h338l-23 -80h-340l-168 -545q-19 -59 -12.5 -97.5t51.5 -56.5t139 -18l-18 -59h-875l17 59q116 0 178 41t90 131l168 545h-336l25 80h336l178 580q9 32 -5 50.5t-46 18.5h-52
q-121 0 -203 -79t-145 -238h-73z" />
    <glyph glyph-name="tbar" unicode="&#x167;" horiz-adv-x="790" 
d="M891 1102l-29 -88h-194l-80 -226h209l-27 -86h-211l-80 -225q-28 -77 -38 -106t-21.5 -74t-11.5 -72q0 -25 9 -38t34 -13q60 0 124 68t125 186h60q-94 -216 -224 -337.5t-294 -121.5q-107 0 -159 50t-52 141q0 58 21.5 133.5t66.5 198.5l76 210h-125l26 86h129l80 226
h-137l41 86q296 31 483 289h111l-109 -287h197z" />
    <glyph glyph-name="Umacron" unicode="&#x16a;" horiz-adv-x="1613" 
d="M979 1855l41 134h723l-39 -134h-725zM715 -33q-332 0 -446.5 178t-14.5 502l231 760q19 59 15.5 97.5t-41.5 56.5t-119 18l16 59h844l-18 -59q-114 0 -176.5 -41t-90.5 -131l-245 -807q-33 -109 -43 -195.5t4.5 -153.5t63.5 -103.5t130 -36.5q155 0 270 125.5t197 394.5
l238 776q19 59 13.5 97.5t-47.5 56.5t-130 18l16 59h531l-15 -59q-93 0 -148 -41t-81 -131l-239 -784q-25 -84 -50 -150.5t-60.5 -136.5t-75 -122.5t-93 -101t-116.5 -79t-144 -48.5t-176 -18z" />
    <glyph glyph-name="umacron" unicode="&#x16b;" horiz-adv-x="1353" 
d="M514 1362l41 133h723l-39 -133h-725zM260 -33q-97 0 -151 54t-54 133q0 152 181 528q4 9 17 40.5t18.5 44.5t16 39.5t15.5 41t11.5 33.5t9 31t2.5 20q0 26 -23 26q-33 0 -80.5 -48t-120.5 -154h-59q91 171 219.5 274t267.5 103q81 0 122.5 -44.5t41.5 -111.5
q0 -21 -4.5 -45.5t-17.5 -60t-22 -58.5t-31.5 -76.5t-32.5 -79.5t-27 -66.5t-26 -63t-22.5 -56t-21 -53t-17 -44.5t-15 -40.5t-10.5 -32t-7 -26.5t-2 -17q0 -43 33 -43q13 0 30 8.5t45.5 36.5t61 71.5t77 121t91.5 178.5q152 322 154 471h413l-239 -686q-5 -14 -18.5 -50.5
t-21 -58t-17.5 -50t-14.5 -47.5t-4.5 -30q0 -22 7 -29.5t22 -7.5q44 0 104.5 70.5t106.5 173.5h59q-173 -420 -444 -420q-116 0 -167.5 49.5t-51.5 130.5q0 31 10 61t39.5 97t50.5 121l92 236h-25q-52 -112 -92 -192.5t-88 -165.5t-91.5 -141.5t-92 -103.5t-100.5 -69.5
t-107 -22.5z" />
    <glyph glyph-name="Uring" unicode="&#x16e;" horiz-adv-x="1613" 
d="M1335 1774q-86 0 -134 49t-48 129q0 110 84 189t197 79q84 0 132 -49t48 -127q0 -109 -83.5 -189.5t-195.5 -80.5zM1346 1862q71 0 121.5 55t50.5 123q0 45 -26.5 69.5t-70.5 24.5q-71 0 -121.5 -55t-50.5 -123q0 -45 26.5 -69.5t70.5 -24.5zM715 -33q-332 0 -446.5 178
t-14.5 502l231 760q19 59 15.5 97.5t-41.5 56.5t-119 18l16 59h844l-18 -59q-114 0 -176.5 -41t-90.5 -131l-245 -807q-33 -109 -43 -195.5t4.5 -153.5t63.5 -103.5t130 -36.5q155 0 270 125.5t197 394.5l238 776q19 59 13.5 97.5t-47.5 56.5t-130 18l16 59h531l-15 -59
q-93 0 -148 -41t-81 -131l-239 -784q-25 -84 -50 -150.5t-60.5 -136.5t-75 -122.5t-93 -101t-116.5 -79t-144 -48.5t-176 -18z" />
    <glyph glyph-name="uring" unicode="&#x16f;" horiz-adv-x="1353" 
d="M870 1280q-86 0 -134 49t-48 129q0 110 84 189t197 79q84 0 132 -49t48 -127q0 -109 -83.5 -189.5t-195.5 -80.5zM881 1368q71 0 121.5 55t50.5 123q0 45 -26.5 69.5t-70.5 24.5q-71 0 -121.5 -55t-50.5 -123q0 -45 26.5 -69.5t70.5 -24.5zM260 -33q-97 0 -151 54
t-54 133q0 152 181 528q4 9 17 40.5t18.5 44.5t16 39.5t15.5 41t11.5 33.5t9 31t2.5 20q0 26 -23 26q-33 0 -80.5 -48t-120.5 -154h-59q91 171 219.5 274t267.5 103q81 0 122.5 -44.5t41.5 -111.5q0 -21 -4.5 -45.5t-17.5 -60t-22 -58.5t-31.5 -76.5t-32.5 -79.5t-27 -66.5
t-26 -63t-22.5 -56t-21 -53t-17 -44.5t-15 -40.5t-10.5 -32t-7 -26.5t-2 -17q0 -43 33 -43q13 0 30 8.5t45.5 36.5t61 71.5t77 121t91.5 178.5q152 322 154 471h413l-239 -686q-5 -14 -18.5 -50.5t-21 -58t-17.5 -50t-14.5 -47.5t-4.5 -30q0 -22 7 -29.5t22 -7.5
q44 0 104.5 70.5t106.5 173.5h59q-173 -420 -444 -420q-116 0 -167.5 49.5t-51.5 130.5q0 31 10 61t39.5 97t50.5 121l92 236h-25q-52 -112 -92 -192.5t-88 -165.5t-91.5 -141.5t-92 -103.5t-100.5 -69.5t-107 -22.5z" />
    <glyph glyph-name="Uhungarumlaut" unicode="&#x170;" horiz-adv-x="1613" 
d="M1227 1765h-97l220 396h194zM1444 1765h-96l258 396h215zM715 -33q-332 0 -446.5 178t-14.5 502l231 760q19 59 15.5 97.5t-41.5 56.5t-119 18l16 59h844l-18 -59q-114 0 -176.5 -41t-90.5 -131l-245 -807q-33 -109 -43 -195.5t4.5 -153.5t63.5 -103.5t130 -36.5
q155 0 270 125.5t197 394.5l238 776q19 59 13.5 97.5t-47.5 56.5t-130 18l16 59h531l-15 -59q-93 0 -148 -41t-81 -131l-239 -784q-25 -84 -50 -150.5t-60.5 -136.5t-75 -122.5t-93 -101t-116.5 -79t-144 -48.5t-176 -18z" />
    <glyph glyph-name="uhungarumlaut" unicode="&#x171;" horiz-adv-x="1353" 
d="M760 1272h-96l219 395h194zM977 1272h-96l258 395h215zM260 -33q-97 0 -151 54t-54 133q0 152 181 528q4 9 17 40.5t18.5 44.5t16 39.5t15.5 41t11.5 33.5t9 31t2.5 20q0 26 -23 26q-33 0 -80.5 -48t-120.5 -154h-59q91 171 219.5 274t267.5 103q81 0 122.5 -44.5
t41.5 -111.5q0 -21 -4.5 -45.5t-17.5 -60t-22 -58.5t-31.5 -76.5t-32.5 -79.5t-27 -66.5t-26 -63t-22.5 -56t-21 -53t-17 -44.5t-15 -40.5t-10.5 -32t-7 -26.5t-2 -17q0 -43 33 -43q13 0 30 8.5t45.5 36.5t61 71.5t77 121t91.5 178.5q152 322 154 471h413l-239 -686
q-5 -14 -18.5 -50.5t-21 -58t-17.5 -50t-14.5 -47.5t-4.5 -30q0 -22 7 -29.5t22 -7.5q44 0 104.5 70.5t106.5 173.5h59q-173 -420 -444 -420q-116 0 -167.5 49.5t-51.5 130.5q0 31 10 61t39.5 97t50.5 121l92 236h-25q-52 -112 -92 -192.5t-88 -165.5t-91.5 -141.5
t-92 -103.5t-100.5 -69.5t-107 -22.5z" />
    <glyph glyph-name="Uogonek" unicode="&#x172;" horiz-adv-x="1613" 
d="M1913 1638l-15 -59q-93 0 -148 -41t-81 -131l-239 -784q-32 -104 -63.5 -183.5t-79.5 -161t-105 -138t-137.5 -99.5t-178.5 -61q-119 -59 -198.5 -142.5t-79.5 -163.5q0 -84 92 -84q57 0 174 50l18 -64q-159 -115 -317 -115q-59 0 -105 14t-78 52.5t-32 97.5
q0 208 401 342h-26q-332 0 -446.5 178t-14.5 502l231 760q19 59 15.5 97.5t-41.5 56.5t-119 18l16 59h844l-18 -59q-114 0 -176.5 -41t-90.5 -131l-245 -807q-33 -109 -43 -195.5t4.5 -153.5t63.5 -103.5t130 -36.5q155 0 270 125.5t197 394.5l238 776q19 59 13.5 97.5
t-47.5 56.5t-130 18l16 59h531z" />
    <glyph glyph-name="uogonek" unicode="&#x173;" horiz-adv-x="1353" 
d="M1057 143q44 0 104.5 70.5t106.5 173.5h59q-136 -324 -328 -399q-105 -58 -173 -135.5t-68 -149.5q0 -84 92 -84q59 0 174 49l18 -63q-159 -115 -317 -115q-59 0 -105 14t-78 52.5t-32 97.5q0 189 328 315q-174 19 -174 178q0 31 10 61t39.5 97t50.5 121l92 236h-25
q-52 -112 -92 -192.5t-88 -165.5t-91.5 -141.5t-92 -103.5t-100.5 -69.5t-107 -22.5q-97 0 -151 54t-54 133q0 152 181 528q4 9 17 40.5t18.5 44.5t16 39.5t15.5 41t11.5 33.5t9 31t2.5 20q0 26 -23 26q-33 0 -80.5 -48t-120.5 -154h-59q91 171 219.5 274t267.5 103
q81 0 122.5 -44.5t41.5 -111.5q0 -21 -4.5 -45.5t-17.5 -60t-22 -58.5t-31.5 -76.5t-32.5 -79.5t-27 -66.5t-26 -63t-22.5 -56t-21 -53t-17 -44.5t-15 -40.5t-10.5 -32t-7 -26.5t-2 -17q0 -43 33 -43q13 0 30 8.5t45.5 36.5t61 71.5t77 121t91.5 178.5q152 322 154 471h413
l-239 -686q-5 -14 -18.5 -50.5t-21 -58t-17.5 -50t-14.5 -47.5t-4.5 -30q0 -22 7 -29.5t22 -7.5z" />
    <glyph glyph-name="Wcircumflex" unicode="&#x174;" horiz-adv-x="2150" 
d="M1741 1769l-139 242l-320 -242h-100l329 396h277l37 -396h-84zM2497 1638l-17 -59q-94 0 -152.5 -30.5t-109.5 -118.5l-872 -1463h-203l55 1051l-618 -1051h-203l37 1430q3 107 -28.5 144.5t-123.5 37.5l17 59h733l-13 -59q-84 0 -119.5 -42.5t-41.5 -139.5l-54 -834h15
l413 699l7 135q6 108 -10.5 145t-73.5 37l10 59h702l-14 -59q-96 0 -139 -43t-54 -139l-88 -834h15l512 867q18 30 27.5 49t14.5 37.5t-0.5 29t-20.5 19t-42.5 11.5t-68.5 3l16 59h492z" />
    <glyph glyph-name="wcircumflex" unicode="&#x175;" horiz-adv-x="1564" 
d="M1280 1276l-139 242l-320 -242h-100l330 395h276l37 -395h-84zM1440 1135q51 0 89 -43t38 -131q0 -80 -33 -204.5t-93.5 -260t-135 -255t-168.5 -197t-183 -77.5q-103 0 -164 64.5t-61 181.5q0 51 37 184h-18q-75 -189 -190.5 -309.5t-244.5 -120.5q-101 0 -174 81.5
t-73 211.5q0 268 354 635q-21 4 -105 25.5t-112 21.5q-39 0 -39 -37q0 -25 30.5 -61.5t30.5 -65.5q0 -28 -19 -48.5t-50 -20.5q-32 0 -54 21.5t-22 57.5q0 29 16.5 81.5t38.5 95.5q78 159 187 159q26 0 122 -17t125 -17q50 0 84 30q2 1 5.5 4t5.5 4l47 -41
q-128 -173 -206.5 -357.5t-78.5 -336.5q0 -164 82 -164q72 0 143 125.5t115 308t47 351.5h383q-16 -83 -51 -203.5t-57.5 -220.5t-22.5 -189q0 -172 82 -172q57 0 115 86t92.5 203.5t34.5 214.5q0 74 -30 160t-30 119q0 53 31 88t80 35z" />
    <glyph glyph-name="Ycircumflex" unicode="&#x176;" horiz-adv-x="1503" 
d="M1450 1765l-139 242l-320 -242h-100l330 396h276l37 -396h-84zM1860 1638l-17 -59q-84 0 -144.5 -26.5t-121.5 -106.5l-547 -713l-156 -502q-29 -94 6 -133t171 -39l-21 -59h-874l18 59q114 0 177 41t91 131l154 490l-131 680q-21 102 -59.5 140t-112.5 38l12 59h811
l-20 -59q-131 0 -170 -40.5t-23 -139.5l86 -518h12l433 565q22 28 32.5 44.5t17.5 34t1.5 26t-21 16t-44.5 10t-74 2.5l18 59h496z" />
    <glyph glyph-name="ycircumflex" unicode="&#x177;" horiz-adv-x="1050" 
d="M893 1272l-139 241l-320 -241h-100l330 395h276l37 -395h-84zM926 1133q55 0 93 -47.5t38 -127.5q0 -340 -506 -981q-55 -72 -102 -127t-109 -114.5t-120 -98t-128 -63.5t-139 -25q-82 0 -125 33t-43 92q0 73 57.5 128t126.5 55q31 0 59 -12.5t49 -30.5t40.5 -36.5
t41.5 -31t44 -12.5q51 0 84 59.5t45 140.5q3 90 -9.5 400t-21.5 457q-6 88 -19.5 122.5t-39.5 34.5q-28 0 -55 -48.5t-83 -182.5h-57q41 108 75.5 178t79 127.5t98.5 84t122 26.5q110 0 161 -75t58 -257q5 -118 5 -300.5t-5 -283.5q101 128 167 269t66 251q0 66 -32.5 154.5
t-32.5 120.5q0 50 33.5 85.5t83.5 35.5z" />
    <glyph glyph-name="Ydieresis" unicode="&#x178;" horiz-adv-x="1503" 
d="M1038 1757q-70 0 -121 50.5t-51 121.5q0 72 50.5 122t121.5 50q72 0 122 -50t50 -122q0 -71 -50 -121.5t-122 -50.5zM1481 1757q-71 0 -121.5 50.5t-50.5 121.5q0 72 50.5 122t121.5 50q72 0 122 -50t50 -122q0 -71 -50 -121.5t-122 -50.5zM1030 733l-156 -502
q-29 -94 6 -133t171 -39l-21 -59h-874l18 59q114 0 177 41t91 131l154 490l-131 680q-21 102 -59.5 140t-112.5 38l12 59h811l-20 -59q-131 0 -170 -40.5t-23 -139.5l86 -518h12l433 565q22 28 32.5 44.5t17.5 34t1.5 26t-21 16t-44.5 10t-74 2.5l18 59h496l-17 -59
q-84 0 -144.5 -26.5t-121.5 -106.5z" />
    <glyph glyph-name="Zacute" unicode="&#x179;" horiz-adv-x="1335" 
d="M1024 1765h-100l219 396h291zM451 1638h1091l-1081 -1505h327q116 0 207.5 83t173.5 278h78l-186 -494h-1133v59l1061 1446h-266q-122 0 -203.5 -68t-142.5 -249h-78z" />
    <glyph glyph-name="zacute" unicode="&#x17a;" horiz-adv-x="980" 
d="M860 1667h291l-410 -395h-100zM979 1133q36 0 55 -22t19 -54q0 -52 -50.5 -117t-141.5 -139t-185.5 -142.5t-216 -157t-199.5 -153.5q32 4 51 4q61 0 121 -22t100 -48.5t89.5 -48.5t91.5 -22q112 0 112 147q0 43 -10 95l66 22q10 -72 10 -127q0 -229 -75 -351t-198 -122
q-56 0 -111 31t-99.5 75t-88.5 88.5t-94.5 75.5t-99.5 31q-41 0 -63.5 -17t-22.5 -38q0 -14 18.5 -38.5t18.5 -43.5q0 -29 -23 -48.5t-51 -19.5q-31 0 -52.5 24.5t-21.5 65.5t23 88t70 98t97 98t126.5 105.5t135.5 102t145.5 106t136.5 99.5q-33 -10 -66 -10
q-55 0 -160.5 39.5t-148.5 39.5q-48 0 -73.5 -31t-51.5 -98l-58 13q41 130 79.5 216t77 131t73 62t76.5 17q44 0 89 -17.5t84.5 -42.5t80.5 -50t94 -42.5t108 -17.5q86 0 86 43q0 15 -18.5 37.5t-18.5 39.5q0 18 17.5 32t46.5 14z" />
    <glyph glyph-name="Zdotaccent" unicode="&#x17b;" horiz-adv-x="1335" 
d="M1022 1757q-70 0 -121 50.5t-51 121.5q0 72 50.5 122t121.5 50q72 0 122 -50t50 -122q0 -71 -50 -121.5t-122 -50.5zM451 1638h1091l-1081 -1505h327q116 0 207.5 83t173.5 278h78l-186 -494h-1133v59l1061 1446h-266q-122 0 -203.5 -68t-142.5 -249h-78z" />
    <glyph glyph-name="zdotaccent" unicode="&#x17c;" horiz-adv-x="980" 
d="M739 1264q-71 0 -121.5 51t-50.5 121q0 72 50.5 122t121.5 50q72 0 122 -50t50 -122q0 -71 -50 -121.5t-122 -50.5zM1053 1057q0 -52 -50.5 -117t-141.5 -139t-185.5 -142.5t-216 -157t-199.5 -153.5q32 4 51 4q61 0 121 -22t100 -48.5t89.5 -48.5t91.5 -22
q112 0 112 147q0 43 -10 95l66 22q10 -72 10 -127q0 -229 -75 -351t-198 -122q-56 0 -111 31t-99.5 75t-88.5 88.5t-94.5 75.5t-99.5 31q-41 0 -63.5 -17t-22.5 -38q0 -14 18.5 -38.5t18.5 -43.5q0 -29 -23 -48.5t-51 -19.5q-31 0 -52.5 24.5t-21.5 65.5t23 88t70 98t97 98
t126.5 105.5t135.5 102t145.5 106t136.5 99.5q-33 -10 -66 -10q-55 0 -160.5 39.5t-148.5 39.5q-48 0 -73.5 -31t-51.5 -98l-58 13q41 130 79.5 216t77 131t73 62t76.5 17q44 0 89 -17.5t84.5 -42.5t80.5 -50t94 -42.5t108 -17.5q86 0 86 43q0 15 -18.5 37.5t-18.5 39.5
q0 18 17.5 32t46.5 14q36 0 55 -22t19 -54z" />
    <glyph glyph-name="Zcaron" unicode="&#x17d;" horiz-adv-x="1335" 
d="M801 1765l-35 396h82l139 -244l320 244h102l-332 -396h-276zM461 133h327q116 0 207.5 83t173.5 278h78l-186 -494h-1133v59l1061 1446h-266q-122 0 -203.5 -68t-142.5 -249h-78l152 450h1091z" />
    <glyph glyph-name="zcaron" unicode="&#x17e;" horiz-adv-x="980" 
d="M518 1272l-35 395h82l140 -244l319 244h102l-331 -395h-277zM979 1133q36 0 55 -22t19 -54q0 -52 -50.5 -117t-141.5 -139t-185.5 -142.5t-216 -157t-199.5 -153.5q32 4 51 4q61 0 121 -22t100 -48.5t89.5 -48.5t91.5 -22q112 0 112 147q0 43 -10 95l66 22
q10 -72 10 -127q0 -229 -75 -351t-198 -122q-56 0 -111 31t-99.5 75t-88.5 88.5t-94.5 75.5t-99.5 31q-41 0 -63.5 -17t-22.5 -38q0 -14 18.5 -38.5t18.5 -43.5q0 -29 -23 -48.5t-51 -19.5q-31 0 -52.5 24.5t-21.5 65.5t23 88t70 98t97 98t126.5 105.5t135.5 102t145.5 106
t136.5 99.5q-33 -10 -66 -10q-55 0 -160.5 39.5t-148.5 39.5q-48 0 -73.5 -31t-51.5 -98l-58 13q41 130 79.5 216t77 131t73 62t76.5 17q44 0 89 -17.5t84.5 -42.5t80.5 -50t94 -42.5t108 -17.5q86 0 86 43q0 15 -18.5 37.5t-18.5 39.5q0 18 17.5 32t46.5 14z" />
    <glyph glyph-name="uni0218" unicode="&#x218;" horiz-adv-x="1122" 
d="M537 -16q-110 0 -197 35.5t-176 109.5q-49 41 -76 -25l-41 -104h-65l165 641h60q-12 -86 1 -176t46 -166t93.5 -124t137.5 -48q95 0 139 56.5t44 133.5q0 48 -21.5 104t-45 95t-72.5 115q-11 17 -17 26l-129 203q-58 90 -85.5 163.5t-27.5 162.5q0 100 38.5 189
t105.5 155t163 104.5t207 38.5q188 0 334 -127q24 -20 36.5 -16t23.5 31l41 104h59l-139 -518h-60q11 182 -65.5 286.5t-192.5 104.5q-87 0 -131.5 -54.5t-44.5 -133.5q0 -62 26.5 -119t92.5 -156l108 -168q5 -8 34 -52t35.5 -54t29 -47.5t29 -53t21 -49t19 -56.5t9 -54.5
t4.5 -63.5q0 -105 -35 -195t-100 -156t-163 -104t-218 -38zM436 -141q61 0 97 -38.5t36 -94.5q0 -91 -85.5 -157.5t-215.5 -94.5l-12 59q66 13 128 53t62 68q0 12 -10 12q-5 0 -31.5 -15.5t-50.5 -15.5q-32 0 -51.5 22t-19.5 58q0 59 44.5 101.5t108.5 42.5z" />
    <glyph glyph-name="uni0219" unicode="&#x219;" horiz-adv-x="864" 
d="M324 -33q-84 0 -164.5 24.5t-137.5 74.5t-57 114q0 58 41.5 98.5t99.5 40.5q41 0 65 -22t50 -78q35 -81 70.5 -115t77.5 -34q44 0 67 28t23 80q0 42 -20 85t-40.5 68t-66.5 77l-41 47q-67 77 -101 143.5t-34 153.5q0 115 65.5 205t173.5 138t236 48q147 0 220 -50
t73 -116q0 -59 -42.5 -100t-99.5 -41q-43 0 -66.5 27.5t-39.5 86.5q-29 94 -113 94q-44 0 -76 -30.5t-32 -83.5t30.5 -103t96.5 -129l32 -43q72 -85 110 -155t38 -152q0 -154 -127 -267.5t-311 -113.5zM289 -125q61 0 97 -38.5t36 -94.5q0 -91 -85.5 -157.5t-215.5 -94.5
l-12 59q66 13 128 53t62 68q0 13 -10 13q-5 0 -31.5 -15.5t-50.5 -15.5q-32 0 -52 22.5t-20 57.5q0 59 45 101t109 42z" />
    <glyph glyph-name="uni021A" unicode="&#x21a;" horiz-adv-x="1409" 
d="M104 0l17 59q116 0 178 41t90 131l371 1205q9 32 -5 50.5t-46 18.5h-52q-121 0 -203 -79t-145 -238h-73l153 450h1305l-109 -450h-74q39 175 5 246t-148 71h-86q-71 0 -92 -67l-371 -1207q-19 -59 -12.5 -97.5t51.5 -56.5t139 -18l-18 -59h-875zM500 -141q61 0 97 -38.5
t36 -94.5q0 -91 -85.5 -157.5t-215.5 -94.5l-13 59q66 13 128.5 53t62.5 68q0 12 -10 12q-5 0 -31.5 -15.5t-50.5 -15.5q-32 0 -52 22.5t-20 57.5q0 59 45 101.5t109 42.5z" />
    <glyph glyph-name="uni021B" unicode="&#x21b;" horiz-adv-x="786" 
d="M664 1014l-191 -537q-25 -71 -36.5 -104.5t-22.5 -77t-11 -70.5q0 -25 9 -38t34 -13q116 0 250 254h60q-203 -459 -520 -459q-106 0 -157.5 50t-51.5 141q0 98 86 332l188 522h-137l39 86q298 31 485 289h109l-107 -287h195l-29 -88h-192zM264 -141q61 0 97 -38.5
t36 -94.5q0 -91 -85.5 -157.5t-215.5 -94.5l-12 59q66 13 128 53t62 68q0 12 -10 12q-5 0 -31.5 -15.5t-50.5 -15.5q-32 0 -51.5 22t-19.5 58q0 59 44.5 101.5t108.5 42.5z" />
    <glyph glyph-name="circumflex" unicode="&#x2c6;" horiz-adv-x="876" 
d="M903 1667l35 -395h-82l-139 241l-320 -241h-102l332 395h276z" />
    <glyph glyph-name="caron" unicode="&#x2c7;" horiz-adv-x="876" 
d="M971 1667h102l-332 -395h-276l-35 395h82l139 -244z" />
    <glyph glyph-name="breve" unicode="&#x2d8;" horiz-adv-x="872" 
d="M1034 1679h58q-21 -84 -58 -152.5t-80 -113t-93.5 -75t-99 -43.5t-97.5 -13q-116 0 -193.5 63t-77.5 181q0 70 29 153h55q-4 -14 -4 -39q0 -80 53 -109.5t164 -29.5q115 0 209 43t135 135z" />
    <glyph glyph-name="dotaccent" unicode="&#x2d9;" horiz-adv-x="546" 
d="M551 1245q-71 0 -121.5 50.5t-50.5 121.5q0 72 50.5 122t121.5 50q72 0 122 -50t50 -122q0 -71 -50 -121.5t-122 -50.5z" />
    <glyph glyph-name="ring" unicode="&#x2da;" horiz-adv-x="649" 
d="M545 1280q-86 0 -134.5 49t-48.5 129q0 110 84 189t197 79q84 0 132 -49t48 -127q0 -109 -83 -189.5t-195 -80.5zM555 1368q71 0 121.5 55t50.5 123q0 45 -26 69.5t-70 24.5q-71 0 -121.5 -55t-50.5 -123q0 -45 26 -69.5t70 -24.5z" />
    <glyph glyph-name="ogonek" unicode="&#x2db;" horiz-adv-x="745" 
d="M328 -16h82q-123 -58 -207 -144.5t-84 -167.5q0 -84 92 -84q57 0 174 50l18 -64q-159 -115 -317 -115q-59 0 -105 14t-78 52.5t-32 97.5q0 43 17.5 82.5t44.5 70.5t68.5 60t79 49.5t88 41t83.5 32t76 25.5z" />
    <glyph glyph-name="tilde" unicode="&#x2dc;" horiz-adv-x="952" 
d="M856 1280q-42 0 -77.5 15.5t-59.5 37.5t-47 44t-50.5 37.5t-58.5 15.5q-71 0 -117.5 -40.5t-87.5 -115.5l-61 8q146 373 311 373q42 0 77.5 -15.5t59.5 -38t46.5 -45t50 -38t57.5 -15.5q71 0 117.5 40.5t87.5 115.5l63 -8q-22 -53 -39 -91.5t-49.5 -96t-63 -93.5t-73 -63
t-86.5 -27z" />
    <glyph glyph-name="hungarumlaut" unicode="&#x2dd;" horiz-adv-x="724" 
d="M410 1272h-95l220 395h194zM629 1272h-97l256 395h216z" />
    <glyph glyph-name="gravecomb" unicode="&#x300;" horiz-adv-x="0" 
d="M-127 1667l158 -395h-101l-344 395h287z" />
    <glyph glyph-name="acutecomb" unicode="&#x301;" horiz-adv-x="0" 
d="M-123 1272h-100l219 395h291z" />
    <glyph glyph-name="uni0302" unicode="&#x302;" horiz-adv-x="0" 
d="M25 1667l36 -395h-84l-139 241l-319 -241h-101l330 395h277z" />
    <glyph glyph-name="tildecomb" unicode="&#x303;" horiz-adv-x="0" 
d="M-96 1280q-42 0 -77.5 15.5t-59.5 37.5t-47 44t-50.5 37.5t-58.5 15.5q-71 0 -117.5 -40.5t-87.5 -115.5l-61 8q146 373 311 373q42 0 77.5 -15.5t59.5 -38t46.5 -45t50 -38t57.5 -15.5q71 0 117.5 40.5t87.5 115.5l63 -8q-22 -53 -39 -91.5t-49.5 -96t-63 -93.5t-73 -63
t-86.5 -27z" />
    <glyph glyph-name="uni0304" unicode="&#x304;" horiz-adv-x="0" 
d="M-637 1362l41 133h725l-39 -133h-727z" />
    <glyph glyph-name="uni0306" unicode="&#x306;" horiz-adv-x="0" 
d="M162 1679h57q-21 -84 -58 -152.5t-80 -113t-93.5 -75t-99 -43.5t-97.5 -13q-116 0 -193 62.5t-77 181.5q0 73 28 153h56q-4 -14 -4 -39q0 -80 53 -109.5t164 -29.5q115 0 209 43t135 135z" />
    <glyph glyph-name="uni0307" unicode="&#x307;" horiz-adv-x="0" 
d="M-18 1264q-70 0 -121 51t-51 121q0 72 50.5 122t121.5 50q72 0 122 -50t50 -122q0 -71 -50 -121.5t-122 -50.5z" />
    <glyph glyph-name="uni0308" unicode="&#x308;" horiz-adv-x="0" 
d="M-510 1264q-70 0 -121 51t-51 121q0 72 50.5 122t121.5 50q72 0 122 -50t50 -122q0 -71 -50 -121.5t-122 -50.5zM-68 1264q-70 0 -121 51t-51 121q0 72 50.5 122t121.5 50q73 0 123.5 -50t50.5 -122q0 -71 -50.5 -121.5t-123.5 -50.5z" />
    <glyph glyph-name="uni030A" unicode="&#x30a;" horiz-adv-x="0" 
d="M-104 1280q-86 0 -134.5 49t-48.5 129q0 110 84 189t197 79q84 0 132 -49t48 -127q0 -109 -83 -189.5t-195 -80.5zM-94 1368q71 0 121.5 55t50.5 123q0 45 -26 69.5t-70 24.5q-71 0 -121.5 -55t-50.5 -123q0 -45 26 -69.5t70 -24.5z" />
    <glyph glyph-name="uni030B" unicode="&#x30b;" horiz-adv-x="0" 
d="M-252 1272h-96l219 395h195zM-35 1272h-96l258 395h215z" />
    <glyph glyph-name="uni030C" unicode="&#x30c;" horiz-adv-x="0" 
d="M94 1667h103l-332 -395h-277l-34 395h81l140 -244z" />
    <glyph glyph-name="uni0312" unicode="&#x312;" horiz-adv-x="0" 
d="M16 1348q-62 0 -98.5 38.5t-36.5 94.5q0 91 86 157.5t217 94.5l13 -60q-65 -14 -128 -53.5t-63 -67.5q0 -12 12 -12q4 0 30 15.5t50 15.5q32 0 52 -22.5t20 -57.5q0 -59 -45 -101t-109 -42z" />
    <glyph glyph-name="uni0326" unicode="&#x326;" horiz-adv-x="0" 
d="M-463 -141q61 0 97 -38.5t36 -94.5q0 -91 -85.5 -157.5t-215.5 -94.5l-12 59q65 14 127.5 53.5t62.5 67.5q0 12 -10 12q-5 0 -31.5 -15.5t-50.5 -15.5q-32 0 -51.5 22t-19.5 58q0 59 44.5 101.5t108.5 42.5z" />
    <glyph glyph-name="uni0327" unicode="&#x327;" horiz-adv-x="0" 
d="M-803 -170l113 209h110l-67 -129q100 0 163.5 -38.5t63.5 -125.5q0 -106 -115.5 -180t-322.5 -74q-99 0 -178 23l26 57q35 -4 103 -4q71 0 121.5 15.5t76 41.5t36.5 53t11 58q0 50 -36 72t-105 22z" />
    <glyph glyph-name="uni0328" unicode="&#x328;" horiz-adv-x="0" 
d="M-418 -16h82q-123 -58 -207 -144.5t-84 -167.5q0 -84 92 -84q58 0 175 50l18 -64q-159 -115 -317 -115q-59 0 -105 14t-78 52.5t-32 97.5q0 43 17.5 82.5t44 70.5t68 60t79 49.5t88 41t83.5 32t76 25.5z" />
    <glyph glyph-name="Wgrave" unicode="&#x1e80;" horiz-adv-x="2150" 
d="M1413 2165l158 -396h-101l-344 396h287zM2497 1638l-17 -59q-94 0 -152.5 -30.5t-109.5 -118.5l-872 -1463h-203l55 1051l-618 -1051h-203l37 1430q3 107 -28.5 144.5t-123.5 37.5l17 59h733l-13 -59q-84 0 -119.5 -42.5t-41.5 -139.5l-54 -834h15l413 699l7 135
q6 108 -10.5 145t-73.5 37l10 59h702l-14 -59q-96 0 -139 -43t-54 -139l-88 -834h15l512 867q18 30 27.5 49t14.5 37.5t-0.5 29t-20.5 19t-42.5 11.5t-68.5 3l16 59h492z" />
    <glyph glyph-name="wgrave" unicode="&#x1e81;" horiz-adv-x="1564" 
d="M954 1671l158 -395h-100l-344 395h286zM1440 1135q51 0 89 -43t38 -131q0 -80 -33 -204.5t-93.5 -260t-135 -255t-168.5 -197t-183 -77.5q-103 0 -164 64.5t-61 181.5q0 51 37 184h-18q-75 -189 -190.5 -309.5t-244.5 -120.5q-101 0 -174 81.5t-73 211.5q0 268 354 635
q-21 4 -105 25.5t-112 21.5q-39 0 -39 -37q0 -25 30.5 -61.5t30.5 -65.5q0 -28 -19 -48.5t-50 -20.5q-32 0 -54 21.5t-22 57.5q0 29 16.5 81.5t38.5 95.5q78 159 187 159q26 0 122 -17t125 -17q50 0 84 30q2 1 5.5 4t5.5 4l47 -41q-128 -173 -206.5 -357.5t-78.5 -336.5
q0 -164 82 -164q72 0 143 125.5t115 308t47 351.5h383q-16 -83 -51 -203.5t-57.5 -220.5t-22.5 -189q0 -172 82 -172q57 0 115 86t92.5 203.5t34.5 214.5q0 74 -30 160t-30 119q0 53 31 88t80 35z" />
    <glyph glyph-name="Wacute" unicode="&#x1e82;" horiz-adv-x="2150" 
d="M1694 2165h291l-410 -396h-100zM2497 1638l-17 -59q-94 0 -152.5 -30.5t-109.5 -118.5l-872 -1463h-203l55 1051l-618 -1051h-203l37 1430q3 107 -28.5 144.5t-123.5 37.5l17 59h733l-13 -59q-84 0 -119.5 -42.5t-41.5 -139.5l-54 -834h15l413 699l7 135q6 108 -10.5 145
t-73.5 37l10 59h702l-14 -59q-96 0 -139 -43t-54 -139l-88 -834h15l512 867q18 30 27.5 49t14.5 37.5t-0.5 29t-20.5 19t-42.5 11.5t-68.5 3l16 59h492z" />
    <glyph glyph-name="wacute" unicode="&#x1e83;" horiz-adv-x="1564" 
d="M1233 1671h291l-410 -395h-100zM1440 1135q51 0 89 -43t38 -131q0 -80 -33 -204.5t-93.5 -260t-135 -255t-168.5 -197t-183 -77.5q-103 0 -164 64.5t-61 181.5q0 51 37 184h-18q-75 -189 -190.5 -309.5t-244.5 -120.5q-101 0 -174 81.5t-73 211.5q0 268 354 635
q-21 4 -105 25.5t-112 21.5q-39 0 -39 -37q0 -25 30.5 -61.5t30.5 -65.5q0 -28 -19 -48.5t-50 -20.5q-32 0 -54 21.5t-22 57.5q0 29 16.5 81.5t38.5 95.5q78 159 187 159q26 0 122 -17t125 -17q50 0 84 30q2 1 5.5 4t5.5 4l47 -41q-128 -173 -206.5 -357.5t-78.5 -336.5
q0 -164 82 -164q72 0 143 125.5t115 308t47 351.5h383q-16 -83 -51 -203.5t-57.5 -220.5t-22.5 -189q0 -172 82 -172q57 0 115 86t92.5 203.5t34.5 214.5q0 74 -30 160t-30 119q0 53 31 88t80 35z" />
    <glyph glyph-name="Wdieresis" unicode="&#x1e84;" horiz-adv-x="2150" 
d="M1329 1761q-71 0 -121.5 50.5t-50.5 121.5q0 72 50.5 122t121.5 50q72 0 122 -50t50 -122q0 -71 -50 -121.5t-122 -50.5zM1772 1761q-71 0 -122 51t-51 121q0 72 51 122t122 50q72 0 122 -50t50 -122q0 -71 -50 -121.5t-122 -50.5zM2497 1638l-17 -59q-94 0 -152.5 -30.5
t-109.5 -118.5l-872 -1463h-203l55 1051l-618 -1051h-203l37 1430q3 107 -28.5 144.5t-123.5 37.5l17 59h733l-13 -59q-84 0 -119.5 -42.5t-41.5 -139.5l-54 -834h15l413 699l7 135q6 108 -10.5 145t-73.5 37l10 59h702l-14 -59q-96 0 -139 -43t-54 -139l-88 -834h15
l512 867q18 30 27.5 49t14.5 37.5t-0.5 29t-20.5 19t-42.5 11.5t-68.5 3l16 59h492z" />
    <glyph glyph-name="wdieresis" unicode="&#x1e85;" horiz-adv-x="1564" 
d="M868 1268q-70 0 -121 51t-51 121q0 72 50.5 122t121.5 50q72 0 122 -50t50 -122q0 -71 -50 -121.5t-122 -50.5zM1311 1268q-71 0 -121.5 51t-50.5 121q0 72 50.5 122t121.5 50q72 0 122 -50t50 -122q0 -71 -50 -121.5t-122 -50.5zM1440 1135q51 0 89 -43t38 -131
q0 -80 -33 -204.5t-93.5 -260t-135 -255t-168.5 -197t-183 -77.5q-103 0 -164 64.5t-61 181.5q0 51 37 184h-18q-75 -189 -190.5 -309.5t-244.5 -120.5q-101 0 -174 81.5t-73 211.5q0 268 354 635q-21 4 -105 25.5t-112 21.5q-39 0 -39 -37q0 -25 30.5 -61.5t30.5 -65.5
q0 -28 -19 -48.5t-50 -20.5q-32 0 -54 21.5t-22 57.5q0 29 16.5 81.5t38.5 95.5q78 159 187 159q26 0 122 -17t125 -17q50 0 84 30q2 1 5.5 4t5.5 4l47 -41q-128 -173 -206.5 -357.5t-78.5 -336.5q0 -164 82 -164q72 0 143 125.5t115 308t47 351.5h383q-16 -83 -51 -203.5
t-57.5 -220.5t-22.5 -189q0 -172 82 -172q57 0 115 86t92.5 203.5t34.5 214.5q0 74 -30 160t-30 119q0 53 31 88t80 35z" />
    <glyph glyph-name="Ygrave" unicode="&#x1ef2;" horiz-adv-x="1503" 
d="M1124 2161l158 -396h-100l-344 396h286zM1030 733l-156 -502q-29 -94 6 -133t171 -39l-21 -59h-874l18 59q114 0 177 41t91 131l154 490l-131 680q-21 102 -59.5 140t-112.5 38l12 59h811l-20 -59q-131 0 -170 -40.5t-23 -139.5l86 -518h12l433 565q22 28 32.5 44.5
t17.5 34t1.5 26t-21 16t-44.5 10t-74 2.5l18 59h496l-17 -59q-84 0 -144.5 -26.5t-121.5 -106.5z" />
    <glyph glyph-name="ygrave" unicode="&#x1ef3;" horiz-adv-x="1050" 
d="M567 1667l158 -395h-100l-344 395h286zM-47 -451q-82 0 -125 33t-43 92q0 73 57.5 128t126.5 55q31 0 59 -12.5t49 -30.5t40.5 -36.5t41.5 -31t44 -12.5q51 0 84 59.5t45 140.5q3 90 -9.5 400t-21.5 457q-6 88 -19.5 122.5t-39.5 34.5q-28 0 -55 -48.5t-83 -182.5h-57
q41 108 75.5 178t79 127.5t98.5 84t122 26.5q110 0 161 -75t58 -257q5 -118 5 -300.5t-5 -283.5q101 128 167 269t66 251q0 66 -32.5 154.5t-32.5 120.5q0 50 33.5 85.5t83.5 35.5q55 0 93 -47.5t38 -127.5q0 -340 -506 -981q-55 -72 -102 -127t-109 -114.5t-120 -98
t-128 -63.5t-139 -25z" />
    <glyph glyph-name="endash" unicode="&#x2013;" horiz-adv-x="1247" 
d="M1208 432h-1204l72 242h1204z" />
    <glyph glyph-name="emdash" unicode="&#x2014;" horiz-adv-x="2447" 
d="M2410 432h-2408l72 242h2408z" />
    <glyph glyph-name="quoteleft" unicode="&#x2018;" horiz-adv-x="567" 
d="M594 1315q61 0 96 -39.5t35 -104.5q0 -88 -64.5 -148t-162.5 -60q-94 0 -154.5 57t-60.5 158q0 158 126 277.5t361 184.5l21 -57q-140 -52 -240 -137t-100 -156q0 -22 18 -22q13 0 29 12t40 23.5t56 11.5z" />
    <glyph glyph-name="quoteright" unicode="&#x2019;" horiz-adv-x="542" 
d="M438 1305q-61 0 -96 38.5t-35 102.5q0 89 65 149t163 60q94 0 154.5 -57t60.5 -158q0 -158 -126.5 -277.5t-361.5 -185.5l-20 59q140 52 240 137t100 156q0 23 -19 23q-13 0 -29 -12t-40 -23.5t-56 -11.5z" />
    <glyph glyph-name="quotesinglbase" unicode="&#x201a;" horiz-adv-x="630" 
d="M59 -33q-61 0 -96 39.5t-35 104.5q0 89 65 148.5t163 59.5q94 0 154.5 -57t60.5 -158q0 -158 -127 -278t-363 -184l-18 57q140 52 240 137t100 156q0 24 -21 24q-12 0 -27.5 -12t-39.5 -24.5t-56 -12.5z" />
    <glyph glyph-name="quotedblleft" unicode="&#x201c;" horiz-adv-x="1077" 
d="M594 1315q61 0 96 -39.5t35 -104.5q0 -88 -64.5 -148t-162.5 -60q-94 0 -154.5 57t-60.5 158q0 158 126 277.5t361 184.5l21 -57q-140 -52 -240 -137t-100 -156q0 -22 18 -22q13 0 29 12t40 23.5t56 11.5zM1104 1315q60 0 95.5 -39.5t35.5 -104.5q0 -88 -64.5 -148
t-162.5 -60q-94 0 -154.5 57t-60.5 158q0 158 126 277.5t361 184.5l20 -57q-141 -51 -240 -136.5t-99 -156.5q0 -22 18 -22q13 0 29 12t40 23.5t56 11.5z" />
    <glyph glyph-name="quotedblright" unicode="&#x201d;" horiz-adv-x="1050" 
d="M438 1305q-61 0 -96 38.5t-35 102.5q0 89 65 149t163 60q94 0 154.5 -57t60.5 -158q0 -158 -126.5 -277.5t-361.5 -185.5l-20 59q140 52 240 137t100 156q0 23 -19 23q-13 0 -29 -12t-40 -23.5t-56 -11.5zM948 1305q-61 0 -96 38.5t-35 102.5q0 90 64.5 149.5t162.5 59.5
q94 0 155 -57t61 -158q0 -158 -126.5 -277.5t-363.5 -185.5l-18 59q140 52 240 137t100 156q0 23 -21 23q-12 0 -27.5 -12t-39.5 -23.5t-56 -11.5z" />
    <glyph glyph-name="quotedblbase" unicode="&#x201e;" horiz-adv-x="1140" 
d="M59 -33q-61 0 -96 39.5t-35 104.5q0 89 65 148.5t163 59.5q94 0 154.5 -57t60.5 -158q0 -158 -127 -278t-363 -184l-18 57q140 52 240 137t100 156q0 24 -21 24q-12 0 -27.5 -12t-39.5 -24.5t-56 -12.5zM569 -33q-61 0 -96 39.5t-35 104.5q0 89 65 148.5t163 59.5
q94 0 154.5 -57t60.5 -158q0 -158 -127 -278t-363 -184l-18 57q140 52 240 137t100 156q0 24 -21 24q-12 0 -27.5 -12t-39.5 -24.5t-56 -12.5z" />
    <glyph glyph-name="dagger" unicode="&#x2020;" horiz-adv-x="1181" 
d="M305 -451h-55l182 594q60 196 82 324.5t16 199.5t-34 144q92 74 137.5 131.5t93.5 167.5q-48 -5 -98 -27.5t-84 -46t-73.5 -42.5t-70.5 -19q-68 0 -104 46t-14 122q24 71 69.5 113t91.5 42q36 0 66.5 -13t54 -32t48 -38t60 -34t77.5 -18q15 59 9.5 116.5t-20 95.5t-20 90
t9.5 100q17 58 71 95.5t122 37.5q67 0 104.5 -47t13.5 -125q-15 -49 -46 -94.5t-61.5 -78t-67.5 -85.5t-62 -111q50 6 103 29.5t90 48t79.5 44t75.5 19.5q60 0 92.5 -47.5t9.5 -126.5q-21 -69 -66.5 -109t-92.5 -40q-35 0 -65.5 12.5t-54.5 31t-49.5 37.5t-62 34t-80.5 18
q-61 -189 39 -309q-52 -61 -83.5 -103.5t-78 -119.5t-89.5 -185.5t-87 -253.5z" />
    <glyph glyph-name="daggerdbl" unicode="&#x2021;" horiz-adv-x="1200" 
d="M262 -590q-67 0 -105 47t-16 125q16 49 47.5 94.5t62.5 78t68 85.5t62 111q-50 -6 -103.5 -29t-90.5 -47t-80 -43.5t-76 -19.5q-58 0 -91.5 47.5t-11.5 124.5q22 69 68 110t94 41q35 0 65.5 -12.5t54.5 -31.5t49 -38t61.5 -33.5t80.5 -17.5q35 107 26 179.5t-65 127.5
q14 15 70.5 65.5t90.5 94t50 94.5q10 29 10.5 58.5t-3 50.5t-16.5 50t-21 43.5t-27 45.5q91 73 137 131t95 168q-61 -7 -123.5 -41t-113 -64t-89.5 -30q-69 0 -106 46t-13 122q24 71 70 113t92 42q35 0 65.5 -13t54 -32t48 -38t60 -34t77.5 -18q15 59 9.5 116.5t-19.5 95.5
t-20 90t8 100q19 59 72.5 96t119.5 37q69 0 107 -47t14 -125q-15 -49 -46 -94.5t-62 -78t-68 -85.5t-62 -111q50 6 103 29.5t90 48t79.5 44t75.5 19.5q59 0 92.5 -48t10.5 -126q-22 -69 -68 -109t-94 -40q-42 0 -79.5 19t-63 42.5t-69.5 45.5t-97 26q-36 -108 -27.5 -180.5
t66.5 -128.5q-6 -6 -69.5 -62.5t-95.5 -98.5t-48 -93q-10 -29 -10 -59.5t2.5 -49t17.5 -51.5t20 -42t27 -46q-90 -72 -136 -129.5t-95 -167.5q49 5 99 27.5t83.5 46t73 42.5t69.5 19q69 0 106 -47t13 -123q-22 -70 -68.5 -111.5t-91.5 -41.5q-36 0 -66.5 13t-54.5 31.5
t-48.5 38t-60 34t-77.5 16.5q-12 -48 -10 -95t12.5 -79.5t19.5 -72t11.5 -73t-10.5 -82.5q-17 -58 -72 -95.5t-121 -37.5z" />
    <glyph glyph-name="bullet" unicode="&#x2022;" horiz-adv-x="737" 
d="M373 451q-109 0 -174.5 62t-65.5 163q0 83 45 166t127.5 139.5t177.5 56.5q111 0 175.5 -62t64.5 -163q0 -82 -45 -165t-127.5 -140t-177.5 -57z" />
    <glyph glyph-name="ellipsis" unicode="&#x2026;" horiz-adv-x="1609" 
d="M92 -31q-64 0 -102.5 36t-38.5 95q0 75 61.5 143t143.5 68q65 0 103 -36t38 -95q0 -75 -60.5 -143t-144.5 -68zM639 -31q-65 0 -103 36t-38 95q0 75 60 143t144 68q64 0 102 -36t38 -95q0 -75 -60.5 -143t-142.5 -68zM1184 -31q-64 0 -103 36t-39 95q0 75 61.5 143
t143.5 68q65 0 103.5 -36t38.5 -95q0 -75 -60.5 -143t-144.5 -68z" />
    <glyph glyph-name="perthousand" unicode="&#x2030;" horiz-adv-x="2557" 
d="M549 819q-114 0 -184 78t-70 205q0 126 67.5 261t176 225.5t217.5 90.5q114 0 185 -78.5t71 -205.5q0 -94 -41 -197.5t-105 -186.5t-149.5 -137.5t-167.5 -54.5zM301 0l1194 1638h127l-1192 -1638h-129zM532 879q54 0 124 132t117.5 291.5t47.5 245.5q0 72 -49 72
q-54 0 -123.5 -133t-116.5 -293t-47 -246q0 -69 47 -69zM1182 -31q-114 0 -185 79t-71 206q0 126 67.5 261t177 225.5t218.5 90.5q114 0 183.5 -78t69.5 -206q0 -94 -40.5 -198t-104.5 -187.5t-148.5 -138t-166.5 -54.5zM1968 -31q-114 0 -185 79t-71 206q0 126 67.5 261
t177 225.5t218.5 90.5q114 0 185 -78.5t71 -205.5q0 -94 -41 -198t-105 -187.5t-149.5 -138t-167.5 -54.5zM1165 31q54 0 123.5 132t116.5 291.5t47 245.5q0 70 -47 70q-54 0 -124 -132.5t-117.5 -292t-47.5 -245.5q0 -69 49 -69zM1952 31q54 0 124 132t117.5 291.5
t47.5 245.5q0 33 -13.5 51.5t-36.5 18.5q-54 0 -124 -132.5t-117 -292t-47 -245.5q0 -69 49 -69z" />
    <glyph glyph-name="guilsinglleft" unicode="&#x2039;" horiz-adv-x="628" 
d="M711 1094l-320 -494l49 -500h-49l-309 500l563 494h66z" />
    <glyph glyph-name="guilsinglright" unicode="&#x203a;" horiz-adv-x="628" 
d="M-53 100l319 494l-49 500h49l309 -500l-563 -494h-65z" />
    <glyph glyph-name="fraction" unicode="&#x2044;" horiz-adv-x="860" 
d="M-150 0l1194 1638h127l-1191 -1638h-130z" />
    <glyph glyph-name="Euro" unicode="&#x20ac;" horiz-adv-x="1583" 
d="M1655 1518l-121 -414h-51q18 74 26 137.5t4.5 125t-21.5 104t-57 68.5t-98 26q-87 0 -169 -48t-150 -132.5t-123.5 -185t-101.5 -220.5h514l-54 -80h-489q-27 -80 -43 -139h453l-54 -80h-420q-36 -160 -36 -287q0 -120 52.5 -183t147.5 -63q154 0 309 128.5t281 379.5
l57 2q-56 -130 -113.5 -231.5t-131 -189.5t-155 -146t-184.5 -90.5t-222 -32.5q-220 0 -344.5 137t-124.5 379q0 88 16 197h-168l51 80h133q14 65 39 139h-157l53 80h133q59 145 144.5 268.5t196.5 221.5t253.5 154t298.5 56q136 0 244.5 -42.5t181.5 -118.5z" />
    <glyph glyph-name="trademark" unicode="&#x2122;" horiz-adv-x="2437" 
d="M668 1524h-52q-94 0 -161.5 -52.5t-122.5 -171.5h-60l156 338h905l-51 -338h-59q12 120 -22.5 172t-127.5 52h-43q-54 0 -69 -51l-156 -504q-31 -89 -7.5 -130.5t124.5 -41.5l-15 -60h-579l10 60q82 0 132.5 41.5t76.5 130.5l155 508q6 21 -3.5 34t-30.5 13zM1847 1638
l35 -489h6l355 489h440l-8 -59q-62 0 -104 -41.5t-70 -130.5l-134 -438q-32 -89 -8 -130.5t127 -41.5l-14 -60h-578l13 60q80 0 130.5 41.5t78.5 130.5l165 530h-10l-575 -803h-39l-66 803h-10l-164 -530q-31 -89 -13.5 -130.5t105.5 -41.5l-12 -60h-410l13 60q81 0 131 41
t78 131l135 438q31 89 22 130.5t-75 41.5l8 59h448z" />
    <glyph glyph-name="oneeighth" unicode="&#x215b;" horiz-adv-x="1925" 
d="M856 1636l-246 -825q-20 -61 -3 -82.5t91 -21.5l-14 -35h-520l14 35q68 0 99.5 21.5t50.5 82.5l180 598q10 31 13 45.5t1.5 26t-14.5 11t-33 -6t-57 -19.5l2 41l405 164zM344 0l1194 1638h127l-1192 -1638h-129zM1026 190q0 52 23 97.5t67 83.5t86 64.5t101 56.5
q-91 119 -91 196q0 87 57 160t153.5 114.5t209.5 41.5q114 0 181 -52t67 -143q0 -136 -262 -266q37 -45 58 -73t41 -72t20 -83q0 -136 -126.5 -231.5t-310.5 -95.5q-120 0 -197 54.5t-77 147.5zM1468 778q0 -56 74 -145q137 98 137 205q0 43 -19.5 67.5t-55.5 24.5
q-52 0 -94 -44t-42 -108zM1229 178q0 -115 96 -115q60 0 102.5 41.5t42.5 100.5q0 41 -21 86t-77 112q-143 -112 -143 -225z" />
    <glyph glyph-name="threeeighths" unicode="&#x215c;" horiz-adv-x="2029" 
d="M406 653q-92 0 -157 30t-65 83q0 43 32 73.5t79 30.5q27 0 44 -13.5t25 -33t15.5 -39.5t23.5 -33.5t41 -13.5q70 0 129.5 82t59.5 201q0 73 -44.5 110t-119.5 37l10 37q130 23 203.5 85.5t73.5 148.5q0 40 -27.5 64t-79.5 24q-134 0 -186 -131h-41q51 134 151.5 205
t239.5 71q96 0 150.5 -43t54.5 -127q0 -103 -96 -186.5t-244 -108.5l-2 -10q99 0 167 -49t68 -148q0 -138 -145 -242t-360 -104zM449 0l1191 1638h127l-1189 -1638h-129zM1133 190q0 52 23 97.5t66.5 83.5t86.5 64.5t102 56.5q-92 121 -92 196q0 87 57 160t153.5 114.5
t209.5 41.5q115 0 181.5 -51.5t66.5 -143.5q0 -136 -263 -266q37 -45 58 -73t41 -72t20 -83q0 -136 -126.5 -231.5t-309.5 -95.5q-120 0 -197 54.5t-77 147.5zM1575 778q0 -56 74 -145q137 96 137 205q0 43 -20 67.5t-56 24.5q-50 0 -92.5 -44.5t-42.5 -107.5zM1335 178
q0 -115 97 -115q60 0 103.5 42t43.5 100q0 40 -22 85t-78 113q-144 -116 -144 -225z" />
    <glyph glyph-name="fiveeighths" unicode="&#x215d;" horiz-adv-x="2017" 
d="M430 653q-93 0 -156 27.5t-63 79.5q0 44 37.5 78t83.5 34q33 0 52 -21t24.5 -46.5t20 -46.5t38.5 -21q44 0 93.5 57t82.5 143t33 163q0 104 -92 104q-76 0 -156 -80l-43 35l217 479h455l-92 -200h-330l-76 -172l8 -4q54 28 91 39.5t81 11.5q56 0 103 -17t81.5 -63
t34.5 -115q0 -126 -71 -233t-193 -169.5t-264 -62.5zM438 0l1194 1638h127l-1192 -1638h-129zM1120 190q0 52 23 97.5t67 83.5t86 64.5t101 56.5q-90 118 -90 196q0 87 56.5 160t153 114.5t209.5 41.5q115 0 181.5 -51.5t66.5 -143.5q0 -136 -262 -266q37 -45 58 -73t41 -72
t20 -83q0 -136 -126.5 -231.5t-309.5 -95.5q-120 0 -197.5 54.5t-77.5 147.5zM1563 778q0 -57 73 -145q138 99 138 205q0 43 -20 67.5t-56 24.5q-52 0 -93.5 -44t-41.5 -108zM1323 178q0 -115 96 -115q60 0 103 42t43 100q0 41 -21.5 86t-77.5 112q-143 -115 -143 -225z" />
    <glyph glyph-name="seveneighths" unicode="&#x215e;" horiz-adv-x="1880" 
d="M297 0l1194 1638h127l-1192 -1638h-129zM1137 1638l-643 -985l-193 58l524 729h-276q-104 0 -178 -142l-27 25l66 127l96 188h631zM983 190q0 52 23 97.5t67 83.5t86 64.5t101 56.5q-91 119 -91 196q0 87 57 160t153.5 114.5t209.5 41.5t179.5 -51.5t66.5 -143.5
q0 -137 -260 -266q37 -45 58 -73t41 -72t20 -83q0 -136 -126.5 -231.5t-310.5 -95.5q-120 0 -197 54.5t-77 147.5zM1425 778q0 -56 74 -145q135 97 135 205q0 92 -73 92q-52 0 -94 -44t-42 -108zM1186 178q0 -115 96 -115q60 0 102.5 41.5t42.5 100.5q0 41 -21 86t-77 112
q-143 -112 -143 -225z" />
    <glyph glyph-name="arrowleft" unicode="&#x2190;" horiz-adv-x="1882" 
d="M1780 639v-172h-1018q-106 0 -234 32.5t-202 32.5v-6q89 -31 160 -66.5t117.5 -66.5t90 -75t68 -75t61.5 -83l-188 -152q-106 208 -221 310t-312 180v112q100 40 170 78.5t135 95t119 131.5t109 183l188 -150q-37 -52 -61.5 -84t-68 -76t-90 -75t-117.5 -66.5t-160 -66.5
v-7q73 0 201 33t235 33h1018z" />
    <glyph glyph-name="arrowup" unicode="&#x2191;" horiz-adv-x="1331" 
d="M752 827v-1017h-172v1017q0 107 32.5 235.5t32.5 203.5h-6q-38 -111 -80 -191.5t-92.5 -138t-90 -90.5t-104.5 -78l-151 186q208 106 309.5 220.5t179.5 312.5h113q40 -100 78.5 -170t94.5 -135t131.5 -119t182.5 -109l-149 -186q-52 35 -84 60t-76 68.5t-75.5 90.5
t-67 118.5t-66.5 160.5h-6q0 -75 33 -204t33 -235z" />
    <glyph glyph-name="arrowright" unicode="&#x2192;" horiz-adv-x="1882" 
d="M1120 467h-1018v172h1018q107 0 235 -33t201 -33v7q-89 31 -160.5 66.5t-117.5 66.5t-90 75.5t-68 75.5t-61 84l188 150q55 -108 109 -183t119 -131.5t135 -95t170 -78.5v-112q-197 -78 -312 -180t-221 -310l-188 152q37 53 61 83.5t68 74.5t90 75t117.5 66.5t160.5 66.5
v6q-74 0 -202 -32.5t-234 -32.5z" />
    <glyph glyph-name="arrowdown" unicode="&#x2193;" horiz-adv-x="1331" 
d="M580 1348h172v-1018q0 -106 -33 -235t-33 -204h6q31 89 66.5 160.5t67 118.5t75.5 90.5t76 68.5t84 60l149 -186q-107 -55 -182.5 -109t-131.5 -119t-94.5 -135t-78.5 -170h-113q-78 198 -179.5 312.5t-309.5 220.5l151 186q65 -45 104.5 -78t90 -90.5t92.5 -138
t80 -191.5h6q0 75 -32.5 203.5t-32.5 235.5v1018z" />
    <glyph glyph-name="arrowboth" unicode="&#x2194;" horiz-adv-x="2660" 
d="M1837 948l188 150q55 -108 109 -183t119 -131.5t135 -95t170 -78.5v-112q-197 -78 -312 -180t-221 -310l-188 152q37 52 61.5 83t68 75t90 75t118 66.5t160.5 66.5v6q-74 0 -202.5 -32.5t-234.5 -32.5h-1136q-106 0 -234 32.5t-202 32.5v-6q89 -31 160 -66.5t117.5 -66.5
t90 -75t68 -75t61.5 -83l-188 -152q-106 208 -221 310t-312 180v112q100 40 170 78.5t135 95t119 131.5t109 183l188 -150q-37 -52 -61.5 -84t-68 -76t-90 -75t-117.5 -66.5t-160 -66.5v-7q73 0 201 33t235 33h1136q107 0 235.5 -33t201.5 -33v7q-89 31 -160.5 66.5
t-118 66.5t-90 75t-68 75.5t-61.5 84.5z" />
    <glyph glyph-name="arrowupdn" unicode="&#x2195;" horiz-adv-x="1296" 
d="M668 -465h6q31 89 66.5 160t67 117.5t75 90t75.5 69t84 61.5l152 -189q-108 -55 -183.5 -108.5t-132 -119t-95 -135t-78.5 -169.5h-113q-78 197 -180 311t-310 221l152 189q65 -46 104 -79t90 -90.5t93 -138t80 -190.5h6q0 74 -33 202t-33 234v1137q0 106 33 234t33 202
h-6q-31 -89 -66.5 -160.5t-66.5 -117.5t-75.5 -90t-75 -67.5t-83.5 -61.5l-152 188q208 107 310 221t180 311h113q40 -100 78.5 -169.5t95 -135t132 -119t183.5 -108.5l-152 -188q-53 37 -84 61t-75.5 68t-75.5 90t-66.5 117.5t-66.5 160.5h-6q0 -73 32.5 -201t32.5 -235
v-1137q0 -107 -32.5 -235t-32.5 -201z" />
    <glyph glyph-name="uni2196" unicode="&#x2196;" horiz-adv-x="1511" 
d="M1382 57l-120 -123l-719 719q-48 48 -85.5 100t-57.5 89.5t-51 84t-68 83.5l-7 -4q51 -106 78.5 -192.5t32.5 -162.5t0.5 -128t-18.5 -130l-238 27q49 152 58.5 270.5t-12.5 219.5t-79 233l80 78q132 -56 232.5 -77.5t219.5 -12t271 58.5l25 -238q-78 -14 -129 -19
t-127.5 -0.5t-163 31.5t-191.5 78l-4 -4q37 -37 82.5 -68.5t83 -51t89.5 -57t100 -85.5z" />
    <glyph glyph-name="uni2197" unicode="&#x2197;" horiz-adv-x="1511" 
d="M969 653l-719 -719l-121 123l719 719q60 60 125.5 102t124 78t104.5 82l-4 4q-105 -51 -191 -78t-162.5 -31.5t-127 0.5t-129.5 19l24 238q152 -49 271 -58.5t219.5 12t232.5 77.5l80 -78q-57 -131 -78.5 -232.5t-11.5 -219.5t59 -271l-239 -27q-14 78 -18.5 130t0 128
t32 162.5t78.5 192.5l-4 4q-46 -46 -82.5 -106t-79 -125.5t-102.5 -125.5z" />
    <glyph glyph-name="uni2198" unicode="&#x2198;" horiz-adv-x="1511" 
d="M129 1049l121 122l719 -718q60 -60 102.5 -125.5t79 -125.5t82.5 -106l4 4q-51 106 -78.5 192.5t-32 162.5t0 128t18.5 130l239 -27q-49 -153 -59 -271t11.5 -219.5t78.5 -232.5l-80 -78q-132 56 -232.5 77.5t-219.5 12t-271 -58.5l-24 238q78 14 129 18.5t127.5 0
t162.5 -31.5t191 -78l4 5q-46 46 -104.5 82t-124 78t-125.5 102z" />
    <glyph glyph-name="uni2199" unicode="&#x2199;" horiz-adv-x="1511" 
d="M543 453l719 718l120 -122l-718 -719q-48 -48 -100 -85.5t-89.5 -57t-83 -51t-82.5 -68.5l4 -5q85 41 160 66t130.5 36t117 10.5t101.5 -5.5t102 -16l-25 -238q-152 49 -271 58.5t-219.5 -12t-232.5 -77.5l-80 78q57 132 79 233t12.5 219.5t-58.5 270.5l238 27
q14 -78 18.5 -130t-0.5 -128t-32.5 -162.5t-78.5 -192.5l7 -4q37 37 68 83.5t51 84t57.5 89.5t85.5 100z" />
    <glyph glyph-name="partialdiff" unicode="&#x2202;" horiz-adv-x="1318" 
d="M723 1659q236 0 359 -195.5t120 -562.5q-2 -128 -18 -243.5t-47 -219t-80 -187t-113 -144.5t-149.5 -94t-186.5 -33q-220 0 -363 154.5t-143 395.5q0 116 37.5 217t106.5 176.5t174 119.5t233 44q87 0 163.5 -22.5t130.5 -60t87.5 -70t59.5 -68.5q-8 114 -38 202t-72 142
t-98 89t-111 48t-116 13q-108 0 -203.5 -42.5t-160.5 -119.5h-55q23 60 40.5 101t44.5 93.5t53 87.5t62.5 72t76.5 58t93 35t113 14zM666 106q115 0 214 94t156 244t60 316q-97 203 -252 203q-83 0 -154 -56.5t-115.5 -144.5t-69 -187.5t-24.5 -191.5q0 -131 47 -204
t138 -73z" />
    <glyph glyph-name="emptyset" unicode="&#x2205;" horiz-adv-x="1427" 
d="M1243 1241l82 -80l-197 -194q119 -148 119 -336q0 -145 -71.5 -268.5t-194.5 -195t-268 -71.5q-188 0 -336 119l-195 -195l-80 80l195 195q-119 148 -119 336q0 145 71.5 268t195 194.5t268.5 71.5q189 0 336 -118zM293 631q0 -140 86 -254l588 588q-114 86 -254 86
q-173 0 -296.5 -123.5t-123.5 -296.5zM1133 631q0 137 -86 254l-588 -588q117 -86 254 -86q173 0 296.5 123.5t123.5 296.5z" />
    <glyph glyph-name="product" unicode="&#x220f;" horiz-adv-x="2002" 
d="M2243 1645l-19 -58q-117 0 -180.5 -41t-91.5 -133l-471 -1544q-19 -59 -13.5 -97.5t47.5 -56.5t130 -18l-17 -59h-823l16 59q117 0 181 41t92 131l508 1661h-568l-508 -1661q-19 -59 -13.5 -97.5t47.5 -56.5t130 -18l-16 -59h-824l17 59q117 0 180.5 41t91.5 131
l473 1544q28 96 -4.5 135t-161.5 39l19 58h1778z" />
    <glyph glyph-name="summation" unicode="&#x2211;" horiz-adv-x="1613" 
d="M412 1645h1333l-21 -91l-67 -313l-53 35q14 78 16.5 127.5t-16.5 77t-48 37.5t-79 10h-623l260 -637l-881 -903h791q94 0 174 89t166 292l43 -50l-154 -362l-135 -322h-1321l19 60l952 983l2 6l-377 901z" />
    <glyph glyph-name="minus" unicode="&#x2212;" horiz-adv-x="1048" 
d="M967 494h-881l74 241h880z" />
    <glyph glyph-name="radical" unicode="&#x221a;" horiz-adv-x="1783" 
d="M2042 1905h115l-1489 -2145h-113l-149 998l-300 -125l-4 102l689 285l96 -770h6z" />
    <glyph glyph-name="infinity" unicode="&#x221e;" horiz-adv-x="2351" 
d="M1829 1335q215 0 354 -124t139 -337q0 -210 -135 -344.5t-356 -134.5q-89 0 -169.5 23t-150 67t-125 92t-116.5 115q-318 -256 -602 -256q-209 0 -329 113.5t-120 302.5q0 198 125 320t318 122q84 0 161 -24t143 -69.5t117 -92.5t107 -111q108 95 181 151t151.5 102.5
t151 65.5t155.5 19zM1839 514q113 0 198 52t128 136t43 185q0 138 -82 216.5t-209 78.5q-46 0 -87.5 -12.5t-74 -31t-74 -55t-72.5 -68t-86 -88t-98 -98.5l-53 -49q111 -125 222 -195.5t245 -70.5zM582 590q37 0 70 7t72 27t70 39t84 62.5t91.5 77t113.5 100.5h2
q-127 142 -223 208.5t-207 66.5q-140 0 -230.5 -98.5t-90.5 -237.5q0 -119 70 -185.5t178 -66.5z" />
    <glyph glyph-name="integral" unicode="&#x222b;" horiz-adv-x="1220" 
d="M729 66q-48 -225 -186 -330t-359 -105q-146 0 -223.5 44t-77.5 128q0 73 49.5 127t124.5 54q88 0 88 -80q0 -7 -0.5 -28t0 -31.5t2 -28.5t6 -28t12.5 -21t21 -16t31 -5q57 0 103 60.5t67 168.5q17 79 33.5 256.5t30.5 349.5t43.5 371t70.5 328q138 440 561 440
q137 0 212 -44t75 -128q0 -72 -47.5 -126t-126.5 -54q-51 0 -69.5 23t-18.5 71q0 11 1.5 31.5t2 33.5t-2.5 29.5t-9.5 26t-20.5 16.5t-35 7q-58 0 -101 -60t-81 -184q-44 -140 -72.5 -334.5t-38.5 -355t-26.5 -335.5t-38.5 -271z" />
    <glyph glyph-name="approxequal" unicode="&#x2248;" horiz-adv-x="1533" 
d="M1544 1128l62 -8q-174 -456 -449 -456q-74 0 -142 22t-120 54t-102.5 63.5t-113 53.5t-128.5 22q-111 0 -202.5 -55t-147.5 -160l-62 6q173 456 449 456q74 0 142 -22t119.5 -54t102.5 -63.5t112.5 -53.5t127.5 -22q114 0 205 55.5t147 161.5zM1399 657l61 -8
q-79 -211 -190.5 -333.5t-257.5 -122.5q-74 0 -142 22t-119.5 53.5t-102.5 63.5t-112.5 54t-127.5 22q-112 0 -204.5 -55t-148.5 -160l-61 6q173 456 448 456q74 0 142 -22t120 -53.5t102.5 -63.5t112.5 -54t128 -22q114 0 205 55.5t147 161.5z" />
    <glyph glyph-name="notequal" unicode="&#x2260;" horiz-adv-x="1038" 
d="M1049 1319h98l-291 -365h201l-74 -243h-319l-154 -193h436l-76 -242h-553l-243 -307h-99l244 307h-160l74 242h279l153 193h-393l72 243h514z" />
    <glyph glyph-name="lessequal" unicode="&#x2264;" horiz-adv-x="1144" 
d="M1245 1317l-98 -279l-750 -192l-4 -6l674 -195l-84 -219l-84 -254h-901l80 254h854l-789 256l109 369z" />
    <glyph glyph-name="greaterequal" unicode="&#x2265;" horiz-adv-x="1142" 
d="M358 1317l834 -268l-111 -369l-938 -254h854l-84 -254h-903l82 254h2l92 264l750 195l4 6l-674 192z" />
    <glyph glyph-name="uni2460" unicode="&#x2460;" 
d="M913 -20q-171 0 -311.5 50t-234 139.5t-144.5 213.5t-51 270q0 122 35.5 244t100 233t160.5 207.5t212 166.5t259.5 110.5t297.5 40.5q177 0 317.5 -53.5t228.5 -146t133.5 -212t45.5 -256.5q0 -118 -33.5 -238.5t-95.5 -232.5t-155.5 -210t-207 -170t-257.5 -114
t-300 -42zM922 27q147 0 282 39.5t241.5 108t194 160.5t145 197.5t89 219.5t31.5 225q0 130 -42 242.5t-123.5 200t-213 138t-299.5 50.5q-173 0 -331 -53.5t-277.5 -146t-208.5 -212.5t-135 -257t-46 -275q0 -284 185.5 -460.5t507.5 -176.5zM1348 1294l-248 -825
q-20 -61 -2 -82.5t92 -21.5l-14 -35h-521l13 35q69 0 99.5 21.5t49.5 82.5l182 598q12 39 14.5 54.5t-6 24t-30.5 2.5t-68 -24l2 41l406 164z" />
    <glyph glyph-name="uni2461" unicode="&#x2461;" 
d="M913 -20q-171 0 -311.5 50t-234 139.5t-144.5 213.5t-51 270q0 122 35.5 244t100 233t160.5 207.5t212 166.5t259.5 110.5t297.5 40.5q177 0 317.5 -53.5t228.5 -146t133.5 -212t45.5 -256.5q0 -118 -33.5 -238.5t-95.5 -232.5t-155.5 -210t-207 -170t-257.5 -114
t-300 -42zM922 27q147 0 282 39.5t241.5 108t194 160.5t145 197.5t89 219.5t31.5 225q0 130 -42 242.5t-123.5 200t-213 138t-299.5 50.5q-173 0 -331 -53.5t-277.5 -146t-208.5 -212.5t-135 -257t-46 -275q0 -284 185.5 -460.5t507.5 -176.5zM1137 330h-568l11 35
q108 87 168.5 137.5t137.5 118.5t117.5 113t80 99t55.5 101t16 94q0 51 -31 75.5t-84 24.5q-71 0 -129 -47.5t-98 -138.5h-37q52 172 185.5 279.5t291.5 107.5q98 0 150.5 -44t52.5 -124q0 -60 -34 -125.5t-84 -122t-134 -126t-156 -121t-178 -123.5l-4 -15h262q57 0 100 34
t91 106h37z" />
    <glyph glyph-name="uni2462" unicode="&#x2462;" 
d="M913 -20q-171 0 -311.5 50t-234 139.5t-144.5 213.5t-51 270q0 122 35.5 244t100 233t160.5 207.5t212 166.5t259.5 110.5t297.5 40.5q177 0 317.5 -53.5t228.5 -146t133.5 -212t45.5 -256.5q0 -118 -33.5 -238.5t-95.5 -232.5t-155.5 -210t-207 -170t-257.5 -114
t-300 -42zM922 27q147 0 282 39.5t241.5 108t194 160.5t145 197.5t89 219.5t31.5 225q0 130 -42 242.5t-123.5 200t-213 138t-299.5 50.5q-173 0 -331 -53.5t-277.5 -146t-208.5 -212.5t-135 -257t-46 -275q0 -284 185.5 -460.5t507.5 -176.5zM840 309q-93 0 -157.5 30
t-64.5 83q0 43 32 73.5t79 30.5q33 0 52 -21t25 -45.5t23.5 -45.5t47.5 -21q70 0 130 82t60 201q0 73 -44.5 110t-119.5 37l10 37q130 23 203.5 85.5t73.5 148.5q0 40 -27.5 64t-81.5 24q-131 0 -186 -131h-39q51 134 151.5 205t239.5 71q96 0 150.5 -43t54.5 -127
q0 -103 -96 -186.5t-244 -108.5l-2 -10q99 0 167.5 -49t68.5 -148q0 -138 -145.5 -242t-360.5 -104z" />
    <glyph glyph-name="uni2463" unicode="&#x2463;" 
d="M913 -20q-171 0 -311.5 50t-234 139.5t-144.5 213.5t-51 270q0 122 35.5 244t100 233t160.5 207.5t212 166.5t259.5 110.5t297.5 40.5q177 0 317.5 -53.5t228.5 -146t133.5 -212t45.5 -256.5q0 -118 -33.5 -238.5t-95.5 -232.5t-155.5 -210t-207 -170t-257.5 -114
t-300 -42zM922 27q147 0 282 39.5t241.5 108t194 160.5t145 197.5t89 219.5t31.5 225q0 130 -42 242.5t-123.5 200t-213 138t-299.5 50.5q-173 0 -331 -53.5t-277.5 -146t-208.5 -212.5t-135 -257t-46 -275q0 -284 185.5 -460.5t507.5 -176.5zM946 571h-340l56 193l575 559
h180l-172 -559h123l-59 -193h-121l-33 -104q-20 -61 -4 -83t88 -22l-14 -34h-469l12 34q67 0 97.5 21.5t49.5 83.5zM756 768l-4 -4h254l116 360z" />
    <glyph glyph-name="uni2464" unicode="&#x2464;" 
d="M913 -20q-171 0 -311.5 50t-234 139.5t-144.5 213.5t-51 270q0 122 35.5 244t100 233t160.5 207.5t212 166.5t259.5 110.5t297.5 40.5q177 0 317.5 -53.5t228.5 -146t133.5 -212t45.5 -256.5q0 -118 -33.5 -238.5t-95.5 -232.5t-155.5 -210t-207 -170t-257.5 -114
t-300 -42zM922 27q147 0 282 39.5t241.5 108t194 160.5t145 197.5t89 219.5t31.5 225q0 130 -42 242.5t-123.5 200t-213 138t-299.5 50.5q-173 0 -331 -53.5t-277.5 -146t-208.5 -212.5t-135 -257t-46 -275q0 -284 185.5 -460.5t507.5 -176.5zM850 309q-92 0 -154.5 27.5
t-62.5 79.5q0 44 37 78t84 34q33 0 52 -21t24.5 -46.5t20 -46.5t38.5 -21q44 0 93.5 57t82.5 143t33 163q0 104 -92 104q-77 0 -156 -82l-43 37l217 479h455l-93 -200h-329l-76 -172l8 -4q54 28 91 39.5t81 11.5q41 0 78 -10.5t69.5 -32t52 -61t19.5 -91.5
q0 -126 -71.5 -233t-193.5 -169.5t-265 -62.5z" />
    <glyph glyph-name="uni2465" unicode="&#x2465;" 
d="M913 -20q-171 0 -311.5 50t-234 139.5t-144.5 213.5t-51 270q0 122 35.5 244t100 233t160.5 207.5t212 166.5t259.5 110.5t297.5 40.5q177 0 317.5 -53.5t228.5 -146t133.5 -212t45.5 -256.5q0 -118 -33.5 -238.5t-95.5 -232.5t-155.5 -210t-207 -170t-257.5 -114
t-300 -42zM922 27q147 0 282 39.5t241.5 108t194 160.5t145 197.5t89 219.5t31.5 225q0 130 -42 242.5t-123.5 200t-213 138t-299.5 50.5q-173 0 -331 -53.5t-277.5 -146t-208.5 -212.5t-135 -257t-46 -275q0 -284 185.5 -460.5t507.5 -176.5zM928 303q-141 0 -221 74
t-80 219q0 126 60 245.5t168 218.5t272.5 168.5t361.5 92.5l8 -43q-270 -58 -455 -309l7 -6q73 47 147 47q101 0 159 -57.5t58 -157.5q0 -57 -18 -122t-58 -131t-95 -119t-137 -86.5t-177 -33.5zM920 375q48 0 95 55t78.5 132t51.5 156t20 130q0 90 -57 90q-45 0 -92 -41
q-53 -83 -101.5 -217.5t-48.5 -220.5q0 -84 54 -84z" />
    <glyph glyph-name="uni2466" unicode="&#x2466;" 
d="M913 -20q-171 0 -311.5 50t-234 139.5t-144.5 213.5t-51 270q0 122 35.5 244t100 233t160.5 207.5t212 166.5t259.5 110.5t297.5 40.5q177 0 317.5 -53.5t228.5 -146t133.5 -212t45.5 -256.5q0 -118 -33.5 -238.5t-95.5 -232.5t-155.5 -210t-207 -170t-257.5 -114
t-300 -42zM922 27q147 0 282 39.5t241.5 108t194 160.5t145 197.5t89 219.5t31.5 225q0 130 -42 242.5t-123.5 200t-213 138t-299.5 50.5q-173 0 -331 -53.5t-277.5 -146t-208.5 -212.5t-135 -257t-46 -275q0 -284 185.5 -460.5t507.5 -176.5zM1544 1294l-645 -985l-192 56
l526 731h-277q-56 0 -98 -35t-80 -109l-26 27l65 127l96 188h631z" />
    <glyph glyph-name="uni2467" unicode="&#x2467;" 
d="M913 -20q-171 0 -311.5 50t-234 139.5t-144.5 213.5t-51 270q0 122 35.5 244t100 233t160.5 207.5t212 166.5t259.5 110.5t297.5 40.5q177 0 317.5 -53.5t228.5 -146t133.5 -212t45.5 -256.5q0 -118 -33.5 -238.5t-95.5 -232.5t-155.5 -210t-207 -170t-257.5 -114
t-300 -42zM922 27q147 0 282 39.5t241.5 108t194 160.5t145 197.5t89 219.5t31.5 225q0 130 -42 242.5t-123.5 200t-213 138t-299.5 50.5q-173 0 -331 -53.5t-277.5 -146t-208.5 -212.5t-135 -257t-46 -275q0 -284 185.5 -460.5t507.5 -176.5zM645 512q0 52 23 97.5t67.5 83
t86.5 64t102 56.5q-93 122 -93 197q0 132 124.5 223.5t297.5 91.5q113 0 179.5 -51.5t66.5 -143.5q0 -136 -262 -266q40 -47 59.5 -73t40.5 -70.5t21 -83.5q0 -137 -126.5 -232.5t-309.5 -95.5q-120 0 -198.5 55t-78.5 148zM1087 1100q0 -52 74 -146q137 96 137 205
q0 90 -75 90q-50 0 -93 -43t-43 -106zM848 498q0 -51 24 -82t72 -31q61 0 104.5 41t43.5 100q0 40 -22.5 85.5t-78.5 113.5q-143 -115 -143 -227z" />
    <glyph glyph-name="uni2468" unicode="&#x2468;" 
d="M1221 1659q171 0 311.5 -50.5t234 -140t144.5 -213.5t51 -270t-49.5 -291.5t-144.5 -272.5t-222.5 -225t-296 -155t-352.5 -57q-143 0 -262 35t-204 96.5t-144 145.5t-87 182.5t-28 207.5q0 118 33.5 239t95.5 233t155.5 209.5t207 170t257.5 114.5t300 42zM1212 1612
q-147 0 -282 -39.5t-241.5 -108t-194 -160.5t-145 -197.5t-89 -219.5t-31.5 -225q0 -130 42 -242.5t123.5 -200t213 -138t299.5 -50.5q173 0 331 53.5t277.5 146t208.5 212.5t135 257t46 275q0 284 -185.5 460.5t-507.5 176.5zM1208 1335q141 0 221 -74t80 -219
q0 -126 -60 -245.5t-168 -218.5t-272.5 -168.5t-361.5 -92.5l-8 45q269 55 455 308l-7 6q-78 -47 -147 -47q-102 0 -159.5 57.5t-57.5 157.5q0 57 18 121.5t58 130.5t95 119t137 86.5t177 33.5zM1217 1264q-48 0 -95.5 -55t-79.5 -132t-51.5 -155t-19.5 -129q0 -93 57 -93
q45 0 92 41q53 82 101.5 217.5t48.5 221.5q0 84 -53 84z" />
    <glyph glyph-name="uni2469" unicode="&#x2469;" 
d="M913 -20q-171 0 -311.5 50t-234 139.5t-144.5 213.5t-51 270q0 122 35.5 244t100 233t160.5 207.5t212 166.5t259.5 110.5t297.5 40.5q177 0 317.5 -53.5t228.5 -146t133.5 -212t45.5 -256.5q0 -118 -33.5 -238.5t-95.5 -232.5t-155.5 -210t-207 -170t-257.5 -114
t-300 -42zM922 27q147 0 282 39.5t241.5 108t194 160.5t145 197.5t89 219.5t31.5 225q0 130 -42 242.5t-123.5 200t-213 138t-299.5 50.5q-173 0 -331 -53.5t-277.5 -146t-208.5 -212.5t-135 -257t-46 -275q0 -284 185.5 -460.5t507.5 -176.5zM1038 1294l-237 -825
q-20 -61 -3 -82.5t89 -21.5l-15 -35h-501l12 35q66 0 96 21.5t49 82.5l174 598q12 38 14.5 54t-5.5 25t-29.5 2.5t-65.5 -24.5l2 43l146 60l244 102zM1229 309q-138 0 -216.5 92t-78.5 252q0 159 74 315.5t199.5 257.5t262.5 101q135 0 217 -97t82 -259q0 -119 -45 -239.5
t-118 -213.5t-173 -151t-204 -58zM1225 387q48 0 119.5 121.5t125.5 302.5t54 326q0 112 -39 112q-38 0 -91.5 -76t-101 -186t-81 -244.5t-33.5 -240.5q0 -115 47 -115z" />
    <glyph glyph-name="uni246A" unicode="&#x246a;" 
d="M913 -20q-171 0 -311.5 50t-234 139.5t-144.5 213.5t-51 270q0 122 35.5 244t100 233t160.5 207.5t212 166.5t259.5 110.5t297.5 40.5q177 0 317.5 -53.5t228.5 -146t133.5 -212t45.5 -256.5q0 -118 -33.5 -238.5t-95.5 -232.5t-155.5 -210t-207 -170t-257.5 -114
t-300 -42zM922 27q147 0 282 39.5t241.5 108t194 160.5t145 197.5t89 219.5t31.5 225q0 130 -42 242.5t-123.5 200t-213 138t-299.5 50.5q-173 0 -331 -53.5t-277.5 -146t-208.5 -212.5t-135 -257t-46 -275q0 -284 185.5 -460.5t507.5 -176.5zM1112 1294l-248 -825
q-20 -61 -2.5 -82.5t92.5 -21.5l-16 -35h-520l14 35q68 0 99.5 21.5t50.5 82.5l180 598q10 31 13 45.5t1.5 26t-14.5 11t-33 -6t-57 -19.5l2 41l405 164zM1655 1294l-246 -825q-20 -61 -3 -82.5t91 -21.5l-14 -35h-520l14 35q68 0 99 21.5t50 82.5l181 598q10 31 13 45.5
t1.5 26t-14.5 11t-33 -6t-57 -19.5l2 41l405 164z" />
    <glyph glyph-name="uni246B" unicode="&#x246b;" 
d="M913 -20q-171 0 -311.5 50t-234 139.5t-144.5 213.5t-51 270q0 122 35.5 244t100 233t160.5 207.5t212 166.5t259.5 110.5t297.5 40.5q177 0 317.5 -53.5t228.5 -146t133.5 -212t45.5 -256.5q0 -118 -33.5 -238.5t-95.5 -232.5t-155.5 -210t-207 -170t-257.5 -114
t-300 -42zM922 27q147 0 282 39.5t241.5 108t194 160.5t145 197.5t89 219.5t31.5 225q0 130 -42 242.5t-123.5 200t-213 138t-299.5 50.5q-173 0 -331 -53.5t-277.5 -146t-208.5 -212.5t-135 -257t-46 -275q0 -284 185.5 -460.5t507.5 -176.5zM1042 1294l-247 -825
q-20 -61 -2.5 -82.5t92.5 -21.5l-15 -35h-522l14 35q68 0 99.5 21.5t50.5 82.5l182 598q21 70 8 79.5t-100 -22.5l4 41l404 164zM1458 330h-567l10 35q93 75 146 118.5t123.5 104.5t109 99.5t82.5 88.5t65 88t35.5 80.5t14.5 83.5q0 51 -31 75.5t-84 24.5q-71 0 -129 -47.5
t-98 -138.5h-37q52 172 185.5 279.5t291.5 107.5q98 0 150.5 -44t52.5 -124q0 -60 -34 -125.5t-84 -122t-134 -126t-156 -121t-178 -123.5l-4 -15h262q56 0 99 34t91 106h37z" />
    <glyph glyph-name="uni246C" unicode="&#x246c;" 
d="M913 -20q-171 0 -311.5 50t-234 139.5t-144.5 213.5t-51 270q0 122 35.5 244t100 233t160.5 207.5t212 166.5t259.5 110.5t297.5 40.5q177 0 317.5 -53.5t228.5 -146t133.5 -212t45.5 -256.5q0 -118 -33.5 -238.5t-95.5 -232.5t-155.5 -210t-207 -170t-257.5 -114
t-300 -42zM922 27q147 0 282 39.5t241.5 108t194 160.5t145 197.5t89 219.5t31.5 225q0 130 -42 242.5t-123.5 200t-213 138t-299.5 50.5q-173 0 -331 -53.5t-277.5 -146t-208.5 -212.5t-135 -257t-46 -275q0 -284 185.5 -460.5t507.5 -176.5zM1036 1294l-248 -825
q-19 -61 -1 -82.5t92 -21.5l-15 -35h-522l14 35q69 0 100 21.5t50 82.5l182 598q12 39 14.5 54.5t-6 24t-30.5 2.5t-68 -24l2 41l404 164zM1143 309q-92 0 -156.5 30t-64.5 83q0 43 31.5 73.5t78.5 30.5q33 0 52 -21t25.5 -45.5t24 -45.5t48.5 -21q70 0 129 82t59 201
q0 72 -44 109.5t-118 37.5l9 37q130 23 203 85t73 149q0 40 -27.5 64t-79.5 24q-134 0 -186 -131h-41q51 134 151.5 205t239.5 71q96 0 150.5 -43t54.5 -127q0 -103 -96 -186.5t-244 -108.5l-2 -10q99 0 167.5 -49t68.5 -148q0 -138 -145.5 -242t-360.5 -104z" />
    <glyph glyph-name="uni246D" unicode="&#x246d;" 
d="M913 -20q-171 0 -311.5 50t-234 139.5t-144.5 213.5t-51 270q0 122 35.5 244t100 233t160.5 207.5t212 166.5t259.5 110.5t297.5 40.5q177 0 317.5 -53.5t228.5 -146t133.5 -212t45.5 -256.5q0 -118 -33.5 -238.5t-95.5 -232.5t-155.5 -210t-207 -170t-257.5 -114
t-300 -42zM922 27q147 0 282 39.5t241.5 108t194 160.5t145 197.5t89 219.5t31.5 225q0 130 -42 242.5t-123.5 200t-213 138t-299.5 50.5q-173 0 -331 -53.5t-277.5 -146t-208.5 -212.5t-135 -257t-46 -275q0 -284 185.5 -460.5t507.5 -176.5zM1044 1294l-247 -825
q-20 -61 -2 -82.5t92 -21.5l-15 -35h-520l13 35q69 0 99.5 21.5t49.5 82.5l182 598q12 39 14.5 54.5t-6 24t-30.5 2.5t-68 -24l2 41l406 164zM1249 571h-340l54 195l577 559h178l-172 -559h123l-59 -195h-121l-33 -102q-20 -61 -4 -82.5t88 -21.5l-14 -35h-469l14 35
q66 0 97 21.5t51 82.5zM1057 770l-4 -4h256l114 360z" />
    <glyph glyph-name="uni246E" unicode="&#x246e;" 
d="M913 -20q-171 0 -311.5 50t-234 139.5t-144.5 213.5t-51 270q0 122 35.5 244t100 233t160.5 207.5t212 166.5t259.5 110.5t297.5 40.5q177 0 317.5 -53.5t228.5 -146t133.5 -212t45.5 -256.5q0 -118 -33.5 -238.5t-95.5 -232.5t-155.5 -210t-207 -170t-257.5 -114
t-300 -42zM922 27q147 0 282 39.5t241.5 108t194 160.5t145 197.5t89 219.5t31.5 225q0 130 -42 242.5t-123.5 200t-213 138t-299.5 50.5q-173 0 -331 -53.5t-277.5 -146t-208.5 -212.5t-135 -257t-46 -275q0 -284 185.5 -460.5t507.5 -176.5zM1049 1294l-246 -825
q-20 -61 -3 -82.5t91 -21.5l-14 -35h-521l13 35q69 0 100 21.5t51 82.5l180 598q10 31 13 45.5t1.5 26t-14.5 11t-33 -6t-57 -19.5l2 41l406 164zM1147 319q-93 0 -156 27.5t-63 79.5q0 44 37.5 78.5t83.5 34.5q34 0 53 -21.5t25 -46.5t19.5 -46.5t37.5 -21.5q44 0 94 57
t83.5 143t33.5 163q0 52 -25.5 79t-69.5 27q-74 0 -155 -81l-41 34l217 480h455l-93 -201h-329l-78 -172l8 -4q56 29 92.5 41t79.5 12q56 0 103.5 -17.5t82.5 -64t35 -115.5q0 -125 -71 -232t-193.5 -170t-265.5 -63z" />
    <glyph glyph-name="uni246F" unicode="&#x246f;" 
d="M913 -20q-171 0 -311.5 50t-234 139.5t-144.5 213.5t-51 270q0 122 35.5 244t100 233t160.5 207.5t212 166.5t259.5 110.5t297.5 40.5q177 0 317.5 -53.5t228.5 -146t133.5 -212t45.5 -256.5q0 -118 -33.5 -238.5t-95.5 -232.5t-155.5 -210t-207 -170t-257.5 -114
t-300 -42zM922 27q147 0 282 39.5t241.5 108t194 160.5t145 197.5t89 219.5t31.5 225q0 130 -42 242.5t-123.5 200t-213 138t-299.5 50.5q-173 0 -331 -53.5t-277.5 -146t-208.5 -212.5t-135 -257t-46 -275q0 -284 185.5 -460.5t507.5 -176.5zM1047 1294l-248 -825
q-20 -61 -2.5 -82.5t92.5 -21.5l-17 -35h-520l15 35q68 0 99 21.5t50 82.5l180 598q10 31 13 45.5t1.5 26t-14.5 10.5t-33 -6.5t-57 -20.5l2 43l406 164zM1229 309q-134 0 -209.5 74.5t-75.5 218.5q0 126 56.5 245.5t159 218.5t258.5 168.5t343 92.5l8 -43
q-254 -57 -432 -309l6 -6q70 47 140 47q98 0 152.5 -57.5t54.5 -157.5q0 -57 -17.5 -122t-55 -131t-90.5 -119t-130.5 -86.5t-167.5 -33.5zM1221 381q45 0 90 55t75.5 132t49 156t18.5 130q0 90 -53 90q-44 0 -88 -41q-51 -85 -97.5 -219t-46.5 -219q0 -84 52 -84z" />
    <glyph glyph-name="uni2470" unicode="&#x2470;" 
d="M913 -20q-171 0 -311.5 50t-234 139.5t-144.5 213.5t-51 270q0 122 35.5 244t100 233t160.5 207.5t212 166.5t259.5 110.5t297.5 40.5q177 0 317.5 -53.5t228.5 -146t133.5 -212t45.5 -256.5q0 -118 -33.5 -238.5t-95.5 -232.5t-155.5 -210t-207 -170t-257.5 -114
t-300 -42zM922 27q147 0 282 39.5t241.5 108t194 160.5t145 197.5t89 219.5t31.5 225q0 130 -42 242.5t-123.5 200t-213 138t-299.5 50.5q-173 0 -331 -53.5t-277.5 -146t-208.5 -212.5t-135 -257t-46 -275q0 -284 185.5 -460.5t507.5 -176.5zM1055 1292l-248 -825
q-20 -61 -2.5 -83t92.5 -22l-16 -34h-521l15 34q68 0 99 22t50 83l181 598q12 38 15 54.5t-6 24.5t-31.5 2t-68.5 -24l2 43l154 60l252 102zM1802 1300l-626 -985l-187 58l510 729h-264q-107 0 -174 -137l-29 24l64 125l94 186h612z" />
    <glyph glyph-name="uni2471" unicode="&#x2471;" 
d="M913 -20q-171 0 -311.5 50t-234 139.5t-144.5 213.5t-51 270q0 122 35.5 244t100 233t160.5 207.5t212 166.5t259.5 110.5t297.5 40.5q177 0 317.5 -53.5t228.5 -146t133.5 -212t45.5 -256.5q0 -118 -33.5 -238.5t-95.5 -232.5t-155.5 -210t-207 -170t-257.5 -114
t-300 -42zM922 27q147 0 282 39.5t241.5 108t194 160.5t145 197.5t89 219.5t31.5 225q0 130 -42 242.5t-123.5 200t-213 138t-299.5 50.5q-173 0 -331 -53.5t-277.5 -146t-208.5 -212.5t-135 -257t-46 -275q0 -284 185.5 -460.5t507.5 -176.5zM1040 1294l-245 -825
q-20 -61 -3 -82.5t91 -21.5l-15 -35h-520l12 35q69 0 100 21.5t50 82.5l182 598q12 39 14.5 54.5t-6 24t-30.5 2.5t-68 -24l2 41l406 164zM928 512q0 52 23 97.5t67 83t86.5 64t101.5 56.5q-92 121 -92 197q0 87 57 160t154 114t211 41q113 0 179.5 -51.5t66.5 -143.5
q0 -136 -262 -266q37 -44 57.5 -72t40.5 -72t20 -83q0 -136 -126 -232t-308 -96q-121 0 -198.5 55t-77.5 148zM1370 1100q0 -57 74 -146q137 96 137 205q0 92 -76 92q-50 0 -92.5 -44t-42.5 -107zM1130 500q0 -115 97 -115q61 0 104 41t43 100q0 40 -22 85.5t-78 113.5
q-144 -116 -144 -225z" />
    <glyph glyph-name="uni2472" unicode="&#x2472;" 
d="M913 -20q-171 0 -311.5 50t-234 139.5t-144.5 213.5t-51 270q0 122 35.5 244t100 233t160.5 207.5t212 166.5t259.5 110.5t297.5 40.5q177 0 317.5 -53.5t228.5 -146t133.5 -212t45.5 -256.5q0 -118 -33.5 -238.5t-95.5 -232.5t-155.5 -210t-207 -170t-257.5 -114
t-300 -42zM922 27q147 0 282 39.5t241.5 108t194 160.5t145 197.5t89 219.5t31.5 225q0 130 -42 242.5t-123.5 200t-213 138t-299.5 50.5q-173 0 -331 -53.5t-277.5 -146t-208.5 -212.5t-135 -257t-46 -275q0 -284 185.5 -460.5t507.5 -176.5zM1520 1335q142 0 221.5 -73.5
t79.5 -217.5q0 -126 -60 -245.5t-168.5 -218t-273 -169t-361.5 -94.5l-8 45q271 58 455 308l-6 6q-75 -45 -148 -45q-101 0 -159 57.5t-58 157.5q0 57 18.5 121t58 129.5t95 118.5t137.5 86.5t177 33.5zM1042 1294l-247 -825q-20 -61 -2 -82.5t92 -21.5l-15 -35h-522l14 35
q69 0 100 21.5t50 82.5l182 598q12 39 14.5 54.5t-6 24t-30.5 2.5t-68 -24l2 41l404 164zM1528 1264q-48 0 -95 -55t-79 -131.5t-52 -155t-20 -129.5q0 -93 57 -93q47 0 93 43q53 82 101 217t48 220q0 84 -53 84z" />
    <glyph glyph-name="uni2473" unicode="&#x2473;" 
d="M913 -20q-171 0 -311.5 50t-234 139.5t-144.5 213.5t-51 270q0 122 35.5 244t100 233t160.5 207.5t212 166.5t259.5 110.5t297.5 40.5q177 0 317.5 -53.5t228.5 -146t133.5 -212t45.5 -256.5q0 -118 -33.5 -238.5t-95.5 -232.5t-155.5 -210t-207 -170t-257.5 -114
t-300 -42zM922 27q147 0 282 39.5t241.5 108t194 160.5t145 197.5t89 219.5t31.5 225q0 130 -42 242.5t-123.5 200t-213 138t-299.5 50.5q-173 0 -331 -53.5t-277.5 -146t-208.5 -212.5t-135 -257t-46 -275q0 -284 185.5 -460.5t507.5 -176.5zM844 330h-510l10 35
q96 87 151.5 138t124 118t105 113t71.5 99t49.5 100t14.5 95q0 100 -102 100q-63 0 -115.5 -47.5t-89.5 -138.5h-33q47 172 167.5 279.5t262.5 107.5q87 0 135 -44t48 -124q0 -60 -30.5 -125.5t-75.5 -122t-121 -126t-141 -121t-161 -123.5l-4 -15h238q51 0 88.5 34
t81.5 106h34zM1331 309q-129 0 -202.5 92t-73.5 252q0 159 69.5 315.5t187.5 257.5t247 101q128 0 204 -96.5t76 -259.5q0 -119 -42.5 -239.5t-111.5 -213.5t-163 -151t-191 -58zM1329 387q45 0 111.5 121.5t117 302t50.5 326.5q0 59 -8.5 85.5t-28.5 26.5
q-47 0 -115.5 -123.5t-120 -303.5t-51.5 -320q0 -62 10.5 -88.5t34.5 -26.5z" />
    <glyph glyph-name="uni24EA" unicode="&#x24ea;" 
d="M913 -20q-171 0 -311.5 50t-234 139.5t-144.5 213.5t-51 270q0 122 35.5 244t100 233t160.5 207.5t212 166.5t259.5 110.5t297.5 40.5q177 0 317.5 -53.5t228.5 -146t133.5 -212t45.5 -256.5q0 -118 -33.5 -238.5t-95.5 -232.5t-155.5 -210t-207 -170t-257.5 -114
t-300 -42zM922 27q147 0 282 39.5t241.5 108t194 160.5t145 197.5t89 219.5t31.5 225q0 130 -42 242.5t-123.5 200t-213 138t-299.5 50.5q-173 0 -331 -53.5t-277.5 -146t-208.5 -212.5t-135 -257t-46 -275q0 -284 185.5 -460.5t507.5 -176.5zM940 309q-152 0 -239 92
t-87 252q0 119 49.5 241t129.5 217t190 155.5t223 60.5q151 0 241.5 -97t90.5 -259q0 -119 -50 -239.5t-131 -213.5t-192 -151t-225 -58zM938 387q40 0 97.5 75t108.5 184t87.5 245t36.5 246q0 112 -45 112q-56 0 -136.5 -123.5t-141 -303t-60.5 -320.5q0 -115 53 -115z" />
    <glyph glyph-name="uni24EB" unicode="&#x24eb;" 
d="M913 -20q156 0 300 42t257.5 114t207 170t155.5 210t95.5 232.5t33.5 238.5q0 137 -45.5 256.5t-133.5 212t-228.5 146t-317.5 53.5q-154 0 -297.5 -40.5t-259.5 -110.5t-212 -166.5t-160.5 -207.5t-100 -233t-35.5 -244q0 -146 51 -270t144.5 -213.5t234 -139.5
t311.5 -50zM1112 1294l-248 -825q-20 -61 -2.5 -82.5t92.5 -21.5l-16 -35h-520l14 35q68 0 99.5 21.5t50.5 82.5l180 598q10 31 13 45.5t1.5 26t-14.5 11t-33 -6t-57 -19.5l2 41l405 164zM1655 1294l-246 -825q-20 -61 -3 -82.5t91 -21.5l-14 -35h-520l14 35q68 0 99 21.5
t50 82.5l181 598q10 31 13 45.5t1.5 26t-14.5 11t-33 -6t-57 -19.5l2 41l405 164z" />
    <glyph glyph-name="uni24EC" unicode="&#x24ec;" 
d="M913 -20q156 0 300 42t257.5 114t207 170t155.5 210t95.5 232.5t33.5 238.5q0 137 -45.5 256.5t-133.5 212t-228.5 146t-317.5 53.5q-154 0 -297.5 -40.5t-259.5 -110.5t-212 -166.5t-160.5 -207.5t-100 -233t-35.5 -244q0 -146 51 -270t144.5 -213.5t234 -139.5
t311.5 -50zM1042 1294l-247 -825q-20 -61 -2.5 -82.5t92.5 -21.5l-15 -35h-522l14 35q68 0 99.5 21.5t50.5 82.5l182 598q21 70 8 79.5t-100 -22.5l4 41l404 164zM1458 330h-567l10 35q93 75 146 118.5t123.5 104.5t109 99.5t82.5 88.5t65 88t35.5 80.5t14.5 83.5
q0 51 -31 75.5t-84 24.5q-71 0 -129 -47.5t-98 -138.5h-37q52 172 185.5 279.5t291.5 107.5q98 0 150.5 -44t52.5 -124q0 -60 -34 -125.5t-84 -122t-134 -126t-156 -121t-178 -123.5l-4 -15h262q56 0 99 34t91 106h37z" />
    <glyph glyph-name="uni24ED" unicode="&#x24ed;" 
d="M913 -20q156 0 300 42t257.5 114t207 170t155.5 210t95.5 232.5t33.5 238.5q0 137 -45.5 256.5t-133.5 212t-228.5 146t-317.5 53.5q-154 0 -297.5 -40.5t-259.5 -110.5t-212 -166.5t-160.5 -207.5t-100 -233t-35.5 -244q0 -146 51 -270t144.5 -213.5t234 -139.5
t311.5 -50zM1036 1294l-248 -825q-19 -61 -1 -82.5t92 -21.5l-15 -35h-522l14 35q69 0 100 21.5t50 82.5l182 598q12 39 14.5 54.5t-6 24t-30.5 2.5t-68 -24l2 41l404 164zM1143 309q-92 0 -156.5 30t-64.5 83q0 43 31.5 73.5t78.5 30.5q33 0 52 -21t25.5 -45.5t24 -45.5
t48.5 -21q70 0 129 82t59 201q0 72 -44 109.5t-118 37.5l9 37q130 23 203 85t73 149q0 40 -27.5 64t-79.5 24q-134 0 -186 -131h-41q51 134 151.5 205t239.5 71q96 0 150.5 -43t54.5 -127q0 -103 -96 -186.5t-244 -108.5l-2 -10q99 0 167.5 -49t68.5 -148
q0 -138 -145.5 -242t-360.5 -104z" />
    <glyph glyph-name="uni24EE" unicode="&#x24ee;" 
d="M913 -20q156 0 300 42t257.5 114t207 170t155.5 210t95.5 232.5t33.5 238.5q0 137 -45.5 256.5t-133.5 212t-228.5 146t-317.5 53.5q-154 0 -297.5 -40.5t-259.5 -110.5t-212 -166.5t-160.5 -207.5t-100 -233t-35.5 -244q0 -146 51 -270t144.5 -213.5t234 -139.5
t311.5 -50zM1026 1294l-246 -825q-20 -61 -3 -82.5t91 -21.5l-14 -35h-520l12 35q69 0 100.5 21.5t51.5 82.5l180 598q10 31 13 45.5t1.5 26t-14.5 11t-33 -6t-57 -19.5l2 41l405 164zM1249 571h-340l54 195l577 559h178l-172 -559h123l-59 -195h-121l-33 -102
q-20 -61 -4 -82.5t88 -21.5l-14 -35h-469l14 35q66 0 97 21.5t51 82.5zM1057 770l-4 -4h256l114 360z" />
    <glyph glyph-name="uni24EF" unicode="&#x24ef;" 
d="M913 -20q156 0 300 42t257.5 114t207 170t155.5 210t95.5 232.5t33.5 238.5q0 137 -45.5 256.5t-133.5 212t-228.5 146t-317.5 53.5q-154 0 -297.5 -40.5t-259.5 -110.5t-212 -166.5t-160.5 -207.5t-100 -233t-35.5 -244q0 -146 51 -270t144.5 -213.5t234 -139.5
t311.5 -50zM1049 1294l-246 -825q-20 -61 -3 -82.5t91 -21.5l-14 -35h-521l13 35q69 0 100 21.5t51 82.5l180 598q10 31 13 45.5t1.5 26t-14.5 11t-33 -6t-57 -19.5l2 41l406 164zM1147 319q-93 0 -156 27.5t-63 79.5q0 44 37.5 78.5t83.5 34.5q34 0 53 -21.5t25 -46.5
t19.5 -46.5t37.5 -21.5q44 0 94 57t83.5 143t33.5 163q0 52 -25.5 79t-69.5 27q-74 0 -155 -81l-41 34l217 480h455l-93 -201h-329l-78 -172l8 -4q56 29 92.5 41t79.5 12q56 0 103.5 -17.5t82.5 -64t35 -115.5q0 -125 -71 -232t-193.5 -170t-265.5 -63z" />
    <glyph glyph-name="uni24F0" unicode="&#x24f0;" 
d="M913 -20q156 0 300 42t257.5 114t207 170t155.5 210t95.5 232.5t33.5 238.5q0 137 -45.5 256.5t-133.5 212t-228.5 146t-317.5 53.5q-154 0 -297.5 -40.5t-259.5 -110.5t-212 -166.5t-160.5 -207.5t-100 -233t-35.5 -244q0 -146 51 -270t144.5 -213.5t234 -139.5
t311.5 -50zM1028 1294l-248 -825q-20 -61 -2 -82.5t92 -21.5l-14 -35h-522l14 35q68 0 99.5 21.5t50.5 82.5l182 598q8 26 11 39t3 25.5t-5 15t-18 1.5t-31.5 -7.5t-49.5 -18.5l2 43l403 164zM1241 309q-141 0 -221 74t-80 219q0 126 60 245.5t168 218.5t272.5 168.5
t361.5 92.5l6 -43q-265 -58 -454 -309l6 -6q73 47 147 47q102 0 160.5 -57.5t58.5 -157.5q0 -57 -18.5 -122t-58.5 -131t-95 -119t-137 -86.5t-176 -33.5zM1233 381q48 0 95 55t79 132t52 156t20 130q0 90 -58 90q-44 0 -94 -41q-52 -85 -100.5 -219t-48.5 -219
q0 -84 55 -84z" />
    </font>
</defs>
</svg>
