<?xml version="1.0" standalone="no"?>
<!DOCTYPE svg PUBLIC "-//W3C//DTD SVG 1.1//EN" "http://www.w3.org/Graphics/SVG/1.1/DTD/svg11.dtd" >
<svg xmlns="http://www.w3.org/2000/svg" xmlns:xlink="http://www.w3.org/1999/xlink" version="1.1">
<metadata>
Created by FontForge 20201107 at Wed Nov  5 09:25:23 2025
 By 
Copyright (c) 2019 by Mathieu Desjardins. All rights reserved.
</metadata>
<defs>
<font id="PPEditorialNew-Ultralight" horiz-adv-x="1925" >
  <font-face 
    font-family="PP Editorial New Ultralight"
    font-weight="200"
    font-stretch="normal"
    units-per-em="2048"
    panose-1="0 0 3 0 0 0 0 0 0 0"
    ascent="1638"
    descent="-410"
    x-height="1077"
    cap-height="1638"
    bbox="-686 -600 2677 2191"
    underline-thickness="51"
    underline-position="-169"
    unicode-range="U+0020-FB02"
  />
<missing-glyph horiz-adv-x="1064" 
d="M199 1679h673v-2130h-673v2130zM709 1466v70h-351v-70h138v-77h-140v-72h353v72h-140v77h140zM569 1112v150h-213v-222h353v72h-140zM426 1190h70v-78h-70v78zM709 913v70h-353v-70h140v-79h-140v-70h213v149h140zM709 643v213h-70v-141h-283v-72h353zM709 354v242h-213
v-121h73v49h70v-100h-213v172h-70v-242h353zM709 -14v241h-353v-241h353zM426 156h213v-99h-213v99zM709 -133v70h-353v-70h148l-148 -100v-70h353v70h-217l149 100h68z" />
    <glyph glyph-name="f_f" unicode="ff" horiz-adv-x="1075" 
d="M995 1692q93 0 159.5 -45t66.5 -101q0 -30 -18 -49.5t-52 -19.5q-19 0 -36.5 12t-25 22t-28.5 39q-25 39 -45 53.5t-49 14.5q-164 0 -164 -334v-207h219v-69h-219v-811q0 -68 13.5 -98t54 -43t130.5 -13v-43h-458v43q95 0 120 28t25 126v811h-397v-811q0 -68 13 -98
t52.5 -43t126.5 -13v-43h-440v43q88 0 111.5 28.5t23.5 125.5v811h-121v51l121 12v96q0 220 81.5 345.5t238.5 125.5q87 0 147.5 -34t85.5 -88q40 90 109 133t155 43zM291 1182v-105h397v195q0 58 6 104q-6 -2 -20 -2q-32 0 -52.5 20t-23.5 58q-1 25 -4 41.5t-13 36
t-32 29.5t-55 10q-107 0 -155 -97.5t-48 -289.5z" />
    <glyph glyph-name="f_f_i" unicode="ffi" horiz-adv-x="1513" 
d="M1343 1087v-890q0 -97 23.5 -125.5t110.5 -28.5v-43h-381v43q87 0 110 28t23 126v669q0 29 -1 44.5t-6.5 37.5t-16 32.5t-31.5 19t-52 8.5h-321v-811q0 -41 4 -65t14.5 -43.5t33.5 -28.5t56.5 -13t87.5 -4v-43h-456v43q96 0 121.5 28t25.5 126v811h-397v-811
q0 -68 13 -98t52.5 -43t126.5 -13v-43h-440v43q88 0 111.5 28.5t23.5 125.5v811h-121v51l121 12v96q0 220 81.5 345.5t238.5 125.5q87 0 148.5 -36t86.5 -91q84 181 303 181q102 0 183 -53.5t81 -120.5q0 -33 -20 -53.5t-53 -20.5q-7 0 -13 1t-11 2.5t-10.5 5t-9 5.5t-8.5 8
t-7.5 8.5t-8.5 10.5t-7.5 10.5t-8 12t-8.5 12.5q-32 48 -61.5 71t-74.5 23q-198 0 -198 -330v-207h358q96 0 162 35zM291 1182v-105h397v191q0 64 8 108q-8 -2 -22 -2q-32 0 -52.5 20t-23.5 58q-1 25 -4 41.5t-13 36t-32 29.5t-55 10q-107 0 -155 -97.5t-48 -289.5z" />
    <glyph glyph-name="f_i" unicode="fi" horiz-adv-x="1015" 
d="M844 1087v-890q0 -98 23 -126t110 -28v-43h-381v43q87 0 110 28t23 126v669q0 30 -1 45t-6 37t-15.5 32.5t-31.5 19t-52 8.5h-322v-811q0 -68 13.5 -98t54 -43t129.5 -13v-43h-455v43q95 0 120 28t25 126v811h-133v51l133 14v195q0 112 26.5 195t75 132.5t110.5 73
t139 23.5q100 0 182 -53.5t82 -120.5q0 -32 -21 -53t-55 -21q-20 0 -37.5 12t-26 23t-28.5 41q-31 48 -59.5 71t-73.5 23q-201 0 -201 -330v-207h358q98 0 164 35z" />
    <glyph glyph-name="f_l" unicode="fl" horiz-adv-x="1017" 
d="M840 1634v-1437q0 -97 23.5 -125.5t111.5 -28.5v-43h-381v43q87 0 110 28t23 126v1257q-20 -8 -39 -8q-29 0 -47 17.5t-41 56.5q-33 49 -60 71.5t-69 22.5q-170 0 -170 -330v-207h213v-69h-213v-811q0 -51 5 -78t24 -46t51.5 -24.5t91.5 -5.5v-43h-430v43q95 0 120 28
t25 126v811h-133v51l133 14v205q0 211 84.5 311.5t225.5 100.5q75 0 144.5 -33.5t100.5 -81.5l76 74z" />
    <glyph glyph-name=".notdef" horiz-adv-x="1064" 
d="M199 1679h673v-2130h-673v2130zM709 1466v70h-351v-70h138v-77h-140v-72h353v72h-140v77h140zM569 1112v150h-213v-222h353v72h-140zM426 1190h70v-78h-70v78zM709 913v70h-353v-70h140v-79h-140v-70h213v149h140zM709 643v213h-70v-141h-283v-72h353zM709 354v242h-213
v-121h73v49h70v-100h-213v172h-70v-242h353zM709 -14v241h-353v-241h353zM426 156h213v-99h-213v99zM709 -133v70h-353v-70h148l-148 -100v-70h353v70h-217l149 100h68z" />
    <glyph glyph-name=".null" horiz-adv-x="0" 
 />
    <glyph glyph-name="nonmarkingreturn" horiz-adv-x="682" 
 />
    <glyph glyph-name="space" unicode=" " horiz-adv-x="415" 
 />
    <glyph glyph-name="exclam" unicode="!" horiz-adv-x="397" 
d="M125 1575q0 104 74 104q73 0 73 -104q0 -53 -21.5 -399t-25.5 -777h-49q-3 321 -15.5 568.5t-24 389.5t-11.5 218zM199 -33q-39 0 -67 27.5t-28 66.5q0 40 27.5 68.5t67.5 28.5q38 0 66 -28.5t28 -68.5q0 -38 -28 -66t-66 -28z" />
    <glyph glyph-name="quotedbl" unicode="&#x22;" horiz-adv-x="643" 
d="M102 1573q0 106 70 106q72 0 72 -106q0 -55 -7 -118t-20 -154.5t-20 -163.5h-43q-7 71 -29.5 218.5t-22.5 217.5zM399 1573q0 106 70 106q72 0 72 -106q0 -55 -7 -118t-20 -154.5t-20 -163.5h-43q-7 71 -29.5 218.5t-22.5 217.5z" />
    <glyph glyph-name="numbersign" unicode="#" horiz-adv-x="1654" 
d="M1552 1210v-86h-327l-166 -573h350v-86h-375l-145 -506h-88l145 506h-442l-146 -506h-88l146 506h-314v86h338l166 573h-360v86h385l135 469h88l-135 -469h442l135 469h88l-135 -469h303zM528 551h443l166 573h-443z" />
    <glyph glyph-name="dollar" unicode="$" horiz-adv-x="1046" 
d="M948 365q0 -175 -107.5 -280.5t-285.5 -117.5v-141h-66v139q-208 8 -383 148v366h44q0 -97 19 -173t50 -125.5t75.5 -82.5t92 -47.5t102.5 -15.5v743q-1 0 -2 1t-2 1q-80 56 -129 94t-100 86t-78 90.5t-44 95t-17 111.5q0 150 104.5 239.5t267.5 98.5v131h66v-129
q184 -9 324 -129v-311h-43q0 184 -74.5 275.5t-206.5 97.5v-653q81 -60 123.5 -93t96 -79.5t79 -79t51 -75.5t34.5 -87.5t9 -97.5zM225 1268q0 -63 27.5 -115t79.5 -100.5t157 -126.5v602q-130 -12 -197 -83t-67 -177zM555 729v-692q138 15 210.5 94t72.5 199
q0 117 -68 204.5t-215 194.5z" />
    <glyph glyph-name="percent" unicode="%" horiz-adv-x="1499" 
d="M358 850q-111 0 -183.5 120t-72.5 294q0 175 72.5 295t183.5 120q108 0 181 -120.5t73 -294.5q0 -173 -73 -293.5t-181 -120.5zM203 0l1018 1638h73l-1018 -1638h-73zM358 901q40 0 70.5 29.5t48.5 81t26.5 115t8.5 137.5q0 158 -38 260t-116 102q-55 0 -91 -52
t-50 -129.5t-14 -180.5q0 -101 14 -179.5t50 -131t91 -52.5zM1145 -33q-111 0 -183.5 120t-72.5 294q0 177 72.5 297.5t183.5 120.5q108 0 180 -121t72 -297q0 -173 -72 -293.5t-180 -120.5zM1145 20q53 0 88.5 52t50 130.5t14.5 178.5q0 103 -14.5 182t-50 130.5
t-88.5 51.5q-55 0 -91.5 -51.5t-51.5 -130.5t-15 -182q0 -101 15 -179t51.5 -130t91.5 -52z" />
    <glyph glyph-name="ampersand" unicode="&#x26;" horiz-adv-x="1546" 
d="M1403 322h45q-38 -169 -98 -251.5t-170 -82.5q-144 0 -287 155q-162 -174 -385 -174q-116 0 -211 44t-156 138t-61 224q0 83 26.5 155.5t80 136.5t119 118.5t159.5 115.5q-90 246 -90 408q0 181 101.5 286t248.5 105q69 0 122 -24t82 -63t43.5 -83.5t14.5 -91.5
q1 -139 -107 -280t-286 -269q66 -155 133 -279q109 -205 197 -321q106 156 178 411q25 94 4 122t-131 28v43h420v-43q-107 0 -147 -27t-66 -118q-89 -291 -213 -469q128 -148 241 -148q68 0 114 54.5t79 179.5zM729 1630q-109 0 -174.5 -84t-65.5 -231q0 -146 76 -354
q334 253 334 481q0 87 -43.5 137.5t-126.5 50.5zM537 45q172 0 313 150q-114 141 -232 368q-56 110 -124 264q-151 -109 -216 -207.5t-65 -226.5q0 -91 27 -160t74 -109t103 -59.5t120 -19.5z" />
    <glyph glyph-name="quotesingle" unicode="'" horiz-adv-x="346" 
d="M102 1573q0 106 70 106q72 0 72 -106q0 -55 -7 -118t-20 -154.5t-20 -163.5h-43q-7 71 -29.5 218.5t-22.5 217.5z" />
    <glyph glyph-name="parenleft" unicode="(" horiz-adv-x="702" 
d="M641 -469v-43q-256 197 -397.5 494t-141.5 653q0 369 131 671.5t373 475.5v-43q-182 -179 -276 -467.5t-94 -636.5q0 -324 105 -616.5t300 -487.5z" />
    <glyph glyph-name="parenright" unicode=")" horiz-adv-x="702" 
d="M61 -512v43q195 195 300.5 487.5t105.5 616.5q0 347 -94.5 636t-276.5 468v43q243 -173 373.5 -475t130.5 -672q0 -356 -141 -653t-398 -494z" />
    <glyph glyph-name="asterisk" unicode="*" horiz-adv-x="845" 
d="M422 883q-32 0 -51 22.5t-19 59.5q0 34 13.5 73t28.5 94.5t18 127.5q-61 -39 -103 -79t-70 -70.5t-57 -47.5q-22 -14 -47 -14q-38 0 -59 34q-8 13 -8 35q0 41 45 66q28 16 69.5 24t98 23.5t118.5 48.5q-84 45 -170.5 64.5t-115.5 35.5q-45 28 -45 68q0 19 8 35
q21 35 59 35q23 0 47 -15q29 -17 57 -48.5t70.5 -72.5t104.5 -79q-2 72 -17.5 128.5t-30 96.5t-14.5 74q0 37 19 58t51 21q34 0 53 -21t19 -58q0 -35 -28 -121t-30 -178q48 29 84.5 61.5t54.5 55t41 46t46 37.5q27 15 49 15q38 0 59 -35q8 -16 8 -35q0 -40 -45 -68
q-28 -16 -117 -35.5t-170 -64.5q62 -33 118 -48t98 -23.5t71 -24.5q45 -25 45 -66q0 -22 -8 -35q-21 -34 -59 -34q-24 0 -49 14q-23 14 -46 37t-41 44.5t-54.5 53.5t-84.5 62q3 -71 17.5 -127t27.5 -95.5t13 -72.5q0 -37 -19.5 -59.5t-52.5 -22.5z" />
    <glyph glyph-name="plus" unicode="+" horiz-adv-x="1003" 
d="M451 561h-349v107h349v346h106v-346h344v-107h-344v-346h-106v346z" />
    <glyph glyph-name="comma" unicode="," horiz-adv-x="419" 
d="M180 -25q-33 0 -55.5 25t-22.5 59q0 41 28.5 70t68.5 29q49 0 84.5 -39.5t35.5 -106.5q0 -92 -49.5 -177.5t-160.5 -145.5v45q63 36 106 94t43 121q0 41 -22 41q-6 0 -23 -7.5t-33 -7.5z" />
    <glyph glyph-name="hyphen" unicode="-" horiz-adv-x="849" 
d="M748 502h-646v102h646v-102z" />
    <glyph glyph-name="period" unicode="." horiz-adv-x="395" 
d="M197 -33q-38 0 -66.5 28t-28.5 66q0 40 28.5 68.5t66.5 28.5q40 0 68 -28.5t28 -68.5q0 -38 -28 -66t-68 -28z" />
    <glyph glyph-name="slash" unicode="/" horiz-adv-x="626" 
d="M0 0l537 1679h90l-537 -1679h-90z" />
    <glyph glyph-name="zero" unicode="0" horiz-adv-x="1056" 
d="M528 -31q-106 0 -189 66.5t-134.5 184.5t-78 271.5t-26.5 333.5q0 178 26.5 329.5t78 268t134.5 182.5t189 66t189 -66t134.5 -182.5t78 -268t26.5 -329.5q0 -180 -26.5 -333.5t-78 -271.5t-134.5 -184.5t-189 -66.5zM528 39q77 0 135 60t92 168.5t51 248t17 309.5
q0 168 -17 305.5t-51 245t-92 167t-135 59.5q-78 0 -136 -59.5t-92 -167t-50.5 -245t-16.5 -305.5q0 -170 16.5 -309t50.5 -248t92 -169t136 -60z" />
    <glyph glyph-name="one" unicode="1" horiz-adv-x="628" 
d="M387 1649v-1452q0 -68 12 -98t49.5 -43t120.5 -13v-43h-493v43q88 0 128 13t53 43t13 98v1200v47.5t-3 35t-7 25.5t-13.5 11t-22 1t-33.5 -13.5t-45.5 -23.5t-61.5 -38l-27 41l244 149l64 41z" />
    <glyph glyph-name="two" unicode="2" horiz-adv-x="993" 
d="M188 115h519q96 0 135 37.5t78 164.5l43 -12l-68 -219l-27 -86h-829v43q91 103 151 173.5t139 170t130.5 175t107 170t87.5 175t52.5 171t20.5 175.5q0 65 -13 118t-41.5 95.5t-77.5 66t-116 23.5q-153 0 -236.5 -133.5t-86.5 -359.5h-47q0 279 108.5 443.5t304.5 164.5
q165 0 248.5 -104t83.5 -271q0 -87 -23.5 -182t-59.5 -181t-93 -181.5t-111.5 -173t-127 -167t-127 -152t-124.5 -138.5v-6z" />
    <glyph glyph-name="three" unicode="3" horiz-adv-x="868" 
d="M39 102q0 26 17.5 43t43.5 17q8 0 15.5 -1.5t15 -6t12 -6.5t13.5 -10.5t11 -10.5t12 -13t11 -12q31 -34 65 -50.5t91 -16.5q56 0 109 22.5t99 68t73.5 124.5t27.5 180q0 94 -22.5 167t-59 118.5t-88 74.5t-104.5 40.5t-113 11.5v43q332 116 332 418q0 72 -22.5 129.5
t-74.5 96t-128 38.5q-121 0 -185.5 -69.5t-93.5 -186.5h-45q26 175 122.5 267.5t238.5 92.5q137 0 226 -96.5t89 -257.5q0 -133 -73.5 -241t-223.5 -181v-6q162 -24 259 -133.5t97 -298.5q0 -108 -37.5 -200.5t-101.5 -155.5t-150 -98.5t-182 -35.5q-107 0 -191.5 39
t-84.5 96z" />
    <glyph glyph-name="four" unicode="4" horiz-adv-x="1009" 
d="M649 453h-602v114l619 1104h102v-1104h168v-114h-168v-256q0 -52 5 -78.5t23.5 -45.5t50.5 -24.5t91 -5.5v-43h-459v43q59 0 91 5.5t50.5 24.5t23.5 45.5t5 78.5v256zM127 573v-6h522v949z" />
    <glyph glyph-name="five" unicode="5" horiz-adv-x="915" 
d="M340 -33q-115 0 -203 43t-88 99q0 27 17.5 44t44.5 17q18 0 36 -10.5t26 -19.5t28 -31q70 -74 159 -74q57 0 112.5 32t103.5 94t78 169t30 243q0 223 -73.5 330t-200.5 107q-117 0 -205 -88l-60 45l138 671h497l-28 -114h-424l-101 -504l9 -6q94 90 225 90q111 0 193 -69
t122.5 -180t40.5 -245q0 -149 -38 -272t-103.5 -203t-152 -124t-183.5 -44z" />
    <glyph glyph-name="six" unicode="6" horiz-adv-x="1003" 
d="M555 1112q94 0 166.5 -43.5t116 -119t65 -168t21.5 -197.5q0 -90 -15 -177t-47.5 -167t-78.5 -140.5t-114 -96.5t-149 -36q-130 0 -226 87.5t-145 240t-49 350.5q0 260 84.5 475t255 364t406.5 195v-43q-119 -34 -217.5 -102t-168.5 -160.5t-117.5 -199.5t-74.5 -230
q46 72 122.5 120t164.5 48zM522 37q130 0 199.5 138.5t69.5 369.5q0 99 -13.5 183.5t-42.5 156t-81.5 112.5t-123.5 41q-86 0 -158.5 -49.5t-121.5 -142.5q-17 -129 -17 -228q0 -268 76 -424.5t213 -156.5z" />
    <glyph glyph-name="seven" unicode="7" horiz-adv-x="952" 
d="M913 1638l-516 -1673l-106 27l491 1526v6h-489q-50 0 -78 -6.5t-51 -31t-36.5 -65.5t-27.5 -116l-43 8l43 231l19 94h794z" />
    <glyph glyph-name="eight" unicode="8" horiz-adv-x="974" 
d="M551 909q50 -47 76 -72.5t66.5 -68t62 -71.5t48 -71t39.5 -78.5t22 -82t9 -94.5q0 -180 -109.5 -296t-283.5 -116q-173 0 -277 110.5t-104 268.5q0 78 23.5 151t69.5 141t97 124.5t124 124.5q-73 70 -114.5 115.5t-82.5 103t-58.5 114t-17.5 121.5q0 149 100 243.5
t257 94.5q156 0 246 -88.5t90 -230.5q0 -51 -13 -97.5t-32 -82.5t-60.5 -84t-76 -82t-101.5 -97zM260 1352q0 -97 54.5 -181t185.5 -213q124 120 174.5 212.5t50.5 189.5q0 109 -60.5 175.5t-166.5 66.5q-105 0 -171.5 -68.5t-66.5 -181.5zM492 31q119 0 189.5 87t70.5 234
q0 67 -16 122t-56 113.5t-86 108.5t-129 131q-133 -134 -194.5 -248.5t-61.5 -234.5q0 -130 77 -221.5t206 -91.5z" />
    <glyph glyph-name="nine" unicode="9" horiz-adv-x="1007" 
d="M489 1671q130 0 226 -87.5t145 -240t49 -350.5q0 -193 -49.5 -365t-142 -309t-234.5 -231t-319 -129v43q157 45 278 151t192 241.5t109 303.5q-49 -73 -125 -121.5t-165 -48.5q-94 0 -166.5 43.5t-116 118.5t-65 167.5t-21.5 197.5q0 114 25 220.5t72.5 196.5
t127.5 144.5t180 54.5zM477 600q88 0 161 51t122 148q16 99 16 221q0 268 -77 425t-214 157q-130 0 -199 -138.5t-69 -369.5q0 -98 13.5 -182.5t42.5 -156.5t81.5 -113.5t122.5 -41.5z" />
    <glyph glyph-name="colon" unicode=":" horiz-adv-x="395" 
d="M197 911q-38 0 -66.5 28.5t-28.5 66.5q0 39 28 66.5t67 27.5q40 0 68 -27t28 -67q0 -38 -28.5 -66.5t-67.5 -28.5zM197 -33q-38 0 -66.5 28t-28.5 66q0 40 28.5 68.5t66.5 28.5q40 0 68 -28.5t28 -68.5q0 -38 -28 -66t-68 -28z" />
    <glyph glyph-name="semicolon" unicode=";" horiz-adv-x="419" 
d="M203 911q-39 0 -66.5 28.5t-27.5 68.5q0 39 27.5 66.5t66.5 27.5q38 0 66 -28t28 -66q0 -40 -28 -68.5t-66 -28.5zM178 -25q-32 0 -54 25t-22 59q0 41 27.5 70t67.5 29q49 0 85.5 -39.5t36.5 -106.5q0 -91 -50 -177t-160 -146v45q62 37 105.5 95t43.5 120q0 41 -22 41
q-8 0 -25 -7.5t-33 -7.5z" />
    <glyph glyph-name="less" unicode="&#x3c;" horiz-adv-x="866" 
d="M764 440v-112l-662 223v149l662 222v-111l-569 -182v-6z" />
    <glyph glyph-name="equal" unicode="=" horiz-adv-x="927" 
d="M825 733h-723v105h723v-105zM825 391h-723v105h723v-105z" />
    <glyph glyph-name="greater" unicode="&#x3e;" horiz-adv-x="866" 
d="M764 551l-662 -223v112l570 183v6l-570 182v111l662 -222v-149z" />
    <glyph glyph-name="question" unicode="?" horiz-adv-x="733" 
d="M332 459h-60q-122 163 -122 286q0 85 41.5 156t138.5 164q64 61 98 95.5t71.5 82.5t53.5 92t16 92q0 81 -44 130t-136 49q-115 0 -181 -85.5t-71 -232.5h-47l-4 293q42 44 115 72t153 28q135 0 227.5 -84.5t92.5 -210.5q0 -100 -58.5 -186.5t-203.5 -220.5
q-102 -93 -139 -158.5t-37 -134.5q0 -51 29 -117t67 -110zM332 -33q-38 0 -66 28t-28 66q0 40 28 68.5t66 28.5q39 0 66.5 -28.5t27.5 -68.5q0 -39 -27.5 -66.5t-66.5 -27.5z" />
    <glyph glyph-name="at" unicode="@" horiz-adv-x="1986" 
d="M1862 262h63q-142 -340 -407 -529.5t-603 -189.5q-188 0 -341.5 57.5t-256.5 161t-159 248.5t-56 320q0 230 84 445.5t225 374t336.5 254t407.5 95.5q155 0 284 -50t217 -137.5t136.5 -209.5t48.5 -264q0 -125 -40.5 -252t-106.5 -229t-146.5 -183t-165.5 -125.5
t-157 -44.5q-150 0 -150 143q0 65 31 160l76 236h-25q-245 -543 -465 -543q-79 0 -124.5 69t-45.5 187q0 119 48.5 265.5t126.5 275t187.5 216t219.5 87.5q93 0 143 -63t41 -158h4l56 170q66 0 104 61l27 -10l-262 -791q-37 -113 -37 -162q0 -73 75 -73q53 0 121.5 41
t138 115.5t128.5 167.5t96 209.5t37 228.5q0 264 -170.5 432t-452.5 168q-165 0 -317 -60.5t-269.5 -167.5t-205 -247t-133.5 -306t-46 -338q0 -330 196.5 -520t539.5 -190q309 0 554.5 169.5t389.5 485.5zM729 96q53 0 120 57.5t127.5 145.5t111.5 184.5t83 182.5
q48 127 48 204q0 81 -37 118.5t-101 37.5q-101 0 -206.5 -128.5t-170.5 -306.5t-65 -325q0 -170 90 -170z" />
    <glyph glyph-name="A" unicode="A" horiz-adv-x="1325" 
d="M692 1669l471 -1483q29 -90 68 -116.5t137 -26.5v-43h-500v43q143 0 167.5 27t-9.5 116l-113 363h-569l-115 -363q-34 -89 -9.5 -116t167.5 -27v-43h-430v43q96 0 134 26.5t67 116.5l469 1483h65zM625 1446l-260 -832h528l-260 832h-8z" />
    <glyph glyph-name="B" unicode="B" horiz-adv-x="1179" 
d="M553 0h-512v43q75 0 116 5.5t63.5 25t28 45.5t5.5 78v1245q0 52 -5.5 77.5t-28 45t-63.5 25t-116 5.5v43h532q103 0 188.5 -25t149 -74t98.5 -127t35 -179q0 -164 -92.5 -266t-240.5 -121v-6q181 -12 297 -124t116 -278q0 -96 -31 -172t-83.5 -125t-126.5 -81.5
t-155.5 -46t-174.5 -13.5zM379 1503v-620q66 -9 182 -9q68 0 129.5 21t112.5 63t81.5 112.5t30.5 160.5q0 88 -30.5 155t-82 106t-112.5 58t-129 19q-83 0 -137 -10q-45 -9 -45 -56zM379 797v-662q0 -38 39.5 -51.5t126.5 -13.5q68 0 128 9.5t120 35t102.5 65t69 105.5
t26.5 151q0 84 -30 150.5t-76 106.5t-105.5 66t-113.5 36t-105 10q-123 0 -182 -8z" />
    <glyph glyph-name="C" unicode="C" horiz-adv-x="1288" 
d="M78 813q0 241 75 435t217 308.5t326 114.5q196 0 318 -125q25 -23 41.5 -17.5t19.5 36.5l8 86h43l31 -568h-43q-42 256 -140 386t-265 130q-115 0 -208.5 -60t-155 -165t-95 -246t-33.5 -303q0 -219 57 -394t168.5 -278.5t259.5 -103.5q128 0 226.5 81t156 217t80.5 317
h54q-32 -324 -169.5 -510.5t-375.5 -186.5q-139 0 -252.5 66t-188 181t-115 269t-40.5 330z" />
    <glyph glyph-name="D" unicode="D" horiz-adv-x="1392" 
d="M549 0h-508v43q75 0 116 5.5t63.5 25t28 45.5t5.5 78v1245q0 52 -5.5 77.5t-28 45t-63.5 25t-116 5.5v43h479q168 0 314 -55.5t255.5 -159.5t172.5 -263t63 -355q0 -370 -213 -587.5t-563 -217.5zM530 70q166 0 295 58t207.5 159t118 230t39.5 280q0 171 -49.5 315.5
t-136.5 244.5t-207 156t-258 56q-70 0 -115 -10q-43 -9 -43 -56v-1345q0 -51 36 -69.5t113 -18.5z" />
    <glyph glyph-name="E" unicode="E" horiz-adv-x="1198" 
d="M1040 1638l4 -41l37 -348l-51 -4q-8 76 -16 125.5t-20.5 87t-26 58t-37.5 32.5t-49 15.5t-66 3.5h-348q-43 0 -65.5 -22.5t-22.5 -63.5v-592h311q41 0 63.5 4t42.5 16t28.5 38.5t13 67.5t4.5 107h43v-532h-43q0 83 -5.5 128.5t-25 70t-45 30.5t-76.5 6h-311v-637
q0 -72 18 -94t78 -22h340q62 0 98 11t70 50.5t59.5 106t59.5 188.5l53 -14l-106 -375l-11 -39h-997v43q75 0 116 5.5t63.5 25t28 45.5t5.5 78v1245q0 52 -5.5 77.5t-28 45t-63.5 25t-116 5.5v43h999z" />
    <glyph glyph-name="F" unicode="F" horiz-adv-x="1132" 
d="M1077 1638l4 -41l31 -348l-51 -4q-8 91 -18.5 146t-24 92.5t-38 54.5t-53 23t-77.5 6h-383q-43 0 -65.5 -22.5t-22.5 -63.5v-637h319q42 0 64.5 4t43 16t29 39t13 68t4.5 108h43v-536h-43q0 67 -4.5 108t-13 68t-29 39t-43 16t-64.5 4h-319v-581q0 -35 2 -55.5t10 -40
t22 -29t39 -17t59.5 -10t86.5 -2.5v-43h-557v43q75 0 116 5.5t63.5 25t28 45.5t5.5 78v1245q0 52 -5.5 77.5t-28 45t-63.5 25t-116 5.5v43h1036z" />
    <glyph glyph-name="G" unicode="G" horiz-adv-x="1402" 
d="M745 -33q-162 0 -290.5 66t-210 182t-124 269t-42.5 333q0 243 74 434t223.5 305.5t353.5 114.5q202 0 344 -125q26 -23 43.5 -18t20.5 37l6 86h45l29 -568h-43q-41 256 -147.5 386t-293.5 130q-126 0 -225.5 -59.5t-162 -165t-95.5 -244.5t-33 -303q0 -223 60.5 -398.5
t185.5 -281.5t299 -106q125 0 220.5 61t145.5 142v397q0 35 -4 55t-19.5 39.5t-41.5 29t-75.5 17t-115.5 9.5t-167 2v43h671v-43q-86 0 -107.5 -27t-21.5 -125v-403q-87 -132 -217.5 -201.5t-284.5 -69.5z" />
    <glyph glyph-name="H" unicode="H" horiz-adv-x="1462" 
d="M1421 1638v-43q-75 0 -116 -5.5t-63.5 -25t-28 -45t-5.5 -77.5v-1245q0 -52 5.5 -78t28 -45.5t63.5 -25t116 -5.5v-43h-549v43q74 0 114.5 5.5t63 25t28 45.5t5.5 78v639h-704v-639q0 -52 5.5 -78t28 -45.5t63 -25t114.5 -5.5v-43h-549v43q75 0 116 5.5t63.5 25t28 45.5
t5.5 78v1245q0 52 -5.5 77.5t-28 45t-63.5 25t-116 5.5v43h549v-43q-60 0 -96.5 -4.5t-61 -13t-35.5 -28.5t-14.5 -43t-3.5 -64v-535h704v535q0 41 -3.5 64t-14.5 43t-35.5 28.5t-61 13t-96.5 4.5v43h549z" />
    <glyph glyph-name="I" unicode="I" horiz-adv-x="632" 
d="M254 197v1245q0 52 -5.5 77.5t-28 45t-63.5 25t-116 5.5v43h553v-43q-61 0 -98.5 -4.5t-62 -13t-35.5 -28.5t-15 -43t-4 -64v-1245q0 -41 4 -64.5t15 -43.5t35.5 -28.5t62 -13t98.5 -4.5v-43h-553v43q75 0 116 5.5t63.5 25t28 45.5t5.5 78z" />
    <glyph glyph-name="J" unicode="J" horiz-adv-x="860" 
d="M508 356v1086q0 52 -5 77.5t-28 45t-63.5 25t-116.5 5.5v43h553v-43q-76 0 -116.5 -5.5t-63.5 -25t-28 -45t-5 -77.5v-1065q0 -206 -77.5 -308t-217.5 -102q-71 0 -127.5 26t-89 68t-49.5 88.5t-17 92.5q0 53 23 77.5t59 24.5t56 -19.5t20 -52.5q0 -8 -3 -34.5t-3 -47.5
q0 -70 32 -113.5t99 -43.5q91 0 129.5 82.5t38.5 240.5z" />
    <glyph glyph-name="K" unicode="K" horiz-adv-x="1370" 
d="M254 197v1245q0 52 -5.5 77.5t-28 45t-63.5 25t-116 5.5v43h553v-43q-61 0 -98.5 -4.5t-62 -13t-35.5 -28.5t-15 -43t-4 -64v-1245q0 -41 4 -64.5t15 -43.5t35.5 -28.5t62 -13t98.5 -4.5v-43h-553v43q75 0 116 5.5t63.5 25t28 45.5t5.5 78zM565 909l549 -749
q55 -74 105 -94.5t145 -20.5v-45h-557v43q78 0 117.5 5t56 21.5t6 43t-44.5 73.5l-502 676l426 559q76 98 76 127q0 27 -33.5 37t-136.5 10v43h518v-43q-105 0 -158 -19.5t-108 -90.5z" />
    <glyph glyph-name="L" unicode="L" horiz-adv-x="1155" 
d="M594 1638v-43q-61 0 -98.5 -4.5t-62 -13t-35.5 -28.5t-15 -43t-4 -64v-1247q0 -76 20.5 -99.5t85.5 -23.5h310q62 0 97.5 11t67.5 53t55.5 112.5t53.5 200.5l53 -13l-92 -399l-8 -37h-981v43q75 0 116 5.5t63.5 25t28 45.5t5.5 78v1245q0 52 -5.5 77.5t-28 45t-63.5 25
t-116 5.5v43h553z" />
    <glyph glyph-name="M" unicode="M" horiz-adv-x="1820" 
d="M424 1638l481 -1456h4l490 1456h383v-43q-61 0 -98.5 -4.5t-62 -13t-35.5 -28.5t-15 -43t-4 -64v-1245q0 -41 4 -64.5t15 -43.5t35.5 -28.5t62 -13t98.5 -4.5v-43h-553v43q75 0 116 5.5t63.5 25t28 45.5t5.5 78v1323h-6l-529 -1561h-59l-516 1540h-6v-1302q0 -52 5.5 -78
t28 -45.5t63.5 -25t116 -5.5v-43h-498v43q75 0 116 5.5t63.5 25t28 45.5t5.5 78v1245q0 52 -5.5 77.5t-28 45t-63.5 25t-116 5.5v43h383z" />
    <glyph glyph-name="N" unicode="N" horiz-adv-x="1474" 
d="M1450 1638v-43q-76 0 -116.5 -5.5t-63.5 -25t-28 -45t-5 -77.5v-1471h-68l-845 1383v-1157q0 -52 5.5 -77.5t28.5 -45.5t64.5 -25.5t118.5 -5.5v-43h-500v43q75 0 116 5.5t63.5 25t28 45.5t5.5 78v1269l-2 4q-49 78 -92 101.5t-119 23.5v43h258l864 -1421h2v1225
q0 52 -5 77.5t-28 45t-63.5 25t-116.5 5.5v43h498z" />
    <glyph glyph-name="O" unicode="O" horiz-adv-x="1341" 
d="M674 -33q-130 0 -242 67t-189 182t-121 271.5t-44 331.5q0 236 71.5 429t208 308t314.5 115q129 0 240.5 -67.5t188 -182.5t120 -271t43.5 -331q0 -238 -70.5 -430.5t-206 -307t-313.5 -114.5zM711 39q129 0 227 93.5t147.5 243.5t49.5 329q0 162 -34 319.5t-95.5 286.5
t-159 208.5t-213.5 79.5q-128 0 -226 -93t-148 -242.5t-50 -327.5q0 -130 20.5 -258t62.5 -243.5t101 -203.5t141 -140t177 -52z" />
    <glyph glyph-name="P" unicode="P" horiz-adv-x="1122" 
d="M41 0v43q75 0 116 5.5t63.5 25t28 45.5t5.5 78v1245q0 52 -5.5 77.5t-28 45t-63.5 25t-116 5.5v43h520q115 0 210 -27.5t166 -82t110.5 -142t39.5 -200.5q0 -215 -135 -339t-354 -124q-110 0 -219 37v-563q0 -52 5.5 -77.5t28.5 -45.5t64.5 -25.5t118.5 -5.5v-43h-555z
M584 795q177 0 274.5 104.5t97.5 282.5q0 97 -30.5 172t-85 121.5t-126 70t-155.5 23.5q-70 0 -141 -23q-39 -14 -39 -55v-660q110 -36 205 -36z" />
    <glyph glyph-name="Q" unicode="Q" horiz-adv-x="1341" 
d="M1335 -170l31 -37q-91 -160 -238 -160q-56 0 -128.5 17.5t-134 39t-149.5 39t-171 17.5q-113 0 -275 -51l-32 121q268 61 458 151h-22q-130 0 -242 67t-189 182t-121 271.5t-44 331.5q0 236 71.5 429t208 308t314.5 115q129 0 240.5 -67.5t188 -182.5t120 -271t43.5 -331
q0 -210 -56.5 -387.5t-160.5 -292.5q-57 -66 -156 -128.5t-202 -105.5t-181 -69.5t-129 -38.5l4 -14q164 27 252 27q117 0 271 -33t218 -33q73 0 119.5 19t91.5 67zM209 936q0 -130 20.5 -258t62.5 -243.5t101 -203.5t141 -140t177 -52q129 0 227 93.5t147.5 243.5t49.5 329
q0 162 -34 319.5t-95.5 286.5t-159 208.5t-213.5 79.5q-128 0 -226 -93t-148 -242.5t-50 -327.5z" />
    <glyph glyph-name="R" unicode="R" horiz-adv-x="1220" 
d="M766 637l217 -416q26 -47 38.5 -67.5t34.5 -47t44 -36.5t56 -17.5t81 -7.5v-45h-53q-57 0 -94.5 2.5t-70 12.5t-52 21.5t-41 38t-37 53t-39.5 75.5l-295 577h-37q-60 0 -139 11v-594q0 -52 5.5 -78t28 -45.5t63.5 -25t116 -5.5v-43h-551v43q75 0 116 5.5t63.5 25t28 45.5
t5.5 78v1245q0 52 -5.5 77.5t-28 45t-63.5 25t-116 5.5v43h541q237 0 357 -107t120 -302q0 -188 -108.5 -297.5t-295.5 -140.5q28 -17 53 -51.5t58 -102.5zM379 1491v-629q63 -14 147 -14q187 0 293.5 90.5t106.5 275.5q0 171 -94.5 263t-268.5 92q-75 0 -145 -21
q-39 -14 -39 -57z" />
    <glyph glyph-name="S" unicode="S" horiz-adv-x="995" 
d="M528 -33q-85 0 -163.5 38.5t-139.5 103.5q-28 30 -44 27t-23 -42l-17 -96h-45l2 592h45q10 -247 117.5 -400t267.5 -153q70 0 125 27t87 71t48.5 95.5t16.5 105.5q0 51 -11.5 97t-38.5 89t-52.5 76t-71.5 73.5t-76 65t-86 66.5q-59 45 -92.5 72t-82 70t-76.5 79t-56 82.5
t-40.5 97.5t-12.5 107q0 162 102.5 261t267.5 99q79 0 140 -24.5t118 -79.5q25 -23 44 -17.5t22 37.5l8 64h43l27 -533h-43q-14 143 -56 249t-119.5 170.5t-183.5 64.5q-120 0 -188 -77t-68 -190q0 -53 17 -102.5t42 -88t70.5 -83.5t84 -76t100.5 -78q52 -39 83 -63
t76.5 -63t73 -69t59 -73t49 -83t29 -90t11.5 -104q0 -170 -107.5 -282.5t-282.5 -112.5z" />
    <glyph glyph-name="T" unicode="T" horiz-adv-x="1191" 
d="M469 1567h-164q-49 0 -77.5 -6t-53 -23t-38 -54.5t-24 -92.5t-18.5 -146l-51 4l31 348l4 41h1036l4 -41l31 -348l-51 -4q-8 90 -18.5 145.5t-24.5 93t-39 54.5t-53.5 23t-77.5 6h-162q-64 0 -64 -64v-1306q0 -52 5 -77.5t27.5 -45.5t63.5 -25.5t117 -5.5v-43h-553v43
q76 0 117 5.5t63.5 25.5t27.5 45.5t5 77.5v1306q0 64 -63 64z" />
    <glyph glyph-name="U" unicode="U" horiz-adv-x="1427" 
d="M731 -33q-115 0 -204.5 30.5t-145.5 81t-92 122.5t-50 147t-14 162v932q0 52 -5.5 77.5t-28 45t-63.5 25t-116 5.5v43h553v-43q-61 0 -98.5 -4.5t-62 -13t-35.5 -28.5t-15 -43t-4 -64v-932q0 -238 101 -351.5t299 -113.5q180 0 280 117t100 350v930q0 42 -3.5 64.5
t-14.5 42.5t-35.5 28.5t-61.5 13t-97 4.5v43h499v-43q-61 0 -98.5 -4.5t-62 -13t-35.5 -28.5t-15 -43t-4 -64v-930q0 -84 -13 -158.5t-46.5 -147t-85 -124t-135.5 -83.5t-191 -32z" />
    <glyph glyph-name="V" unicode="V" horiz-adv-x="1384" 
d="M328 1452l391 -1249h8l391 1249q34 89 10 116t-165 27v43h419v-43q-89 0 -126 -27t-64 -116l-467 -1485h-61l-474 1485q-29 90 -65 116.5t-125 26.5v43h483v-43q-141 0 -165 -27t10 -116z" />
    <glyph glyph-name="W" unicode="W" horiz-adv-x="1865" 
d="M1837 1638v-43q-90 0 -124.5 -27t-57.5 -120l-389 -1481h-64l-254 1131l-280 -1131h-64l-393 1481q-23 93 -57.5 120t-124.5 27v43h475v-43q-135 0 -161 -28t3 -119l316 -1235h8l245 1024l-47 211q-20 92 -52 119.5t-116 27.5v43h474v-43q-50 0 -82 -2t-54 -10t-32.5 -16
t-12.5 -28t0.5 -38.5t10.5 -54.5l260 -1233h6l313 1235q29 91 3 119t-165 28v43h416z" />
    <glyph glyph-name="X" unicode="X" horiz-adv-x="1402" 
d="M762 885l397 -713q45 -82 90 -105.5t135 -23.5v-43h-497v43q140 0 158.5 21t-29.5 97q-4 7 -6 11l-340 608l-338 -604q-23 -42 -28.5 -67.5t10.5 -40.5t48.5 -20t92.5 -5v-43h-435v45q89 0 141 32.5t111 137.5l357 635l-344 616q-44 81 -88.5 105t-133.5 24v43h496v-43
q-140 0 -158.5 -21t29.5 -97q4 -7 6 -11l287 -514l307 514q47 83 27 106t-148 23v43h428v-43q-92 0 -137.5 -23t-93.5 -102z" />
    <glyph glyph-name="Y" unicode="Y" horiz-adv-x="1286" 
d="M725 723v-526q0 -41 4 -64.5t15 -43.5t35.5 -28.5t62 -13t98.5 -4.5v-43h-553v43q75 0 116 5.5t63.5 25t28 45.5t5.5 78v524l-369 741q-41 83 -84 108t-133 25v43h510v-43q-155 0 -177.5 -23.5t24.5 -104.5q1 -3 2 -5l315 -643h6l289 641q33 73 32 93q-1 28 -52 37
q-35 5 -113 5v43h422v-43q-90 0 -132 -25.5t-79 -109.5z" />
    <glyph glyph-name="Z" unicode="Z" horiz-adv-x="1054" 
d="M129 1638h856l-774 -1566h496q49 0 78 7t55 26t42.5 61t30.5 103.5t29 162.5l51 -8l-57 -387l-6 -37h-875v43l756 1524h-449q-41 0 -66 -3.5t-48.5 -15.5t-35.5 -32t-22 -58t-14.5 -88.5t-7.5 -126.5l-53 2l14 352v41z" />
    <glyph glyph-name="bracketleft" unicode="[" horiz-adv-x="505" 
d="M444 1782v-70h-208v-2154h208v-70h-342v2294h342z" />
    <glyph glyph-name="backslash" unicode="\" horiz-adv-x="626" 
d="M0 1679h90l537 -1679h-90z" />
    <glyph glyph-name="bracketright" unicode="]" horiz-adv-x="505" 
d="M61 1782h342v-2294h-342v70h209v2154h-209v70z" />
    <glyph glyph-name="asciicircum" unicode="^" horiz-adv-x="1103" 
d="M219 817h-117l387 821h121l391 -821h-116l-332 711h-6z" />
    <glyph glyph-name="underscore" unicode="_" horiz-adv-x="1433" 
d="M1434 -184v-78h-1434v78h1434z" />
    <glyph glyph-name="grave" unicode="`" horiz-adv-x="481" 
d="M207 1642l155 -364h-49l-252 364h146z" />
    <glyph glyph-name="a" unicode="a" horiz-adv-x="858" 
d="M819 217h43q-4 -250 -147 -250q-70 0 -108 57t-38 169v81q-41 -151 -116.5 -229t-176.5 -78q-97 0 -152.5 68.5t-55.5 169.5q0 69 30.5 131.5t67 104t112.5 90t119 71t135 66.5q25 12 37 18v117q0 129 -44 185t-130 56q-68 0 -111.5 -31.5t-43.5 -86.5q0 -25 14 -57.5
t14 -53.5q0 -33 -18 -52.5t-51 -19.5q-40 0 -62 31t-22 82q0 108 86.5 183t214.5 75q122 0 194 -76.5t72 -232.5v-629q0 -78 15.5 -107.5t43.5 -29.5q75 0 78 178zM311 72q75 0 144 76.5t114 234.5v244q-166 -88 -229 -136q-154 -115 -154 -258q0 -72 32 -116.5t93 -44.5z
" />
    <glyph glyph-name="b" unicode="b" horiz-adv-x="919" 
d="M162 102v1342v35.5t-0.5 28t-2 24t-4.5 16t-6.5 12.5t-10.5 5.5t-14.5 1.5t-19.5 -5t-25.5 -8l-31.5 -14l-18 39l227 102l20 -22v-729h9q118 182 274 182q131 0 209 -142.5t78 -389.5q0 -281 -100 -446t-279 -165q-81 0 -163 34.5t-142 98.5zM276 846v-690
q31 -44 82 -77.5t113 -33.5q119 0 185.5 138.5t66.5 371.5q0 219 -59.5 337t-161.5 118q-123 0 -226 -164z" />
    <glyph glyph-name="c" unicode="c" horiz-adv-x="761" 
d="M408 -33q-156 0 -245 154.5t-89 402.5q0 168 40.5 299t123.5 210t198 79q114 0 182 -73t68 -179q0 -117 -82 -117q-34 0 -51.5 21t-17.5 51q0 14 7 52t7 61q0 55 -30.5 84.5t-84.5 29.5q-62 0 -110 -40.5t-75.5 -109t-41.5 -151t-14 -174.5q0 -211 67 -352t184 -141
q28 0 54.5 10t55 35.5t51.5 65.5t42 104.5t29 146.5h43q-13 -235 -99 -352t-212 -117z" />
    <glyph glyph-name="d" unicode="d" horiz-adv-x="925" 
d="M870 104l19 -38l-225 -99l-29 25v164h-8q-82 -189 -256 -189q-141 0 -219 152.5t-78 390.5q0 166 38 300.5t116.5 218t185.5 83.5q148 0 219 -113h2v445q0 90 -8 107q-11 24 -58 8q-20 -6 -53 -21l-18 39l231 104l21 -22v-1456q0 -92 8 -109q12 -26 62 -9q19 6 50 19z
M410 70q75 0 126.5 48t98.5 132v407q0 170 -54 272.5t-153 102.5q-61 0 -107.5 -40.5t-72.5 -110t-38.5 -152t-12.5 -176.5q0 -141 22 -247.5t71 -171t120 -64.5z" />
    <glyph glyph-name="e" unicode="e" horiz-adv-x="815" 
d="M694 432h43q-24 -235 -112 -350t-217 -115q-155 0 -244.5 153.5t-89.5 401.5q0 164 40 297t118.5 213t183.5 80q145 0 227 -139.5t82 -372.5h-532v-39q0 -136 28.5 -245.5t86.5 -176.5t136 -67q38 0 72.5 17.5t69.5 56.5t63 112t45 174zM418 1042q-94 0 -150 -104.5
t-71 -267.5h407q0 73 -10 137t-31 118t-58.5 85.5t-86.5 31.5z" />
    <glyph glyph-name="f" unicode="f" horiz-adv-x="575" 
d="M494 1692q93 0 160 -45t67 -101q0 -29 -19 -49t-51 -20q-19 0 -36.5 12t-25 22t-28.5 39q-27 39 -46.5 53.5t-49.5 14.5q-164 0 -164 -334v-207h221v-69h-221v-811q0 -68 13.5 -98t54.5 -43t131 -13v-43h-457v43q95 0 120 28t25 126v811h-133v51l133 14v199q0 214 86 317
t220 103z" />
    <glyph glyph-name="g" unicode="g" horiz-adv-x="901" 
d="M408 127h210q159 0 228 -44.5t69 -156.5q0 -77 -39.5 -150.5t-108.5 -131t-169.5 -92.5t-214.5 -35q-103 0 -184.5 25t-134 82.5t-52.5 139.5q0 90 54.5 154t150.5 119q-108 39 -108 149q0 104 133 205q-129 110 -129 322q0 175 90.5 286t238.5 111q102 0 176 -53
q118 59 222 59q33 0 45 -12t12 -35q0 -51 -68 -51q-27 0 -64 4t-56 5t-54 -3q115 -112 115 -309q0 -174 -90.5 -285t-237.5 -111q-89 0 -161 43q-41 -36 -60.5 -64.5t-19.5 -61.5q0 -20 2 -32.5t13.5 -29t32.5 -25.5t61 -15.5t98 -6.5zM420 1044q-49 0 -86.5 -23.5
t-59 -64.5t-32.5 -90.5t-11 -105.5q0 -67 13 -130.5t39.5 -119.5t73.5 -90.5t108 -34.5q92 0 139 74t47 198q0 69 -14 135.5t-40.5 124t-72.5 92.5t-104 35zM410 -387q188 0 307 85.5t119 192.5q0 71 -48.5 96t-171.5 25h-219q-72 0 -116 8q-170 -109 -170 -221
q0 -79 76.5 -132.5t222.5 -53.5z" />
    <glyph glyph-name="h" unicode="h" horiz-adv-x="976" 
d="M295 848v-651q0 -98 22.5 -126t106.5 -28v-43h-375v43q86 0 109.5 28.5t23.5 125.5l-2 1247q0 90 -7 107q-10 24 -56 8q-19 -6 -51 -21l-19 39l154 72l73 32l21 -22v-741h6q74 97 140.5 145.5t152.5 48.5q105 0 155 -73t50 -203v-639q0 -98 23 -126t110 -28v-43h-373v43
q84 0 106.5 28t22.5 126v632q0 91 -35.5 136t-99.5 45q-69 0 -130 -41.5t-128 -120.5z" />
    <glyph glyph-name="i" unicode="i" horiz-adv-x="479" 
d="M231 1356q-42 0 -71 28t-29 68q0 41 28.5 68.5t71.5 27.5q42 0 70.5 -27.5t28.5 -68.5q0 -40 -29 -68t-70 -28zM307 1090v-893q0 -98 23 -126t112 -28v-43h-383v43q88 0 112 28.5t24 125.5v682v44t-1.5 32.5t-4.5 26t-8.5 15.5t-13.5 9t-20.5 -1t-28 -6t-38.5 -14l-17 41
l150 59l70 27z" />
    <glyph glyph-name="j" unicode="j" horiz-adv-x="434" 
d="M213 1356q-41 0 -69.5 28t-28.5 68q0 41 28.5 68.5t69.5 27.5t69.5 -27.5t28.5 -68.5q0 -40 -28.5 -68t-69.5 -28zM74 -483q-85 0 -138 41.5t-53 99.5q0 34 19 56t55 22q32 0 50.5 -19t25.5 -61q7 -37 20 -56.5t39 -19.5q52 0 70 84.5t18 247.5v967q0 40 -0.5 56.5
t-4.5 37t-11 24.5t-22.5 6t-36 -5t-54.5 -21l-16 41l233 94l27 -22v-1194q0 -379 -221 -379z" />
    <glyph glyph-name="k" unicode="k" horiz-adv-x="935" 
d="M297 1659v-1462q0 -98 22 -126t107 -28v-43h-379v43q89 0 112 28t23 126v1249v9q0 37 -0.5 52t-4 34t-10 22t-20 4.5t-32.5 -6t-49 -21.5l-19 41l156 70l71 30zM455 655l282 -485q45 -79 85 -103t106 -24v-43h-383v43q95 0 104 19t-35 91q-7 11 -10 17l-262 453l229 295
q36 44 37 70t-26.5 36t-83.5 10v43h389v-43q-73 0 -119 -20t-100 -90z" />
    <glyph glyph-name="l" unicode="l" horiz-adv-x="473" 
d="M297 1659v-1462q0 -98 23 -126t110 -28v-43h-383v43q89 0 112 28t23 126v1249v9q0 37 -0.5 52t-4 34t-10 22t-20 4.5t-32.5 -6t-49 -21.5l-19 41l156 70l71 30z" />
    <glyph glyph-name="m" unicode="m" horiz-adv-x="1431" 
d="M1253 838v-641q0 -98 22.5 -126t108.5 -28v-43h-370v43q83 0 105 28t22 126v634q0 179 -129 179q-61 0 -116 -39.5t-114 -114.5v-18v-641q0 -98 22 -126t105 -28v-43h-366v43q83 0 105 28t22 126v634q0 179 -129 179q-62 0 -118.5 -41.5t-117.5 -120.5v-651
q0 -98 22 -126t105 -28v-43h-373v43q87 0 110.5 28.5t23.5 125.5v680v6q0 39 -0.5 54.5t-4 35t-10 23.5t-20.5 6t-32.5 -5t-49.5 -20l-19 41l156 67l63 27l29 -22v-172h6q61 94 126.5 144t148.5 50q164 0 190 -194h6q62 94 126 144t149 50q100 0 148 -72.5t48 -201.5z" />
    <glyph glyph-name="n" unicode="n" horiz-adv-x="989" 
d="M61 0v43q86 0 110 28.5t24 125.5v682v6v42t-2 31.5t-4.5 24.5t-8.5 14t-14 7.5t-21.5 -1.5t-29.5 -7t-39 -15l-17 41l222 90l26 -22v-172h6q74 97 140.5 145.5t152.5 48.5q105 0 156 -73t51 -203v-639q0 -98 22.5 -126t108.5 -28v-43h-373v43q84 0 106.5 28t22.5 126v632
q0 90 -35.5 135.5t-99.5 45.5q-68 0 -128.5 -41t-129.5 -121v-651q0 -98 22.5 -126t106.5 -28v-43h-375z" />
    <glyph glyph-name="o" unicode="o" horiz-adv-x="915" 
d="M459 -33q-111 0 -199.5 74.5t-137 204t-48.5 289.5q0 161 44 290.5t133 208t208 78.5q167 0 275 -162t108 -405q0 -160 -44 -290t-132.5 -209t-206.5 -79zM485 39q79 0 134.5 62.5t79.5 154.5t24 201q0 146 -31 275.5t-99 218.5t-161 89q-80 0 -136 -62.5t-79.5 -154.5
t-23.5 -202q0 -107 18.5 -209t53 -186.5t92 -135.5t128.5 -51z" />
    <glyph glyph-name="p" unicode="p" horiz-adv-x="911" 
d="M547 1112q96 0 162 -72.5t95.5 -191t29.5 -273.5q0 -118 -19 -223.5t-57 -191.5t-102 -136.5t-146 -50.5q-71 0 -133 40t-103 116h-4v-383q0 -98 24 -126t112 -28v-43h-383v43q89 0 112 27.5t23 126.5v1133v44t-2 32.5t-4.5 26t-8.5 15t-14.5 8.5t-22 -1t-29.5 -6.5
t-40 -14.5l-17 41l228 88l22 -22v-181h9q116 203 268 203zM494 47q73 0 123 73.5t71 184.5t21 250q0 210 -50.5 332.5t-148.5 122.5q-65 0 -128.5 -51.5t-111.5 -131.5v-385q0 -170 64.5 -282.5t159.5 -112.5z" />
    <glyph glyph-name="q" unicode="q" horiz-adv-x="882" 
d="M649 1040l70 72l22 -22v-1344q0 -98 24 -126t112 -28v-43h-396v43q97 0 122.5 28t25.5 126v414h-8q-89 -193 -252 -193q-135 0 -215 145.5t-80 395.5q0 97 12 183.5t39.5 164t68 134t101 89.5t135.5 33q110 0 219 -72zM629 254v625q-18 69 -70.5 111t-116.5 42
q-68 0 -118 -40.5t-77 -112.5t-39.5 -156t-12.5 -184q0 -216 56.5 -342.5t156.5 -126.5q50 0 94.5 30t71.5 66.5t55 87.5z" />
    <glyph glyph-name="r" unicode="r" horiz-adv-x="681" 
d="M557 1112q44 0 69 -22t25 -58q0 -42 -22.5 -67t-50.5 -25q-32 0 -62 33q-16 16 -26.5 22t-26.5 6q-36 0 -77 -50t-81 -150v-600q0 -53 6 -80.5t28.5 -46t60.5 -24t108 -5.5v-45h-447v43q86 0 110 28.5t24 125.5v682v44t-2 32.5t-4.5 26t-8.5 15t-14 8.5t-21.5 -1
t-29.5 -6.5t-39 -14.5l-17 39l222 90l24 -22v-183h6q45 91 109.5 148t136.5 57z" />
    <glyph glyph-name="s" unicode="s" horiz-adv-x="702" 
d="M389 -33q-110 0 -201 72q-38 28 -53 -10l-14 -41h-41l-10 430h39q19 -186 94 -283.5t178 -97.5q75 0 115.5 52t40.5 140q0 40 -8.5 68t-41 67.5t-67 71.5t-117.5 105q-128 110 -174.5 175t-46.5 146q0 109 69 179.5t177 70.5q99 0 176 -68q20 -17 34 -13t17 24l8 43h41
l4 -344h-41q-13 127 -73 207.5t-158 80.5q-67 0 -109.5 -43.5t-42.5 -113.5q0 -35 10 -63t40 -62t56.5 -58.5t88.5 -76.5q75 -64 119 -106.5t79.5 -89.5t49.5 -91t14 -96q0 -131 -72.5 -203t-179.5 -72z" />
    <glyph glyph-name="t" unicode="t" horiz-adv-x="643" 
d="M559 436h47q0 -238 -49.5 -353.5t-175.5 -115.5q-107 0 -157 83t-50 282v676h-147v59q196 3 209 299h51v-289h250v-69h-248v-605q0 -56 1.5 -94.5t5.5 -81t12.5 -69.5t21.5 -50.5t33.5 -34t48.5 -10.5q147 0 147 373z" />
    <glyph glyph-name="u" unicode="u" horiz-adv-x="948" 
d="M692 -31l-26 23l-4 164l-7 2q-52 -82 -129.5 -136.5t-165.5 -54.5q-96 0 -145 74t-49 201v622v43t-2 32.5t-4.5 26t-9 15.5t-14.5 9t-22 -0.5t-30.5 -5.5t-40.5 -13l-14 41l229 80l23 -23v-813q0 -188 125 -188q64 0 132 44.5t124 114.5v637v43t-2 32.5t-4.5 26t-9 15.5
t-14.5 9t-22 -0.5t-30.5 -5.5t-40.5 -13l-15 41l230 80l22 -23v-866q0 -92 9 -110q13 -25 66 -8q19 7 48 19l16 -41l-161 -67z" />
    <glyph glyph-name="v" unicode="v" horiz-adv-x="935" 
d="M492 203l202 686q8 27 11.5 42t6.5 32.5t2 26t-6 18t-13.5 13.5t-23 7.5t-33.5 4.5t-46 1v43h338v-43q-74 0 -106.5 -27.5t-59.5 -117.5l-270 -907h-64l-268 907q-27 90 -58 117.5t-100 27.5v43h385v-43q-27 0 -46 -1t-33.5 -4.5t-23 -7.5t-13.5 -13.5t-6 -18t2 -26
t6.5 -32.5t11.5 -42l194 -686h11z" />
    <glyph glyph-name="w" unicode="w" horiz-adv-x="1325" 
d="M1321 1077v-43q-66 0 -96 -27.5t-54 -117.5l-253 -907h-66l-178 718l-189 -718h-71l-254 907q-26 91 -56 118t-100 27v43h342v-43q-16 0 -27.5 -0.5t-21 -3t-16.5 -4t-11 -8t-6.5 -10.5t-2 -15.5t1 -18t4.5 -23.5t7 -27.5t9 -34.5l188 -688h6l166 628l-14 58
q-23 91 -49.5 119t-85.5 28v43h342v-43q-83 0 -97 -27.5t11 -119.5l157 -686h6l189 688q29 92 13 118.5t-116 26.5v43h322z" />
    <glyph glyph-name="x" unicode="x" horiz-adv-x="899" 
d="M494 567l198 -393q41 -81 80.5 -106t110.5 -25v-43h-379v43q98 0 106 23t-41 108l-153 305l-140 -301q-44 -88 -34 -111.5t110 -23.5v-43h-336v43q74 0 112.5 25.5t76.5 109.5l176 373l-178 352q-41 81 -77.5 106t-100.5 25v43h354v-43q-87 0 -95.5 -21t35.5 -96
q5 -9 7 -14l133 -264l133 264q41 81 43 97q3 24 -30 30q-21 4 -68 4v43h309v-43q-65 0 -102 -25t-78 -106z" />
    <glyph glyph-name="y" unicode="y" horiz-adv-x="899" 
d="M178 -477q-66 0 -109.5 33.5t-43.5 85.5q0 32 19 51.5t50 19.5q45 0 80 -57q13 -26 27.5 -35.5t38.5 -9.5q86 0 166 285q18 61 14 147l-256 846q-27 91 -58.5 118t-101.5 27v43h389v-43q-27 0 -46 -1t-33.5 -4.5t-23 -7.5t-13.5 -13.5t-6 -18t2 -26t6.5 -32.5t11.5 -42
l194 -688h9l184 688q29 92 13 118.5t-116 26.5v43h318v-43q-63 0 -91 -27t-54 -118l-240 -860q-22 -80 -39 -133t-40.5 -117.5t-47.5 -105t-54.5 -77.5t-68 -55t-80.5 -18z" />
    <glyph glyph-name="z" unicode="z" horiz-adv-x="761" 
d="M199 70h262q57 0 86 7.5t49.5 37t26.5 80t6 143.5h47v-338h-621l6 43l496 965h-258q-57 0 -86.5 -6.5t-50 -32t-26 -68t-5.5 -121.5h-49v297h612v-43z" />
    <glyph glyph-name="braceleft" unicode="{" horiz-adv-x="745" 
d="M680 1782v-43q-258 -58 -258 -320q0 -77 39 -216t39 -218q0 -68 -18.5 -123.5t-48 -91.5t-68.5 -61t-77.5 -36.5t-76.5 -13.5v-6q38 -1 76.5 -12t77.5 -36.5t68.5 -61.5t48 -92.5t18.5 -124.5q0 -80 -39 -236t-39 -237q0 -265 258 -322v-43q-189 29 -282 128.5t-93 262.5
q0 87 34 255t34 235q0 133 -78 199.5t-197 66.5v43q55 0 103.5 15.5t87.5 46.5t61.5 83.5t22.5 120.5q0 64 -34 215.5t-34 235.5q0 71 20 131.5t62.5 113.5t117 89.5t175.5 52.5z" />
    <glyph glyph-name="bar" unicode="|" horiz-adv-x="309" 
d="M102 -328v2007h105v-2007h-105z" />
    <glyph glyph-name="braceright" unicode="}" horiz-adv-x="745" 
d="M373 944q0 -133 78.5 -199.5t195.5 -66.5v-43q-119 0 -196.5 -66.5t-77.5 -199.5q0 -67 33.5 -235t33.5 -255q0 -334 -374 -391v43q258 57 258 322q0 81 -39 237t-39 236q0 68 18.5 124.5t48 92.5t68.5 61.5t77.5 36.5t76.5 12v6q-38 2 -76.5 13.5t-77.5 36.5t-68.5 61
t-48 91.5t-18.5 123.5q0 79 39 218t39 216q0 261 -258 320v43q101 -16 175.5 -52.5t117 -89.5t62 -113.5t19.5 -131.5q0 -84 -33.5 -235.5t-33.5 -215.5z" />
    <glyph glyph-name="asciitilde" unicode="~" horiz-adv-x="1132" 
d="M985 743h45q-3 -118 -66.5 -182.5t-162.5 -64.5q-59 0 -126 22.5t-117.5 49t-117 49t-125.5 22.5q-146 0 -170 -141h-43q1 118 65.5 182.5t164.5 64.5q59 0 126 -22.5t117.5 -50t116.5 -50t125 -22.5q146 0 168 143z" />
    <glyph glyph-name="exclamdown" unicode="&#xa1;" horiz-adv-x="397" 
d="M199 1114q38 0 66 -28t28 -68q0 -38 -28 -66t-66 -28q-39 0 -67 28t-28 66q0 40 27.5 68t67.5 28zM125 -496q0 77 11.5 219.5t24 389.5t15.5 567h49q3 -320 14.5 -567.5t22 -389t10.5 -219.5q0 -104 -73 -104q-74 0 -74 104z" />
    <glyph glyph-name="cent" unicode="&#xa2;" horiz-adv-x="864" 
d="M700 436h43q-13 -235 -99 -352t-212 -117q-39 0 -80 13l-96 -431h-66l105 457q-94 59 -145.5 196t-51.5 322q0 167 40.5 298.5t124 210.5t198.5 79q41 0 82 -12l121 538h63l-127 -565q52 -32 81.5 -88.5t29.5 -124.5q0 -117 -82 -117q-35 0 -52.5 21t-17.5 51q0 14 7 52
t7 61q0 16 -2 22l-190 -850q44 -26 90 -26q28 0 54 10t53.5 35.5t50.5 65.5t42 104.5t29 146.5zM219 567q0 -133 27.5 -242.5t79.5 -174.5l198 876q-26 16 -63 16q-63 0 -111 -40.5t-75.5 -109t-41.5 -151t-14 -174.5z" />
    <glyph glyph-name="sterling" unicode="&#xa3;" horiz-adv-x="1212" 
d="M1108 420h47q-10 -41 -14 -58.5t-16.5 -62.5t-22 -69.5t-27.5 -66t-35 -65.5t-43 -54t-53 -46t-63 -27.5t-76 -11.5q-49 0 -94 11t-89.5 35t-72 42t-72.5 51q-84 -139 -217 -139q-70 0 -114 42t-44 110q0 76 54.5 115.5t128.5 39.5q63 0 147 -43q29 133 29 328
q0 123 -12 217h-259v63h250q-8 51 -23.5 134t-23.5 143t-8 121q0 214 90 332t248 118q72 0 130 -21t91.5 -54.5t50.5 -70.5t17 -73q0 -42 -22.5 -66t-61.5 -24q-37 0 -60.5 22t-23.5 66q0 27 -1.5 44.5t-8 40t-19 35.5t-36 22.5t-56.5 9.5q-213 0 -213 -346
q0 -63 9.5 -130.5t26.5 -155.5t25 -147h285v-63h-276q6 -68 6 -147q0 -268 -70 -445q53 -30 87 -47t86.5 -33t101.5 -16q220 0 317 340zM264 29q95 0 144 118q-78 50 -134 50q-42 0 -68 -22.5t-26 -61.5q0 -36 22.5 -60t61.5 -24z" />
    <glyph glyph-name="currency" unicode="&#xa4;" horiz-adv-x="1288" 
d="M1083 745q0 -157 -100 -278l203 -201l-62 -61l-202 203q-122 -101 -279 -101q-155 0 -278 99l-201 -201l-62 61l201 201q-98 122 -98 278q0 157 98 279l-201 201l62 61l201 -201q123 99 278 99q158 0 281 -99l200 201l62 -61l-203 -201q100 -121 100 -279zM293 745
q0 -145 102 -248.5t248 -103.5q147 0 249.5 103.5t102.5 248.5q0 147 -102.5 250t-249.5 103q-146 0 -248 -103t-102 -250z" />
    <glyph glyph-name="yen" unicode="&#xa5;" horiz-adv-x="1456" 
d="M1356 1638v-43q-90 0 -131 -25.5t-80 -109.5l-295 -649h430v-63h-459l-10 -25v-143h469v-66h-469v-317q0 -52 5 -77.5t27.5 -45.5t63.5 -25.5t117 -5.5v-43h-553v43q76 0 117 5.5t63.5 25.5t27.5 45.5t5 77.5v317h-508v66h508v141l-12 27h-496v63h463l-324 651
q-41 83 -84 108t-133 25v43h510v-43q-155 0 -177.5 -23.5t24.5 -104.5q1 -3 2 -5l315 -643h6l289 641q33 73 32 93q-1 28 -52 37q-35 5 -113 5v43h422z" />
    <glyph glyph-name="brokenbar" unicode="&#xa6;" horiz-adv-x="309" 
d="M102 860v819h105v-819h-105zM102 -328v820h105v-820h-105z" />
    <glyph glyph-name="section" unicode="&#xa7;" horiz-adv-x="851" 
d="M750 662q0 -104 -55.5 -184t-145.5 -150q119 -138 119 -289q0 -73 -24.5 -131.5t-65 -93.5t-90 -53.5t-103.5 -18.5q-112 0 -185 65t-73 138q0 39 20.5 63.5t53.5 24.5t55.5 -21.5t22.5 -62.5q0 -30 3.5 -51t15 -44t38 -35t67.5 -12q89 0 137 59.5t48 151.5
q0 81 -48 153.5t-186 193.5q-73 64 -113.5 103.5t-76 88t-49 96t-13.5 107.5q0 102 54.5 181.5t144.5 154.5q-117 136 -117 288q0 141 84.5 218t198.5 77q112 0 185 -64.5t73 -137.5q0 -39 -20.5 -63.5t-53.5 -24.5t-55.5 21.5t-22.5 62.5q0 30 -3.5 50.5t-15 43.5t-38 35
t-67.5 12q-89 0 -137 -59t-48 -150q0 -85 49.5 -157t184.5 -189q58 -51 93 -84t69.5 -72.5t51.5 -74t27.5 -76t10.5 -90.5zM449 430q25 -23 67 -65q152 123 152 258q0 50 -13.5 90t-52 87t-76.5 83t-118 106q-43 37 -72 70q-77 -65 -114.5 -127.5t-37.5 -132.5
q0 -26 3 -48.5t14 -46.5t18 -40t30.5 -43t34.5 -40t47.5 -46.5t52.5 -47.5t65 -57z" />
    <glyph glyph-name="dieresis" unicode="&#xa8;" horiz-adv-x="747" 
d="M201 1335q-40 0 -68.5 28.5t-28.5 68.5q0 38 28.5 66t68.5 28q38 0 66 -28t28 -66q0 -40 -28 -68.5t-66 -28.5zM549 1335q-40 0 -68 28.5t-28 68.5q0 38 28 66t68 28q38 0 66 -28t28 -66q0 -40 -28 -68.5t-66 -28.5z" />
    <glyph glyph-name="copyright" unicode="&#xa9;" horiz-adv-x="1884" 
d="M944 1681q176 0 332 -67t267.5 -182t176 -275t64.5 -340q0 -176 -64.5 -334.5t-176 -274t-268 -183.5t-331.5 -68q-178 0 -335.5 68t-268.5 183.5t-175.5 274t-64.5 334.5q0 241 109.5 438.5t303 311.5t431.5 114zM944 1618q-166 0 -311.5 -63.5t-248 -171t-161.5 -255
t-59 -311.5t59 -311.5t161.5 -254t248 -169t311.5 -62.5q215 0 393.5 106t280.5 289t102 402q0 163 -60 311t-163 255.5t-247.5 171t-305.5 63.5zM424 813q0 230 144 381.5t356 151.5q77 0 144 -19t103.5 -41.5t66 -41.5t40.5 -19q12 0 16 15t4 65h43l31 -379h-43
q-21 166 -129.5 258t-267.5 92q-167 0 -282 -130.5t-115 -332.5q0 -204 118 -333.5t299 -129.5q163 0 281.5 100t165.5 281h45q-52 -214 -181.5 -332t-330.5 -118q-224 0 -366 150t-142 382z" />
    <glyph glyph-name="guillemotleft" unicode="&#xab;" horiz-adv-x="845" 
d="M453 1094l-238 -494l238 -500h-43l-310 500l310 494h43zM745 1094l-237 -494l237 -500h-43l-311 500l311 494h43z" />
    <glyph glyph-name="logicalnot" unicode="&#xac;" horiz-adv-x="1202" 
d="M102 770v104h998v-526h-105v422h-893z" />
    <glyph glyph-name="registered" unicode="&#xae;" horiz-adv-x="1888" 
d="M942 1681q236 0 430 -113t305 -309.5t111 -433.5q0 -178 -65.5 -338.5t-177.5 -277t-269.5 -184.5t-333.5 -68q-177 0 -334 68.5t-268 185t-175.5 276.5t-64.5 338q0 177 64.5 335.5t175.5 272.5t268 181t334 67zM940 20q163 0 309 63t250 170.5t164.5 255t60.5 310.5
t-60.5 310.5t-164.5 255t-250 170.5t-309 63q-164 0 -309 -63t-247 -170.5t-161 -254.5t-59 -311t59.5 -311.5t161.5 -254.5t247 -170t308 -63zM1094 651l106 -186q26 -46 46.5 -72t45 -40t48 -18t63.5 -5v-41h-109q-62 0 -99 25.5t-71 84.5l-202 365q-50 -4 -78 -4h-90
v-275q0 -97 20.5 -125t104.5 -28v-43h-324v43q71 0 89 28t18 125v672q0 97 -18 125.5t-89 28.5v43h322q28 0 54.5 -1.5t67.5 -8t75 -17.5t71 -32t62.5 -49.5t42 -73t16.5 -99.5q0 -118 -71.5 -195.5t-205.5 -103.5q46 -20 105 -123zM754 819h82q158 0 243.5 64.5t85.5 183.5
q0 115 -73.5 171t-204.5 56q-81 0 -133 -18v-457z" />
    <glyph glyph-name="macron" unicode="&#xaf;" horiz-adv-x="706" 
d="M100 1393v80h506v-80h-506z" />
    <glyph glyph-name="degree" unicode="&#xb0;" horiz-adv-x="729" 
d="M362 1090q-132 0 -216.5 85.5t-84.5 217.5q0 130 85 215.5t216 85.5q132 0 219 -86t87 -215q0 -132 -87 -217.5t-219 -85.5zM362 1167q94 0 156 64.5t62 161.5q0 95 -62 158t-156 63q-92 0 -152 -63t-60 -158q0 -97 60 -161.5t152 -64.5z" />
    <glyph glyph-name="plusminus" unicode="&#xb1;" horiz-adv-x="1005" 
d="M451 709h-349v104h349v346h106v-346h344v-104h-344v-349h-106v349zM903 162h-799v108h799v-108z" />
    <glyph glyph-name="acute" unicode="&#xb4;" horiz-adv-x="481" 
d="M166 1278h-47l155 364h146z" />
    <glyph glyph-name="paragraph" unicode="&#xb6;" horiz-adv-x="1261" 
d="M1159 1638v-43q-76 0 -116.5 -5.5t-63.5 -25t-28 -45t-5 -77.5v-1893h-88v2020h-219v-2020h-88v1338q-204 0 -326.5 97.5t-122.5 277.5q0 181 122.5 278.5t326.5 97.5h608z" />
    <glyph glyph-name="periodcentered" unicode="&#xb7;" horiz-adv-x="395" 
d="M197 723q-38 0 -66.5 28t-28.5 66q0 39 28 66.5t67 27.5q40 0 68 -27t28 -67q0 -38 -28 -66t-68 -28z" />
    <glyph glyph-name="cedilla" unicode="&#xb8;" horiz-adv-x="632" 
d="M227 -147l78 167h64l-56 -122q99 -10 157 -53t58 -121q0 -79 -62 -134.5t-159 -76.5t-207 -7l13 43q141 -8 225 35t84 140q0 73 -49.5 100t-145.5 29z" />
    <glyph glyph-name="guillemotright" unicode="&#xbb;" horiz-adv-x="845" 
d="M100 100l238 500l-238 494h43l310 -494l-310 -500h-43zM391 100l240 500l-240 494h45l309 -494l-309 -500h-45z" />
    <glyph glyph-name="onequarter" unicode="&#xbc;" horiz-adv-x="1466" 
d="M375 1657v-869q0 -58 21.5 -74t103.5 -16v-26h-350v26q88 0 110.5 16t22.5 74v717q0 29 -2 42t-8 23t-23 6.5t-41.5 -12.5t-67.5 -30l-12 27l229 110zM178 0l1018 1638h72l-1018 -1638h-72zM1118 272h-399v72l411 653h74v-653h111v-72h-111v-155q0 -58 20 -74t97 -16v-27
h-320v27q77 0 97 16t20 74v155zM774 348v-4h344v555z" />
    <glyph glyph-name="onehalf" unicode="&#xbd;" horiz-adv-x="1712" 
d="M375 1657v-869q0 -58 21.5 -74t103.5 -16v-26h-350v26q88 0 110.5 16t22.5 74v717q0 29 -2 42t-8 23t-23 6.5t-41.5 -12.5t-67.5 -30l-12 27l229 110zM207 0l1018 1638h73l-1017 -1638h-74zM1106 78h307q56 0 80 22.5t51 98.5l25 -9l-66 -190h-510v27q83 89 133 146
t113 138t97 143t58.5 136.5t24.5 144.5q0 85 -39 136t-123 51q-96 0 -150 -80t-56 -211h-33q0 166 73 267t203 101q108 0 163.5 -64t55.5 -165q0 -82 -32.5 -171t-92.5 -178.5t-127.5 -169t-154.5 -167.5v-6z" />
    <glyph glyph-name="threequarters" unicode="&#xbe;" horiz-adv-x="1656" 
d="M172 737q0 17 12 29t31 12q20 0 32 -9t29 -32q33 -41 107 -41q85 0 148 55.5t63 172.5q0 68 -22.5 118t-61.5 76.5t-83.5 38.5t-96.5 12v27q227 67 227 248q0 68 -39.5 115t-114.5 47q-83 0 -126.5 -43t-63.5 -115h-33q18 110 85 166.5t165 56.5q93 0 155 -60t62 -159
q0 -78 -51.5 -143.5t-153.5 -108.5v-4q114 -14 180 -80t66 -178q0 -130 -93 -207.5t-230 -77.5q-75 0 -134 24t-59 60zM369 0l1017 1638h74l-1018 -1638h-73zM1309 272h-400v72l410 653h74v-653h112v-72h-112v-155q0 -58 20 -74t96 -16v-27h-319v27q78 0 98.5 16t20.5 74
v155zM965 348v-4h344v555z" />
    <glyph glyph-name="questiondown" unicode="&#xbf;" horiz-adv-x="733" 
d="M401 1114q39 0 67 -28t28 -68q0 -38 -28.5 -66t-66.5 -28q-39 0 -66.5 27.5t-27.5 66.5q0 40 27 68t67 28zM401 621h60q123 -160 123 -287q0 -84 -42 -155.5t-139 -162.5q-63 -59 -98 -95t-72 -84t-53 -92t-16 -91q0 -81 44 -130.5t136 -49.5q115 0 181 86t71 231h47
l4 -291q-42 -44 -115 -72t-153 -28q-136 0 -228 84t-92 211q0 98 59 184.5t204 222.5q102 93 139 158t37 133q0 53 -29.5 119t-67.5 109z" />
    <glyph glyph-name="Agrave" unicode="&#xc0;" horiz-adv-x="1325" 
d="M580 2152l155 -364h-49l-252 364h146zM692 1669l471 -1483q29 -90 68 -116.5t137 -26.5v-43h-500v43q143 0 167.5 27t-9.5 116l-113 363h-569l-115 -363q-34 -89 -9.5 -116t167.5 -27v-43h-430v43q96 0 134 26.5t67 116.5l469 1483h65zM625 1446l-260 -832h528l-260 832
h-8z" />
    <glyph glyph-name="Aacute" unicode="&#xc1;" horiz-adv-x="1325" 
d="M762 2152h145l-254 -364h-47zM692 1669l471 -1483q29 -90 68 -116.5t137 -26.5v-43h-500v43q143 0 167.5 27t-9.5 116l-113 363h-569l-115 -363q-34 -89 -9.5 -116t167.5 -27v-43h-430v43q96 0 134 26.5t67 116.5l469 1483h65zM625 1446l-260 -832h528l-260 832h-8z" />
    <glyph glyph-name="Acircumflex" unicode="&#xc2;" horiz-adv-x="1325" 
d="M872 1788l-208 272l-209 -272h-49l182 364h149l183 -364h-48zM692 1669l471 -1483q29 -90 68 -116.5t137 -26.5v-43h-500v43q143 0 167.5 27t-9.5 116l-113 363h-569l-115 -363q-34 -89 -9.5 -116t167.5 -27v-43h-430v43q96 0 134 26.5t67 116.5l469 1483h65zM625 1446
l-260 -832h528l-260 832h-8z" />
    <glyph glyph-name="Atilde" unicode="&#xc3;" horiz-adv-x="1325" 
d="M512 1944q-48 0 -69.5 -36t-28.5 -106h-43q10 234 147 234q43 0 85.5 -21t71.5 -46.5t67 -46.5t73 -21q48 0 69.5 35.5t26.5 105.5h43q-10 -234 -147 -234q-43 0 -85.5 21t-71.5 47t-66.5 47t-71.5 21zM692 1669l471 -1483q29 -90 68 -116.5t137 -26.5v-43h-500v43
q143 0 167.5 27t-9.5 116l-113 363h-569l-115 -363q-34 -89 -9.5 -116t167.5 -27v-43h-430v43q96 0 134 26.5t67 116.5l469 1483h65zM625 1446l-260 -832h528l-260 832h-8z" />
    <glyph glyph-name="Adieresis" unicode="&#xc4;" horiz-adv-x="1325" 
d="M489 1845q-40 0 -68 28.5t-28 68.5q0 38 28 66t68 28q38 0 66.5 -28t28.5 -66q0 -40 -28.5 -68.5t-66.5 -28.5zM838 1845q-40 0 -68.5 28.5t-28.5 68.5q0 38 28.5 66t68.5 28q38 0 66 -28t28 -66q0 -40 -28 -68.5t-66 -28.5zM692 1669l471 -1483q29 -90 68 -116.5
t137 -26.5v-43h-500v43q143 0 167.5 27t-9.5 116l-113 363h-569l-115 -363q-34 -89 -9.5 -116t167.5 -27v-43h-430v43q96 0 134 26.5t67 116.5l469 1483h65zM625 1446l-260 -832h528l-260 832h-8z" />
    <glyph glyph-name="Aring" unicode="&#xc5;" horiz-adv-x="1325" 
d="M664 1806q-86 0 -143.5 55.5t-57.5 137.5q0 83 57.5 137.5t143.5 54.5q85 0 140.5 -54.5t55.5 -137.5q0 -82 -56 -137.5t-140 -55.5zM664 2130q-57 0 -95.5 -37.5t-38.5 -93.5q0 -57 38.5 -94t95.5 -37q56 0 93.5 37t37.5 94q0 55 -37.5 93t-93.5 38zM692 1669l471 -1483
q29 -90 68 -116.5t137 -26.5v-43h-500v43q143 0 167.5 27t-9.5 116l-113 363h-569l-115 -363q-34 -89 -9.5 -116t167.5 -27v-43h-430v43q96 0 134 26.5t67 116.5l469 1483h65zM625 1446l-260 -832h528l-260 832h-8z" />
    <glyph glyph-name="AE" unicode="&#xc6;" horiz-adv-x="1753" 
d="M1659 428l51 -14l-104 -375l-13 -39h-968v43q76 0 117 5.5t63.5 25.5t27.5 45.5t5 77.5v344h-443l-153 -361q-10 -23 -13.5 -32t-9.5 -26t-6.5 -22.5t0 -17t5.5 -14.5t13.5 -9.5t21.5 -8t31.5 -4t41 -3t53.5 -0.5v-43h-422v43q93 0 134 25.5t77 111.5l545 1278
q32 75 30 95q-3 30 -61 37q-35 5 -107 5v43h1014l4 -43l33 -317l-51 -6q-8 69 -15.5 114.5t-19.5 80t-25.5 53t-37.5 30t-49 14.5t-66 3h-315q-82 0 -82 -82v-596h272q52 0 77.5 5.5t44.5 30.5t24.5 69.5t5.5 127.5h43v-532h-43q0 67 -4.5 108t-12.5 68t-28 39t-42.5 16
t-64.5 4h-272v-637q0 -72 18 -94t78 -22h309q50 0 82 7.5t61 27t51.5 61.5t45 102t49.5 158zM831 1567l-409 -961h416v961h-7z" />
    <glyph glyph-name="Ccedilla" unicode="&#xc7;" horiz-adv-x="1288" 
d="M674 -33h-4l-31 -71q98 -9 155.5 -52.5t57.5 -119.5q0 -79 -61.5 -134.5t-158.5 -76.5t-208 -7l12 43q69 -4 124.5 4t98 27.5t66 55.5t23.5 85q0 74 -49.5 102t-145.5 30l55 118q-165 20 -286.5 138t-182.5 300t-61 404q0 241 75 435t217 308.5t326 114.5q196 0 318 -125
q25 -23 41.5 -17.5t19.5 36.5l8 86h43l31 -568h-43q-42 256 -140 386t-265 130q-115 0 -208.5 -60t-155 -165t-95 -246t-33.5 -303q0 -219 57 -394t168.5 -278.5t259.5 -103.5q128 0 226.5 81t156 217t80.5 317h54q-32 -324 -169.5 -510.5t-375.5 -186.5z" />
    <glyph glyph-name="Egrave" unicode="&#xc8;" horiz-adv-x="1198" 
d="M520 2152l156 -364h-49l-252 364h145zM1040 1638l4 -41l37 -348l-51 -4q-8 76 -16 125.5t-20.5 87t-26 58t-37.5 32.5t-49 15.5t-66 3.5h-348q-43 0 -65.5 -22.5t-22.5 -63.5v-592h311q41 0 63.5 4t42.5 16t28.5 38.5t13 67.5t4.5 107h43v-532h-43q0 83 -5.5 128.5
t-25 70t-45 30.5t-76.5 6h-311v-637q0 -72 18 -94t78 -22h340q62 0 98 11t70 50.5t59.5 106t59.5 188.5l53 -14l-106 -375l-11 -39h-997v43q75 0 116 5.5t63.5 25t28 45.5t5.5 78v1245q0 52 -5.5 77.5t-28 45t-63.5 25t-116 5.5v43h999z" />
    <glyph glyph-name="Eacute" unicode="&#xc9;" horiz-adv-x="1198" 
d="M594 1788h-47l155 364h146zM1040 1638l4 -41l37 -348l-51 -4q-8 76 -16 125.5t-20.5 87t-26 58t-37.5 32.5t-49 15.5t-66 3.5h-348q-43 0 -65.5 -22.5t-22.5 -63.5v-592h311q41 0 63.5 4t42.5 16t28.5 38.5t13 67.5t4.5 107h43v-532h-43q0 83 -5.5 128.5t-25 70t-45 30.5
t-76.5 6h-311v-637q0 -72 18 -94t78 -22h340q62 0 98 11t70 50.5t59.5 106t59.5 188.5l53 -14l-106 -375l-11 -39h-997v43q75 0 116 5.5t63.5 25t28 45.5t5.5 78v1245q0 52 -5.5 77.5t-28 45t-63.5 25t-116 5.5v43h999z" />
    <glyph glyph-name="Ecircumflex" unicode="&#xca;" horiz-adv-x="1198" 
d="M813 1788l-209 272l-209 -272h-49l182 364h150l182 -364h-47zM1102 428l53 -14l-106 -375l-11 -39h-997v43q75 0 116 5.5t63.5 25t28 45.5t5.5 78v1245q0 52 -5.5 77.5t-28 45t-63.5 25t-116 5.5v43h999l4 -41l37 -348l-51 -4q-8 76 -16 125.5t-20.5 87t-26 58
t-37.5 32.5t-49 15.5t-66 3.5h-348q-43 0 -65.5 -22.5t-22.5 -63.5v-592h311q41 0 63.5 4t42.5 16t28.5 38.5t13 67.5t4.5 107h43v-532h-43q0 83 -5.5 128.5t-25 70t-45 30.5t-76.5 6h-311v-637q0 -72 18 -94t78 -22h340q62 0 98 11t70 50.5t59.5 106t59.5 188.5z" />
    <glyph glyph-name="Edieresis" unicode="&#xcb;" horiz-adv-x="1198" 
d="M430 1845q-40 0 -68 28.5t-28 68.5q0 38 28 66t68 28q38 0 66 -28t28 -66q0 -40 -28 -68.5t-66 -28.5zM778 1845q-40 0 -68 28.5t-28 68.5q0 38 28 66t68 28q38 0 66 -28t28 -66q0 -40 -28 -68.5t-66 -28.5zM1040 1638l4 -41l37 -348l-51 -4q-8 76 -16 125.5t-20.5 87
t-26 58t-37.5 32.5t-49 15.5t-66 3.5h-348q-43 0 -65.5 -22.5t-22.5 -63.5v-592h311q41 0 63.5 4t42.5 16t28.5 38.5t13 67.5t4.5 107h43v-532h-43q0 83 -5.5 128.5t-25 70t-45 30.5t-76.5 6h-311v-637q0 -72 18 -94t78 -22h340q62 0 98 11t70 50.5t59.5 106t59.5 188.5
l53 -14l-106 -375l-11 -39h-997v43q75 0 116 5.5t63.5 25t28 45.5t5.5 78v1245q0 52 -5.5 77.5t-28 45t-63.5 25t-116 5.5v43h999z" />
    <glyph glyph-name="Igrave" unicode="&#xcc;" horiz-adv-x="632" 
d="M233 2152l156 -364h-49l-252 364h145zM254 197v1245q0 52 -5.5 77.5t-28 45t-63.5 25t-116 5.5v43h553v-43q-61 0 -98.5 -4.5t-62 -13t-35.5 -28.5t-15 -43t-4 -64v-1245q0 -41 4 -64.5t15 -43.5t35.5 -28.5t62 -13t98.5 -4.5v-43h-553v43q75 0 116 5.5t63.5 25t28 45.5
t5.5 78z" />
    <glyph glyph-name="Iacute" unicode="&#xcd;" horiz-adv-x="632" 
d="M307 1788h-47l156 364h145zM254 197v1245q0 52 -5.5 77.5t-28 45t-63.5 25t-116 5.5v43h553v-43q-61 0 -98.5 -4.5t-62 -13t-35.5 -28.5t-15 -43t-4 -64v-1245q0 -41 4 -64.5t15 -43.5t35.5 -28.5t62 -13t98.5 -4.5v-43h-553v43q75 0 116 5.5t63.5 25t28 45.5t5.5 78z
" />
    <glyph glyph-name="Icircumflex" unicode="&#xce;" horiz-adv-x="632" 
d="M526 1788l-209 272l-208 -272h-50l183 364h149l182 -364h-47zM594 1638v-43q-61 0 -98.5 -4.5t-62 -13t-35.5 -28.5t-15 -43t-4 -64v-1245q0 -41 4 -64.5t15 -43.5t35.5 -28.5t62 -13t98.5 -4.5v-43h-553v43q75 0 116 5.5t63.5 25t28 45.5t5.5 78v1245q0 52 -5.5 77.5
t-28 45t-63.5 25t-116 5.5v43h553z" />
    <glyph glyph-name="Idieresis" unicode="&#xcf;" horiz-adv-x="632" 
d="M143 1845q-40 0 -68 28.5t-28 68.5q0 38 28 66t68 28q38 0 66.5 -28t28.5 -66q0 -40 -28.5 -68.5t-66.5 -28.5zM492 1845q-40 0 -68.5 28.5t-28.5 68.5q0 38 28.5 66t68.5 28q38 0 66 -28t28 -66q0 -40 -28 -68.5t-66 -28.5zM254 197v1245q0 52 -5.5 77.5t-28 45
t-63.5 25t-116 5.5v43h553v-43q-61 0 -98.5 -4.5t-62 -13t-35.5 -28.5t-15 -43t-4 -64v-1245q0 -41 4 -64.5t15 -43.5t35.5 -28.5t62 -13t98.5 -4.5v-43h-553v43q75 0 116 5.5t63.5 25t28 45.5t5.5 78z" />
    <glyph glyph-name="Eth" unicode="&#xd0;" horiz-adv-x="1392" 
d="M520 1638q168 0 314 -55.5t255.5 -159.5t172.5 -263t63 -355q0 -370 -213 -587.5t-563 -217.5h-508v43q75 0 116 5.5t63.5 25t28 45.5t5.5 78v645h-172v63h172v537q0 52 -5.5 77.5t-28 45t-63.5 25t-116 5.5v43h479zM530 70q166 0 295 58t207.5 159t118 230t39.5 280
q0 171 -49.5 315.5t-136.5 244.5t-207 156t-258 56q-70 0 -115 -10q-43 -9 -43 -56v-598h405v-63h-405v-684q0 -51 36 -69.5t113 -18.5z" />
    <glyph glyph-name="Ntilde" unicode="&#xd1;" horiz-adv-x="1474" 
d="M588 1944q-48 0 -70 -36t-29 -106h-43q10 234 148 234q43 0 85.5 -21t71.5 -46.5t67 -46.5t73 -21q48 0 69.5 35.5t26.5 105.5h43q-10 -234 -147 -234q-43 0 -85.5 21t-71.5 47t-66.5 47t-71.5 21zM1450 1638v-43q-76 0 -116.5 -5.5t-63.5 -25t-28 -45t-5 -77.5v-1471
h-68l-845 1383v-1157q0 -52 5.5 -77.5t28.5 -45.5t64.5 -25.5t118.5 -5.5v-43h-500v43q75 0 116 5.5t63.5 25t28 45.5t5.5 78v1269l-2 4q-49 78 -92 101.5t-119 23.5v43h258l864 -1421h2v1225q0 52 -5 77.5t-28 45t-63.5 25t-116.5 5.5v43h498z" />
    <glyph glyph-name="Ograve" unicode="&#xd2;" horiz-adv-x="1341" 
d="M590 2152l155 -364h-49l-252 364h146zM674 -33q-130 0 -242 67t-189 182t-121 271.5t-44 331.5q0 236 71.5 429t208 308t314.5 115q129 0 240.5 -67.5t188 -182.5t120 -271t43.5 -331q0 -238 -70.5 -430.5t-206 -307t-313.5 -114.5zM711 39q129 0 227 93.5t147.5 243.5
t49.5 329q0 162 -34 319.5t-95.5 286.5t-159 208.5t-213.5 79.5q-128 0 -226 -93t-148 -242.5t-50 -327.5q0 -130 20.5 -258t62.5 -243.5t101 -203.5t141 -140t177 -52z" />
    <glyph glyph-name="Oacute" unicode="&#xd3;" horiz-adv-x="1341" 
d="M666 1788h-48l156 364h146zM674 -33q-130 0 -242 67t-189 182t-121 271.5t-44 331.5q0 236 71.5 429t208 308t314.5 115q129 0 240.5 -67.5t188 -182.5t120 -271t43.5 -331q0 -238 -70.5 -430.5t-206 -307t-313.5 -114.5zM711 39q129 0 227 93.5t147.5 243.5t49.5 329
q0 162 -34 319.5t-95.5 286.5t-159 208.5t-213.5 79.5q-128 0 -226 -93t-148 -242.5t-50 -327.5q0 -130 20.5 -258t62.5 -243.5t101 -203.5t141 -140t177 -52z" />
    <glyph glyph-name="Ocircumflex" unicode="&#xd4;" horiz-adv-x="1341" 
d="M885 1788l-209 272l-209 -272h-49l182 364h150l182 -364h-47zM672 1671q129 0 240.5 -67.5t188 -182.5t120 -271t43.5 -331q0 -238 -70.5 -430.5t-206 -307t-313.5 -114.5q-130 0 -242 67t-189 182t-121 271.5t-44 331.5q0 236 71.5 429t208 308t314.5 115zM711 39
q129 0 227 93.5t147.5 243.5t49.5 329q0 162 -34 319.5t-95.5 286.5t-159 208.5t-213.5 79.5q-128 0 -226 -93t-148 -242.5t-50 -327.5q0 -130 20.5 -258t62.5 -243.5t101 -203.5t141 -140t177 -52z" />
    <glyph glyph-name="Otilde" unicode="&#xd5;" horiz-adv-x="1341" 
d="M819 1808q-43 0 -85.5 21t-71.5 47t-66.5 47t-71.5 21q-48 0 -69.5 -36t-28.5 -106h-43q10 234 147 234q43 0 85.5 -21t71.5 -46.5t67 -46.5t73 -21q48 0 70 36t27 105h43q-10 -234 -148 -234zM674 -33q-130 0 -242 67t-189 182t-121 271.5t-44 331.5q0 236 71.5 429
t208 308t314.5 115q129 0 240.5 -67.5t188 -182.5t120 -271t43.5 -331q0 -238 -70.5 -430.5t-206 -307t-313.5 -114.5zM711 39q129 0 227 93.5t147.5 243.5t49.5 329q0 162 -34 319.5t-95.5 286.5t-159 208.5t-213.5 79.5q-128 0 -226 -93t-148 -242.5t-50 -327.5
q0 -130 20.5 -258t62.5 -243.5t101 -203.5t141 -140t177 -52z" />
    <glyph glyph-name="Odieresis" unicode="&#xd6;" horiz-adv-x="1341" 
d="M502 1845q-40 0 -68 28.5t-28 68.5q0 38 28 66t68 28q38 0 66 -28t28 -66q0 -40 -28 -68.5t-66 -28.5zM850 1845q-40 0 -68 28.5t-28 68.5q0 38 28 66t68 28q38 0 66 -28t28 -66q0 -40 -28 -68.5t-66 -28.5zM674 -33q-130 0 -242 67t-189 182t-121 271.5t-44 331.5
q0 236 71.5 429t208 308t314.5 115q129 0 240.5 -67.5t188 -182.5t120 -271t43.5 -331q0 -238 -70.5 -430.5t-206 -307t-313.5 -114.5zM711 39q129 0 227 93.5t147.5 243.5t49.5 329q0 162 -34 319.5t-95.5 286.5t-159 208.5t-213.5 79.5q-128 0 -226 -93t-148 -242.5
t-50 -327.5q0 -130 20.5 -258t62.5 -243.5t101 -203.5t141 -140t177 -52z" />
    <glyph glyph-name="multiply" unicode="&#xd7;" horiz-adv-x="845" 
d="M350 596l-248 248l76 74l246 -248l246 245l73 -73l-245 -246l243 -246l-73 -71l-244 241l-246 -244l-74 74z" />
    <glyph glyph-name="Oslash" unicode="&#xd8;" horiz-adv-x="1341" 
d="M1221 1710l-146 -254q90 -118 139.5 -283t49.5 -354q0 -238 -70.5 -430.5t-206 -307t-313.5 -114.5q-209 0 -363 164l-137 -235l-53 30l147 256q-91 118 -140.5 282.5t-49.5 354.5q0 236 71.5 429t208 308t314.5 115q206 0 360 -164l135 234zM209 936q0 -168 35 -332
t100 -291l619 1073q-135 213 -330 213q-128 0 -226 -93t-148 -242.5t-50 -327.5zM711 39q129 0 227 93.5t147.5 243.5t49.5 329q0 167 -35.5 330t-102.5 290l-618 -1073q64 -100 148 -156.5t184 -56.5z" />
    <glyph glyph-name="Ugrave" unicode="&#xd9;" horiz-adv-x="1427" 
d="M649 2152l156 -364h-49l-252 364h145zM731 -33q-115 0 -204.5 30.5t-145.5 81t-92 122.5t-50 147t-14 162v932q0 52 -5.5 77.5t-28 45t-63.5 25t-116 5.5v43h553v-43q-61 0 -98.5 -4.5t-62 -13t-35.5 -28.5t-15 -43t-4 -64v-932q0 -238 101 -351.5t299 -113.5
q180 0 280 117t100 350v930q0 42 -3.5 64.5t-14.5 42.5t-35.5 28.5t-61.5 13t-97 4.5v43h499v-43q-61 0 -98.5 -4.5t-62 -13t-35.5 -28.5t-15 -43t-4 -64v-930q0 -84 -13 -158.5t-46.5 -147t-85 -124t-135.5 -83.5t-191 -32z" />
    <glyph glyph-name="Uacute" unicode="&#xda;" horiz-adv-x="1427" 
d="M723 1788h-47l155 364h146zM731 -33q-115 0 -204.5 30.5t-145.5 81t-92 122.5t-50 147t-14 162v932q0 52 -5.5 77.5t-28 45t-63.5 25t-116 5.5v43h553v-43q-61 0 -98.5 -4.5t-62 -13t-35.5 -28.5t-15 -43t-4 -64v-932q0 -238 101 -351.5t299 -113.5q180 0 280 117
t100 350v930q0 42 -3.5 64.5t-14.5 42.5t-35.5 28.5t-61.5 13t-97 4.5v43h499v-43q-61 0 -98.5 -4.5t-62 -13t-35.5 -28.5t-15 -43t-4 -64v-930q0 -84 -13 -158.5t-46.5 -147t-85 -124t-135.5 -83.5t-191 -32z" />
    <glyph glyph-name="Ucircumflex" unicode="&#xdb;" horiz-adv-x="1427" 
d="M942 1788l-209 272l-209 -272h-49l182 364h150l182 -364h-47zM1417 1638v-43q-61 0 -98.5 -4.5t-62 -13t-35.5 -28.5t-15 -43t-4 -64v-930q0 -84 -13 -158.5t-46.5 -147t-85 -124t-135.5 -83.5t-191 -32q-115 0 -204.5 30.5t-145.5 81t-92 122.5t-50 147t-14 162v932
q0 52 -5.5 77.5t-28 45t-63.5 25t-116 5.5v43h553v-43q-61 0 -98.5 -4.5t-62 -13t-35.5 -28.5t-15 -43t-4 -64v-932q0 -238 101 -351.5t299 -113.5q180 0 280 117t100 350v930q0 42 -3.5 64.5t-14.5 42.5t-35.5 28.5t-61.5 13t-97 4.5v43h499z" />
    <glyph glyph-name="Udieresis" unicode="&#xdc;" horiz-adv-x="1427" 
d="M559 1845q-40 0 -68 28.5t-28 68.5q0 38 28 66t68 28q38 0 66 -28t28 -66q0 -40 -28 -68.5t-66 -28.5zM907 1845q-40 0 -68 28.5t-28 68.5q0 38 28 66t68 28q38 0 66 -28t28 -66q0 -40 -28 -68.5t-66 -28.5zM731 -33q-115 0 -204.5 30.5t-145.5 81t-92 122.5t-50 147
t-14 162v932q0 52 -5.5 77.5t-28 45t-63.5 25t-116 5.5v43h553v-43q-61 0 -98.5 -4.5t-62 -13t-35.5 -28.5t-15 -43t-4 -64v-932q0 -238 101 -351.5t299 -113.5q180 0 280 117t100 350v930q0 42 -3.5 64.5t-14.5 42.5t-35.5 28.5t-61.5 13t-97 4.5v43h499v-43
q-61 0 -98.5 -4.5t-62 -13t-35.5 -28.5t-15 -43t-4 -64v-930q0 -84 -13 -158.5t-46.5 -147t-85 -124t-135.5 -83.5t-191 -32z" />
    <glyph glyph-name="Yacute" unicode="&#xdd;" horiz-adv-x="1286" 
d="M670 1788h-47l155 364h146zM725 723v-526q0 -41 4 -64.5t15 -43.5t35.5 -28.5t62 -13t98.5 -4.5v-43h-553v43q75 0 116 5.5t63.5 25t28 45.5t5.5 78v524l-369 741q-41 83 -84 108t-133 25v43h510v-43q-155 0 -177.5 -23.5t24.5 -104.5q1 -3 2 -5l315 -643h6l289 641
q33 73 32 93q-1 28 -52 37q-35 5 -113 5v43h422v-43q-90 0 -132 -25.5t-79 -109.5z" />
    <glyph glyph-name="Thorn" unicode="&#xde;" horiz-adv-x="1120" 
d="M377 442v-245q0 -41 4 -64.5t15 -43.5t35.5 -28.5t62 -13t98.5 -4.5v-43h-551v43q75 0 116 5.5t63.5 25t28 45.5t5.5 78v1245q0 52 -5.5 77.5t-28 45t-63.5 25t-116 5.5v43h553v-43q-61 0 -98.5 -4.5t-62 -13t-35.5 -28.5t-15 -43t-4 -64v-123h180q238 0 382 -116
t144 -337q0 -212 -134.5 -336t-352.5 -124q-99 0 -221 36zM584 477q176 0 273 104.5t97 280.5q0 96 -31 171t-86 121.5t-127 70.5t-157 24q-93 0 -133.5 -16.5t-40.5 -63.5v-655q109 -37 205 -37z" />
    <glyph glyph-name="germandbls" unicode="&#xdf;" horiz-adv-x="1048" 
d="M696 717q39 -30 59 -46t56 -47t56 -53.5t46.5 -57t40 -65.5t23.5 -70.5t10 -80.5q0 -136 -87.5 -230t-235.5 -94q-104 0 -232 62v330h45q0 -172 48 -248t143 -76q95 2 153 63t58 172q0 59 -17 108t-61 97t-70.5 71t-92.5 74q-16 13 -24 19q-37 30 -52.5 42.5t-42 38
t-37 43.5t-20 44t-9.5 53q0 18 3 33.5t12.5 34t15 29.5t25 33.5t27.5 31.5t36 39t38 41q67 72 102.5 138t35.5 151q0 110 -56.5 161.5t-150.5 51.5q-123 0 -181.5 -88t-58.5 -267v-1255h-258v43q95 0 120 28t25 126v811h-137v51l137 14v166q0 118 27 205t76 137t110.5 74
t137.5 24q141 0 233 -71.5t92 -202.5q0 -96 -48.5 -172.5t-135.5 -153.5q-8 -7 -26.5 -24t-25.5 -23t-21.5 -20t-20 -20t-16 -18t-14 -19t-9 -17t-7 -19t-1.5 -18q0 -30 24 -63t50 -55t83 -66z" />
    <glyph glyph-name="agrave" unicode="&#xe0;" horiz-adv-x="858" 
d="M328 1642l155 -364h-49l-252 364h146zM819 217h43q-4 -250 -147 -250q-70 0 -108 57t-38 169v81q-41 -151 -116.5 -229t-176.5 -78q-97 0 -152.5 68.5t-55.5 169.5q0 69 30.5 131.5t67 104t112.5 90t119 71t135 66.5q25 12 37 18v117q0 129 -44 185t-130 56
q-68 0 -111.5 -31.5t-43.5 -86.5q0 -25 14 -57.5t14 -53.5q0 -33 -18 -52.5t-51 -19.5q-40 0 -62 31t-22 82q0 108 86.5 183t214.5 75q122 0 194 -76.5t72 -232.5v-629q0 -78 15.5 -107.5t43.5 -29.5q75 0 78 178zM311 72q75 0 144 76.5t114 234.5v244q-166 -88 -229 -136
q-154 -115 -154 -258q0 -72 32 -116.5t93 -44.5z" />
    <glyph glyph-name="aacute" unicode="&#xe1;" horiz-adv-x="858" 
d="M510 1642h145l-254 -364h-47zM819 217h43q-4 -250 -147 -250q-70 0 -108 57t-38 169v81q-41 -151 -116.5 -229t-176.5 -78q-97 0 -152.5 68.5t-55.5 169.5q0 69 30.5 131.5t67 104t112.5 90t119 71t135 66.5q25 12 37 18v117q0 129 -44 185t-130 56q-68 0 -111.5 -31.5
t-43.5 -86.5q0 -25 14 -57.5t14 -53.5q0 -33 -18 -52.5t-51 -19.5q-40 0 -62 31t-22 82q0 108 86.5 183t214.5 75q122 0 194 -76.5t72 -232.5v-629q0 -78 15.5 -107.5t43.5 -29.5q75 0 78 178zM311 72q75 0 144 76.5t114 234.5v244q-166 -88 -229 -136q-154 -115 -154 -258
q0 -72 32 -116.5t93 -44.5z" />
    <glyph glyph-name="acircumflex" unicode="&#xe2;" horiz-adv-x="858" 
d="M621 1278l-209 272l-209 -272h-49l182 364h149l183 -364h-47zM819 217h43q-4 -250 -147 -250q-70 0 -108 57t-38 169v81q-41 -151 -116.5 -229t-176.5 -78q-97 0 -152.5 68.5t-55.5 169.5q0 69 30.5 131.5t67 104t112.5 90t119 71t135 66.5q25 12 37 18v117
q0 129 -44 185t-130 56q-68 0 -111.5 -31.5t-43.5 -86.5q0 -25 14 -57.5t14 -53.5q0 -33 -18 -52.5t-51 -19.5q-40 0 -62 31t-22 82q0 108 86.5 183t214.5 75q122 0 194 -76.5t72 -232.5v-629q0 -78 15.5 -107.5t43.5 -29.5q75 0 78 178zM311 72q75 0 144 76.5t114 234.5
v244q-166 -88 -229 -136q-154 -115 -154 -258q0 -72 32 -116.5t93 -44.5z" />
    <glyph glyph-name="atilde" unicode="&#xe3;" horiz-adv-x="858" 
d="M260 1434q-48 0 -69.5 -36t-28.5 -106h-43q10 234 147 234q43 0 85.5 -21t71.5 -46.5t67 -46.5t73 -21q48 0 69.5 35.5t26.5 105.5h43q-10 -234 -147 -234q-43 0 -85.5 21t-71.5 47t-66.5 47t-71.5 21zM819 217h43q-4 -250 -147 -250q-70 0 -108 57t-38 169v81
q-41 -151 -116.5 -229t-176.5 -78q-97 0 -152.5 68.5t-55.5 169.5q0 69 30.5 131.5t67 104t112.5 90t119 71t135 66.5q25 12 37 18v117q0 129 -44 185t-130 56q-68 0 -111.5 -31.5t-43.5 -86.5q0 -25 14 -57.5t14 -53.5q0 -33 -18 -52.5t-51 -19.5q-40 0 -62 31t-22 82
q0 108 86.5 183t214.5 75q122 0 194 -76.5t72 -232.5v-629q0 -78 15.5 -107.5t43.5 -29.5q75 0 78 178zM311 72q75 0 144 76.5t114 234.5v244q-166 -88 -229 -136q-154 -115 -154 -258q0 -72 32 -116.5t93 -44.5z" />
    <glyph glyph-name="adieresis" unicode="&#xe4;" horiz-adv-x="858" 
d="M238 1335q-40 0 -68.5 28.5t-28.5 68.5q0 38 28.5 66t68.5 28q38 0 66 -28t28 -66q0 -40 -28 -68.5t-66 -28.5zM586 1335q-40 0 -68.5 28.5t-28.5 68.5q0 38 28.5 66t68.5 28q38 0 66 -28t28 -66q0 -40 -28 -68.5t-66 -28.5zM819 217h43q-4 -250 -147 -250q-70 0 -108 57
t-38 169v81q-41 -151 -116.5 -229t-176.5 -78q-97 0 -152.5 68.5t-55.5 169.5q0 69 30.5 131.5t67 104t112.5 90t119 71t135 66.5q25 12 37 18v117q0 129 -44 185t-130 56q-68 0 -111.5 -31.5t-43.5 -86.5q0 -25 14 -57.5t14 -53.5q0 -33 -18 -52.5t-51 -19.5q-40 0 -62 31
t-22 82q0 108 86.5 183t214.5 75q122 0 194 -76.5t72 -232.5v-629q0 -78 15.5 -107.5t43.5 -29.5q75 0 78 178zM311 72q75 0 144 76.5t114 234.5v244q-166 -88 -229 -136q-154 -115 -154 -258q0 -72 32 -116.5t93 -44.5z" />
    <glyph glyph-name="aring" unicode="&#xe5;" horiz-adv-x="858" 
d="M412 1296q-86 0 -143.5 55.5t-57.5 137.5q0 83 57.5 137.5t143.5 54.5q85 0 140.5 -54.5t55.5 -137.5q0 -82 -56 -137.5t-140 -55.5zM412 1620q-57 0 -95 -37.5t-38 -93.5q0 -57 38 -94t95 -37q56 0 93.5 37t37.5 94q0 55 -37.5 93t-93.5 38zM819 217h43
q-4 -250 -147 -250q-70 0 -108 57t-38 169v81q-41 -151 -116.5 -229t-176.5 -78q-97 0 -152.5 68.5t-55.5 169.5q0 69 30.5 131.5t67 104t112.5 90t119 71t135 66.5q25 12 37 18v117q0 129 -44 185t-130 56q-68 0 -111.5 -31.5t-43.5 -86.5q0 -25 14 -57.5t14 -53.5
q0 -33 -18 -52.5t-51 -19.5q-40 0 -62 31t-22 82q0 108 86.5 183t214.5 75q122 0 194 -76.5t72 -232.5v-629q0 -78 15.5 -107.5t43.5 -29.5q75 0 78 178zM311 72q75 0 144 76.5t114 234.5v244q-166 -88 -229 -136q-154 -115 -154 -258q0 -72 32 -116.5t93 -44.5z" />
    <glyph glyph-name="ae" unicode="&#xe6;" horiz-adv-x="1302" 
d="M1180 432h45q-24 -235 -112.5 -350t-219.5 -115q-115 0 -194.5 86.5t-114.5 237.5q-42 -162 -121.5 -243t-186.5 -81q-97 0 -152.5 69t-55.5 175q0 45 13.5 85.5t31.5 71.5t55 64t63.5 53.5t79.5 49t81 42t89 41.5t84 39v168q0 222 -164 222q-74 0 -117.5 -32t-43.5 -89
q0 -26 13 -57t13 -54q0 -33 -18.5 -52.5t-54.5 -19.5q-82 0 -82 105q0 117 86 191.5t215 74.5q191 0 245 -160q95 158 246 158q145 0 226 -139.5t81 -372.5h-532v-39q0 -136 29 -245.5t87.5 -176.5t137.5 -67q80 0 148 83.5t100 276.5zM903 1042q-94 0 -150 -104.5
t-71 -267.5h408q0 73 -10.5 137t-31.5 118t-58.5 85.5t-86.5 31.5zM311 72q75 0 143 73.5t115 227.5q-10 78 -10 149q0 44 2 64l-60 -30l-61 -30.5t-56 -29.5t-54.5 -33.5t-46 -35t-41 -40t-29 -43.5t-21 -51t-6.5 -57q0 -74 32 -119t93 -45z" />
    <glyph glyph-name="ccedilla" unicode="&#xe7;" horiz-adv-x="761" 
d="M438 -31l-28 -67q98 -9 155.5 -52.5t57.5 -119.5q0 -79 -61.5 -134t-158.5 -76t-208 -7l12 43q142 -8 226.5 33.5t84.5 138.5q0 74 -49 101.5t-145 29.5l51 110q-142 17 -221.5 169t-79.5 386q0 168 40.5 299t123.5 210t198 79q114 0 182 -73t68 -179q0 -117 -82 -117
q-34 0 -51.5 21t-17.5 51q0 14 7 52t7 61q0 55 -30.5 84.5t-84.5 29.5q-62 0 -110 -40.5t-75.5 -109t-41.5 -151t-14 -174.5q0 -211 67 -352t184 -141q28 0 54.5 10t55 35.5t51.5 65.5t42 104.5t29 146.5h43q-11 -219 -88.5 -336.5t-192.5 -130.5z" />
    <glyph glyph-name="egrave" unicode="&#xe8;" horiz-adv-x="815" 
d="M334 1642l155 -364h-49l-252 364h146zM694 432h43q-24 -235 -112 -350t-217 -115q-155 0 -244.5 153.5t-89.5 401.5q0 164 40 297t118.5 213t183.5 80q145 0 227 -139.5t82 -372.5h-532v-39q0 -136 28.5 -245.5t86.5 -176.5t136 -67q38 0 72.5 17.5t69.5 56.5t63 112
t45 174zM418 1042q-94 0 -150 -104.5t-71 -267.5h407q0 73 -10 137t-31 118t-58.5 85.5t-86.5 31.5z" />
    <glyph glyph-name="eacute" unicode="&#xe9;" horiz-adv-x="815" 
d="M516 1642h146l-254 -364h-48zM694 432h43q-24 -235 -112 -350t-217 -115q-155 0 -244.5 153.5t-89.5 401.5q0 164 40 297t118.5 213t183.5 80q145 0 227 -139.5t82 -372.5h-532v-39q0 -136 28.5 -245.5t86.5 -176.5t136 -67q38 0 72.5 17.5t69.5 56.5t63 112t45 174z
M418 1042q-94 0 -150 -104.5t-71 -267.5h407q0 73 -10 137t-31 118t-58.5 85.5t-86.5 31.5z" />
    <glyph glyph-name="ecircumflex" unicode="&#xea;" horiz-adv-x="815" 
d="M627 1278l-209 272l-209 -272h-49l182 364h150l182 -364h-47zM694 432h43q-24 -235 -112 -350t-217 -115q-155 0 -244.5 153.5t-89.5 401.5q0 164 40 297t118.5 213t183.5 80q145 0 227 -139.5t82 -372.5h-532v-39q0 -136 28.5 -245.5t86.5 -176.5t136 -67
q38 0 72.5 17.5t69.5 56.5t63 112t45 174zM418 1042q-94 0 -150 -104.5t-71 -267.5h407q0 73 -10 137t-31 118t-58.5 85.5t-86.5 31.5z" />
    <glyph glyph-name="edieresis" unicode="&#xeb;" horiz-adv-x="815" 
d="M244 1335q-40 0 -68.5 28.5t-28.5 68.5q0 38 28.5 66t68.5 28q38 0 66 -28t28 -66q0 -40 -28 -68.5t-66 -28.5zM592 1335q-40 0 -68 28.5t-28 68.5q0 38 28 66t68 28q38 0 66 -28t28 -66q0 -40 -28 -68.5t-66 -28.5zM694 432h43q-24 -235 -112 -350t-217 -115
q-155 0 -244.5 153.5t-89.5 401.5q0 164 40 297t118.5 213t183.5 80q145 0 227 -139.5t82 -372.5h-532v-39q0 -136 28.5 -245.5t86.5 -176.5t136 -67q38 0 72.5 17.5t69.5 56.5t63 112t45 174zM418 1042q-94 0 -150 -104.5t-71 -267.5h407q0 73 -10 137t-31 118t-58.5 85.5
t-86.5 31.5z" />
    <glyph glyph-name="igrave" unicode="&#xec;" horiz-adv-x="479" 
d="M141 1642l156 -364h-49l-252 364h145zM59 0v43q88 0 112 28.5t24 125.5l-2 682v36t-0.5 28.5t-2 24t-4.5 17t-6.5 13.5t-10 6t-14.5 3t-19.5 -3.5t-24.5 -6.5t-31 -12l-17 41l150 59l70 27l24 -22v-893q0 -98 23 -126t112 -28v-43h-383z" />
    <glyph glyph-name="iacute" unicode="&#xed;" horiz-adv-x="479" 
d="M217 1278h-47l156 364h145zM59 0v43q88 0 112 28.5t24 125.5l-2 682v36t-0.5 28.5t-2 24t-4.5 17t-6.5 13.5t-10 6t-14.5 3t-19.5 -3.5t-24.5 -6.5t-31 -12l-17 41l150 59l70 27l24 -22v-893q0 -98 23 -126t112 -28v-43h-383z" />
    <glyph glyph-name="icircumflex" unicode="&#xee;" horiz-adv-x="479" 
d="M481 1278h-47l-209 272l-209 -272h-49l183 364h149zM307 1090v-893q0 -98 23 -126t112 -28v-43h-383v43q88 0 112 28.5t24 125.5l-2 682v36t-0.5 28.5t-2 24t-4.5 17t-6.5 13.5t-10 6t-14.5 3t-19.5 -3.5t-24.5 -6.5t-31 -12l-17 41l150 59l70 27z" />
    <glyph glyph-name="idieresis" unicode="&#xef;" horiz-adv-x="479" 
d="M51 1335q-40 0 -68 28.5t-28 68.5q0 38 28 66t68 28q38 0 66 -28t28 -66q0 -40 -28 -68.5t-66 -28.5zM399 1335q-40 0 -68 28.5t-28 68.5q0 38 28 66t68 28q38 0 66.5 -28t28.5 -66q0 -40 -28.5 -68.5t-66.5 -28.5zM59 0v43q88 0 112 28.5t24 125.5l-2 682v36t-0.5 28.5
t-2 24t-4.5 17t-6.5 13.5t-10 6t-14.5 3t-19.5 -3.5t-24.5 -6.5t-31 -12l-17 41l150 59l70 27l24 -22v-893q0 -98 23 -126t112 -28v-43h-383z" />
    <glyph glyph-name="eth" unicode="&#xf0;" horiz-adv-x="913" 
d="M707 1530l-209 -133q164 -171 253 -382.5t89 -449.5q0 -167 -46.5 -302t-135.5 -215.5t-205 -80.5q-166 0 -272.5 163.5t-106.5 404.5q0 157 42 284t126.5 204t197.5 77q51 0 98 -21.5t78 -58.5q-77 181 -194 330l-221 -142l-27 47l213 136q-107 130 -264 245v43
q191 -104 336 -243l219 139zM479 37q63 0 109 38.5t73.5 109.5t40.5 163.5t13 208.5q0 172 -56 346q-69 135 -200 135q-71 0 -124 -37t-83 -101t-44.5 -139.5t-14.5 -162.5q0 -109 18 -207.5t52 -178.5t90 -127.5t126 -47.5z" />
    <glyph glyph-name="ntilde" unicode="&#xf1;" horiz-adv-x="989" 
d="M653 1298q-43 0 -85.5 21t-71.5 47t-66.5 47t-71.5 21q-48 0 -69.5 -36t-28.5 -106h-43q10 234 148 234q43 0 85.5 -21t71.5 -46.5t67 -46.5t73 -21q48 0 69.5 35.5t26.5 105.5h43q-10 -234 -148 -234zM61 0v43q86 0 110 28.5t24 125.5v682v6v42t-2 31.5t-4.5 24.5
t-8.5 14t-14 7.5t-21.5 -1.5t-29.5 -7t-39 -15l-17 41l222 90l26 -22v-172h6q74 97 140.5 145.5t152.5 48.5q105 0 156 -73t51 -203v-639q0 -98 22.5 -126t108.5 -28v-43h-373v43q84 0 106.5 28t22.5 126v632q0 90 -35.5 135.5t-99.5 45.5q-68 0 -128.5 -41t-129.5 -121
v-651q0 -98 22.5 -126t106.5 -28v-43h-375z" />
    <glyph glyph-name="ograve" unicode="&#xf2;" horiz-adv-x="915" 
d="M371 1642l155 -364h-49l-252 364h146zM459 -33q-111 0 -199.5 74.5t-137 204t-48.5 289.5q0 161 44 290.5t133 208t208 78.5q167 0 275 -162t108 -405q0 -160 -44 -290t-132.5 -209t-206.5 -79zM485 39q79 0 134.5 62.5t79.5 154.5t24 201q0 146 -31 275.5t-99 218.5
t-161 89q-80 0 -136 -62.5t-79.5 -154.5t-23.5 -202q0 -107 18.5 -209t53 -186.5t92 -135.5t128.5 -51z" />
    <glyph glyph-name="oacute" unicode="&#xf3;" horiz-adv-x="915" 
d="M446 1278h-47l156 364h145zM459 -33q-111 0 -199.5 74.5t-137 204t-48.5 289.5q0 161 44 290.5t133 208t208 78.5q167 0 275 -162t108 -405q0 -160 -44 -290t-132.5 -209t-206.5 -79zM485 39q79 0 134.5 62.5t79.5 154.5t24 201q0 146 -31 275.5t-99 218.5t-161 89
q-80 0 -136 -62.5t-79.5 -154.5t-23.5 -202q0 -107 18.5 -209t53 -186.5t92 -135.5t128.5 -51z" />
    <glyph glyph-name="ocircumflex" unicode="&#xf4;" horiz-adv-x="915" 
d="M666 1278l-209 272l-209 -272h-49l182 364h149l183 -364h-47zM459 1112q167 0 275 -162t108 -405q0 -160 -44 -290t-132.5 -209t-206.5 -79q-111 0 -199.5 74.5t-137 204t-48.5 289.5q0 161 44 290.5t133 208t208 78.5zM485 39q79 0 134.5 62.5t79.5 154.5t24 201
q0 146 -31 275.5t-99 218.5t-161 89q-80 0 -136 -62.5t-79.5 -154.5t-23.5 -202q0 -107 18.5 -209t53 -186.5t92 -135.5t128.5 -51z" />
    <glyph glyph-name="otilde" unicode="&#xf5;" horiz-adv-x="915" 
d="M600 1298q-43 0 -85.5 21t-71.5 47t-66.5 47t-71.5 21q-48 0 -69.5 -36t-28.5 -106h-43q10 234 147 234q43 0 85.5 -21t71.5 -46.5t67 -46.5t73 -21q48 0 70 36t27 105h43q-10 -234 -148 -234zM459 -33q-111 0 -199.5 74.5t-137 204t-48.5 289.5q0 161 44 290.5t133 208
t208 78.5q167 0 275 -162t108 -405q0 -160 -44 -290t-132.5 -209t-206.5 -79zM485 39q79 0 134.5 62.5t79.5 154.5t24 201q0 146 -31 275.5t-99 218.5t-161 89q-80 0 -136 -62.5t-79.5 -154.5t-23.5 -202q0 -107 18.5 -209t53 -186.5t92 -135.5t128.5 -51z" />
    <glyph glyph-name="odieresis" unicode="&#xf6;" horiz-adv-x="915" 
d="M283 1335q-40 0 -68.5 28.5t-28.5 68.5q0 38 28.5 66t68.5 28q38 0 66 -28t28 -66q0 -40 -28 -68.5t-66 -28.5zM631 1335q-40 0 -68 28.5t-28 68.5q0 38 28 66t68 28q38 0 66 -28t28 -66q0 -40 -28 -68.5t-66 -28.5zM459 -33q-111 0 -199.5 74.5t-137 204t-48.5 289.5
q0 161 44 290.5t133 208t208 78.5q167 0 275 -162t108 -405q0 -160 -44 -290t-132.5 -209t-206.5 -79zM485 39q79 0 134.5 62.5t79.5 154.5t24 201q0 146 -31 275.5t-99 218.5t-161 89q-80 0 -136 -62.5t-79.5 -154.5t-23.5 -202q0 -107 18.5 -209t53 -186.5t92 -135.5
t128.5 -51z" />
    <glyph glyph-name="divide" unicode="&#xf7;" horiz-adv-x="927" 
d="M463 868q-32 0 -55 23t-23 57q0 32 23 56t55 24t56 -24t24 -56q0 -33 -23.5 -56.5t-56.5 -23.5zM825 561h-723v107h723v-107zM463 203q-32 0 -55 23t-23 57q0 32 23 55.5t55 23.5t56 -23.5t24 -55.5q0 -33 -23.5 -56.5t-56.5 -23.5z" />
    <glyph glyph-name="oslash" unicode="&#xf8;" horiz-adv-x="937" 
d="M846 1139l-105 -183q113 -160 113 -411q0 -160 -44.5 -290t-133.5 -209t-207 -79q-138 0 -236 109l-98 -172l-43 30l107 185q-115 163 -115 416q0 160 44.5 290t133.5 208.5t207 78.5q139 0 238 -113l96 168zM203 621q0 -214 65 -379l375 649q-78 149 -201 149
q-80 0 -136 -62.5t-79.5 -154.5t-23.5 -202zM496 39q80 0 135.5 63t78.5 154t23 201q0 214 -63 374l-373 -647q77 -145 199 -145z" />
    <glyph glyph-name="ugrave" unicode="&#xf9;" horiz-adv-x="948" 
d="M379 1642l156 -364h-50l-252 364h146zM692 -31l-26 23l-4 164l-7 2q-52 -82 -129.5 -136.5t-165.5 -54.5q-96 0 -145 74t-49 201v622v43t-2 32.5t-4.5 26t-9 15.5t-14.5 9t-22 -0.5t-30.5 -5.5t-40.5 -13l-14 41l229 80l23 -23v-813q0 -188 125 -188q64 0 132 44.5
t124 114.5v637v43t-2 32.5t-4.5 26t-9 15.5t-14.5 9t-22 -0.5t-30.5 -5.5t-40.5 -13l-15 41l230 80l22 -23v-866q0 -92 9 -110q13 -25 66 -8q19 7 48 19l16 -41l-161 -67z" />
    <glyph glyph-name="uacute" unicode="&#xfa;" horiz-adv-x="948" 
d="M455 1278h-47l155 364h146zM692 -31l-26 23l-4 164l-7 2q-52 -82 -129.5 -136.5t-165.5 -54.5q-96 0 -145 74t-49 201v622v43t-2 32.5t-4.5 26t-9 15.5t-14.5 9t-22 -0.5t-30.5 -5.5t-40.5 -13l-14 41l229 80l23 -23v-813q0 -188 125 -188q64 0 132 44.5t124 114.5v637
v43t-2 32.5t-4.5 26t-9 15.5t-14.5 9t-22 -0.5t-30.5 -5.5t-40.5 -13l-15 41l230 80l22 -23v-866q0 -92 9 -110q13 -25 66 -8q19 7 48 19l16 -41l-161 -67z" />
    <glyph glyph-name="ucircumflex" unicode="&#xfb;" horiz-adv-x="948" 
d="M672 1278l-209 272l-209 -272h-49l182 364h150l182 -364h-47zM899 104l16 -41l-161 -67l-62 -27l-26 23l-4 164l-7 2q-52 -82 -129.5 -136.5t-165.5 -54.5q-96 0 -145 74t-49 201v622v43t-2 32.5t-4.5 26t-9 15.5t-14.5 9t-22 -0.5t-30.5 -5.5t-40.5 -13l-14 41l229 80
l23 -23v-813q0 -188 125 -188q64 0 132 44.5t124 114.5v637v43t-2 32.5t-4.5 26t-9 15.5t-14.5 9t-22 -0.5t-30.5 -5.5t-40.5 -13l-15 41l230 80l22 -23v-866q0 -92 9 -110q13 -25 66 -8q19 7 48 19z" />
    <glyph glyph-name="udieresis" unicode="&#xfc;" horiz-adv-x="948" 
d="M289 1335q-40 0 -68 28.5t-28 68.5q0 38 28 66t68 28q38 0 66 -28t28 -66q0 -40 -28 -68.5t-66 -28.5zM637 1335q-40 0 -68 28.5t-28 68.5q0 38 28 66t68 28q38 0 66 -28t28 -66q0 -40 -28 -68.5t-66 -28.5zM692 -31l-26 23l-4 164l-7 2q-52 -82 -129.5 -136.5
t-165.5 -54.5q-96 0 -145 74t-49 201v622v43t-2 32.5t-4.5 26t-9 15.5t-14.5 9t-22 -0.5t-30.5 -5.5t-40.5 -13l-14 41l229 80l23 -23v-813q0 -188 125 -188q64 0 132 44.5t124 114.5v637v43t-2 32.5t-4.5 26t-9 15.5t-14.5 9t-22 -0.5t-30.5 -5.5t-40.5 -13l-15 41l230 80
l22 -23v-866q0 -92 9 -110q13 -25 66 -8q19 7 48 19l16 -41l-161 -67z" />
    <glyph glyph-name="yacute" unicode="&#xfd;" horiz-adv-x="899" 
d="M453 1278h-47l155 364h146zM178 -477q-66 0 -109.5 33.5t-43.5 85.5q0 32 19 51.5t50 19.5q45 0 80 -57q13 -26 27.5 -35.5t38.5 -9.5q86 0 166 285q18 61 14 147l-256 846q-27 91 -58.5 118t-101.5 27v43h389v-43q-27 0 -46 -1t-33.5 -4.5t-23 -7.5t-13.5 -13.5t-6 -18
t2 -26t6.5 -32.5t11.5 -42l194 -688h9l184 688q29 92 13 118.5t-116 26.5v43h318v-43q-63 0 -91 -27t-54 -118l-240 -860q-22 -80 -39 -133t-40.5 -117.5t-47.5 -105t-54.5 -77.5t-68 -55t-80.5 -18z" />
    <glyph glyph-name="thorn" unicode="&#xfe;" horiz-adv-x="911" 
d="M549 1112q96 0 162.5 -72.5t96.5 -191t30 -273.5q0 -120 -20 -226t-58.5 -191t-102.5 -135t-145 -50q-73 0 -135 40t-103 116h-4v-383q0 -98 24 -126t112 -28v-43h-383v43q89 0 112 27.5t23 126.5v1696v6q0 38 -0.5 54t-4 35t-10 22.5t-20.5 5t-32.5 -5.5t-49.5 -21
l-18 41l155 68l70 32l22 -22v-748h9q116 203 270 203zM494 47q55 0 97.5 42t68 113.5t38.5 161t13 191.5q0 209 -51.5 332t-149.5 123q-65 0 -128.5 -51.5t-111.5 -131.5v-385q0 -170 64.5 -282.5t159.5 -112.5z" />
    <glyph glyph-name="ydieresis" unicode="&#xff;" horiz-adv-x="899" 
d="M289 1335q-40 0 -68 28.5t-28 68.5q0 38 28 66t68 28q38 0 66 -28t28 -66q0 -40 -28 -68.5t-66 -28.5zM637 1335q-40 0 -68 28.5t-28 68.5q0 38 28 66t68 28q38 0 66 -28t28 -66q0 -40 -28 -68.5t-66 -28.5zM178 -477q-66 0 -109.5 33.5t-43.5 85.5q0 32 19 51.5t50 19.5
q45 0 80 -57q13 -26 27.5 -35.5t38.5 -9.5q86 0 166 285q18 61 14 147l-256 846q-27 91 -58.5 118t-101.5 27v43h389v-43q-27 0 -46 -1t-33.5 -4.5t-23 -7.5t-13.5 -13.5t-6 -18t2 -26t6.5 -32.5t11.5 -42l194 -688h9l184 688q29 92 13 118.5t-116 26.5v43h318v-43
q-63 0 -91 -27t-54 -118l-240 -860q-22 -80 -39 -133t-40.5 -117.5t-47.5 -105t-54.5 -77.5t-68 -55t-80.5 -18z" />
    <glyph glyph-name="Amacron" unicode="&#x100;" horiz-adv-x="1325" 
d="M410 1982h505v-79h-505v79zM692 1669l471 -1483q29 -90 68 -116.5t137 -26.5v-43h-500v43q143 0 167.5 27t-9.5 116l-113 363h-569l-115 -363q-34 -89 -9.5 -116t167.5 -27v-43h-430v43q96 0 134 26.5t67 116.5l469 1483h65zM625 1446l-260 -832h528l-260 832h-8z" />
    <glyph glyph-name="amacron" unicode="&#x101;" horiz-adv-x="858" 
d="M158 1473h506v-80h-506v80zM819 217h43q-4 -250 -147 -250q-70 0 -108 57t-38 169v81q-41 -151 -116.5 -229t-176.5 -78q-97 0 -152.5 68.5t-55.5 169.5q0 69 30.5 131.5t67 104t112.5 90t119 71t135 66.5q25 12 37 18v117q0 129 -44 185t-130 56q-68 0 -111.5 -31.5
t-43.5 -86.5q0 -25 14 -57.5t14 -53.5q0 -33 -18 -52.5t-51 -19.5q-40 0 -62 31t-22 82q0 108 86.5 183t214.5 75q122 0 194 -76.5t72 -232.5v-629q0 -78 15.5 -107.5t43.5 -29.5q75 0 78 178zM311 72q75 0 144 76.5t114 234.5v244q-166 -88 -229 -136q-154 -115 -154 -258
q0 -72 32 -116.5t93 -44.5z" />
    <glyph glyph-name="Abreve" unicode="&#x102;" horiz-adv-x="1325" 
d="M664 1860q-117 0 -183 65t-69 176h43q5 -68 59 -106.5t150 -38.5q95 0 148 38.5t58 106.5h43q-3 -111 -68.5 -176t-180.5 -65zM692 1669l471 -1483q29 -90 68 -116.5t137 -26.5v-43h-500v43q143 0 167.5 27t-9.5 116l-113 363h-569l-115 -363q-34 -89 -9.5 -116
t167.5 -27v-43h-430v43q96 0 134 26.5t67 116.5l469 1483h65zM625 1446l-260 -832h528l-260 832h-8z" />
    <glyph glyph-name="abreve" unicode="&#x103;" horiz-adv-x="858" 
d="M412 1350q-117 0 -183 65t-69 176h43q5 -68 59 -106.5t150 -38.5q95 0 148 38.5t58 106.5h44q-3 -110 -69 -175.5t-181 -65.5zM819 217h43q-4 -250 -147 -250q-70 0 -108 57t-38 169v81q-41 -151 -116.5 -229t-176.5 -78q-97 0 -152.5 68.5t-55.5 169.5q0 69 30.5 131.5
t67 104t112.5 90t119 71t135 66.5q25 12 37 18v117q0 129 -44 185t-130 56q-68 0 -111.5 -31.5t-43.5 -86.5q0 -25 14 -57.5t14 -53.5q0 -33 -18 -52.5t-51 -19.5q-40 0 -62 31t-22 82q0 108 86.5 183t214.5 75q122 0 194 -76.5t72 -232.5v-629q0 -78 15.5 -107.5
t43.5 -29.5q75 0 78 178zM311 72q75 0 144 76.5t114 234.5v244q-166 -88 -229 -136q-154 -115 -154 -258q0 -72 32 -116.5t93 -44.5z" />
    <glyph glyph-name="Aogonek" unicode="&#x104;" horiz-adv-x="1325" 
d="M1182 0q-22 -26 -65 -63.5t-72.5 -64t-53.5 -66.5t-24 -82q0 -59 31 -95.5t89 -36.5q66 0 162 48l13 -43q-102 -76 -213 -76q-81 0 -134 50.5t-53 137.5q0 46 20 86t55 70t68.5 52t73 45.5t56.5 37.5h-267v43q143 0 167.5 27t-9.5 116l-113 363h-569l-115 -363
q-34 -89 -9.5 -116t167.5 -27v-43h-430v43q96 0 134 26.5t67 116.5l469 1483h65l471 -1483q29 -90 68 -116.5t137 -26.5v-43h-186zM625 1446l-260 -832h528l-260 832h-8z" />
    <glyph glyph-name="aogonek" unicode="&#x105;" horiz-adv-x="858" 
d="M680 -420q68 0 162 47l12 -43q-102 -76 -213 -76q-80 0 -133 51t-53 138q0 35 13 67t29.5 54.5t47.5 48t50.5 38t55.5 34t47 28.5q-129 13 -129 226v81q-41 -151 -116.5 -229t-176.5 -78q-97 0 -152.5 68.5t-55.5 169.5q0 69 30.5 131.5t67 104t112.5 90t119 71t135 66.5
q25 12 37 18v117q0 129 -44 185t-130 56q-68 0 -111.5 -31.5t-43.5 -86.5q0 -25 14 -57.5t14 -53.5q0 -33 -18 -52.5t-51 -19.5q-40 0 -62 31t-22 82q0 108 86.5 183t214.5 75q122 0 194 -76.5t72 -232.5v-629q0 -78 15.5 -107.5t43.5 -29.5q75 0 78 178h43
q-3 -204 -98 -242q-21 -22 -64 -59.5t-70 -62t-49 -63.5t-22 -79q0 -59 31.5 -95t89.5 -36zM311 72q75 0 144 76.5t114 234.5v244q-166 -88 -229 -136q-154 -115 -154 -258q0 -72 32 -116.5t93 -44.5z" />
    <glyph glyph-name="Cacute" unicode="&#x106;" horiz-adv-x="1288" 
d="M680 1788h-47l155 364h146zM78 813q0 241 75 435t217 308.5t326 114.5q196 0 318 -125q25 -23 41.5 -17.5t19.5 36.5l8 86h43l31 -568h-43q-42 256 -140 386t-265 130q-115 0 -208.5 -60t-155 -165t-95 -246t-33.5 -303q0 -219 57 -394t168.5 -278.5t259.5 -103.5
q128 0 226.5 81t156 217t80.5 317h54q-32 -324 -169.5 -510.5t-375.5 -186.5q-139 0 -252.5 66t-188 181t-115 269t-40.5 330z" />
    <glyph glyph-name="cacute" unicode="&#x107;" horiz-adv-x="761" 
d="M430 1278h-47l156 364h145zM408 -33q-156 0 -245 154.5t-89 402.5q0 168 40.5 299t123.5 210t198 79q114 0 182 -73t68 -179q0 -117 -82 -117q-34 0 -51.5 21t-17.5 51q0 14 7 52t7 61q0 55 -30.5 84.5t-84.5 29.5q-62 0 -110 -40.5t-75.5 -109t-41.5 -151t-14 -174.5
q0 -211 67 -352t184 -141q28 0 54.5 10t55 35.5t51.5 65.5t42 104.5t29 146.5h43q-13 -235 -99 -352t-212 -117z" />
    <glyph glyph-name="Cdotaccent" unicode="&#x10a;" horiz-adv-x="1288" 
d="M688 1845q-38 0 -66 28.5t-28 68.5q0 38 28 66t66 28q40 0 68 -28t28 -66q0 -40 -28 -68.5t-68 -28.5zM78 813q0 241 75 435t217 308.5t326 114.5q196 0 318 -125q25 -23 41.5 -17.5t19.5 36.5l8 86h43l31 -568h-43q-42 256 -140 386t-265 130q-115 0 -208.5 -60
t-155 -165t-95 -246t-33.5 -303q0 -219 57 -394t168.5 -278.5t259.5 -103.5q128 0 226.5 81t156 217t80.5 317h54q-32 -324 -169.5 -510.5t-375.5 -186.5q-139 0 -252.5 66t-188 181t-115 269t-40.5 330z" />
    <glyph glyph-name="cdotaccent" unicode="&#x10b;" horiz-adv-x="761" 
d="M438 1335q-38 0 -66 28.5t-28 68.5q0 38 28 66t66 28q40 0 68.5 -28t28.5 -66q0 -40 -28.5 -68.5t-68.5 -28.5zM408 -33q-156 0 -245 154.5t-89 402.5q0 168 40.5 299t123.5 210t198 79q114 0 182 -73t68 -179q0 -117 -82 -117q-34 0 -51.5 21t-17.5 51q0 14 7 52t7 61
q0 55 -30.5 84.5t-84.5 29.5q-62 0 -110 -40.5t-75.5 -109t-41.5 -151t-14 -174.5q0 -211 67 -352t184 -141q28 0 54.5 10t55 35.5t51.5 65.5t42 104.5t29 146.5h43q-13 -235 -99 -352t-212 -117z" />
    <glyph glyph-name="Ccaron" unicode="&#x10c;" horiz-adv-x="1288" 
d="M616 1788l-184 364h49l209 -272l209 272h49l-184 -364h-148zM1165 664h54q-32 -324 -169.5 -510.5t-375.5 -186.5q-139 0 -252.5 66t-188 181t-115 269t-40.5 330q0 241 75 435t217 308.5t326 114.5q196 0 318 -125q25 -23 41.5 -17.5t19.5 36.5l8 86h43l31 -568h-43
q-42 256 -140 386t-265 130q-115 0 -208.5 -60t-155 -165t-95 -246t-33.5 -303q0 -219 57 -394t168.5 -278.5t259.5 -103.5q128 0 226.5 81t156 217t80.5 317z" />
    <glyph glyph-name="ccaron" unicode="&#x10d;" horiz-adv-x="761" 
d="M367 1278l-185 364h49l209 -272l209 272h49l-184 -364h-147zM676 436h43q-13 -235 -99 -352t-212 -117q-156 0 -245 154.5t-89 402.5q0 168 40.5 299t123.5 210t198 79q114 0 182 -73t68 -179q0 -117 -82 -117q-34 0 -51.5 21t-17.5 51q0 14 7 52t7 61q0 55 -30.5 84.5
t-84.5 29.5q-62 0 -110 -40.5t-75.5 -109t-41.5 -151t-14 -174.5q0 -211 67 -352t184 -141q28 0 54.5 10t55 35.5t51.5 65.5t42 104.5t29 146.5z" />
    <glyph glyph-name="Dcaron" unicode="&#x10e;" horiz-adv-x="1392" 
d="M555 1788l-184 364h49l209 -272l209 272h49l-185 -364h-147zM520 1638q168 0 314 -55.5t255.5 -159.5t172.5 -263t63 -355q0 -370 -213 -587.5t-563 -217.5h-508v43q75 0 116 5.5t63.5 25t28 45.5t5.5 78v1245q0 52 -5.5 77.5t-28 45t-63.5 25t-116 5.5v43h479zM530 70
q166 0 295 58t207.5 159t118 230t39.5 280q0 171 -49.5 315.5t-136.5 244.5t-207 156t-258 56q-70 0 -115 -10q-43 -9 -43 -56v-1345q0 -51 36 -69.5t113 -18.5z" />
    <glyph glyph-name="dcaron" unicode="&#x10f;" horiz-adv-x="925" 
d="M750 1659v-1456q0 -92 8 -109q12 -26 62 -9q19 6 50 19l19 -38l-225 -99l-29 25v164h-8q-82 -189 -256 -189q-141 0 -219 152.5t-78 390.5q0 166 38 300.5t116.5 218t185.5 83.5q148 0 219 -113h2v445q0 90 -8 107q-11 24 -58 8q-20 -6 -53 -21l-18 39l231 104zM852 1300
l2 379h125l-78 -379h-49zM410 70q75 0 126.5 48t98.5 132v407q0 170 -54 272.5t-153 102.5q-61 0 -107.5 -40.5t-72.5 -110t-38.5 -152t-12.5 -176.5q0 -141 22 -247.5t71 -171t120 -64.5z" />
    <glyph glyph-name="Dcroat" unicode="&#x110;" horiz-adv-x="1392" 
d="M520 1638q168 0 314 -55.5t255.5 -159.5t172.5 -263t63 -355q0 -370 -213 -587.5t-563 -217.5h-508v43q75 0 116 5.5t63.5 25t28 45.5t5.5 78v645h-172v63h172v537q0 52 -5.5 77.5t-28 45t-63.5 25t-116 5.5v43h479zM530 70q166 0 295 58t207.5 159t118 230t39.5 280
q0 171 -49.5 315.5t-136.5 244.5t-207 156t-258 56q-70 0 -115 -10q-43 -9 -43 -56v-598h405v-63h-405v-684q0 -51 36 -69.5t113 -18.5z" />
    <glyph glyph-name="dcroat" unicode="&#x111;" horiz-adv-x="933" 
d="M889 1266h-139v-1063q0 -92 8 -109q12 -26 62 -9q19 6 50 19l19 -38l-225 -99l-29 25v164h-8q-82 -189 -256 -189q-141 0 -219 152.5t-78 390.5q0 166 38 300.5t116.5 218t185.5 83.5q148 0 219 -113h2v267h-301v53h301v125q0 90 -8 107q-11 24 -58 8q-20 -6 -53 -21
l-18 39l231 104l21 -22v-340h139v-53zM410 70q75 0 126.5 48t98.5 132v407q0 170 -54 272.5t-153 102.5q-61 0 -107.5 -40.5t-72.5 -110t-38.5 -152t-12.5 -176.5q0 -141 22 -247.5t71 -171t120 -64.5z" />
    <glyph glyph-name="Emacron" unicode="&#x112;" horiz-adv-x="1198" 
d="M350 1903v79h506v-79h-506zM1040 1638l4 -41l37 -348l-51 -4q-8 76 -16 125.5t-20.5 87t-26 58t-37.5 32.5t-49 15.5t-66 3.5h-348q-43 0 -65.5 -22.5t-22.5 -63.5v-592h311q41 0 63.5 4t42.5 16t28.5 38.5t13 67.5t4.5 107h43v-532h-43q0 83 -5.5 128.5t-25 70t-45 30.5
t-76.5 6h-311v-637q0 -72 18 -94t78 -22h340q62 0 98 11t70 50.5t59.5 106t59.5 188.5l53 -14l-106 -375l-11 -39h-997v43q75 0 116 5.5t63.5 25t28 45.5t5.5 78v1245q0 52 -5.5 77.5t-28 45t-63.5 25t-116 5.5v43h999z" />
    <glyph glyph-name="emacron" unicode="&#x113;" horiz-adv-x="815" 
d="M164 1473h506v-80h-506v80zM694 432h43q-24 -235 -112 -350t-217 -115q-155 0 -244.5 153.5t-89.5 401.5q0 164 40 297t118.5 213t183.5 80q145 0 227 -139.5t82 -372.5h-532v-39q0 -136 28.5 -245.5t86.5 -176.5t136 -67q38 0 72.5 17.5t69.5 56.5t63 112t45 174z
M418 1042q-94 0 -150 -104.5t-71 -267.5h407q0 73 -10 137t-31 118t-58.5 85.5t-86.5 31.5z" />
    <glyph glyph-name="Edotaccent" unicode="&#x116;" horiz-adv-x="1198" 
d="M602 1845q-38 0 -66 28.5t-28 68.5q0 38 28 66t66 28q40 0 68 -28t28 -66q0 -40 -28 -68.5t-68 -28.5zM1040 1638l4 -41l37 -348l-51 -4q-8 76 -16 125.5t-20.5 87t-26 58t-37.5 32.5t-49 15.5t-66 3.5h-348q-43 0 -65.5 -22.5t-22.5 -63.5v-592h311q41 0 63.5 4t42.5 16
t28.5 38.5t13 67.5t4.5 107h43v-532h-43q0 83 -5.5 128.5t-25 70t-45 30.5t-76.5 6h-311v-637q0 -72 18 -94t78 -22h340q62 0 98 11t70 50.5t59.5 106t59.5 188.5l53 -14l-106 -375l-11 -39h-997v43q75 0 116 5.5t63.5 25t28 45.5t5.5 78v1245q0 52 -5.5 77.5t-28 45
t-63.5 25t-116 5.5v43h999z" />
    <glyph glyph-name="edotaccent" unicode="&#x117;" horiz-adv-x="815" 
d="M416 1335q-38 0 -66 28.5t-28 68.5q0 38 28 66t66 28q40 0 68 -28t28 -66q0 -40 -28 -68.5t-68 -28.5zM694 432h43q-24 -235 -112 -350t-217 -115q-155 0 -244.5 153.5t-89.5 401.5q0 164 40 297t118.5 213t183.5 80q145 0 227 -139.5t82 -372.5h-532v-39
q0 -136 28.5 -245.5t86.5 -176.5t136 -67q38 0 72.5 17.5t69.5 56.5t63 112t45 174zM418 1042q-94 0 -150 -104.5t-71 -267.5h407q0 73 -10 137t-31 118t-58.5 85.5t-86.5 31.5z" />
    <glyph glyph-name="Eogonek" unicode="&#x118;" horiz-adv-x="1198" 
d="M952 -408q66 0 162 48l12 -43q-102 -76 -213 -76q-81 0 -133.5 50.5t-52.5 137.5q0 46 20 86t54.5 70t68 52t73 45.5t56.5 37.5h-958v43q75 0 116 5.5t63.5 25t28 45.5t5.5 78v1245q0 52 -5.5 77.5t-28 45t-63.5 25t-116 5.5v43h999l4 -41l37 -348l-51 -4
q-8 76 -16 125.5t-20.5 87t-26 58t-37.5 32.5t-49 15.5t-66 3.5h-348q-43 0 -65.5 -22.5t-22.5 -63.5v-592h311q41 0 63.5 4t42.5 16t28.5 38.5t13 67.5t4.5 107h43v-532h-43q0 83 -5.5 128.5t-25 70t-45 30.5t-76.5 6h-311v-637q0 -72 18 -94t78 -22h340q62 0 98 11
t70 50.5t59.5 106t59.5 188.5l53 -14l-106 -375l-11 -39h9q-23 -27 -85.5 -79t-96.5 -97.5t-34 -99.5q0 -59 31.5 -95.5t89.5 -36.5z" />
    <glyph glyph-name="eogonek" unicode="&#x119;" horiz-adv-x="815" 
d="M504 -14q-22 -26 -65 -63.5t-72.5 -64t-53.5 -67t-24 -82.5q0 -59 31.5 -95t89.5 -36q67 0 161 47l13 -43q-102 -76 -213 -76q-81 0 -134 51t-53 138q0 42 16 78t48 66t58 49t69 45t57 36q-8 -2 -24 -2q-155 0 -244.5 153.5t-89.5 401.5q0 164 40 297t118.5 213t183.5 80
q145 0 227 -139.5t82 -372.5h-532v-39q0 -136 28.5 -245.5t86.5 -176.5t136 -67q38 0 72.5 17.5t69.5 56.5t63 112t45 174h43q-20 -188 -81 -299.5t-152 -146.5zM418 1042q-94 0 -150 -104.5t-71 -267.5h407q0 73 -10 137t-31 118t-58.5 85.5t-86.5 31.5z" />
    <glyph glyph-name="Ecaron" unicode="&#x11a;" horiz-adv-x="1198" 
d="M530 1788l-184 364h49l209 -272l209 272h49l-184 -364h-148zM1102 428l53 -14l-106 -375l-11 -39h-997v43q75 0 116 5.5t63.5 25t28 45.5t5.5 78v1245q0 52 -5.5 77.5t-28 45t-63.5 25t-116 5.5v43h999l4 -41l37 -348l-51 -4q-8 76 -16 125.5t-20.5 87t-26 58t-37.5 32.5
t-49 15.5t-66 3.5h-348q-43 0 -65.5 -22.5t-22.5 -63.5v-592h311q41 0 63.5 4t42.5 16t28.5 38.5t13 67.5t4.5 107h43v-532h-43q0 83 -5.5 128.5t-25 70t-45 30.5t-76.5 6h-311v-637q0 -72 18 -94t78 -22h340q62 0 98 11t70 50.5t59.5 106t59.5 188.5z" />
    <glyph glyph-name="ecaron" unicode="&#x11b;" horiz-adv-x="815" 
d="M344 1278l-184 364h49l209 -272l209 272h49l-184 -364h-148zM694 432h43q-24 -235 -112 -350t-217 -115q-155 0 -244.5 153.5t-89.5 401.5q0 164 40 297t118.5 213t183.5 80q145 0 227 -139.5t82 -372.5h-532v-39q0 -136 28.5 -245.5t86.5 -176.5t136 -67q38 0 72.5 17.5
t69.5 56.5t63 112t45 174zM418 1042q-94 0 -150 -104.5t-71 -267.5h407q0 73 -10 137t-31 118t-58.5 85.5t-86.5 31.5z" />
    <glyph glyph-name="Gbreve" unicode="&#x11e;" horiz-adv-x="1402" 
d="M940 2101h43q-3 -110 -69 -175.5t-181 -65.5q-117 0 -183 65t-69 176h43q5 -68 59 -106.5t150 -38.5t149 38.5t58 106.5zM745 -33q-162 0 -290.5 66t-210 182t-124 269t-42.5 333q0 243 74 434t223.5 305.5t353.5 114.5q202 0 344 -125q26 -23 43.5 -18t20.5 37l6 86h45
l29 -568h-43q-41 256 -147.5 386t-293.5 130q-126 0 -225.5 -59.5t-162 -165t-95.5 -244.5t-33 -303q0 -223 60.5 -398.5t185.5 -281.5t299 -106q125 0 220.5 61t145.5 142v397q0 35 -4 55t-19.5 39.5t-41.5 29t-75.5 17t-115.5 9.5t-167 2v43h671v-43q-86 0 -107.5 -27
t-21.5 -125v-403q-87 -132 -217.5 -201.5t-284.5 -69.5z" />
    <glyph glyph-name="gbreve" unicode="&#x11f;" horiz-adv-x="901" 
d="M432 1350q-117 0 -183 65t-69 176h43q5 -68 59 -106.5t150 -38.5t149 38.5t58 106.5h43q-3 -110 -69 -175.5t-181 -65.5zM408 127h210q159 0 228 -44.5t69 -156.5q0 -77 -39.5 -150.5t-108.5 -131t-169.5 -92.5t-214.5 -35q-103 0 -184.5 25t-134 82.5t-52.5 139.5
q0 90 54.5 154t150.5 119q-108 39 -108 149q0 104 133 205q-129 110 -129 322q0 175 90.5 286t238.5 111q102 0 176 -53q118 59 222 59q33 0 45 -12t12 -35q0 -51 -68 -51q-27 0 -64 4t-56 5t-54 -3q115 -112 115 -309q0 -174 -90.5 -285t-237.5 -111q-89 0 -161 43
q-41 -36 -60.5 -64.5t-19.5 -61.5q0 -20 2 -32.5t13.5 -29t32.5 -25.5t61 -15.5t98 -6.5zM420 1044q-49 0 -86.5 -23.5t-59 -64.5t-32.5 -90.5t-11 -105.5q0 -67 13 -130.5t39.5 -119.5t73.5 -90.5t108 -34.5q92 0 139 74t47 198q0 69 -14 135.5t-40.5 124t-72.5 92.5
t-104 35zM410 -387q188 0 307 85.5t119 192.5q0 71 -48.5 96t-171.5 25h-219q-72 0 -116 8q-170 -109 -170 -221q0 -79 76.5 -132.5t222.5 -53.5z" />
    <glyph glyph-name="Gdotaccent" unicode="&#x120;" horiz-adv-x="1402" 
d="M733 1845q-38 0 -66 28.5t-28 68.5q0 38 28 66t66 28q40 0 68 -28t28 -66q0 -40 -28 -68.5t-68 -28.5zM745 -33q-162 0 -290.5 66t-210 182t-124 269t-42.5 333q0 243 74 434t223.5 305.5t353.5 114.5q202 0 344 -125q26 -23 43.5 -18t20.5 37l6 86h45l29 -568h-43
q-41 256 -147.5 386t-293.5 130q-126 0 -225.5 -59.5t-162 -165t-95.5 -244.5t-33 -303q0 -223 60.5 -398.5t185.5 -281.5t299 -106q125 0 220.5 61t145.5 142v397q0 35 -4 55t-19.5 39.5t-41.5 29t-75.5 17t-115.5 9.5t-167 2v43h671v-43q-86 0 -107.5 -27t-21.5 -125v-403
q-87 -132 -217.5 -201.5t-284.5 -69.5z" />
    <glyph glyph-name="gdotaccent" unicode="&#x121;" horiz-adv-x="901" 
d="M432 1335q-38 0 -66 28.5t-28 68.5q0 38 28 66t66 28q40 0 68 -28t28 -66q0 -40 -28 -68.5t-68 -28.5zM408 127h210q159 0 228 -44.5t69 -156.5q0 -77 -39.5 -150.5t-108.5 -131t-169.5 -92.5t-214.5 -35q-103 0 -184.5 25t-134 82.5t-52.5 139.5q0 90 54.5 154
t150.5 119q-108 39 -108 149q0 104 133 205q-129 110 -129 322q0 175 90.5 286t238.5 111q102 0 176 -53q118 59 222 59q33 0 45 -12t12 -35q0 -51 -68 -51q-27 0 -64 4t-56 5t-54 -3q115 -112 115 -309q0 -174 -90.5 -285t-237.5 -111q-89 0 -161 43q-41 -36 -60.5 -64.5
t-19.5 -61.5q0 -20 2 -32.5t13.5 -29t32.5 -25.5t61 -15.5t98 -6.5zM420 1044q-49 0 -86.5 -23.5t-59 -64.5t-32.5 -90.5t-11 -105.5q0 -67 13 -130.5t39.5 -119.5t73.5 -90.5t108 -34.5q92 0 139 74t47 198q0 69 -14 135.5t-40.5 124t-72.5 92.5t-104 35zM410 -387
q188 0 307 85.5t119 192.5q0 71 -48.5 96t-171.5 25h-219q-72 0 -116 8q-170 -109 -170 -221q0 -79 76.5 -132.5t222.5 -53.5z" />
    <glyph glyph-name="uni0122" unicode="&#x122;" horiz-adv-x="1402" 
d="M745 -33q-162 0 -290.5 66t-210 182t-124 269t-42.5 333q0 243 74 434t223.5 305.5t353.5 114.5q202 0 344 -125q26 -23 43.5 -18t20.5 37l6 86h45l29 -568h-43q-41 256 -147.5 386t-293.5 130q-126 0 -225.5 -59.5t-162 -165t-95.5 -244.5t-33 -303q0 -223 60.5 -398.5
t185.5 -281.5t299 -106q125 0 220.5 61t145.5 142v397q0 35 -4 55t-19.5 39.5t-41.5 29t-75.5 17t-115.5 9.5t-167 2v43h671v-43q-86 0 -107.5 -27t-21.5 -125v-403q-87 -132 -217.5 -201.5t-284.5 -69.5zM723 -322q-26 0 -43.5 22.5t-17.5 57.5q0 39 27 63.5t67 24.5
q55 0 88 -34.5t33 -102.5q0 -69 -47.5 -125t-149.5 -82v45q47 12 89 46t42 73q0 33 -20 33q-7 0 -27.5 -10.5t-40.5 -10.5z" />
    <glyph glyph-name="uni0123" unicode="&#x123;" horiz-adv-x="901" 
d="M444 1354q-53 0 -85.5 34.5t-32.5 102.5q0 69 47 125t149 82v-45q-47 -12 -89 -46t-42 -73q0 -33 21 -33q7 0 27 10.5t38 10.5q28 0 46 -22.5t18 -57.5q0 -39 -27.5 -63.5t-69.5 -24.5zM408 127h210q159 0 228 -44.5t69 -156.5q0 -77 -39.5 -150.5t-108.5 -131
t-169.5 -92.5t-214.5 -35q-103 0 -184.5 25t-134 82.5t-52.5 139.5q0 90 54.5 154t150.5 119q-108 39 -108 149q0 104 133 205q-129 110 -129 322q0 175 90.5 286t238.5 111q102 0 176 -53q118 59 222 59q33 0 45 -12t12 -35q0 -51 -68 -51q-27 0 -64 4t-56 5t-54 -3
q115 -112 115 -309q0 -174 -90.5 -285t-237.5 -111q-89 0 -161 43q-41 -36 -60.5 -64.5t-19.5 -61.5q0 -20 2 -32.5t13.5 -29t32.5 -25.5t61 -15.5t98 -6.5zM420 1044q-49 0 -86.5 -23.5t-59 -64.5t-32.5 -90.5t-11 -105.5q0 -67 13 -130.5t39.5 -119.5t73.5 -90.5
t108 -34.5q92 0 139 74t47 198q0 69 -14 135.5t-40.5 124t-72.5 92.5t-104 35zM410 -387q188 0 307 85.5t119 192.5q0 71 -48.5 96t-171.5 25h-219q-72 0 -116 8q-170 -109 -170 -221q0 -79 76.5 -132.5t222.5 -53.5z" />
    <glyph glyph-name="Hbar" unicode="&#x126;" horiz-adv-x="1464" 
d="M1423 1638v-43q-76 0 -116.5 -5.5t-63.5 -25t-28 -45t-5 -77.5v-154h191v-59h-191v-1032q0 -52 5 -77.5t27.5 -45.5t63.5 -25.5t117 -5.5v-43h-549v43q50 0 83 2.5t57 10t37 17t20.5 29t9.5 40t2 55.5v639h-702v-639q0 -35 2 -55.5t9.5 -40t20.5 -29t37 -17t57 -10
t83 -2.5v-43h-549v43q76 0 117 5.5t63.5 25.5t27.5 45.5t5 77.5v1032h-191v59h191v154q0 52 -5 77.5t-28 45t-63.5 25t-116.5 5.5v43h549v-43q-74 0 -114 -5.5t-62.5 -25t-27.5 -45t-5 -77.5v-154h702v154q0 52 -5 77.5t-27.5 45t-62.5 25t-114 5.5v43h549zM381 907h702v322
h-702v-322z" />
    <glyph glyph-name="hbar" unicode="&#x127;" horiz-adv-x="976" 
d="M799 836v-639q0 -98 23 -126t110 -28v-43h-373v43q84 0 106.5 28t22.5 126v632q0 91 -35.5 136t-99.5 45q-69 0 -130 -41.5t-128 -120.5v-651q0 -98 22.5 -126t106.5 -28v-43h-375v43q86 0 109.5 28.5t23.5 125.5l-2 1103h-121v52h121v92q0 90 -7 107q-10 24 -56 8
q-19 -6 -51 -21l-19 39l154 72l73 32l21 -22v-307h311v-52h-311v-382h6q74 97 140.5 145.5t152.5 48.5q105 0 155 -73t50 -203z" />
    <glyph glyph-name="Imacron" unicode="&#x12a;" horiz-adv-x="632" 
d="M63 1903v79h506v-79h-506zM254 197v1245q0 52 -5.5 77.5t-28 45t-63.5 25t-116 5.5v43h553v-43q-61 0 -98.5 -4.5t-62 -13t-35.5 -28.5t-15 -43t-4 -64v-1245q0 -41 4 -64.5t15 -43.5t35.5 -28.5t62 -13t98.5 -4.5v-43h-553v43q75 0 116 5.5t63.5 25t28 45.5t5.5 78z" />
    <glyph glyph-name="imacron" unicode="&#x12b;" horiz-adv-x="479" 
d="M-29 1393v80h506v-80h-506zM59 0v43q88 0 112 28.5t24 125.5l-2 682v36t-0.5 28.5t-2 24t-4.5 17t-6.5 13.5t-10 6t-14.5 3t-19.5 -3.5t-24.5 -6.5t-31 -12l-17 41l150 59l70 27l24 -22v-893q0 -98 23 -126t112 -28v-43h-383z" />
    <glyph glyph-name="Iogonek" unicode="&#x12e;" horiz-adv-x="632" 
d="M594 1638v-43q-61 0 -98.5 -4.5t-62 -13t-35.5 -28.5t-15 -43t-4 -64v-1245q0 -41 4 -64.5t15 -43.5t35.5 -28.5t62 -13t98.5 -4.5v-43h-88q-22 -26 -65 -63.5t-72.5 -64t-53.5 -66.5t-24 -82q0 -59 31.5 -95.5t89.5 -36.5q65 0 161 48l13 -43q-102 -76 -213 -76
q-81 0 -134 50.5t-53 137.5q0 46 20 86t55 70t68.5 52t73 45.5t56.5 37.5h-418v43q75 0 116 5.5t63.5 25t28 45.5t5.5 78v1245q0 52 -5.5 77.5t-28 45t-63.5 25t-116 5.5v43h553z" />
    <glyph glyph-name="iogonek" unicode="&#x12f;" horiz-adv-x="479" 
d="M225 1335q-38 0 -66 28.5t-28 68.5q0 38 28 66t66 28q40 0 68.5 -28t28.5 -66q0 -40 -28.5 -68.5t-68.5 -28.5zM479 -360l13 -43q-102 -76 -213 -76q-81 0 -134 50.5t-53 137.5q0 46 20 86t55 70t68.5 52t73 45.5t56.5 37.5h-306v43q88 0 112 28.5t24 125.5l-2 682v36
t-0.5 28.5t-2 24t-4.5 17t-6.5 13.5t-10 6t-14.5 3t-19.5 -3.5t-24.5 -6.5t-31 -12l-17 41l150 59l70 27l24 -22v-893q0 -98 23 -126t112 -28v-43h-30q-22 -26 -65 -63.5t-72.5 -64t-53.5 -66.5t-24 -82q0 -59 31 -95.5t89 -36.5q66 0 162 48z" />
    <glyph glyph-name="Idotaccent" unicode="&#x130;" horiz-adv-x="632" 
d="M315 1845q-38 0 -66 28.5t-28 68.5q0 38 28 66t66 28q40 0 68.5 -28t28.5 -66q0 -40 -28.5 -68.5t-68.5 -28.5zM254 197v1245q0 52 -5.5 77.5t-28 45t-63.5 25t-116 5.5v43h553v-43q-61 0 -98.5 -4.5t-62 -13t-35.5 -28.5t-15 -43t-4 -64v-1245q0 -41 4 -64.5t15 -43.5
t35.5 -28.5t62 -13t98.5 -4.5v-43h-553v43q75 0 116 5.5t63.5 25t28 45.5t5.5 78z" />
    <glyph glyph-name="dotlessi" unicode="&#x131;" horiz-adv-x="479" 
d="M59 0v43q88 0 112 28.5t24 125.5l-2 682v36t-0.5 28.5t-2 24t-4.5 17t-6.5 13.5t-10 6t-14.5 3t-19.5 -3.5t-24.5 -6.5t-31 -12l-17 41l150 59l70 27l24 -22v-893q0 -98 23 -126t112 -28v-43h-383z" />
    <glyph glyph-name="uni0136" unicode="&#x136;" horiz-adv-x="1370" 
d="M254 197v1245q0 52 -5.5 77.5t-28 45t-63.5 25t-116 5.5v43h553v-43q-61 0 -98.5 -4.5t-62 -13t-35.5 -28.5t-15 -43t-4 -64v-1245q0 -41 4 -64.5t15 -43.5t35.5 -28.5t62 -13t98.5 -4.5v-43h-553v43q75 0 116 5.5t63.5 25t28 45.5t5.5 78zM565 909l549 -749
q55 -74 105 -94.5t145 -20.5v-45h-557v43q78 0 117.5 5t56 21.5t6 43t-44.5 73.5l-502 676l426 559q76 98 76 127q0 27 -33.5 37t-136.5 10v43h518v-43q-105 0 -158 -19.5t-108 -90.5zM664 -322q-27 0 -44.5 22.5t-17.5 57.5q0 39 27 63.5t67 24.5q55 0 88 -34.5t33 -102.5
q0 -69 -47 -125t-149 -82v45q47 12 89 46t42 73q0 33 -21 33q-7 0 -27 -10.5t-40 -10.5z" />
    <glyph glyph-name="uni0137" unicode="&#x137;" horiz-adv-x="935" 
d="M297 1659v-1462q0 -98 22 -126t107 -28v-43h-379v43q89 0 112 28t23 126v1249v9q0 37 -0.5 52t-4 34t-10 22t-20 4.5t-32.5 -6t-49 -21.5l-19 41l156 70l71 30zM455 655l282 -485q45 -79 85 -103t106 -24v-43h-383v43q95 0 104 19t-35 91q-7 11 -10 17l-262 453l229 295
q36 44 37 70t-26.5 36t-83.5 10v43h389v-43q-73 0 -119 -20t-100 -90zM442 -322q-26 0 -43.5 22.5t-17.5 57.5q0 39 27 63.5t67 24.5q55 0 88 -34.5t33 -102.5q0 -69 -47.5 -125t-149.5 -82v45q47 12 89 46t42 73q0 33 -20 33q-7 0 -27.5 -10.5t-40.5 -10.5z" />
    <glyph glyph-name="Lacute" unicode="&#x139;" horiz-adv-x="1155" 
d="M401 1786h-49l156 366h145zM594 1638v-43q-61 0 -98.5 -4.5t-62 -13t-35.5 -28.5t-15 -43t-4 -64v-1247q0 -76 20.5 -99.5t85.5 -23.5h310q62 0 97.5 11t67.5 53t55.5 112.5t53.5 200.5l53 -13l-92 -399l-8 -37h-981v43q75 0 116 5.5t63.5 25t28 45.5t5.5 78v1245
q0 52 -5.5 77.5t-28 45t-63.5 25t-116 5.5v43h553z" />
    <glyph glyph-name="lacute" unicode="&#x13a;" horiz-adv-x="473" 
d="M227 1821h-47l156 364h145zM297 1659v-1462q0 -98 23 -126t110 -28v-43h-383v43q89 0 112 28t23 126v1249v9q0 37 -0.5 52t-4 34t-10 22t-20 4.5t-32.5 -6t-49 -21.5l-19 41l156 70l71 30z" />
    <glyph glyph-name="uni013B" unicode="&#x13b;" horiz-adv-x="1155" 
d="M594 1638v-43q-61 0 -98.5 -4.5t-62 -13t-35.5 -28.5t-15 -43t-4 -64v-1247q0 -76 20.5 -99.5t85.5 -23.5h310q62 0 97.5 11t67.5 53t55.5 112.5t53.5 200.5l53 -13l-92 -399l-8 -37h-981v43q75 0 116 5.5t63.5 25t28 45.5t5.5 78v1245q0 52 -5.5 77.5t-28 45t-63.5 25
t-116 5.5v43h553zM600 -322q-26 0 -43.5 22.5t-17.5 57.5q0 39 27 63.5t67 24.5q55 0 88 -34.5t33 -102.5q0 -69 -47.5 -125t-149.5 -82v45q47 12 89 46t42 73q0 33 -20 33q-7 0 -27.5 -10.5t-40.5 -10.5z" />
    <glyph glyph-name="uni013C" unicode="&#x13c;" horiz-adv-x="473" 
d="M297 1659v-1462q0 -98 23 -126t110 -28v-43h-383v43q89 0 112 28t23 126v1249v9q0 37 -0.5 52t-4 34t-10 22t-20 4.5t-32.5 -6t-49 -21.5l-19 41l156 70l71 30zM190 -322q-26 0 -43.5 22.5t-17.5 57.5q0 39 27 63.5t67 24.5q55 0 88 -34.5t33 -102.5q0 -69 -47.5 -125
t-149.5 -82v45q47 12 89.5 46t42.5 73q0 33 -21 33q-7 0 -27.5 -10.5t-40.5 -10.5z" />
    <glyph glyph-name="Lcaron" unicode="&#x13d;" horiz-adv-x="1155" 
d="M831 1303h-49l2 378h125zM594 1638v-43q-61 0 -98.5 -4.5t-62 -13t-35.5 -28.5t-15 -43t-4 -64v-1247q0 -76 20.5 -99.5t85.5 -23.5h310q62 0 97.5 11t67.5 53t55.5 112.5t53.5 200.5l53 -13l-92 -399l-8 -37h-981v43q75 0 116 5.5t63.5 25t28 45.5t5.5 78v1245
q0 52 -5.5 77.5t-28 45t-63.5 25t-116 5.5v43h553z" />
    <glyph glyph-name="lcaron" unicode="&#x13e;" horiz-adv-x="473" 
d="M297 1659v-1462q0 -98 23 -126t110 -28v-43h-383v43q89 0 112 28t23 126v1249v9q0 37 -0.5 52t-4 34t-10 22t-20 4.5t-32.5 -6t-49 -21.5l-19 41l156 70l71 30zM446 1300h-49l2 379h125z" />
    <glyph glyph-name="Lslash" unicode="&#x141;" horiz-adv-x="1155" 
d="M1069 449l53 -13l-92 -399l-8 -37h-981v43q75 0 116 5.5t63.5 25t28 45.5t5.5 78v495l-182 -92l-29 55l211 107v680q0 52 -5.5 77.5t-28 45t-63.5 25t-116 5.5v43h553v-43q-61 0 -98.5 -4.5t-62 -13t-35.5 -28.5t-15 -43t-4 -64v-617l502 256l30 -53l-532 -272v-561
q0 -76 20.5 -99.5t85.5 -23.5h310q62 0 97.5 11t67.5 53t55.5 112.5t53.5 200.5z" />
    <glyph glyph-name="lslash" unicode="&#x142;" horiz-adv-x="475" 
d="M297 852v-655q0 -98 23 -126t110 -28v-43h-383v43q89 0 112 28t23 126v589l-166 -96l-26 49l192 113v594v9q0 37 -0.5 52t-4 34t-10 22t-20 4.5t-32.5 -6t-49 -21.5l-19 41l156 70l71 30l23 -22v-741l158 92l28 -49z" />
    <glyph glyph-name="Nacute" unicode="&#x143;" horiz-adv-x="1474" 
d="M840 2152h145l-254 -364h-47zM1450 1638v-43q-76 0 -116.5 -5.5t-63.5 -25t-28 -45t-5 -77.5v-1471h-68l-845 1383v-1157q0 -52 5.5 -77.5t28.5 -45.5t64.5 -25.5t118.5 -5.5v-43h-500v43q75 0 116 5.5t63.5 25t28 45.5t5.5 78v1269l-2 4q-49 78 -92 101.5t-119 23.5v43
h258l864 -1421h2v1225q0 52 -5 77.5t-28 45t-63.5 25t-116.5 5.5v43h498z" />
    <glyph glyph-name="nacute" unicode="&#x144;" horiz-adv-x="989" 
d="M500 1278h-47l155 364h146zM61 0v43q86 0 110 28.5t24 125.5v682v6v42t-2 31.5t-4.5 24.5t-8.5 14t-14 7.5t-21.5 -1.5t-29.5 -7t-39 -15l-17 41l222 90l26 -22v-172h6q74 97 140.5 145.5t152.5 48.5q105 0 156 -73t51 -203v-639q0 -98 22.5 -126t108.5 -28v-43h-373v43
q84 0 106.5 28t22.5 126v632q0 90 -35.5 135.5t-99.5 45.5q-68 0 -128.5 -41t-129.5 -121v-651q0 -98 22.5 -126t106.5 -28v-43h-375z" />
    <glyph glyph-name="uni0145" unicode="&#x145;" horiz-adv-x="1474" 
d="M1450 1638v-43q-76 0 -116.5 -5.5t-63.5 -25t-28 -45t-5 -77.5v-1471h-68l-845 1383v-1157q0 -52 5.5 -77.5t28.5 -45.5t64.5 -25.5t118.5 -5.5v-43h-500v43q75 0 116 5.5t63.5 25t28 45.5t5.5 78v1269l-2 4q-49 78 -92 101.5t-119 23.5v43h258l864 -1421h2v1225
q0 52 -5 77.5t-28 45t-63.5 25t-116.5 5.5v43h498zM788 -154q55 0 88 -34.5t33 -102.5q0 -69 -47 -125t-149 -82v45q47 12 89 46t42 73q0 33 -21 33q-7 0 -27 -10.5t-40 -10.5q-27 0 -44.5 22.5t-17.5 57.5q0 39 27 63.5t67 24.5z" />
    <glyph glyph-name="uni0146" unicode="&#x146;" horiz-adv-x="989" 
d="M61 0v43q86 0 110 28.5t24 125.5v682v6v42t-2 31.5t-4.5 24.5t-8.5 14t-14 7.5t-21.5 -1.5t-29.5 -7t-39 -15l-17 41l222 90l26 -22v-172h6q74 97 140.5 145.5t152.5 48.5q105 0 156 -73t51 -203v-639q0 -98 22.5 -126t108.5 -28v-43h-373v43q84 0 106.5 28t22.5 126v632
q0 90 -35.5 135.5t-99.5 45.5q-68 0 -128.5 -41t-129.5 -121v-651q0 -98 22.5 -126t106.5 -28v-43h-375zM455 -322q-27 0 -44.5 22.5t-17.5 57.5q0 39 27 63.5t67 24.5q55 0 88 -34.5t33 -102.5q0 -69 -47 -125t-149 -82v45q47 12 89 46t42 73q0 33 -21 33q-7 0 -27 -10.5
t-40 -10.5z" />
    <glyph glyph-name="Ncaron" unicode="&#x147;" horiz-adv-x="1474" 
d="M666 1788l-185 364h49l209 -272l209 272h49l-184 -364h-147zM1450 1638v-43q-76 0 -116.5 -5.5t-63.5 -25t-28 -45t-5 -77.5v-1471h-68l-845 1383v-1157q0 -52 5.5 -77.5t28.5 -45.5t64.5 -25.5t118.5 -5.5v-43h-500v43q75 0 116 5.5t63.5 25t28 45.5t5.5 78v1269l-2 4
q-49 78 -92 101.5t-119 23.5v43h258l864 -1421h2v1225q0 52 -5 77.5t-28 45t-63.5 25t-116.5 5.5v43h498z" />
    <glyph glyph-name="ncaron" unicode="&#x148;" horiz-adv-x="989" 
d="M436 1278l-184 364h49l209 -272l209 272h49l-184 -364h-148zM813 836v-639q0 -98 22.5 -126t108.5 -28v-43h-373v43q84 0 106.5 28t22.5 126v632q0 90 -35.5 135.5t-99.5 45.5q-68 0 -128.5 -41t-129.5 -121v-651q0 -98 22.5 -126t106.5 -28v-43h-375v43q86 0 110 28.5
t24 125.5v682v6v42t-2 31.5t-4.5 24.5t-8.5 14t-14 7.5t-21.5 -1.5t-29.5 -7t-39 -15l-17 41l222 90l26 -22v-172h6q74 97 140.5 145.5t152.5 48.5q105 0 156 -73t51 -203z" />
    <glyph glyph-name="Eng" unicode="&#x14a;" horiz-adv-x="1474" 
d="M977 -479q-106 0 -165.5 54.5t-59.5 123.5q0 39 21 60.5t56 21.5q34 0 55 -22.5t21 -65.5q0 -48 24 -75.5t68 -27.5q47 0 81.5 30t53 81.5t27 109t8.5 121.5v66l-47 57l-796 1297v-1155q0 -52 5.5 -77.5t28.5 -45.5t64.5 -25.5t118.5 -5.5v-43h-500v43q75 0 116 5.5
t63.5 25t28 45.5t5.5 78v1269l-2 4q-49 78 -92 101.5t-119 23.5v43h258l866 -1415v1219q0 52 -5 77.5t-28 45t-63.5 25t-116.5 5.5v43h498v-43q-76 0 -116.5 -5.5t-63.5 -25t-28 -45t-5 -77.5v-1493q0 -71 -6.5 -130t-24 -116t-46 -95.5t-75 -62.5t-108.5 -24z" />
    <glyph glyph-name="eng" unicode="&#x14b;" horiz-adv-x="937" 
d="M608 1112q105 0 157 -73.5t52 -202.5v-940q0 -379 -221 -379q-85 0 -136.5 41.5t-51.5 99.5q0 34 18 56t53 22q33 0 51 -18.5t27 -61.5q7 -37 19.5 -56.5t37.5 -19.5q52 0 69 83.5t17 248.5v922q0 90 -35 135t-98 45q-68 0 -129 -43t-129 -123v-651q0 -98 22 -126
t105 -28v-43h-375v43q87 0 110.5 28.5t23.5 125.5v677v12q0 37 -0.5 52t-4 33.5t-9.5 22t-20 4.5t-32.5 -7t-48.5 -22l-19 41l154 71l68 31l26 -22v-172h6q74 97 140.5 145.5t152.5 48.5z" />
    <glyph glyph-name="Omacron" unicode="&#x14c;" horiz-adv-x="1341" 
d="M422 1903v79h506v-79h-506zM674 -33q-130 0 -242 67t-189 182t-121 271.5t-44 331.5q0 236 71.5 429t208 308t314.5 115q129 0 240.5 -67.5t188 -182.5t120 -271t43.5 -331q0 -238 -70.5 -430.5t-206 -307t-313.5 -114.5zM711 39q129 0 227 93.5t147.5 243.5t49.5 329
q0 162 -34 319.5t-95.5 286.5t-159 208.5t-213.5 79.5q-128 0 -226 -93t-148 -242.5t-50 -327.5q0 -130 20.5 -258t62.5 -243.5t101 -203.5t141 -140t177 -52z" />
    <glyph glyph-name="omacron" unicode="&#x14d;" horiz-adv-x="915" 
d="M203 1393v80h506v-80h-506zM459 -33q-111 0 -199.5 74.5t-137 204t-48.5 289.5q0 161 44 290.5t133 208t208 78.5q167 0 275 -162t108 -405q0 -160 -44 -290t-132.5 -209t-206.5 -79zM485 39q79 0 134.5 62.5t79.5 154.5t24 201q0 146 -31 275.5t-99 218.5t-161 89
q-80 0 -136 -62.5t-79.5 -154.5t-23.5 -202q0 -107 18.5 -209t53 -186.5t92 -135.5t128.5 -51z" />
    <glyph glyph-name="Ohungarumlaut" unicode="&#x150;" horiz-adv-x="1341" 
d="M532 1788h-43l115 364h131zM741 1788h-45l121 364h129zM674 -33q-130 0 -242 67t-189 182t-121 271.5t-44 331.5q0 236 71.5 429t208 308t314.5 115q129 0 240.5 -67.5t188 -182.5t120 -271t43.5 -331q0 -238 -70.5 -430.5t-206 -307t-313.5 -114.5zM711 39
q129 0 227 93.5t147.5 243.5t49.5 329q0 162 -34 319.5t-95.5 286.5t-159 208.5t-213.5 79.5q-128 0 -226 -93t-148 -242.5t-50 -327.5q0 -130 20.5 -258t62.5 -243.5t101 -203.5t141 -140t177 -52z" />
    <glyph glyph-name="ohungarumlaut" unicode="&#x151;" horiz-adv-x="915" 
d="M313 1278h-43l115 364h131zM522 1278h-45l121 364h129zM459 -33q-111 0 -199.5 74.5t-137 204t-48.5 289.5q0 161 44 290.5t133 208t208 78.5q167 0 275 -162t108 -405q0 -160 -44 -290t-132.5 -209t-206.5 -79zM485 39q79 0 134.5 62.5t79.5 154.5t24 201
q0 146 -31 275.5t-99 218.5t-161 89q-80 0 -136 -62.5t-79.5 -154.5t-23.5 -202q0 -107 18.5 -209t53 -186.5t92 -135.5t128.5 -51z" />
    <glyph glyph-name="OE" unicode="&#x152;" horiz-adv-x="1830" 
d="M1737 428l51 -14l-105 -375l-12 -39h-700q-50 0 -137.5 -10t-165.5 -10q-184 0 -319.5 112t-203 300t-67.5 427t67.5 427.5t203 300.5t319.5 112q78 0 165.5 -10.5t137.5 -10.5h696l4 -43l33 -317l-51 -6q-8 69 -15.5 114.5t-19.5 80t-25.5 53t-37.5 30t-49 14.5t-66 3
h-336q-47 0 -72.5 -26t-25.5 -75v-577h309q52 0 77 5.5t44.5 30.5t24.5 69.5t5 127.5h43v-532h-43q0 68 -4.5 108.5t-12.5 67.5t-27.5 39t-42 16t-64.5 4h-309v-637q0 -72 18 -94t78 -22h346q50 0 82 7.5t61 27t51.5 61.5t45 102t49.5 158zM649 49q98 0 164 36.5t66 102.5
v1274q0 67 -54.5 99t-173.5 32q-138 0 -238 -105t-148 -277.5t-48 -391.5q0 -221 49 -393.5t148 -274.5t235 -102z" />
    <glyph glyph-name="oe" unicode="&#x153;" horiz-adv-x="1546" 
d="M1425 432h43q-24 -235 -112 -350t-219 -115q-122 0 -205 98t-113 267q-38 -166 -131.5 -265.5t-228.5 -99.5q-111 0 -199.5 74.5t-137 204t-48.5 289.5q0 161 44 290.5t133 208t208 78.5q132 0 229 -104t133 -275q35 172 119.5 275.5t206.5 103.5q145 0 226 -139.5
t81 -372.5h-532v-39q0 -136 29 -245.5t87.5 -176.5t137.5 -67q80 0 147.5 83t101.5 277zM1147 1042q-94 0 -150 -104.5t-71 -267.5h409q0 73 -10.5 137t-32 118t-59 85.5t-86.5 31.5zM485 39q79 0 134.5 62.5t79.5 154.5t24 201q0 146 -31 275.5t-99 218.5t-161 89
q-80 0 -136 -62.5t-79.5 -154.5t-23.5 -202q0 -107 18.5 -209t53 -186.5t92 -135.5t128.5 -51z" />
    <glyph glyph-name="Racute" unicode="&#x154;" horiz-adv-x="1220" 
d="M674 2152h145l-254 -364h-47zM766 637l217 -416q26 -47 38.5 -67.5t34.5 -47t44 -36.5t56 -17.5t81 -7.5v-45h-53q-57 0 -94.5 2.5t-70 12.5t-52 21.5t-41 38t-37 53t-39.5 75.5l-295 577h-37q-60 0 -139 11v-594q0 -52 5.5 -78t28 -45.5t63.5 -25t116 -5.5v-43h-551v43
q75 0 116 5.5t63.5 25t28 45.5t5.5 78v1245q0 52 -5.5 77.5t-28 45t-63.5 25t-116 5.5v43h541q237 0 357 -107t120 -302q0 -188 -108.5 -297.5t-295.5 -140.5q28 -17 53 -51.5t58 -102.5zM379 1491v-629q63 -14 147 -14q187 0 293.5 90.5t106.5 275.5q0 171 -94.5 263
t-268.5 92q-75 0 -145 -21q-39 -14 -39 -57z" />
    <glyph glyph-name="racute" unicode="&#x155;" horiz-adv-x="681" 
d="M514 1642h145l-253 -364h-48zM557 1112q44 0 69 -22t25 -58q0 -42 -22.5 -67t-50.5 -25q-32 0 -62 33q-16 16 -26.5 22t-26.5 6q-36 0 -77 -50t-81 -150v-600q0 -53 6 -80.5t28.5 -46t60.5 -24t108 -5.5v-45h-447v43q86 0 110 28.5t24 125.5v682v44t-2 32.5t-4.5 26
t-8.5 15t-14 8.5t-21.5 -1t-29.5 -6.5t-39 -14.5l-17 39l222 90l24 -22v-183h6q45 91 109.5 148t136.5 57z" />
    <glyph glyph-name="uni0156" unicode="&#x156;" horiz-adv-x="1220" 
d="M766 637l217 -416q26 -47 38.5 -67.5t34.5 -47t44 -36.5t56 -17.5t81 -7.5v-45h-53q-57 0 -94.5 2.5t-70 12.5t-52 21.5t-41 38t-37 53t-39.5 75.5l-295 577h-37q-60 0 -139 11v-594q0 -52 5.5 -78t28 -45.5t63.5 -25t116 -5.5v-43h-551v43q75 0 116 5.5t63.5 25t28 45.5
t5.5 78v1245q0 52 -5.5 77.5t-28 45t-63.5 25t-116 5.5v43h541q237 0 357 -107t120 -302q0 -188 -108.5 -297.5t-295.5 -140.5q28 -17 53 -51.5t58 -102.5zM379 1491v-629q63 -14 147 -14q187 0 293.5 90.5t106.5 275.5q0 171 -94.5 263t-268.5 92q-75 0 -145 -21
q-39 -14 -39 -57zM731 -154q55 0 88 -34.5t33 -102.5q0 -69 -47.5 -125t-149.5 -82v45q47 12 89 46t42 73q0 33 -20 33q-7 0 -27.5 -10.5t-40.5 -10.5q-26 0 -43.5 22.5t-17.5 57.5q0 39 27 63.5t67 24.5z" />
    <glyph glyph-name="uni0157" unicode="&#x157;" horiz-adv-x="681" 
d="M557 1112q44 0 69 -22t25 -58q0 -42 -22.5 -67t-50.5 -25q-32 0 -62 33q-16 16 -26.5 22t-26.5 6q-36 0 -77 -50t-81 -150v-600q0 -53 6 -80.5t28.5 -46t60.5 -24t108 -5.5v-45h-447v43q86 0 110 28.5t24 125.5v682v44t-2 32.5t-4.5 26t-8.5 15t-14 8.5t-21.5 -1
t-29.5 -6.5t-39 -14.5l-17 39l222 90l24 -22v-183h6q45 91 109.5 148t136.5 57zM264 -154q55 0 88 -34.5t33 -102.5q0 -69 -47.5 -125t-149.5 -82v45q47 12 89 46t42 73q0 33 -20 33q-7 0 -27.5 -10.5t-40.5 -10.5q-26 0 -43.5 22.5t-17.5 57.5q0 39 27 63.5t67 24.5z" />
    <glyph glyph-name="Rcaron" unicode="&#x158;" horiz-adv-x="1220" 
d="M500 1788l-185 364h50l208 -272l209 272h49l-184 -364h-147zM766 637l217 -416q26 -47 38.5 -67.5t34.5 -47t44 -36.5t56 -17.5t81 -7.5v-45h-53q-57 0 -94.5 2.5t-70 12.5t-52 21.5t-41 38t-37 53t-39.5 75.5l-295 577h-37q-60 0 -139 11v-594q0 -52 5.5 -78t28 -45.5
t63.5 -25t116 -5.5v-43h-551v43q75 0 116 5.5t63.5 25t28 45.5t5.5 78v1245q0 52 -5.5 77.5t-28 45t-63.5 25t-116 5.5v43h541q237 0 357 -107t120 -302q0 -188 -108.5 -297.5t-295.5 -140.5q28 -17 53 -51.5t58 -102.5zM379 1491v-629q63 -14 147 -14q187 0 293.5 90.5
t106.5 275.5q0 171 -94.5 263t-268.5 92q-75 0 -145 -21q-39 -14 -39 -57z" />
    <glyph glyph-name="rcaron" unicode="&#x159;" horiz-adv-x="681" 
d="M342 1278l-184 364h49l209 -272l209 272h49l-185 -364h-147zM557 1112q44 0 69 -22t25 -58q0 -42 -22.5 -67t-50.5 -25q-32 0 -62 33q-16 16 -26.5 22t-26.5 6q-36 0 -77 -50t-81 -150v-600q0 -53 6 -80.5t28.5 -46t60.5 -24t108 -5.5v-45h-447v43q86 0 110 28.5
t24 125.5v682v44t-2 32.5t-4.5 26t-8.5 15t-14 8.5t-21.5 -1t-29.5 -6.5t-39 -14.5l-17 39l222 90l24 -22v-183h6q45 91 109.5 148t136.5 57z" />
    <glyph glyph-name="Sacute" unicode="&#x15a;" horiz-adv-x="995" 
d="M498 1788h-47l155 364h146zM528 -33q-85 0 -163.5 38.5t-139.5 103.5q-28 30 -44 27t-23 -42l-17 -96h-45l2 592h45q10 -247 117.5 -400t267.5 -153q70 0 125 27t87 71t48.5 95.5t16.5 105.5q0 51 -11.5 97t-38.5 89t-52.5 76t-71.5 73.5t-76 65t-86 66.5
q-59 45 -92.5 72t-82 70t-76.5 79t-56 82.5t-40.5 97.5t-12.5 107q0 162 102.5 261t267.5 99q79 0 140 -24.5t118 -79.5q25 -23 44 -17.5t22 37.5l8 64h43l27 -533h-43q-14 143 -56 249t-119.5 170.5t-183.5 64.5q-120 0 -188 -77t-68 -190q0 -53 17 -102.5t42 -88
t70.5 -83.5t84 -76t100.5 -78q52 -39 83 -63t76.5 -63t73 -69t59 -73t49 -83t29 -90t11.5 -104q0 -170 -107.5 -282.5t-282.5 -112.5z" />
    <glyph glyph-name="sacute" unicode="&#x15b;" horiz-adv-x="702" 
d="M344 1278h-47l156 364h145zM389 -33q-110 0 -201 72q-38 28 -53 -10l-14 -41h-41l-10 430h39q19 -186 94 -283.5t178 -97.5q75 0 115.5 52t40.5 140q0 40 -8.5 68t-41 67.5t-67 71.5t-117.5 105q-128 110 -174.5 175t-46.5 146q0 109 69 179.5t177 70.5q99 0 176 -68
q20 -17 34 -13t17 24l8 43h41l4 -344h-41q-13 127 -73 207.5t-158 80.5q-67 0 -109.5 -43.5t-42.5 -113.5q0 -35 10 -63t40 -62t56.5 -58.5t88.5 -76.5q75 -64 119 -106.5t79.5 -89.5t49.5 -91t14 -96q0 -131 -72.5 -203t-179.5 -72z" />
    <glyph glyph-name="Scedilla" unicode="&#x15e;" horiz-adv-x="995" 
d="M918 362q0 -167 -104 -279t-273 -116l-29 -65q98 -9 155.5 -52.5t57.5 -119.5q0 -79 -61.5 -134t-158.5 -76t-208 -7l12 43q69 -4 124.5 4t98 27.5t66 55.5t23.5 85q0 74 -49.5 101.5t-145.5 29.5l51 112q-142 18 -252 138q-28 30 -44 27t-23 -42l-17 -96h-45l2 592h45
q10 -247 117.5 -400t267.5 -153q70 0 125 27t87 71t48.5 95.5t16.5 105.5q0 51 -11.5 97t-38.5 89t-52.5 76t-71.5 73.5t-76 65t-86 66.5q-59 45 -92.5 72t-82 70t-76.5 79t-56 82.5t-40.5 97.5t-12.5 107q0 162 102.5 261t267.5 99q79 0 140 -24.5t118 -79.5
q25 -23 44 -17.5t22 37.5l8 64h43l27 -533h-43q-14 143 -56 249t-119.5 170.5t-183.5 64.5q-120 0 -188 -77t-68 -190q0 -53 17 -102.5t42 -88t70.5 -83.5t84 -76t100.5 -78q52 -39 83 -63t76.5 -63t73 -69t59 -73t49 -83t29 -90t11.5 -104z" />
    <glyph glyph-name="scedilla" unicode="&#x15f;" horiz-adv-x="702" 
d="M393 -33l-28 -65q98 -9 155.5 -52.5t57.5 -119.5q0 -79 -61.5 -134t-158.5 -76t-208 -7l12 43q142 -8 226.5 33.5t84.5 138.5q0 74 -49 101.5t-145 29.5l53 114q-81 16 -144 66q-38 28 -53 -10l-14 -41h-41l-10 430h39q19 -186 94 -283.5t178 -97.5q75 0 115.5 52
t40.5 140q0 40 -8.5 68t-41 67.5t-67 71.5t-117.5 105q-128 110 -174.5 175t-46.5 146q0 109 69 179.5t177 70.5q99 0 176 -68q20 -17 34 -13t17 24l8 43h41l4 -344h-41q-13 127 -73 207.5t-158 80.5q-67 0 -109.5 -43.5t-42.5 -113.5q0 -35 10 -63t40 -62t56.5 -58.5
t88.5 -76.5q75 -64 119 -106.5t79.5 -89.5t49.5 -91t14 -96q0 -129 -71 -201t-177 -74z" />
    <glyph glyph-name="Scaron" unicode="&#x160;" horiz-adv-x="995" 
d="M432 1788l-184 364h49l209 -272l209 272h49l-184 -364h-148zM537 907q52 -39 83 -63t76.5 -63t73 -69t59 -73t49 -83t29 -90t11.5 -104q0 -170 -107.5 -282.5t-282.5 -112.5q-85 0 -163.5 38.5t-139.5 103.5q-28 30 -44 27t-23 -42l-17 -96h-45l2 592h45
q10 -247 117.5 -400t267.5 -153q70 0 125 27t87 71t48.5 95.5t16.5 105.5q0 51 -11.5 97t-38.5 89t-52.5 76t-71.5 73.5t-76 65t-86 66.5q-59 45 -92.5 72t-82 70t-76.5 79t-56 82.5t-40.5 97.5t-12.5 107q0 162 102.5 261t267.5 99q79 0 140 -24.5t118 -79.5
q25 -23 44 -17.5t22 37.5l8 64h43l27 -533h-43q-14 143 -56 249t-119.5 170.5t-183.5 64.5q-120 0 -188 -77t-68 -190q0 -53 17 -102.5t42 -88t70.5 -83.5t84 -76t100.5 -78z" />
    <glyph glyph-name="scaron" unicode="&#x161;" horiz-adv-x="702" 
d="M281 1278l-185 364h49l209 -272l209 272h49l-184 -364h-147zM379 625q75 -64 119 -106.5t79.5 -89.5t49.5 -91t14 -96q0 -131 -72.5 -203t-179.5 -72q-110 0 -201 72q-38 28 -53 -10l-14 -41h-41l-10 430h39q19 -186 94 -283.5t178 -97.5q75 0 115.5 52t40.5 140
q0 40 -8.5 68t-41 67.5t-67 71.5t-117.5 105q-128 110 -174.5 175t-46.5 146q0 109 69 179.5t177 70.5q99 0 176 -68q20 -17 34 -13t17 24l8 43h41l4 -344h-41q-13 127 -73 207.5t-158 80.5q-67 0 -109.5 -43.5t-42.5 -113.5q0 -35 10 -63t40 -62t56.5 -58.5t88.5 -76.5z
" />
    <glyph glyph-name="uni0162" unicode="&#x162;" horiz-adv-x="1191" 
d="M1114 1638l4 -41l31 -348l-51 -4q-8 90 -18.5 145.5t-24.5 93t-39 54.5t-53.5 23t-77.5 6h-162q-64 0 -64 -64v-1306q0 -52 5 -77.5t27.5 -45.5t63.5 -25.5t117 -5.5v-43h-208l-41 -98q98 -9 155.5 -52.5t57.5 -119.5q0 -79 -61.5 -134t-158.5 -76t-208 -7l12 43
q142 -8 226.5 33.5t84.5 138.5q0 74 -49 101.5t-145 29.5l65 141h-283v43q76 0 117 5.5t63.5 25.5t27.5 45.5t5 77.5v1306q0 64 -63 64h-164q-49 0 -77.5 -6t-53 -23t-38 -54.5t-24 -92.5t-18.5 -146l-51 4l31 348l4 41h1036z" />
    <glyph glyph-name="uni0163" unicode="&#x163;" horiz-adv-x="643" 
d="M395 -33l-28 -65q98 -9 155.5 -52.5t57.5 -119.5q0 -79 -61.5 -134t-158.5 -76t-208 -7l12 43q142 -8 226.5 33.5t84.5 138.5q0 74 -49 101.5t-145 29.5l53 112q-83 15 -121.5 99.5t-38.5 261.5v676h-147v59q196 3 209 299h51v-289h250v-69h-248v-605q0 -56 1.5 -94.5
t5.5 -81t12.5 -69.5t21.5 -50.5t33.5 -34t48.5 -10.5q147 0 147 373h47q0 -232 -47 -347.5t-164 -121.5z" />
    <glyph glyph-name="Tcaron" unicode="&#x164;" horiz-adv-x="1191" 
d="M520 1788l-184 364h49l209 -272l209 272h49l-184 -364h-148zM1114 1638l4 -41l31 -348l-51 -4q-8 90 -18.5 145.5t-24.5 93t-39 54.5t-53.5 23t-77.5 6h-162q-64 0 -64 -64v-1306q0 -52 5 -77.5t27.5 -45.5t63.5 -25.5t117 -5.5v-43h-553v43q76 0 117 5.5t63.5 25.5
t27.5 45.5t5 77.5v1306q0 64 -63 64h-164q-49 0 -77.5 -6t-53 -23t-38 -54.5t-24 -92.5t-18.5 -146l-51 4l31 348l4 41h1036z" />
    <glyph glyph-name="tcaron" unicode="&#x165;" horiz-adv-x="643" 
d="M473 1227h-49l2 379h125zM559 436h47q0 -238 -49.5 -353.5t-175.5 -115.5q-107 0 -157 83t-50 282v676h-147v59q196 3 209 299h51v-289h250v-69h-248v-605q0 -56 1.5 -94.5t5.5 -81t12.5 -69.5t21.5 -50.5t33.5 -34t48.5 -10.5q147 0 147 373z" />
    <glyph glyph-name="Tbar" unicode="&#x166;" horiz-adv-x="1191" 
d="M1114 1638l4 -41l31 -348l-51 -4q-8 90 -18.5 145.5t-24.5 93t-39 54.5t-53.5 23t-77.5 6h-162q-64 0 -64 -64v-665h316v-62h-316v-579q0 -52 5 -77.5t27.5 -45.5t63.5 -25.5t117 -5.5v-43h-553v43q76 0 117 5.5t63.5 25.5t27.5 45.5t5 77.5v579h-315v62h315v665
q0 64 -63 64h-164q-49 0 -77.5 -6t-53 -23t-38 -54.5t-24 -92.5t-18.5 -146l-51 4l31 348l4 41h1036z" />
    <glyph glyph-name="tbar" unicode="&#x167;" horiz-adv-x="643" 
d="M559 436h47q0 -238 -49.5 -353.5t-175.5 -115.5q-107 0 -157 83t-50 282v370h-154v66h154v240h-147v59q196 3 209 299h51v-289h250v-69h-248v-240h248v-66h-248v-299q0 -56 1.5 -94.5t5.5 -81t12.5 -69.5t21.5 -50.5t33.5 -34t48.5 -10.5q147 0 147 373z" />
    <glyph glyph-name="Umacron" unicode="&#x16a;" horiz-adv-x="1427" 
d="M479 1903v79h506v-79h-506zM731 -33q-115 0 -204.5 30.5t-145.5 81t-92 122.5t-50 147t-14 162v932q0 52 -5.5 77.5t-28 45t-63.5 25t-116 5.5v43h553v-43q-61 0 -98.5 -4.5t-62 -13t-35.5 -28.5t-15 -43t-4 -64v-932q0 -238 101 -351.5t299 -113.5q180 0 280 117
t100 350v930q0 42 -3.5 64.5t-14.5 42.5t-35.5 28.5t-61.5 13t-97 4.5v43h499v-43q-61 0 -98.5 -4.5t-62 -13t-35.5 -28.5t-15 -43t-4 -64v-930q0 -84 -13 -158.5t-46.5 -147t-85 -124t-135.5 -83.5t-191 -32z" />
    <glyph glyph-name="umacron" unicode="&#x16b;" horiz-adv-x="948" 
d="M209 1393v80h506v-80h-506zM692 -31l-26 23l-4 164l-7 2q-52 -82 -129.5 -136.5t-165.5 -54.5q-96 0 -145 74t-49 201v622v43t-2 32.5t-4.5 26t-9 15.5t-14.5 9t-22 -0.5t-30.5 -5.5t-40.5 -13l-14 41l229 80l23 -23v-813q0 -188 125 -188q64 0 132 44.5t124 114.5v637
v43t-2 32.5t-4.5 26t-9 15.5t-14.5 9t-22 -0.5t-30.5 -5.5t-40.5 -13l-15 41l230 80l22 -23v-866q0 -92 9 -110q13 -25 66 -8q19 7 48 19l16 -41l-161 -67z" />
    <glyph glyph-name="Uring" unicode="&#x16e;" horiz-adv-x="1427" 
d="M733 1806q-86 0 -143.5 55.5t-57.5 137.5q0 83 57.5 137.5t143.5 54.5q85 0 141 -54.5t56 -137.5q0 -82 -56.5 -137.5t-140.5 -55.5zM733 1868q56 0 93.5 37t37.5 94q0 55 -38 93t-93 38q-57 0 -95 -37.5t-38 -93.5q0 -57 38 -94t95 -37zM731 -33q-115 0 -204.5 30.5
t-145.5 81t-92 122.5t-50 147t-14 162v932q0 52 -5.5 77.5t-28 45t-63.5 25t-116 5.5v43h553v-43q-61 0 -98.5 -4.5t-62 -13t-35.5 -28.5t-15 -43t-4 -64v-932q0 -238 101 -351.5t299 -113.5q180 0 280 117t100 350v930q0 42 -3.5 64.5t-14.5 42.5t-35.5 28.5t-61.5 13
t-97 4.5v43h499v-43q-61 0 -98.5 -4.5t-62 -13t-35.5 -28.5t-15 -43t-4 -64v-930q0 -84 -13 -158.5t-46.5 -147t-85 -124t-135.5 -83.5t-191 -32z" />
    <glyph glyph-name="uring" unicode="&#x16f;" horiz-adv-x="948" 
d="M463 1296q-86 0 -143.5 55.5t-57.5 137.5q0 83 57.5 137.5t143.5 54.5q85 0 140.5 -54.5t55.5 -137.5q0 -82 -56 -137.5t-140 -55.5zM463 1358q56 0 93.5 37t37.5 94q0 55 -38 93t-93 38q-57 0 -95 -37.5t-38 -93.5q0 -57 38 -94t95 -37zM692 -31l-26 23l-4 164l-7 2
q-52 -82 -129.5 -136.5t-165.5 -54.5q-96 0 -145 74t-49 201v622v43t-2 32.5t-4.5 26t-9 15.5t-14.5 9t-22 -0.5t-30.5 -5.5t-40.5 -13l-14 41l229 80l23 -23v-813q0 -188 125 -188q64 0 132 44.5t124 114.5v637v43t-2 32.5t-4.5 26t-9 15.5t-14.5 9t-22 -0.5t-30.5 -5.5
t-40.5 -13l-15 41l230 80l22 -23v-866q0 -92 9 -110q13 -25 66 -8q19 7 48 19l16 -41l-161 -67z" />
    <glyph glyph-name="Uhungarumlaut" unicode="&#x170;" horiz-adv-x="1427" 
d="M590 1788h-43l115 364h131zM799 1788h-45l120 364h130zM731 -33q-115 0 -204.5 30.5t-145.5 81t-92 122.5t-50 147t-14 162v932q0 52 -5.5 77.5t-28 45t-63.5 25t-116 5.5v43h553v-43q-61 0 -98.5 -4.5t-62 -13t-35.5 -28.5t-15 -43t-4 -64v-932q0 -238 101 -351.5
t299 -113.5q180 0 280 117t100 350v930q0 42 -3.5 64.5t-14.5 42.5t-35.5 28.5t-61.5 13t-97 4.5v43h499v-43q-61 0 -98.5 -4.5t-62 -13t-35.5 -28.5t-15 -43t-4 -64v-930q0 -84 -13 -158.5t-46.5 -147t-85 -124t-135.5 -83.5t-191 -32z" />
    <glyph glyph-name="uhungarumlaut" unicode="&#x171;" horiz-adv-x="948" 
d="M322 1278h-43l114 364h131zM530 1278h-45l121 364h129zM692 -31l-26 23l-4 164l-7 2q-52 -82 -129.5 -136.5t-165.5 -54.5q-96 0 -145 74t-49 201v622v43t-2 32.5t-4.5 26t-9 15.5t-14.5 9t-22 -0.5t-30.5 -5.5t-40.5 -13l-14 41l229 80l23 -23v-813q0 -188 125 -188
q64 0 132 44.5t124 114.5v637v43t-2 32.5t-4.5 26t-9 15.5t-14.5 9t-22 -0.5t-30.5 -5.5t-40.5 -13l-15 41l230 80l22 -23v-866q0 -92 9 -110q13 -25 66 -8q19 7 48 19l16 -41l-161 -67z" />
    <glyph glyph-name="Uogonek" unicode="&#x172;" horiz-adv-x="1427" 
d="M1417 1638v-43q-61 0 -98.5 -4.5t-62 -13t-35.5 -28.5t-15 -43t-4 -64v-930q0 -92 -16.5 -172.5t-53.5 -155t-106 -128t-164 -74.5q-19 -20 -61.5 -57t-66.5 -60.5t-45 -61.5t-21 -77q0 -59 31 -95.5t89 -36.5q66 0 162 48l13 -43q-102 -76 -213 -76q-81 0 -134 50.5
t-53 137.5q0 19 4.5 38t10 34.5t17.5 32t20.5 27.5t26.5 26.5t27.5 23t30.5 21.5t29.5 19.5t31 19l27.5 16.5q-18 -2 -57 -2q-115 0 -204.5 30.5t-145.5 81t-92 122.5t-50 147t-14 162v932q0 52 -5.5 77.5t-28 45t-63.5 25t-116 5.5v43h553v-43q-61 0 -98.5 -4.5t-62 -13
t-35.5 -28.5t-15 -43t-4 -64v-932q0 -238 101 -351.5t299 -113.5q180 0 280 117t100 350v930q0 42 -3.5 64.5t-14.5 42.5t-35.5 28.5t-61.5 13t-97 4.5v43h499z" />
    <glyph glyph-name="uogonek" unicode="&#x173;" horiz-adv-x="948" 
d="M627 -414q67 0 161 47l13 -43q-101 -75 -213 -75q-81 0 -134 50.5t-53 137.5q0 45 19.5 84t53 68.5t66 51.5t72 45.5t56.5 37.5l-2 2l-4 164l-7 2q-52 -82 -129.5 -136.5t-165.5 -54.5q-96 0 -145 74t-49 201v622v43t-2 32.5t-4.5 26t-9 15.5t-14.5 9t-22 -0.5
t-30.5 -5.5t-40.5 -13l-14 41l229 80l23 -23v-813q0 -188 125 -188q64 0 132 44.5t124 114.5v637v43t-2 32.5t-4.5 26t-9 15.5t-14.5 9t-22 -0.5t-30.5 -5.5t-40.5 -13l-15 41l230 80l22 -23v-866q0 -92 9 -110q13 -25 66 -8q19 7 48 19l16 -41l-161 -67l-52 -23
q-19 -19 -62.5 -56.5t-67.5 -61t-45 -61.5t-21 -77q0 -59 31.5 -95t89.5 -36z" />
    <glyph glyph-name="Wcircumflex" unicode="&#x174;" horiz-adv-x="1865" 
d="M1165 1806l-209 273l-208 -273h-50l183 365h149l182 -365h-47zM1837 1638v-43q-90 0 -124.5 -27t-57.5 -120l-389 -1481h-64l-254 1131l-280 -1131h-64l-393 1481q-23 93 -57.5 120t-124.5 27v43h475v-43q-135 0 -161 -28t3 -119l316 -1235h8l245 1024l-47 211
q-20 92 -52 119.5t-116 27.5v43h474v-43q-50 0 -82 -2t-54 -10t-32.5 -16t-12.5 -28t0.5 -38.5t10.5 -54.5l260 -1233h6l313 1235q29 91 3 119t-165 28v43h416z" />
    <glyph glyph-name="wcircumflex" unicode="&#x175;" horiz-adv-x="1325" 
d="M885 1278l-209 272l-209 -272h-49l182 364h150l182 -364h-47zM1321 1077v-43q-66 0 -96 -27.5t-54 -117.5l-253 -907h-66l-178 718l-189 -718h-71l-254 907q-26 91 -56 118t-100 27v43h342v-43q-16 0 -27.5 -0.5t-21 -3t-16.5 -4t-11 -8t-6.5 -10.5t-2 -15.5t1 -18
t4.5 -23.5t7 -27.5t9 -34.5l188 -688h6l166 628l-14 58q-23 91 -49.5 119t-85.5 28v43h342v-43q-83 0 -97 -27.5t11 -119.5l157 -686h6l189 688q29 92 13 118.5t-116 26.5v43h322z" />
    <glyph glyph-name="Ycircumflex" unicode="&#x176;" horiz-adv-x="1286" 
d="M889 1788l-209 272l-209 -272h-49l182 364h150l182 -364h-47zM1272 1638v-43q-90 0 -132 -25.5t-79 -109.5l-336 -737v-526q0 -41 4 -64.5t15 -43.5t35.5 -28.5t62 -13t98.5 -4.5v-43h-553v43q75 0 116 5.5t63.5 25t28 45.5t5.5 78v524l-369 741q-41 83 -84 108t-133 25
v43h510v-43q-155 0 -177.5 -23.5t24.5 -104.5q1 -3 2 -5l315 -643h6l289 641q33 73 32 93q-1 28 -52 37q-35 5 -113 5v43h422z" />
    <glyph glyph-name="ycircumflex" unicode="&#x177;" horiz-adv-x="899" 
d="M672 1278l-209 272l-209 -272h-49l182 364h150l182 -364h-47zM893 1077v-43q-63 0 -91 -27t-54 -118l-240 -860q-22 -80 -39 -133t-40.5 -117.5t-47.5 -105t-54.5 -77.5t-68 -55t-80.5 -18q-66 0 -109.5 33.5t-43.5 85.5q0 32 19 51.5t50 19.5q45 0 80 -57
q13 -26 27.5 -35.5t38.5 -9.5q86 0 166 285q18 61 14 147l-256 846q-27 91 -58.5 118t-101.5 27v43h389v-43q-27 0 -46 -1t-33.5 -4.5t-23 -7.5t-13.5 -13.5t-6 -18t2 -26t6.5 -32.5t11.5 -42l194 -688h9l184 688q29 92 13 118.5t-116 26.5v43h318z" />
    <glyph glyph-name="Ydieresis" unicode="&#x178;" horiz-adv-x="1286" 
d="M506 1845q-40 0 -68 28.5t-28 68.5q0 38 28 66t68 28q38 0 66 -28t28 -66q0 -40 -28 -68.5t-66 -28.5zM854 1845q-40 0 -68 28.5t-28 68.5q0 38 28 66t68 28q38 0 66 -28t28 -66q0 -40 -28 -68.5t-66 -28.5zM725 723v-526q0 -41 4 -64.5t15 -43.5t35.5 -28.5t62 -13
t98.5 -4.5v-43h-553v43q75 0 116 5.5t63.5 25t28 45.5t5.5 78v524l-369 741q-41 83 -84 108t-133 25v43h510v-43q-155 0 -177.5 -23.5t24.5 -104.5q1 -3 2 -5l315 -643h6l289 641q33 73 32 93q-1 28 -52 37q-35 5 -113 5v43h422v-43q-90 0 -132 -25.5t-79 -109.5z" />
    <glyph glyph-name="Zacute" unicode="&#x179;" horiz-adv-x="1054" 
d="M549 1788h-47l155 364h146zM129 1638h856l-774 -1566h496q49 0 78 7t55 26t42.5 61t30.5 103.5t29 162.5l51 -8l-57 -387l-6 -37h-875v43l756 1524h-449q-41 0 -66 -3.5t-48.5 -15.5t-35.5 -32t-22 -58t-14.5 -88.5t-7.5 -126.5l-53 2l14 352v41z" />
    <glyph glyph-name="zacute" unicode="&#x17a;" horiz-adv-x="761" 
d="M381 1278h-47l155 364h146zM199 70h262q57 0 86 7.5t49.5 37t26.5 80t6 143.5h47v-338h-621l6 43l496 965h-258q-57 0 -86.5 -6.5t-50 -32t-26 -68t-5.5 -121.5h-49v297h612v-43z" />
    <glyph glyph-name="Zdotaccent" unicode="&#x17b;" horiz-adv-x="1054" 
d="M557 1845q-38 0 -66 28.5t-28 68.5q0 38 28 66t66 28q40 0 68 -28t28 -66q0 -40 -28 -68.5t-68 -28.5zM129 1638h856l-774 -1566h496q49 0 78 7t55 26t42.5 61t30.5 103.5t29 162.5l51 -8l-57 -387l-6 -37h-875v43l756 1524h-449q-41 0 -66 -3.5t-48.5 -15.5t-35.5 -32
t-22 -58t-14.5 -88.5t-7.5 -126.5l-53 2l14 352v41z" />
    <glyph glyph-name="zdotaccent" unicode="&#x17c;" horiz-adv-x="761" 
d="M389 1335q-38 0 -66 28.5t-28 68.5q0 38 28 66t66 28q40 0 68 -28t28 -66q0 -40 -28 -68.5t-68 -28.5zM199 70h262q57 0 86 7.5t49.5 37t26.5 80t6 143.5h47v-338h-621l6 43l496 965h-258q-57 0 -86.5 -6.5t-50 -32t-26 -68t-5.5 -121.5h-49v297h612v-43z" />
    <glyph glyph-name="Zcaron" unicode="&#x17d;" horiz-adv-x="1054" 
d="M483 1788l-184 364h49l209 -272l209 272h49l-184 -364h-148zM942 432l51 -8l-57 -387l-6 -37h-875v43l756 1524h-449q-41 0 -66 -3.5t-48.5 -15.5t-35.5 -32t-22 -58t-14.5 -88.5t-7.5 -126.5l-53 2l14 352v41h856l-774 -1566h496q49 0 78 7t55 26t42.5 61t30.5 103.5
t29 162.5z" />
    <glyph glyph-name="zcaron" unicode="&#x17e;" horiz-adv-x="761" 
d="M315 1278l-184 364h49l209 -272l209 272h49l-184 -364h-148zM82 1077h612v-43l-495 -964h262q57 0 86 7.5t49.5 37t26.5 80t6 143.5h47v-338h-621l6 43l496 965h-258q-57 0 -86.5 -6.5t-50 -32t-26 -68t-5.5 -121.5h-49v297z" />
    <glyph glyph-name="uni0218" unicode="&#x218;" horiz-adv-x="995" 
d="M528 -33q-85 0 -163.5 38.5t-139.5 103.5q-28 30 -44 27t-23 -42l-17 -96h-45l2 592h45q10 -247 117.5 -400t267.5 -153q70 0 125 27t87 71t48.5 95.5t16.5 105.5q0 51 -11.5 97t-38.5 89t-52.5 76t-71.5 73.5t-76 65t-86 66.5q-59 45 -92.5 72t-82 70t-76.5 79t-56 82.5
t-40.5 97.5t-12.5 107q0 162 102.5 261t267.5 99q79 0 140 -24.5t118 -79.5q25 -23 44 -17.5t22 37.5l8 64h43l27 -533h-43q-14 143 -56 249t-119.5 170.5t-183.5 64.5q-120 0 -188 -77t-68 -190q0 -53 17 -102.5t42 -88t70.5 -83.5t84 -76t100.5 -78q52 -39 83 -63
t76.5 -63t73 -69t59 -73t49 -83t29 -90t11.5 -104q0 -170 -107.5 -282.5t-282.5 -112.5zM459 -322q-27 0 -44.5 22.5t-17.5 57.5q0 39 27 63.5t68 24.5q55 0 87.5 -34.5t32.5 -102.5q0 -69 -47 -125t-149 -82v45q47 12 89 46t42 73q0 33 -21 33q-7 0 -27 -10.5t-40 -10.5z
" />
    <glyph glyph-name="uni0219" unicode="&#x219;" horiz-adv-x="702" 
d="M389 -33q-110 0 -201 72q-38 28 -53 -10l-14 -41h-41l-10 430h39q19 -186 94 -283.5t178 -97.5q75 0 115.5 52t40.5 140q0 40 -8.5 68t-41 67.5t-67 71.5t-117.5 105q-128 110 -174.5 175t-46.5 146q0 109 69 179.5t177 70.5q99 0 176 -68q20 -17 34 -13t17 24l8 43h41
l4 -344h-41q-13 127 -73 207.5t-158 80.5q-67 0 -109.5 -43.5t-42.5 -113.5q0 -35 10 -63t40 -62t56.5 -58.5t88.5 -76.5q75 -64 119 -106.5t79.5 -89.5t49.5 -91t14 -96q0 -131 -72.5 -203t-179.5 -72zM311 -322q-26 0 -43.5 22.5t-17.5 57.5q0 39 27 63.5t67 24.5
q55 0 88 -34.5t33 -102.5q0 -69 -47.5 -125t-149.5 -82v45q47 12 89 46t42 73q0 33 -20 33q-7 0 -27.5 -10.5t-40.5 -10.5z" />
    <glyph glyph-name="uni021A" unicode="&#x21a;" horiz-adv-x="1191" 
d="M469 1567h-164q-49 0 -77.5 -6t-53 -23t-38 -54.5t-24 -92.5t-18.5 -146l-51 4l31 348l4 41h1036l4 -41l31 -348l-51 -4q-8 90 -18.5 145.5t-24.5 93t-39 54.5t-53.5 23t-77.5 6h-162q-64 0 -64 -64v-1306q0 -52 5 -77.5t27.5 -45.5t63.5 -25.5t117 -5.5v-43h-553v43
q76 0 117 5.5t63.5 25.5t27.5 45.5t5 77.5v1306q0 64 -63 64zM571 -322q-26 0 -43.5 22.5t-17.5 57.5q0 39 27 63.5t67 24.5q55 0 88 -34.5t33 -102.5q0 -69 -47.5 -125t-149.5 -82v45q47 12 89 46t42 73q0 33 -20 33q-7 0 -27.5 -10.5t-40.5 -10.5z" />
    <glyph glyph-name="uni021B" unicode="&#x21b;" horiz-adv-x="643" 
d="M559 436h47q0 -238 -49.5 -353.5t-175.5 -115.5q-107 0 -157 83t-50 282v676h-147v59q196 3 209 299h51v-289h250v-69h-248v-605q0 -56 1.5 -94.5t5.5 -81t12.5 -69.5t21.5 -50.5t33.5 -34t48.5 -10.5q147 0 147 373zM322 -322q-28 0 -45 22.5t-17 57.5q0 39 27 63.5
t67 24.5q55 0 88 -34.5t33 -102.5q0 -69 -47 -125t-149 -82v45q47 12 89 46t42 73q0 33 -21 33q-7 0 -27 -10.5t-40 -10.5z" />
    <glyph glyph-name="circumflex" unicode="&#x2c6;" horiz-adv-x="679" 
d="M414 1642l184 -364h-49l-209 272l-209 -272h-49l184 364h148z" />
    <glyph glyph-name="caron" unicode="&#x2c7;" horiz-adv-x="679" 
d="M340 1370l209 272h49l-184 -364h-148l-184 364h49z" />
    <glyph glyph-name="breve" unicode="&#x2d8;" horiz-adv-x="706" 
d="M561 1591h43q-3 -110 -69 -175.5t-181 -65.5q-117 0 -183 65t-69 176h43q5 -68 59 -106.5t150 -38.5t149 38.5t58 106.5z" />
    <glyph glyph-name="dotaccent" unicode="&#x2d9;" horiz-adv-x="395" 
d="M197 1335q-38 0 -66.5 28.5t-28.5 68.5q0 38 28.5 66t66.5 28q40 0 68 -28t28 -66q0 -40 -28 -68.5t-68 -28.5z" />
    <glyph glyph-name="ring" unicode="&#x2da;" horiz-adv-x="602" 
d="M303 1296q-86 0 -143.5 55.5t-57.5 137.5q0 83 57.5 137.5t143.5 54.5q85 0 141 -54.5t56 -137.5q0 -82 -56.5 -137.5t-140.5 -55.5zM303 1358q56 0 93.5 37t37.5 94q0 55 -38 93t-93 38q-57 0 -95 -37.5t-38 -93.5q0 -57 38 -94t95 -37z" />
    <glyph glyph-name="ogonek" unicode="&#x2db;" horiz-adv-x="630" 
d="M418 -20h47q-22 -26 -65 -63.5t-72.5 -64t-53.5 -67t-24 -82.5q0 -59 31.5 -95t89.5 -36q67 0 161 47l13 -43q-102 -76 -213 -76q-81 0 -134 51t-53 138q0 46 20 86t55 70t68.5 52t73 45.5t56.5 37.5z" />
    <glyph glyph-name="tilde" unicode="&#x2dc;" horiz-adv-x="788" 
d="M539 1298q-43 0 -85.5 21t-71.5 47t-66.5 47t-71.5 21q-48 0 -70 -36t-29 -106h-43q10 234 148 234q43 0 85.5 -21t71.5 -46.5t67 -46.5t73 -21q48 0 69.5 35.5t26.5 105.5h43q-10 -234 -147 -234z" />
    <glyph glyph-name="hungarumlaut" unicode="&#x2dd;" horiz-adv-x="661" 
d="M145 1278h-43l115 364h131zM354 1278h-45l121 364h129z" />
    <glyph glyph-name="gravecomb" unicode="&#x300;" horiz-adv-x="0" 
d="M-262 1642l156 -364h-50l-252 364h146z" />
    <glyph glyph-name="acutecomb" unicode="&#x301;" horiz-adv-x="0" 
d="M-315 1278h-47l155 364h146z" />
    <glyph glyph-name="uni0302" unicode="&#x302;" horiz-adv-x="0" 
d="M-283 1642l183 -364h-47l-209 272l-209 -272h-49l182 364h149z" />
    <glyph glyph-name="tildecomb" unicode="&#x303;" horiz-adv-x="0" 
d="M-250 1298q-43 0 -85.5 21t-71.5 47t-66.5 47t-71.5 21q-48 0 -69.5 -36t-28.5 -106h-43q10 234 147 234q43 0 85.5 -21t71.5 -46.5t67 -46.5t73 -21q48 0 70 36t27 105h43q-10 -234 -148 -234z" />
    <glyph glyph-name="uni0304" unicode="&#x304;" horiz-adv-x="0" 
d="M-606 1393v80h506v-80h-506z" />
    <glyph glyph-name="uni0306" unicode="&#x306;" horiz-adv-x="0" 
d="M-145 1591h43q-3 -110 -69 -175.5t-181 -65.5q-117 0 -183 65t-69 176h43q5 -68 59 -106.5t150 -38.5t149 38.5t58 106.5z" />
    <glyph glyph-name="uni0307" unicode="&#x307;" horiz-adv-x="0" 
d="M-199 1335q-38 0 -66 28.5t-28 68.5q0 38 28 66t66 28q40 0 68.5 -28t28.5 -66q0 -40 -28.5 -68.5t-68.5 -28.5z" />
    <glyph glyph-name="uni0308" unicode="&#x308;" horiz-adv-x="0" 
d="M-547 1335q-40 0 -68 28.5t-28 68.5q0 38 28 66t68 28q38 0 66 -28t28 -66q0 -40 -28 -68.5t-66 -28.5zM-199 1335q-40 0 -68 28.5t-28 68.5q0 38 28 66t68 28q38 0 66.5 -28t28.5 -66q0 -40 -28.5 -68.5t-66.5 -28.5z" />
    <glyph glyph-name="uni030A" unicode="&#x30a;" horiz-adv-x="0" 
d="M-299 1296q-86 0 -143.5 55.5t-57.5 137.5q0 83 57.5 137.5t143.5 54.5q85 0 141 -54.5t56 -137.5q0 -82 -56.5 -137.5t-140.5 -55.5zM-299 1358q56 0 93.5 37t37.5 94q0 55 -38 93t-93 38q-57 0 -95 -37.5t-38 -93.5q0 -57 38 -94t95 -37z" />
    <glyph glyph-name="uni030B" unicode="&#x30b;" horiz-adv-x="0" 
d="M-463 1278h-43l115 364h131zM-254 1278h-45l121 364h129z" />
    <glyph glyph-name="uni030C" unicode="&#x30c;" horiz-adv-x="0" 
d="M-340 1370l209 272h49l-184 -364h-148l-184 364h49z" />
    <glyph glyph-name="uni0312" unicode="&#x312;" horiz-adv-x="0" 
d="M-162 1528q28 0 46 -22.5t18 -57.5q0 -39 -27.5 -63.5t-69.5 -24.5q-53 0 -85.5 34.5t-32.5 102.5q0 69 47 125t149 82v-45q-47 -12 -89 -46t-42 -73q0 -33 21 -33q7 0 27 10.5t38 10.5z" />
    <glyph glyph-name="uni0326" unicode="&#x326;" horiz-adv-x="0" 
d="M-256 -322q-26 0 -43.5 22.5t-17.5 57.5q0 39 27 63.5t67 24.5q55 0 88 -34.5t33 -102.5q0 -69 -47.5 -125t-149.5 -82v45q47 12 89 46t42 73q0 33 -20 33q-7 0 -27.5 -10.5t-40.5 -10.5z" />
    <glyph glyph-name="uni0327" unicode="&#x327;" horiz-adv-x="0" 
d="M-410 -141l78 168h62l-54 -125q98 -9 155.5 -52.5t57.5 -119.5q0 -79 -61.5 -134t-158.5 -76t-208 -7l13 43q142 -8 226.5 33.5t84.5 138.5q0 74 -49.5 101.5t-145.5 29.5z" />
    <glyph glyph-name="uni0328" unicode="&#x328;" horiz-adv-x="0" 
d="M-213 -20h47q-22 -26 -65 -63.5t-72.5 -64t-53.5 -67t-24 -82.5q0 -59 31.5 -95t89.5 -36q68 0 162 47l12 -43q-102 -76 -213 -76q-80 0 -133 51t-53 138q0 46 20 86t54.5 70t68 52t73 45.5t56.5 37.5z" />
    <glyph glyph-name="Wgrave" unicode="&#x1e80;" horiz-adv-x="1865" 
d="M870 2171l156 -365h-49l-252 365h145zM1837 1638v-43q-90 0 -124.5 -27t-57.5 -120l-389 -1481h-64l-254 1131l-280 -1131h-64l-393 1481q-23 93 -57.5 120t-124.5 27v43h475v-43q-135 0 -161 -28t3 -119l316 -1235h8l245 1024l-47 211q-20 92 -52 119.5t-116 27.5v43
h474v-43q-50 0 -82 -2t-54 -10t-32.5 -16t-12.5 -28t0.5 -38.5t10.5 -54.5l260 -1233h6l313 1235q29 91 3 119t-165 28v43h416z" />
    <glyph glyph-name="wgrave" unicode="&#x1e81;" horiz-adv-x="1325" 
d="M592 1642l156 -364h-50l-252 364h146zM1321 1077v-43q-66 0 -96 -27.5t-54 -117.5l-253 -907h-66l-178 718l-189 -718h-71l-254 907q-26 91 -56 118t-100 27v43h342v-43q-16 0 -27.5 -0.5t-21 -3t-16.5 -4t-11 -8t-6.5 -10.5t-2 -15.5t1 -18t4.5 -23.5t7 -27.5t9 -34.5
l188 -688h6l166 628l-14 58q-23 91 -49.5 119t-85.5 28v43h342v-43q-83 0 -97 -27.5t11 -119.5l157 -686h6l189 688q29 92 13 118.5t-116 26.5v43h322z" />
    <glyph glyph-name="Wacute" unicode="&#x1e82;" horiz-adv-x="1865" 
d="M1055 2171h145l-254 -365h-47zM1837 1638v-43q-90 0 -124.5 -27t-57.5 -120l-389 -1481h-64l-254 1131l-280 -1131h-64l-393 1481q-23 93 -57.5 120t-124.5 27v43h475v-43q-135 0 -161 -28t3 -119l316 -1235h8l245 1024l-47 211q-20 92 -52 119.5t-116 27.5v43h474v-43
q-50 0 -82 -2t-54 -10t-32.5 -16t-12.5 -28t0.5 -38.5t10.5 -54.5l260 -1233h6l313 1235q29 91 3 119t-165 28v43h416z" />
    <glyph glyph-name="wacute" unicode="&#x1e83;" horiz-adv-x="1325" 
d="M776 1642h146l-254 -364h-47zM1321 1077v-43q-66 0 -96 -27.5t-54 -117.5l-253 -907h-66l-178 718l-189 -718h-71l-254 907q-26 91 -56 118t-100 27v43h342v-43q-16 0 -27.5 -0.5t-21 -3t-16.5 -4t-11 -8t-6.5 -10.5t-2 -15.5t1 -18t4.5 -23.5t7 -27.5t9 -34.5l188 -688
h6l166 628l-14 58q-23 91 -49.5 119t-85.5 28v43h342v-43q-83 0 -97 -27.5t11 -119.5l157 -686h6l189 688q29 92 13 118.5t-116 26.5v43h322z" />
    <glyph glyph-name="Wdieresis" unicode="&#x1e84;" horiz-adv-x="1865" 
d="M782 1864q-40 0 -68 28t-28 68q0 38 28 66t68 28q38 0 66.5 -28t28.5 -66q0 -40 -28.5 -68t-66.5 -28zM1130 1864q-40 0 -68 28t-28 68q0 38 28 66t68 28q38 0 66.5 -28t28.5 -66q0 -40 -28.5 -68t-66.5 -28zM1837 1638v-43q-90 0 -124.5 -27t-57.5 -120l-389 -1481h-64
l-254 1131l-280 -1131h-64l-393 1481q-23 93 -57.5 120t-124.5 27v43h475v-43q-135 0 -161 -28t3 -119l316 -1235h8l245 1024l-47 211q-20 92 -52 119.5t-116 27.5v43h474v-43q-50 0 -82 -2t-54 -10t-32.5 -16t-12.5 -28t0.5 -38.5t10.5 -54.5l260 -1233h6l313 1235
q29 91 3 119t-165 28v43h416z" />
    <glyph glyph-name="wdieresis" unicode="&#x1e85;" horiz-adv-x="1325" 
d="M502 1335q-40 0 -68 28.5t-28 68.5q0 38 28 66t68 28q38 0 66 -28t28 -66q0 -40 -28 -68.5t-66 -28.5zM850 1335q-40 0 -68 28.5t-28 68.5q0 38 28 66t68 28q38 0 66 -28t28 -66q0 -40 -28 -68.5t-66 -28.5zM1321 1077v-43q-66 0 -96 -27.5t-54 -117.5l-253 -907h-66
l-178 718l-189 -718h-71l-254 907q-26 91 -56 118t-100 27v43h342v-43q-16 0 -27.5 -0.5t-21 -3t-16.5 -4t-11 -8t-6.5 -10.5t-2 -15.5t1 -18t4.5 -23.5t7 -27.5t9 -34.5l188 -688h6l166 628l-14 58q-23 91 -49.5 119t-85.5 28v43h342v-43q-83 0 -97 -27.5t11 -119.5
l157 -686h6l189 688q29 92 13 118.5t-116 26.5v43h322z" />
    <glyph glyph-name="Ygrave" unicode="&#x1ef2;" horiz-adv-x="1286" 
d="M596 2152l156 -364h-50l-251 364h145zM725 723v-526q0 -41 4 -64.5t15 -43.5t35.5 -28.5t62 -13t98.5 -4.5v-43h-553v43q75 0 116 5.5t63.5 25t28 45.5t5.5 78v524l-369 741q-41 83 -84 108t-133 25v43h510v-43q-155 0 -177.5 -23.5t24.5 -104.5q1 -3 2 -5l315 -643h6
l289 641q33 73 32 93q-1 28 -52 37q-35 5 -113 5v43h422v-43q-90 0 -132 -25.5t-79 -109.5z" />
    <glyph glyph-name="ygrave" unicode="&#x1ef3;" horiz-adv-x="899" 
d="M377 1642l155 -364h-49l-252 364h146zM178 -477q-66 0 -109.5 33.5t-43.5 85.5q0 32 19 51.5t50 19.5q45 0 80 -57q13 -26 27.5 -35.5t38.5 -9.5q86 0 166 285q18 61 14 147l-256 846q-27 91 -58.5 118t-101.5 27v43h389v-43q-27 0 -46 -1t-33.5 -4.5t-23 -7.5
t-13.5 -13.5t-6 -18t2 -26t6.5 -32.5t11.5 -42l194 -688h9l184 688q29 92 13 118.5t-116 26.5v43h318v-43q-63 0 -91 -27t-54 -118l-240 -860q-22 -80 -39 -133t-40.5 -117.5t-47.5 -105t-54.5 -77.5t-68 -55t-80.5 -18z" />
    <glyph glyph-name="endash" unicode="&#x2013;" horiz-adv-x="1228" 
d="M1229 502h-1229v102h1229v-102z" />
    <glyph glyph-name="emdash" unicode="&#x2014;" horiz-adv-x="2457" 
d="M2458 502h-2458v102h2458v-102z" />
    <glyph glyph-name="quoteleft" unicode="&#x2018;" horiz-adv-x="434" 
d="M254 1425q34 0 57 -24t23 -62q0 -43 -30 -70.5t-77 -27.5q-55 0 -91 41t-36 109q0 72 47.5 135.5t153.5 101.5v-45q-67 -25 -103 -66t-36 -85q0 -33 20 -33q7 0 28 13t44 13z" />
    <glyph glyph-name="quoteright" unicode="&#x2019;" horiz-adv-x="434" 
d="M180 1503q-35 0 -57.5 24.5t-22.5 61.5q0 43 30 71t77 28q55 0 91 -41t36 -109q0 -72 -47.5 -136t-153.5 -102v46q67 25 103 66t36 85q0 33 -22 33q-6 0 -26.5 -13.5t-43.5 -13.5z" />
    <glyph glyph-name="quotesinglbase" unicode="&#x201a;" horiz-adv-x="434" 
d="M180 -27q-35 0 -57.5 24t-22.5 62q0 42 30 70.5t77 28.5q55 0 91 -41t36 -109q0 -72 -47.5 -135.5t-153.5 -101.5v45q66 24 102.5 65t36.5 84q0 33 -22 33q-6 0 -26.5 -12.5t-43.5 -12.5z" />
    <glyph glyph-name="quotedblleft" unicode="&#x201c;" horiz-adv-x="763" 
d="M254 1425q34 0 57 -24t23 -62q0 -43 -30 -70.5t-77 -27.5q-55 0 -91 41t-36 109q0 72 47.5 135.5t153.5 101.5v-45q-67 -25 -103 -66t-36 -85q0 -33 20 -33q7 0 28 13t44 13zM584 1425q35 0 57.5 -24t22.5 -62q0 -43 -30 -70.5t-77 -27.5q-55 0 -91 41t-36 109
q0 72 47.5 135.5t153.5 101.5v-45q-67 -25 -103 -66t-36 -85q0 -33 22 -33q7 0 27 13t43 13z" />
    <glyph glyph-name="quotedblright" unicode="&#x201d;" horiz-adv-x="763" 
d="M180 1503q-35 0 -57.5 24.5t-22.5 61.5q0 43 30 71t77 28q55 0 91 -41t36 -109q0 -72 -47.5 -136t-153.5 -102v46q67 25 103 66t36 85q0 33 -22 33q-6 0 -26.5 -13.5t-43.5 -13.5zM510 1503q-34 0 -57 24.5t-23 61.5q0 43 30 71t77 28q55 0 91 -41t36 -109
q0 -73 -47 -136.5t-154 -101.5v46q68 25 103.5 65.5t35.5 85.5q0 33 -20 33q-7 0 -28 -13.5t-44 -13.5z" />
    <glyph glyph-name="quotedblbase" unicode="&#x201e;" horiz-adv-x="763" 
d="M180 -27q-35 0 -57.5 24t-22.5 62q0 42 30 70.5t77 28.5q55 0 91 -41t36 -109q0 -72 -47.5 -135.5t-153.5 -101.5v45q66 24 102.5 65t36.5 84q0 33 -22 33q-6 0 -26.5 -12.5t-43.5 -12.5zM510 -27q-34 0 -57 24t-23 62q0 42 30 70.5t77 28.5q55 0 91 -41t36 -109
q0 -73 -47 -136t-154 -101v45q67 24 103 64.5t36 84.5q0 33 -20 33q-7 0 -28 -12.5t-44 -12.5z" />
    <glyph glyph-name="dagger" unicode="&#x2020;" horiz-adv-x="903" 
d="M717 1378q38 0 61 -19t23 -56q0 -36 -23 -56t-61 -20q-27 0 -61 14.5t-82 29.5t-107 17q1 -79 19 -133.5t59 -116.5q-41 -102 -55.5 -258.5t-16.5 -472.5v-758h-43v758q0 311 -15 469t-57 262q43 65 62 118.5t20 131.5q-60 -2 -109 -17t-83.5 -29.5t-61.5 -14.5
q-38 0 -61 20t-23 56q0 37 23 56t61 19q27 0 61.5 -15.5t83.5 -31.5t109 -18q-1 62 -16.5 113t-31 91.5t-15.5 77.5q0 40 20 63t56 23q35 0 55 -23t20 -63t-30 -121.5t-31 -160.5q59 2 107 18t82 31.5t61 15.5z" />
    <glyph glyph-name="daggerdbl" unicode="&#x2021;" horiz-adv-x="903" 
d="M102 -57q0 37 23 56t61 19q27 0 61.5 -14.5t83.5 -29t109 -15.5q-1 73 -16 126t-47 124q61 200 61 414q0 215 -61 415q32 68 47 122t16 128q-60 -2 -109 -17t-83.5 -29.5t-61.5 -14.5q-38 0 -61 20t-23 56q0 37 23 56t61 19q22 0 49 -9.5t51 -21t65.5 -21.5t88.5 -11
q-2 78 -32.5 158.5t-30.5 121.5q0 40 20 63t56 23q35 0 55 -23t20 -63t-30 -121.5t-31 -158.5q58 1 106 16.5t82.5 31t61.5 15.5q38 0 61 -19t23 -56q0 -36 -23 -56t-61 -20q-27 0 -61.5 14.5t-82.5 29.5t-106 17q1 -75 15.5 -127t45.5 -123q-63 -196 -63 -415
q0 -218 63 -414q-31 -71 -45.5 -123t-15.5 -127q58 1 106 15.5t82.5 29t61.5 14.5q38 0 61 -19t23 -56q0 -36 -23 -56t-61 -20q-27 0 -61.5 15.5t-82.5 31.5t-106 18q1 -77 31 -158.5t30 -121.5t-20 -64t-55 -24q-36 0 -56 24t-20 64q0 41 30.5 121.5t32.5 158.5
q-60 -2 -109 -18t-83.5 -31.5t-61.5 -15.5q-38 0 -61 20t-23 56z" />
    <glyph glyph-name="bullet" unicode="&#x2022;" horiz-adv-x="636" 
d="M328 504q-93 0 -159.5 66t-66.5 159t66.5 159t159.5 66q94 0 160.5 -65.5t66.5 -159.5t-66.5 -159.5t-160.5 -65.5z" />
    <glyph glyph-name="ellipsis" unicode="&#x2026;" horiz-adv-x="1290" 
d="M197 -33q-38 0 -66.5 28t-28.5 66q0 40 28.5 68.5t66.5 28.5q40 0 68 -28.5t28 -68.5q0 -38 -28 -66t-68 -28zM645 -33q-38 0 -66 28t-28 66q0 40 28 68.5t66 28.5q39 0 66.5 -28.5t27.5 -68.5q0 -39 -27.5 -66.5t-66.5 -27.5zM1094 -33q-40 0 -67.5 27.5t-27.5 66.5
q0 40 27.5 68.5t67.5 28.5q38 0 66 -28.5t28 -68.5q0 -38 -28 -66t-66 -28z" />
    <glyph glyph-name="perthousand" unicode="&#x2030;" horiz-adv-x="2013" 
d="M358 850q-111 0 -183.5 120t-72.5 294q0 175 72.5 295t183.5 120q108 0 181 -120.5t73 -294.5q0 -173 -73 -293.5t-181 -120.5zM145 0l1018 1638h74l-1018 -1638h-74zM358 901q40 0 70.5 29.5t48.5 81t26.5 115t8.5 137.5q0 158 -38 260t-116 102q-55 0 -91 -52
t-50 -129.5t-14 -180.5q0 -101 14 -179.5t50 -131t91 -52.5zM1028 -33q-111 0 -183.5 120t-72.5 294q0 177 72.5 297.5t183.5 120.5q108 0 181 -121t73 -297q0 -173 -73 -293.5t-181 -120.5zM1657 -33q-109 0 -182.5 120.5t-73.5 293.5q0 176 73 297t183 121
q109 0 181.5 -121t72.5 -297q0 -174 -72.5 -294t-181.5 -120zM1028 20q40 0 70.5 29t48.5 80.5t26.5 114.5t8.5 137q0 159 -38 261.5t-116 102.5q-55 0 -91.5 -51.5t-51.5 -130.5t-15 -182q0 -101 15 -179t51.5 -130t91.5 -52zM1657 20q54 0 89.5 52t49.5 130t14 179
q0 161 -37 262.5t-116 101.5q-54 0 -90 -51.5t-51 -130.5t-15 -182q0 -74 8.5 -137t26.5 -114.5t49 -80.5t72 -29z" />
    <glyph glyph-name="guilsinglleft" unicode="&#x2039;" horiz-adv-x="552" 
d="M453 1094l-238 -494l238 -500h-43l-310 500l310 494h43z" />
    <glyph glyph-name="guilsinglright" unicode="&#x203a;" horiz-adv-x="552" 
d="M100 100l238 500l-238 494h43l310 -494l-310 -500h-43z" />
    <glyph glyph-name="fraction" unicode="&#x2044;" horiz-adv-x="886" 
d="M-102 0l1017 1638h74l-1018 -1638h-73z" />
    <glyph glyph-name="Euro" unicode="&#x20ac;" horiz-adv-x="1200" 
d="M1053 592h45q-13 -147 -41 -258t-77 -197t-126.5 -131t-181.5 -45q-145 0 -255 98t-170 263.5t-73 379.5h-133l22 64h107v43q0 57 2 84h-131l22 63h113q18 208 82 370t173.5 257.5t248.5 95.5q199 0 354 -145v-379h-43q-5 455 -293 455q-110 0 -194 -87t-130.5 -232
t-60.5 -335h500l-22 -63h-480q-2 -25 -2 -74v-53h441l-21 -64h-416q12 -194 58.5 -342.5t131 -236.5t195.5 -88q153 0 243.5 147.5t111.5 409.5z" />
    <glyph glyph-name="trademark" unicode="&#x2122;" horiz-adv-x="2244" 
d="M422 1573h-119q-51 0 -78 -6t-48.5 -29.5t-32 -64.5t-19.5 -117l-45 6l29 231l6 45h774l6 -45l27 -231l-43 -6q-12 99 -30.5 144t-50 59t-98.5 14h-120q-14 0 -22.5 -9t-8.5 -24v-606q0 -52 4 -77.5t19.5 -45.5t44 -25.5t81.5 -5.5v-43h-395v43q53 0 81.5 5.5t44.5 25
t20 45.5t4 78v606q0 15 -8.5 24t-22.5 9zM1272 1638l299 -766h4l317 766h271v-43q-53 0 -81.5 -5.5t-44.5 -25t-20 -45t-4 -77.5v-508q0 -52 4 -78t20 -45.5t44.5 -25t81.5 -5.5v-43h-398v43q53 0 81.5 5.5t44.5 25t20 45.5t4 78v565h-6l-340 -803h-29l-317 803h-4v-565
q0 -52 4 -77.5t19.5 -45.5t44 -25.5t81.5 -5.5v-43h-369v43q53 0 81.5 5.5t44.5 25t20 45.5t4 78v508q0 52 -4 77.5t-20 45t-44.5 25t-81.5 5.5v43h273z" />
    <glyph glyph-name="oneeighth" unicode="&#x215b;" horiz-adv-x="1636" 
d="M375 1657v-869q0 -58 21.5 -74t103.5 -16v-26h-350v26q88 0 110.5 16t22.5 74v717q0 29 -2 42t-8 23t-23 6.5t-41.5 -12.5t-67.5 -30l-12 27l229 110zM193 0l1017 1638h72l-1018 -1638h-71zM981 217q0 82 52 153t149 144q-92 80 -133 143t-41 129q0 94 69 152.5t178 58.5
q106 0 169 -56.5t63 -145.5q0 -70 -44 -124t-155 -136q131 -104 179.5 -167.5t48.5 -138.5q0 -108 -77 -177.5t-196 -69.5q-118 0 -190 69t-72 166zM1094 801q0 -51 34 -103.5t123 -128.5q89 66 123.5 119t34.5 111q0 70 -41.5 111.5t-112.5 41.5q-72 0 -116.5 -41
t-44.5 -110zM1057 217q0 -79 48 -133.5t144 -54.5q80 0 128 49t48 131q0 18 -3 34.5t-5.5 29.5t-11.5 28t-14 24.5t-20 25.5t-21.5 23t-28 25t-29.5 24.5t-34.5 28t-36.5 29.5q-85 -70 -124.5 -133t-39.5 -131z" />
    <glyph glyph-name="threeeighths" unicode="&#x215c;" horiz-adv-x="1812" 
d="M172 737q0 17 12 29t31 12q20 0 32 -9t29 -32q33 -41 107 -41q85 0 148 55.5t63 172.5q0 68 -22.5 118t-61.5 76.5t-83.5 38.5t-96.5 12v27q227 67 227 248q0 68 -39.5 115t-114.5 47q-83 0 -126.5 -43t-63.5 -115h-33q18 110 85 166.5t165 56.5q93 0 155 -60t62 -159
q0 -78 -51.5 -143.5t-153.5 -108.5v-4q114 -14 180 -80t66 -178q0 -130 -93 -207.5t-230 -77.5q-75 0 -134 24t-59 60zM369 0l1017 1638h74l-1018 -1638h-73zM1157 217q0 82 52.5 153t150.5 144q-92 79 -133 142t-41 130q0 93 69 152t177 59q106 0 168.5 -56.5t62.5 -145.5
q0 -70 -43.5 -124.5t-153.5 -135.5q130 -104 178 -167.5t48 -138.5q0 -108 -77 -177.5t-196 -69.5q-118 0 -190 69t-72 166zM1272 801q0 -50 34.5 -103t123.5 -129q88 66 122.5 119.5t34.5 110.5q0 69 -41.5 111t-113.5 42q-71 0 -115.5 -41.5t-44.5 -109.5zM1235 217
q0 -80 47.5 -134t144.5 -54q79 0 127 49t48 131q0 18 -2.5 34t-6 29.5t-12 28.5t-14 25t-20 25t-22 23t-28 25t-29.5 24.5t-34.5 28t-36.5 29.5q-84 -70 -123 -133t-39 -131z" />
    <glyph glyph-name="fiveeighths" unicode="&#x215d;" horiz-adv-x="1742" 
d="M340 653q-80 0 -140.5 26.5t-60.5 61.5q0 20 11 31.5t30 11.5q21 0 35 -9.5t31 -31.5q37 -47 108 -47q82 0 141.5 74.5t59.5 228.5q0 131 -50 196t-136 65q-80 0 -142 -56l-45 27l97 407h348l-21 -75h-293l-67 -295l6 -4q64 55 154 55q113 0 179 -85.5t66 -213.5
q0 -176 -87 -271.5t-224 -95.5zM299 0l1018 1638h74l-1018 -1638h-74zM1087 217q0 82 52.5 153t150.5 144q-92 79 -133 142t-41 130q0 93 69.5 152t178.5 59q104 0 166.5 -56.5t62.5 -145.5q0 -70 -43 -124.5t-153 -135.5q130 -105 178.5 -168.5t48.5 -137.5
q0 -109 -77 -178t-197 -69q-117 0 -190 69t-73 166zM1202 801q0 -50 34.5 -103t123.5 -129q89 66 123.5 119t34.5 111q0 69 -42 111t-112 42q-72 0 -117 -41t-45 -110zM1165 217q0 -79 48.5 -133.5t144.5 -54.5q80 0 128 49t48 131q0 20 -2.5 37t-9.5 34t-12.5 29t-20 28.5
t-22.5 26t-29.5 28t-31.5 26.5t-38.5 30.5t-40.5 32.5q-83 -70 -122.5 -133t-39.5 -131z" />
    <glyph glyph-name="seveneighths" unicode="&#x215e;" horiz-adv-x="1652" 
d="M696 1638l-366 -985l-74 25l342 881v4h-319q-57 0 -79.5 -26t-43.5 -124l-25 6l33 158l14 61h518zM209 0l1018 1638h71l-1017 -1638h-72zM997 217q0 82 52 153t149 144q-92 80 -133 143t-41 129q0 93 69.5 152t178.5 59q106 0 168.5 -56.5t62.5 -145.5
q0 -70 -43.5 -124.5t-154.5 -135.5q130 -104 178.5 -167.5t48.5 -138.5q0 -108 -76.5 -177.5t-195.5 -69.5q-118 0 -190.5 69t-72.5 166zM1110 801q0 -50 34.5 -103t123.5 -129q89 65 123 118.5t34 111.5q0 70 -41 111.5t-112 41.5q-72 0 -117 -41t-45 -110zM1073 217
q0 -79 48.5 -133.5t144.5 -54.5q80 0 128 49t48 131q0 18 -2.5 34t-6 29.5t-12 28.5t-14 25t-20 25t-22 23t-28 25t-29.5 24.5t-34.5 28t-36.5 29.5q-85 -70 -124.5 -133t-39.5 -131z" />
    <glyph glyph-name="arrowleft" unicode="&#x2190;" horiz-adv-x="1681" 
d="M1579 600v-94h-1047q-55 0 -144.5 13t-139.5 13v-6q73 -38 131 -80t101 -88t69.5 -82t58.5 -86l-80 -75q-82 144 -180 243t-246 170v52q148 72 246.5 170t179.5 241l80 -73q-31 -51 -58 -87.5t-69.5 -82.5t-101 -88t-131.5 -80v-7q50 0 139.5 13.5t144.5 13.5h1047z" />
    <glyph glyph-name="arrowup" unicode="&#x2191;" horiz-adv-x="1085" 
d="M590 950v-1048h-94v1048q0 55 13 145t13 140h-6q-38 -73 -80 -131.5t-88 -101t-82 -70t-86 -58.5l-76 80q144 82 243.5 180t170.5 246h51q72 -148 170 -246.5t242 -179.5l-74 -80q-50 31 -87 58.5t-83 70t-88 101t-80 131.5h-6q0 -50 13.5 -140t13.5 -145z" />
    <glyph glyph-name="arrowright" unicode="&#x2192;" horiz-adv-x="1681" 
d="M1151 506h-1049v94h1049q53 0 143 -13.5t140 -13.5v7q-138 72 -217.5 153t-141.5 185l80 73q79 -142 177.5 -240.5t246.5 -170.5v-52q-147 -72 -246 -171t-178 -242l-80 75q63 103 142.5 183.5t216.5 152.5v6q-50 0 -140 -13t-143 -13z" />
    <glyph glyph-name="arrowdown" unicode="&#x2193;" horiz-adv-x="1085" 
d="M496 1255h94v-1048q0 -55 -13.5 -145t-13.5 -140h6q38 73 80 131.5t88 101t83 70t87 58.5l74 -80q-144 -81 -242 -179.5t-170 -246.5h-51q-71 148 -170.5 246t-243.5 180l76 80q50 -31 86 -58.5t82 -70t88 -101t80 -131.5h6q0 50 -13 140t-13 145v1048z" />
    <glyph glyph-name="arrowboth" unicode="&#x2194;" horiz-adv-x="2213" 
d="M1608 918l80 73q79 -142 177 -240.5t246 -170.5v-52q-147 -72 -245.5 -171t-177.5 -242l-80 75q63 103 142 183.5t216 152.5v6q-51 0 -140.5 -13t-142.5 -13h-1151q-55 0 -144.5 13t-139.5 13v-6q73 -38 131 -80t101 -88t69.5 -82t58.5 -86l-80 -75q-82 144 -180 243
t-246 170v52q148 72 246.5 170t179.5 241l80 -73q-31 -51 -58 -87.5t-69.5 -82.5t-101 -88t-131.5 -80v-7q50 0 139.5 13.5t144.5 13.5h1151q53 0 143 -13.5t140 -13.5v7q-138 72 -216.5 153t-141.5 185z" />
    <glyph glyph-name="arrowupdn" unicode="&#x2195;" horiz-adv-x="1081" 
d="M561 -309h6q38 73 80 131t88 101t82 69.5t86 58.5l76 -80q-144 -82 -243.5 -180t-170.5 -246h-51q-72 148 -170 246.5t-242 179.5l74 80q51 -31 87.5 -58t82.5 -69.5t88 -101t80 -131.5h6q0 50 -13 139.5t-13 144.5v1151q0 54 13 143t13 140h-6q-72 -138 -153 -216.5
t-185 -141.5l-74 79q142 79 241 177.5t171 246.5h51q72 -147 171.5 -246t242.5 -178l-76 -79q-103 63 -183.5 142t-152.5 216h-6q0 -51 13.5 -140t13.5 -143v-1151q0 -55 -13.5 -144.5t-13.5 -139.5z" />
    <glyph glyph-name="uni2196" unicode="&#x2196;" horiz-adv-x="1304" 
d="M1198 76l-68 -68l-741 742q-39 39 -91.5 111.5t-88.5 107.5l-4 -4q32 -103 40 -198.5t0.5 -156.5t-26.5 -137l-108 2q29 106 39 196t-1 191t-47 207l35 35q106 -36 207 -46.5t190.5 -0.5t194.5 39l4 -109q-76 -19 -137 -26.5t-156 0.5t-198 40l-4 -4q35 -35 107.5 -88
t111.5 -92z" />
    <glyph glyph-name="uni2197" unicode="&#x2197;" horiz-adv-x="1304" 
d="M913 750l-739 -742l-68 68l742 741q38 39 111 92t108 88l-4 4q-103 -32 -198.5 -40t-156.5 -0.5t-137 26.5l2 109q106 -29 196 -39t191 0.5t207 46.5l35 -35q-36 -106 -46.5 -207t-0.5 -191t39 -196l-109 -2q-18 75 -25.5 136.5t0.5 157t40 198.5l-4 4
q-35 -35 -89 -107.5t-94 -111.5z" />
    <glyph glyph-name="uni2198" unicode="&#x2198;" horiz-adv-x="1304" 
d="M106 1030l68 68l739 -742q40 -39 94 -111.5t89 -107.5l4 4q-32 103 -40 198.5t-0.5 157t25.5 136.5l109 -2q-29 -106 -39 -196t0.5 -191t46.5 -207l-35 -35q-106 36 -207 46.5t-191 0.5t-196 -39l-2 109q75 18 136.5 25.5t157 -0.5t198.5 -40l4 5q-35 36 -108 89t-111 91
z" />
    <glyph glyph-name="uni2199" unicode="&#x2199;" horiz-adv-x="1304" 
d="M389 356l741 742l68 -68l-741 -741q-39 -38 -111.5 -91t-107.5 -89l4 -5q103 32 198 40t156 0.5t137 -25.5l-4 -109q-105 29 -194.5 39t-190.5 -0.5t-207 -46.5l-35 35q36 106 47 207t1 191t-39 196l108 2q19 -76 26.5 -137t-0.5 -156.5t-40 -198.5l4 -4
q36 36 88.5 108.5t91.5 110.5z" />
    <glyph glyph-name="partialdiff" unicode="&#x2202;" horiz-adv-x="1110" 
d="M631 1659q202 0 299.5 -221t68.5 -631q-26 -399 -164 -613t-354 -214q-169 0 -274 133t-105 366q0 111 32 213.5t90 183t148 129t199 48.5q252 0 367 -256q11 168 -1 300t-41 216.5t-74 140t-96 78t-112 22.5q-199 0 -315 -215h-39q51 141 147 230.5t224 89.5zM489 51
q178 0 296 182.5t149 493.5q-111 254 -328 254q-88 0 -161 -48t-118.5 -124.5t-70.5 -168t-25 -183.5q0 -187 68 -296.5t190 -109.5z" />
    <glyph glyph-name="emptyset" unicode="&#x2205;" horiz-adv-x="1286" 
d="M1135 1171l49 -49l-156 -155q127 -143 127 -336q0 -212 -150 -362t-362 -150q-193 0 -336 127l-155 -156l-50 49l156 156q-127 143 -127 336q0 212 150 362t362 150q193 0 336 -127zM201 631q0 -162 106 -287l623 623q-125 106 -287 106q-183 0 -312.5 -129.5
t-129.5 -312.5zM1085 631q0 162 -106 287l-623 -623q126 -107 287 -107q183 0 312.5 130t129.5 313z" />
    <glyph glyph-name="product" unicode="&#x220f;" horiz-adv-x="1589" 
d="M1487 1638v-43q-76 0 -116.5 -5.5t-63.5 -25t-28 -45t-5 -77.5v-1614q0 -52 5 -77.5t27.5 -45.5t63.5 -25.5t117 -5.5v-43h-553v43q76 0 117 5.5t63.5 25.5t27.5 45.5t5 77.5v1741h-705v-1741q0 -52 5 -77.5t27.5 -45.5t63.5 -25.5t117 -5.5v-43h-553v43q76 0 117 5.5
t63.5 25.5t27.5 45.5t5 77.5v1614q0 52 -5 77.5t-28 45t-63.5 25t-116.5 5.5v43h1385z" />
    <glyph glyph-name="summation" unicode="&#x2211;" horiz-adv-x="1409" 
d="M102 1638h1106l4 -41l33 -315l-43 -4q-7 68 -14 113.5t-18 79.5t-22 52t-31.5 29t-41.5 14t-55 3h-752l602 -846l-634 -971h802q41 0 65.5 7t47 25.5t38.5 59.5t31 102t33 160l43 -8l-67 -379l-17 -88h-1110v43l654 998v6l-654 917v43z" />
    <glyph glyph-name="minus" unicode="&#x2212;" horiz-adv-x="927" 
d="M825 561h-723v107h723v-107z" />
    <glyph glyph-name="radical" unicode="&#x221a;" horiz-adv-x="1320" 
d="M1151 1774h68l-289 -1844h-51l-498 1094l-244 -117l-35 60l359 174l434 -967h6z" />
    <glyph glyph-name="infinity" unicode="&#x221e;" horiz-adv-x="1665" 
d="M1247 1151q138 0 227 -88t89 -244q0 -109 -45.5 -189.5t-117 -118.5t-157.5 -38q-25 0 -48.5 4t-42.5 8t-43.5 17t-38.5 20t-40 28t-38 30t-41.5 37.5t-40 39t-45 46t-46.5 47.5q-136 -127 -233 -181.5t-199 -54.5q-136 0 -210.5 82.5t-74.5 206.5q0 135 84 221t211 86
q56 0 106.5 -16.5t102 -54.5t86.5 -70t94 -92q48 45 61.5 58t54 50.5t57.5 49t52 37.5t57 35t54 22.5t62 17.5t63 4zM1239 559q104 0 179 71t75 187q0 106 -64.5 174t-168.5 68q-21 0 -41 -3.5t-36.5 -7.5t-37.5 -15.5t-34.5 -18.5t-36.5 -26t-35 -28.5t-38.5 -34.5
t-38.5 -36.5t-43.5 -43l-44.5 -44.5l-6 -6q62 -63 101 -99t87 -71t92 -50.5t91 -15.5zM375 606q80 0 154.5 47.5t207.5 175.5q-111 108 -186.5 151.5t-151.5 43.5q-101 0 -164 -62t-63 -153q0 -82 51.5 -142.5t151.5 -60.5z" />
    <glyph glyph-name="integral" unicode="&#x222b;" horiz-adv-x="892" 
d="M590 43q0 -412 -268 -412q-93 0 -156.5 63.5t-63.5 145.5q0 37 18.5 59.5t49.5 22.5q33 0 53 -20t21 -58q0 -34 2 -54.5t10 -43.5t27 -34t49 -11q143 0 143 330q0 147 -27 324.5t-59 317t-59 315.5t-27 321q0 193 65 302t205 109q92 0 155 -63.5t63 -145.5
q0 -37 -18.5 -59t-49.5 -22q-32 0 -52 20t-20 57q-1 35 -3.5 55t-10.5 43.5t-26.5 34.5t-47.5 11q-145 0 -145 -332q0 -148 27 -325t59 -315t59 -314t27 -322z" />
    <glyph glyph-name="approxequal" unicode="&#x2248;" horiz-adv-x="1132" 
d="M985 918h45q-3 -118 -66.5 -183t-162.5 -65q-59 0 -126 22.5t-117.5 49t-117 49t-125.5 22.5q-146 0 -170 -141h-43q1 118 65.5 183t164.5 65q59 0 126 -23t117.5 -50t116.5 -50t125 -23q146 0 168 144zM985 569h45q-3 -118 -66.5 -182.5t-162.5 -64.5q-59 0 -126 22.5
t-117.5 49t-117 49t-125.5 22.5q-146 0 -170 -141h-43q1 118 65.5 182.5t164.5 64.5q59 0 126 -22.5t117.5 -50t116.5 -50t125 -22.5q146 0 168 143z" />
    <glyph glyph-name="notequal" unicode="&#x2260;" horiz-adv-x="927" 
d="M825 838v-105h-280l-94 -237h374v-105h-417l-109 -272h-68l109 272h-238v105h279l94 237h-373v105h416l111 280h69l-112 -280h239z" />
    <glyph glyph-name="lessequal" unicode="&#x2264;" horiz-adv-x="866" 
d="M764 541v-113l-662 221v150l662 223v-113l-569 -182v-6zM764 342v-106h-662v106h662z" />
    <glyph glyph-name="greaterequal" unicode="&#x2265;" horiz-adv-x="866" 
d="M764 649l-662 -221v113l570 180v6l-570 182v113l662 -223v-150zM764 236h-662v106h662v-106z" />
    <glyph glyph-name="uni2460" unicode="&#x2460;" 
d="M965 1679q140 0 271 -42.5t236.5 -121.5t185 -184.5t122.5 -238t43 -275.5q0 -174 -68 -333t-182.5 -274t-273.5 -183t-334 -68q-177 0 -337 68t-275 183t-183 274t-68 333q0 179 67.5 339t183 274.5t275 181.5t337.5 67zM965 1618q-221 0 -405.5 -107.5t-290 -291.5
t-105.5 -402q0 -164 62 -311.5t168.5 -254t255.5 -169t315 -62.5q216 0 399 106t290 289.5t107 401.5q0 163 -63.5 311t-170 255.5t-254 171t-308.5 63.5zM1036 1315v-869q0 -58 21.5 -74t103.5 -16v-26h-350v26q88 0 111.5 16t23.5 74v717q0 25 -0.5 36.5t-5.5 22.5t-13 12
t-25 -2t-39 -13t-58 -27l-14 27l178 86l53 24z" />
    <glyph glyph-name="uni2461" unicode="&#x2461;" 
d="M965 1679q140 0 271 -42.5t236.5 -121.5t185 -184.5t122.5 -238t43 -275.5q0 -174 -68 -333t-182.5 -274t-273.5 -183t-334 -68q-177 0 -337 68t-275 183t-183 274t-68 333q0 179 67.5 339t183 274.5t275 181.5t337.5 67zM965 1618q-221 0 -405.5 -107.5t-290 -291.5
t-105.5 -402q0 -164 62 -311.5t168.5 -254t255.5 -169t315 -62.5q216 0 399 106t290 289.5t107 401.5q0 163 -63.5 311t-170 255.5t-254 171t-308.5 63.5zM797 408h307q57 0 81 22t50 98l25 -8l-46 -131l-18 -59h-512v26q83 89 133.5 146t113 138t97 143.5t58.5 137
t24 144.5q0 84 -38.5 135t-121.5 51q-98 0 -152.5 -79.5t-56.5 -210.5h-30q0 166 72.5 267t201.5 101q108 0 164.5 -64t56.5 -165q0 -82 -32.5 -171t-93.5 -178.5t-128 -168.5t-155 -168v-6z" />
    <glyph glyph-name="uni2462" unicode="&#x2462;" 
d="M965 1679q140 0 271 -42.5t236.5 -121.5t185 -184.5t122.5 -238t43 -275.5q0 -174 -68 -333t-182.5 -274t-273.5 -183t-334 -68q-177 0 -337 68t-275 183t-183 274t-68 333q0 179 67.5 339t183 274.5t275 181.5t337.5 67zM965 1618q-221 0 -405.5 -107.5t-290 -291.5
t-105.5 -402q0 -164 62 -311.5t168.5 -254t255.5 -169t315 -62.5q216 0 399 106t290 289.5t107 401.5q0 163 -63.5 311t-170 255.5t-254 171t-308.5 63.5zM725 393q0 17 12 29t31 12q20 0 32 -9t29 -32q33 -41 107 -41q39 0 75 12t68 37.5t51 71.5t19 107q0 69 -23 119
t-62.5 76.5t-84 38t-96.5 11.5v27q227 67 227 248q0 68 -39 115t-113 47q-85 0 -128.5 -42.5t-63.5 -115.5h-31q17 110 83.5 166.5t164.5 56.5q93 0 155 -59t62 -158q0 -168 -205 -254v-4q114 -14 180 -80t66 -178q0 -130 -93 -207.5t-230 -77.5q-74 0 -133.5 25t-59.5 59z
" />
    <glyph glyph-name="uni2463" unicode="&#x2463;" 
d="M965 1679q140 0 271 -42.5t236.5 -121.5t185 -184.5t122.5 -238t43 -275.5q0 -174 -68 -333t-182.5 -274t-273.5 -183t-334 -68q-177 0 -337 68t-275 183t-183 274t-68 333q0 179 67.5 339t183 274.5t275 181.5t337.5 67zM965 1618q-221 0 -405.5 -107.5t-290 -291.5
t-105.5 -402q0 -164 62 -311.5t168.5 -254t255.5 -169t315 -62.5q216 0 399 106t290 289.5t107 401.5q0 163 -63.5 311t-170 255.5t-254 171t-308.5 63.5zM1018 600h-400v72l410 653h74v-653h112v-72h-112v-156q0 -58 20 -74t97 -16v-26h-320v26q77 0 98 16t21 74v156z
M672 676v-4h346v555z" />
    <glyph glyph-name="uni2464" unicode="&#x2464;" 
d="M965 1679q140 0 271 -42.5t236.5 -121.5t185 -184.5t122.5 -238t43 -275.5q0 -174 -68 -333t-182.5 -274t-273.5 -183t-334 -68q-177 0 -337 68t-275 183t-183 274t-68 333q0 179 67.5 339t183 274.5t275 181.5t337.5 67zM965 1618q-221 0 -405.5 -107.5t-290 -291.5
t-105.5 -402q0 -164 62 -311.5t168.5 -254t255.5 -169t315 -62.5q216 0 399 106t290 289.5t107 401.5q0 163 -63.5 311t-170 255.5t-254 171t-308.5 63.5zM897 307q-80 0 -140.5 26.5t-60.5 61.5q0 20 11 32.5t30 12.5q21 0 34.5 -10t31.5 -33q36 -45 108 -45q83 0 142 73.5
t59 227.5q0 132 -50 196t-136 64q-81 0 -142 -55l-45 29l97 405h348l-21 -75h-293l-67 -295l6 -4q64 55 154 55q113 0 179 -84.5t66 -212.5q0 -177 -86.5 -273t-224.5 -96z" />
    <glyph glyph-name="uni2465" unicode="&#x2465;" 
d="M965 1679q140 0 271 -42.5t236.5 -121.5t185 -184.5t122.5 -238t43 -275.5q0 -174 -68 -333t-182.5 -274t-273.5 -183t-334 -68q-177 0 -337 68t-275 183t-183 274t-68 333q0 179 67.5 339t183 274.5t275 181.5t337.5 67zM965 1618q-221 0 -405.5 -107.5t-290 -291.5
t-105.5 -402q0 -164 62 -311.5t168.5 -254t255.5 -169t315 -62.5q216 0 399 106t290 289.5t107 401.5q0 163 -63.5 311t-170 255.5t-254 171t-308.5 63.5zM670 719q0 240 123.5 404t365.5 204v-27q-294 -73 -373 -405q83 102 207 102q113 0 170.5 -91t57.5 -226
q0 -55 -9 -106.5t-30.5 -100t-52 -84.5t-77.5 -58t-104 -22q-133 0 -205.5 112.5t-72.5 297.5zM766 692q0 -156 47 -249t137 -93q89 0 133.5 82t44.5 227q0 58 -8.5 107.5t-27 92.5t-53 68t-81.5 25q-101 0 -180 -98q-12 -66 -12 -162z" />
    <glyph glyph-name="uni2466" unicode="&#x2466;" 
d="M965 1679q140 0 271 -42.5t236.5 -121.5t185 -184.5t122.5 -238t43 -275.5q0 -174 -68 -333t-182.5 -274t-273.5 -183t-334 -68q-177 0 -337 68t-275 183t-183 274t-68 333q0 179 67.5 339t183 274.5t275 181.5t337.5 67zM965 1618q-221 0 -405.5 -107.5t-290 -291.5
t-105.5 -402q0 -164 62 -311.5t168.5 -254t255.5 -169t315 -62.5q216 0 399 106t290 289.5t107 401.5q0 163 -63.5 311t-170 255.5t-254 171t-308.5 63.5zM1247 1290l-366 -985l-74 25l342 880v4h-318q-58 0 -80.5 -25.5t-43.5 -123.5l-25 6l35 158l12 61h518z" />
    <glyph glyph-name="uni2467" unicode="&#x2467;" 
d="M965 1679q140 0 271 -42.5t236.5 -121.5t185 -184.5t122.5 -238t43 -275.5q0 -174 -68 -333t-182.5 -274t-273.5 -183t-334 -68q-177 0 -337 68t-275 183t-183 274t-68 333q0 179 67.5 339t183 274.5t275 181.5t337.5 67zM965 1618q-221 0 -405.5 -107.5t-290 -291.5
t-105.5 -402q0 -164 62 -311.5t168.5 -254t255.5 -169t315 -62.5q216 0 399 106t290 289.5t107 401.5q0 163 -63.5 311t-170 255.5t-254 171t-308.5 63.5zM694 545q0 82 52 153t149 144q-91 80 -131.5 143t-40.5 131q0 92 69 150.5t177 58.5q106 0 168.5 -57t62.5 -146
q0 -70 -43 -124.5t-153 -135.5q130 -104 177.5 -167t47.5 -138q0 -108 -77 -178t-196 -70q-118 0 -190 69t-72 167zM809 1128q0 -51 34 -103.5t124 -127.5q87 65 121 118.5t34 110.5q0 70 -41 112t-112 42t-115.5 -41.5t-44.5 -110.5zM772 545q0 -80 48 -134.5t145 -54.5
q78 0 126 50t48 133q0 19 -2 36t-9.5 34t-12 28.5t-20 29t-22 25.5t-29.5 27.5t-31 26.5t-38.5 31t-40.5 32q-85 -70 -123.5 -132t-38.5 -132z" />
    <glyph glyph-name="uni2468" unicode="&#x2468;" 
d="M961 -41q-175 0 -334 67t-274 181.5t-183 274.5t-68 339q0 174 68 333t183 274t274 183t334 68q177 0 337 -68t275 -183t182.5 -274t67.5 -333q0 -179 -67.5 -339t-182.5 -274.5t-274.5 -181.5t-337.5 -67zM961 20q166 0 315 63.5t255 171t168 255.5t62 311
q0 164 -62 311.5t-168.5 254t-255 169t-314.5 62.5q-162 0 -309 -62.5t-254 -169t-170.5 -254.5t-63.5 -311t63.5 -311.5t170.5 -255.5t254.5 -170.5t308.5 -63.5zM1255 920q0 -240 -123.5 -404.5t-365.5 -204.5v27q294 73 373 405q-82 -100 -207 -100q-113 0 -170 90
t-57 225q0 69 15.5 132.5t47 118.5t85.5 87.5t124 32.5q133 0 205.5 -112t72.5 -297zM1161 946q0 155 -48 248.5t-138 93.5q-89 0 -132.5 -82t-43.5 -227q0 -58 8 -107.5t26.5 -93t52.5 -68t81 -24.5q101 0 180 98q14 77 14 162z" />
    <glyph glyph-name="uni2469" unicode="&#x2469;" 
d="M965 1679q140 0 271 -42.5t236.5 -121.5t185 -184.5t122.5 -238t43 -275.5q0 -174 -68 -333t-182.5 -274t-273.5 -183t-334 -68q-177 0 -337 68t-275 183t-183 274t-68 333q0 179 67.5 339t183 274.5t275 181.5t337.5 67zM965 1618q-221 0 -405.5 -107.5t-290 -291.5
t-105.5 -402q0 -164 62 -311.5t168.5 -254t255.5 -169t315 -62.5q157 0 303.5 63t254.5 169t173 254.5t65 310.5q0 163 -63.5 311t-170 255.5t-254 171t-308.5 63.5zM1188 319q-95 0 -161.5 70.5t-97 183t-30.5 256.5q0 141 30.5 253.5t97 183.5t161.5 71q94 0 160.5 -70.5
t97.5 -183t31 -254.5q0 -144 -31 -257t-97.5 -183t-160.5 -70zM748 1315v-869q0 -58 20.5 -74t103.5 -16v-26h-352v26q89 0 112 16t23 74v717q0 25 -0.5 36.5t-5.5 22.5t-13 12t-25 -2t-39 -13t-58 -27l-12 27l176 86l53 24zM1188 362q67 0 111 64t62.5 165.5t18.5 237.5
q0 100 -10.5 182t-33 146.5t-60 100.5t-88.5 36q-67 0 -112 -63.5t-64 -165t-19 -236.5q0 -136 19 -238t64 -165.5t112 -63.5z" />
    <glyph glyph-name="uni246A" unicode="&#x246a;" 
d="M965 1679q140 0 271 -42.5t236.5 -121.5t185 -184.5t122.5 -238t43 -275.5q0 -174 -68 -333t-182.5 -274t-273.5 -183t-334 -68q-177 0 -337 68t-275 183t-183 274t-68 333q0 179 67.5 339t183 274.5t275 181.5t337.5 67zM965 1618q-221 0 -405.5 -107.5t-290 -291.5
t-105.5 -402q0 -164 62 -311.5t168.5 -254t255.5 -169t315 -62.5q216 0 399 106t290 289.5t107 401.5q0 163 -63.5 311t-170 255.5t-254 171t-308.5 63.5zM813 1315v-869q0 -58 21.5 -74t103.5 -16v-26h-350v26q88 0 110.5 16t22.5 74v717q0 25 -0.5 36.5t-5.5 22.5t-13 12
t-25 -2t-39 -13t-58 -27l-13 27l230 110zM1274 1315v-869q0 -58 21.5 -74t103.5 -16v-26h-350v26q88 0 110.5 16t22.5 74v717q0 29 -2 42t-8 23t-23 6.5t-41.5 -12.5t-67.5 -30l-12 27l229 110z" />
    <glyph glyph-name="uni246B" unicode="&#x246b;" 
d="M965 1679q140 0 271 -42.5t236.5 -121.5t185 -184.5t122.5 -238t43 -275.5q0 -174 -68 -333t-182.5 -274t-273.5 -183t-334 -68q-177 0 -337 68t-275 183t-183 274t-68 333q0 179 67.5 339t183 274.5t275 181.5t337.5 67zM965 1618q-221 0 -405.5 -107.5t-290 -291.5
t-105.5 -402q0 -164 62 -311.5t168.5 -254t255.5 -169t315 -62.5q216 0 399 106t290 289.5t107 401.5q0 163 -63.5 311t-170 255.5t-254 171t-308.5 63.5zM713 1315v-869q0 -58 21.5 -74t103.5 -16v-26h-351v26q88 0 112 16t24 74v717q0 29 -2 42t-9 23t-23.5 6.5
t-41.5 -12.5t-68 -30l-12 27l178 86l53 24zM1014 408h305q58 0 82.5 22t50.5 98l25 -8l-66 -190h-512v26q82 88 134 146t114 138.5t97 143.5t59 137t24 144q0 84 -39 135t-123 51q-96 0 -150.5 -79.5t-56.5 -210.5h-32q0 166 73 267t203 101q108 0 163.5 -64t55.5 -165
q0 -82 -32.5 -171t-92.5 -178.5t-127.5 -169t-154.5 -167.5v-6z" />
    <glyph glyph-name="uni246C" unicode="&#x246c;" 
d="M965 1679q140 0 271 -42.5t236.5 -121.5t185 -184.5t122.5 -238t43 -275.5q0 -174 -68 -333t-182.5 -274t-273.5 -183t-334 -68q-177 0 -337 68t-275 183t-183 274t-68 333q0 179 67.5 339t183 274.5t275 181.5t337.5 67zM965 1618q-221 0 -405.5 -107.5t-290 -291.5
t-105.5 -402q0 -164 62 -311.5t168.5 -254t255.5 -169t315 -62.5q216 0 399 106t290 289.5t107 401.5q0 163 -63.5 311t-170 255.5t-254 171t-308.5 63.5zM922 397q0 17 12 28t31 11q20 0 31.5 -8.5t29.5 -30.5q33 -41 107 -41q39 0 75 12t68 37.5t51 71.5t19 107
q0 68 -23 117.5t-63 75.5t-84.5 38t-96.5 12v27q228 70 228 248q0 68 -39 116t-113 48q-84 0 -128 -43t-64 -115h-31q17 109 84 166t164 57q93 0 155 -60t62 -159q0 -166 -205 -252v-4q113 -14 179.5 -80.5t66.5 -177.5q0 -130 -93.5 -207.5t-230.5 -77.5q-75 0 -133.5 24
t-58.5 60zM756 1315v-869q0 -58 21.5 -75t103.5 -17v-24h-351v24q88 0 112 17t24 75l-2 715q0 30 -2 43t-8 23.5t-23 7t-41.5 -12.5t-67.5 -30l-12 25l178 86l53 26z" />
    <glyph glyph-name="uni246D" unicode="&#x246d;" 
d="M965 1679q140 0 271 -42.5t236.5 -121.5t185 -184.5t122.5 -238t43 -275.5q0 -174 -68 -333t-182.5 -274t-273.5 -183t-334 -68q-177 0 -337 68t-275 183t-183 274t-68 333q0 179 67.5 339t183 274.5t275 181.5t337.5 67zM965 1618q-221 0 -405.5 -107.5t-290 -291.5
t-105.5 -402q0 -164 62 -311.5t168.5 -254t255.5 -169t315 -62.5q216 0 399 106t290 289.5t107 401.5q0 163 -63.5 311t-170 255.5t-254 171t-308.5 63.5zM717 1315v-869q0 -58 21.5 -74t103.5 -16v-26h-350v26q88 0 111.5 16t23.5 74v717q0 29 -2 42t-9 23t-23.5 6.5
t-41.5 -12.5t-68 -30l-12 27l178 86l53 24zM1214 602h-399v72l412 653h71v-653h113v-72h-113v-156q0 -58 20.5 -74t96.5 -16v-26h-319v26q78 0 98 16t20 74v156zM870 678v-4h344v555z" />
    <glyph glyph-name="uni246E" unicode="&#x246e;" 
d="M965 1679q140 0 271 -42.5t236.5 -121.5t185 -184.5t122.5 -238t43 -275.5q0 -174 -68 -333t-182.5 -274t-273.5 -183t-334 -68q-177 0 -337 68t-275 183t-183 274t-68 333q0 179 67.5 339t183 274.5t275 181.5t337.5 67zM965 1618q-221 0 -405.5 -107.5t-290 -291.5
t-105.5 -402q0 -164 62 -311.5t168.5 -254t255.5 -169t315 -62.5q216 0 399 106t290 289.5t107 401.5q0 163 -63.5 311t-170 255.5t-254 171t-308.5 63.5zM760 1315v-869q0 -58 21.5 -74t103.5 -16v-26h-350v26q88 0 111.5 16t23.5 74v717q0 29 -2 42t-9 23t-23.5 6.5
t-41.5 -12.5t-68 -30l-12 27l178 86l53 24zM1122 315q-80 0 -140 26.5t-60 61.5q0 43 43 43q34 0 63 -40q38 -48 109 -48q83 0 141.5 74.5t58.5 229.5q0 131 -50 195.5t-136 64.5q-79 0 -141 -56l-43 27l94 407h350l-22 -75h-293l-68 -295l6 -4q64 55 156 55
q113 0 178.5 -85t65.5 -212q0 -177 -86.5 -273t-225.5 -96z" />
    <glyph glyph-name="uni246F" unicode="&#x246f;" 
d="M965 1679q140 0 271 -42.5t236.5 -121.5t185 -184.5t122.5 -238t43 -275.5q0 -174 -68 -333t-182.5 -274t-273.5 -183t-334 -68q-177 0 -337 68t-275 183t-183 274t-68 333q0 179 67.5 339t183 274.5t275 181.5t337.5 67zM965 1618q-221 0 -405.5 -107.5t-290 -291.5
t-105.5 -402q0 -164 62 -311.5t168.5 -254t255.5 -169t315 -62.5q216 0 399 106t290 289.5t107 401.5q0 163 -63.5 311t-170 255.5t-254 171t-308.5 63.5zM723 1315v-869q0 -58 21.5 -74t103.5 -16v-26h-350v26q88 0 110.5 16t22.5 74v717q0 29 -2 42t-8 23t-23 6.5
t-41.5 -12.5t-67.5 -30l-12 27l230 110zM891 719q0 240 123.5 404t365.5 204v-27q-293 -72 -372 -405q83 102 206 102q113 0 170.5 -91t57.5 -226q0 -55 -9 -106.5t-30.5 -100t-52 -84.5t-77.5 -58t-104 -22q-133 0 -205.5 112.5t-72.5 297.5zM987 692q0 -156 47 -249
t137 -93t134.5 82t44.5 227q0 58 -8.5 107.5t-27 92.5t-53 68t-81.5 25q-102 0 -181 -98q-12 -66 -12 -162z" />
    <glyph glyph-name="uni2470" unicode="&#x2470;" 
d="M965 1679q140 0 271 -42.5t236.5 -121.5t185 -184.5t122.5 -238t43 -275.5q0 -174 -68 -333t-182.5 -274t-273.5 -183t-334 -68q-177 0 -337 68t-275 183t-183 274t-68 333q0 179 67.5 339t183 274.5t275 181.5t337.5 67zM965 1618q-221 0 -405.5 -107.5t-290 -291.5
t-105.5 -402q0 -164 62 -311.5t168.5 -254t255.5 -169t315 -62.5q216 0 399 106t290 289.5t107 401.5q0 163 -63.5 311t-170 255.5t-254 171t-308.5 63.5zM729 1315v-869q0 -58 21.5 -74t103.5 -16v-26h-350v26q88 0 111.5 16t23.5 74v717q0 25 -0.5 36.5t-5.5 22.5t-13 12
t-25 -2t-39 -13t-58 -27l-15 27l179 86l53 24zM1448 1309l-367 -985l-73 24l342 881v4h-320q-56 0 -79 -26.5t-44 -123.5l-24 7l32 155l15 64h518z" />
    <glyph glyph-name="uni2471" unicode="&#x2471;" 
d="M965 1679q140 0 271 -42.5t236.5 -121.5t185 -184.5t122.5 -238t43 -275.5q0 -174 -68 -333t-182.5 -274t-273.5 -183t-334 -68q-177 0 -337 68t-275 183t-183 274t-68 333q0 179 67.5 339t183 274.5t275 181.5t337.5 67zM965 1618q-221 0 -405.5 -107.5t-290 -291.5
t-105.5 -402q0 -164 62 -311.5t168.5 -254t255.5 -169t315 -62.5q216 0 399 106t290 289.5t107 401.5q0 163 -63.5 311t-170 255.5t-254 171t-308.5 63.5zM907 551q0 83 52 154t149 143q-92 77 -133 141t-41 131q0 92 69.5 151.5t178.5 59.5q104 0 166.5 -57t62.5 -146
q0 -71 -43 -124.5t-154 -135.5q131 -104 179.5 -167t48.5 -138q0 -109 -77.5 -178.5t-197.5 -69.5q-116 0 -188 69.5t-72 166.5zM729 1315v-869q0 -58 21.5 -74t103.5 -16v-26h-350v26q88 0 110.5 16t22.5 74v717q0 25 -0.5 36.5t-5.5 22.5t-13 12t-25 -2t-39 -13t-58 -27
l-13 27l230 110zM1020 1135q0 -50 34 -103t124 -131q89 67 123 120.5t34 111.5q0 69 -41.5 110t-111.5 41q-73 0 -117.5 -40.5t-44.5 -108.5zM983 551q0 -80 48.5 -135.5t144.5 -55.5q79 0 127.5 50.5t48.5 132.5q0 22 -4.5 42t-9 35t-18.5 34t-21.5 29.5t-31 31t-33.5 29.5
t-42 34.5t-45 36.5q-85 -72 -124.5 -134t-39.5 -130z" />
    <glyph glyph-name="uni2472" unicode="&#x2472;" 
d="M965 1679q140 0 271 -42.5t236.5 -121.5t185 -184.5t122.5 -238t43 -275.5q0 -174 -68 -333t-182.5 -274t-273.5 -183t-334 -68q-177 0 -337 68t-275 183t-183 274t-68 333q0 179 67.5 339t183 274.5t275 181.5t337.5 67zM965 1618q-221 0 -405.5 -107.5t-290 -291.5
t-105.5 -402q0 -164 62 -311.5t168.5 -254t255.5 -169t315 -62.5q216 0 399 106t290 289.5t107 401.5q0 163 -63.5 311t-170 255.5t-254 171t-308.5 63.5zM1458 948q0 -240 -123.5 -404t-365.5 -204v27q293 72 372 405q-82 -100 -206 -100q-113 0 -170.5 90t-57.5 225
q0 54 9.5 106t30.5 100.5t52 84.5t78 58t103 22q133 0 205.5 -112.5t72.5 -297.5zM741 1313v-867q0 -59 21.5 -75.5t103.5 -16.5v-26h-350v26q88 0 110.5 16.5t22.5 75.5v715q0 29 -2 42t-8 23.5t-22.5 7t-41 -13t-67.5 -30.5l-12 27l229 110zM1364 975q0 155 -48 248.5
t-138 93.5q-89 0 -133 -82t-44 -227q0 -58 8 -107.5t26.5 -93t52.5 -68t81 -24.5q102 0 181 98q14 77 14 162z" />
    <glyph glyph-name="uni2473" unicode="&#x2473;" 
d="M965 1679q140 0 271 -42.5t236.5 -121.5t185 -184.5t122.5 -238t43 -275.5q0 -174 -68 -333t-182.5 -274t-273.5 -183t-334 -68q-177 0 -337 68t-275 183t-183 274t-68 333q0 179 67.5 339t183 274.5t275 181.5t337.5 67zM965 1618q-221 0 -405.5 -107.5t-290 -291.5
t-105.5 -402q0 -164 62 -311.5t168.5 -254t255.5 -169t315 -62.5q216 0 399 106t290 289.5t107 401.5q0 163 -63.5 311t-170 255.5t-254 171t-308.5 63.5zM1272 309q-94 0 -159.5 70.5t-95.5 183t-30 256.5q0 142 29.5 254t95.5 183t160 71q93 0 158.5 -70.5t95.5 -183
t30 -254.5q0 -145 -30 -257.5t-95.5 -182.5t-158.5 -70zM502 393h303q56 0 80 22.5t51 98.5l25 -8l-43 -131l-21 -60h-506v27q82 89 132 146t112 138t96 143.5t58 137t24 144.5q0 84 -38.5 135t-121.5 51q-96 0 -149 -80t-55 -211h-33q0 166 72 267.5t200 101.5
q107 0 163 -64.5t56 -165.5q0 -82 -32.5 -171t-92.5 -178.5t-126.5 -168.5t-153.5 -168v-6zM1272 352q50 0 87.5 36t59.5 100.5t32.5 147t10.5 183.5q0 100 -10.5 182t-32.5 146.5t-59.5 100.5t-87.5 36q-66 0 -110.5 -63.5t-63.5 -165t-19 -236.5q0 -136 19 -238
t63.5 -165.5t110.5 -63.5z" />
    <glyph glyph-name="uni24EA" unicode="&#x24ea;" 
d="M965 1679q140 0 271 -42.5t236.5 -121.5t185 -184.5t122.5 -238t43 -275.5q0 -174 -68 -333t-182.5 -274t-273.5 -183t-334 -68q-177 0 -337 68t-275 183t-183 274t-68 333q0 179 67.5 339t183 274.5t275 181.5t337.5 67zM965 1618q-221 0 -405.5 -107.5t-290 -291.5
t-105.5 -402q0 -164 62 -311.5t168.5 -254t255.5 -169t315 -62.5q216 0 399 106t290 289.5t107 401.5q0 163 -63.5 311t-170 255.5t-254 171t-308.5 63.5zM967 309q-95 0 -161.5 70.5t-97 183t-30.5 256.5q0 141 30.5 253.5t97 183.5t161.5 71q94 0 161 -70.5t98 -183
t31 -254.5q0 -144 -31 -257t-98 -183t-161 -70zM967 352q51 0 89 36t60.5 100.5t33.5 147.5t11 183t-11 182t-33.5 146.5t-60.5 100.5t-89 36q-67 0 -112 -63.5t-64 -165t-19 -236.5q0 -136 19 -238t64 -165.5t112 -63.5z" />
    <glyph glyph-name="uni24EB" unicode="&#x24eb;" 
d="M965 1679q-178 0 -337.5 -67t-275 -181.5t-183 -274.5t-67.5 -339q0 -174 68 -333t183 -274t275 -183t337 -68q175 0 334 68t273.5 183t182.5 274t68 333q0 143 -43 275.5t-122.5 238t-185 184.5t-236.5 121.5t-271 42.5zM817 1315v-869q0 -58 21.5 -74t103.5 -16v-26
h-350v26q88 0 110.5 16t22.5 74v717q0 25 -0.5 36.5t-5.5 22.5t-13 12t-25 -2t-39 -13t-58 -27l-13 27l230 110zM1268 1315v-869q0 -58 21.5 -74t103.5 -16v-26h-351v26q88 0 111 16t23 74v717q0 29 -2 42t-8 23t-23 6.5t-41.5 -12.5t-67.5 -30l-12 27l229 110z" />
    <glyph glyph-name="uni24EC" unicode="&#x24ec;" 
d="M965 1679q-178 0 -337.5 -67t-275 -181.5t-183 -274.5t-67.5 -339q0 -174 68 -333t183 -274t275 -183t337 -68q175 0 334 68t273.5 183t182.5 274t68 333q0 143 -43 275.5t-122.5 238t-185 184.5t-236.5 121.5t-271 42.5zM711 1315v-869q0 -58 21.5 -74t103.5 -16v-26
h-351v26q88 0 112 16t24 74v717q0 29 -2 42t-8 23t-23 6.5t-41.5 -12.5t-67.5 -30l-14 27l178 86l53 24zM1030 408h305q58 0 82.5 22t50.5 98l25 -8l-66 -190h-512v26q82 88 134 146t114 138.5t97 143.5t59 137t24 144q0 85 -38.5 135.5t-122.5 50.5q-96 0 -150.5 -79.5
t-56.5 -210.5h-33q0 166 73.5 267t201.5 101q108 0 164.5 -64t56.5 -165q0 -82 -32.5 -171t-93 -178.5t-127.5 -169t-155 -167.5v-6z" />
    <glyph glyph-name="uni24ED" unicode="&#x24ed;" 
d="M965 1679q-178 0 -337.5 -67t-275 -181.5t-183 -274.5t-67.5 -339q0 -174 68 -333t183 -274t275 -183t337 -68q175 0 334 68t273.5 183t182.5 274t68 333q0 143 -43 275.5t-122.5 238t-185 184.5t-236.5 121.5t-271 42.5zM721 1315v-869q0 -58 21.5 -74t103.5 -16v-26
h-350v26q88 0 110.5 16t22.5 74v717q0 29 -2 42t-8 23t-23 6.5t-41.5 -12.5t-67.5 -30l-12 27l230 110zM922 393q0 17 12 29t31 12q20 0 32 -9t29 -32q33 -41 107 -41q39 0 75 12t68 37.5t51 71.5t19 107q0 55 -15.5 98t-40.5 70.5t-60.5 45t-72.5 24.5t-78 7v27
q228 66 228 248q0 68 -39 115t-113 47q-84 0 -128 -43t-64 -115h-31q18 110 84.5 166.5t163.5 56.5q93 0 155 -60t62 -159q0 -166 -205 -252v-4q114 -14 181 -80t67 -178q0 -129 -94.5 -207t-231.5 -78q-75 0 -133.5 24t-58.5 60z" />
    <glyph glyph-name="uni24EE" unicode="&#x24ee;" 
d="M965 1679q-178 0 -337.5 -67t-275 -181.5t-183 -274.5t-67.5 -339q0 -174 68 -333t183 -274t275 -183t337 -68q175 0 334 68t273.5 183t182.5 274t68 333q0 143 -43 275.5t-122.5 238t-185 184.5t-236.5 121.5t-271 42.5zM707 1315v-869q0 -58 21 -74t103 -16v-26h-350
v26q88 0 110.5 16t22.5 74v717q0 25 -0.5 36.5t-5.5 22.5t-13 12t-25 -2t-39 -13t-58 -27l-12 27l229 110zM1219 602h-400v72l412 653h74v-653h112v-72h-112v-156q0 -58 19.5 -74t96.5 -16v-26h-319v26q77 0 97 16t20 74v156zM874 678v-4h345v555z" />
    <glyph glyph-name="uni24EF" unicode="&#x24ef;" 
d="M965 1679q-178 0 -337.5 -67t-275 -181.5t-183 -274.5t-67.5 -339q0 -174 68 -333t183 -274t275 -183t337 -68q175 0 334 68t273.5 183t182.5 274t68 333q0 143 -43 275.5t-122.5 238t-185 184.5t-236.5 121.5t-271 42.5zM739 1315v-869q0 -58 21.5 -74t103.5 -16v-26
h-350v26q88 0 110.5 16t22.5 74v717q0 25 -0.5 36.5t-5.5 22.5t-13 12t-25 -2t-39 -13t-58 -27l-12 27l229 110zM1096 322q-79 0 -140 26.5t-61 61.5q0 20 12 31.5t31 11.5q34 0 63 -43q36 -45 109 -45q84 0 142.5 73.5t58.5 229.5q0 131 -50.5 195.5t-136.5 64.5
q-77 0 -141 -58l-43 29l94 408h350l-20 -76h-295l-68 -295l7 -4q67 55 155 55q113 0 178.5 -85.5t65.5 -213.5q0 -176 -86 -271t-225 -95z" />
    <glyph glyph-name="uni24F0" unicode="&#x24f0;" 
d="M965 1679q-178 0 -337.5 -67t-275 -181.5t-183 -274.5t-67.5 -339q0 -174 68 -333t183 -274t275 -183t337 -68q175 0 334 68t273.5 183t182.5 274t68 333q0 143 -43 275.5t-122.5 238t-185 184.5t-236.5 121.5t-271 42.5zM897 725q0 116 30 216t89 180.5t153 135.5
t217 76v-26q-294 -72 -372 -408q83 102 207 102q113 0 170 -90t57 -227q0 -68 -15.5 -131.5t-46.5 -118t-85 -87t-125 -32.5q-133 0 -206 112.5t-73 297.5zM750 1313v-867q0 -60 20.5 -76t103.5 -16v-26h-352v26q89 0 112 16t23 76v715q0 29 -2 42t-8 23.5t-22.5 7t-41 -13
t-67.5 -30.5l-12 27l176 86l53 24zM993 698q0 -156 47.5 -249t137.5 -93q89 0 133.5 82.5t44.5 227.5q0 58 -8.5 107.5t-27 92.5t-53 67.5t-81.5 24.5q-101 0 -180 -100q-13 -69 -13 -160z" />
    <glyph glyph-name="uni24F1" unicode="&#x24f1;" 
d="M965 1679q-178 0 -337.5 -67t-275 -181.5t-183 -274.5t-67.5 -339q0 -174 68 -333t183 -274t275 -183t337 -68q175 0 334 68t273.5 183t182.5 274t68 333q0 143 -43 275.5t-122.5 238t-185 184.5t-236.5 121.5t-271 42.5zM743 1315v-869q0 -58 21.5 -74t103.5 -16v-26
h-350v26q88 0 111.5 16t23.5 74l-2 717q0 25 -0.5 36.5t-5.5 22.5t-13 12t-25 -2t-39 -13t-58 -27l-12 27l178 86l53 24zM1440 1307l-367 -985l-74 24l342 881v4h-319q-56 0 -79 -26.5t-44 -123.5l-27 6l35 156l15 64h518z" />
    <glyph glyph-name="uni24F2" unicode="&#x24f2;" 
d="M965 1679q-178 0 -337.5 -67t-275 -181.5t-183 -274.5t-67.5 -339q0 -174 68 -333t183 -274t275 -183t337 -68q175 0 334 68t273.5 183t182.5 274t68 333q0 143 -43 275.5t-122.5 238t-185 184.5t-236.5 121.5t-271 42.5zM717 1315v-869q0 -58 21.5 -74t103.5 -16v-26
h-350v26q88 0 110.5 16t22.5 74v717q0 29 -2 42t-8 23t-23 6.5t-41.5 -12.5t-67.5 -30l-12 27l229 110zM911 545q0 83 52 154t149 143q-92 79 -133 142t-41 130q0 93 69.5 152t178.5 59q104 0 166.5 -57t62.5 -146q0 -70 -43 -124.5t-153 -135.5q131 -104 179 -167t48 -138
q0 -109 -77.5 -178.5t-197.5 -69.5q-116 0 -188 69.5t-72 166.5zM1024 1128q0 -50 34 -102.5t124 -128.5q89 66 123 118.5t34 110.5q0 69 -41.5 111.5t-111.5 42.5q-72 0 -117 -41.5t-45 -110.5zM987 545q0 -79 48.5 -134t144.5 -55q79 0 127.5 49.5t48.5 131.5
q0 18 -2.5 34t-6 29.5t-12 28.5t-14 25t-20 25t-22 23t-28 25t-29.5 24.5t-34.5 28t-36.5 29.5q-85 -70 -124.5 -133t-39.5 -131z" />
    <glyph glyph-name="uni24F3" unicode="&#x24f3;" 
d="M965 1679q-178 0 -337.5 -67t-275 -181.5t-183 -274.5t-67.5 -339q0 -174 68 -333t183 -274t275 -183t337 -68q175 0 334 68t273.5 183t182.5 274t68 333q0 143 -43 275.5t-122.5 238t-185 184.5t-236.5 121.5t-271 42.5zM1503 926q0 -240 -123.5 -404.5t-365.5 -204.5
v27q291 72 370 406q-79 -101 -206 -101q-76 0 -128.5 45.5t-75 114.5t-22.5 156q0 69 15.5 132.5t46.5 118t85.5 87t125.5 32.5q132 0 205 -112t73 -297zM739 1315v-869q0 -58 21.5 -74t103.5 -16v-26h-350v26q88 0 111.5 16t23.5 74l-2 717q0 25 -0.5 36.5t-5.5 22.5
t-13 12t-25 -2t-39 -13t-58 -27l-12 27l178 86l53 24zM1407 952q0 156 -47.5 249t-138.5 93q-88 0 -132.5 -82.5t-44.5 -226.5q0 -58 8.5 -107.5t27 -92.5t53 -68t81.5 -25q101 0 181 99q12 66 12 161z" />
    <glyph glyph-name="uni24F4" unicode="&#x24f4;" 
d="M965 1679q-178 0 -337.5 -67t-275 -181.5t-183 -274.5t-67.5 -339q0 -174 68 -333t183 -274t275 -183t337 -68q175 0 334 68t273.5 183t182.5 274t68 333q0 143 -43 275.5t-122.5 238t-185 184.5t-236.5 121.5t-271 42.5zM504 408h303q57 0 81 22t50 98l25 -8l-66 -190
h-504v26q82 89 132 146t112 138t96 143.5t58 137t24 144.5q0 84 -38.5 135t-121.5 51q-96 0 -149.5 -79.5t-56.5 -210.5h-31q0 166 72 267t200 101q106 0 161.5 -64t55.5 -165q0 -82 -32 -171t-91.5 -178.5t-126.5 -169t-153 -167.5v-6zM1288 309q-94 0 -159.5 70.5t-95 183
t-29.5 256.5q0 142 29.5 254t95 183t159.5 71q93 0 159.5 -70.5t97 -183t30.5 -254.5q0 -144 -30.5 -257t-97 -183t-159.5 -70zM1288 352q66 0 110 64t62.5 165.5t18.5 237.5q0 135 -18.5 236t-62.5 165t-110 64q-50 0 -87.5 -35.5t-60 -100t-33.5 -147t-11 -182.5
q0 -101 11 -184t33.5 -147.5t60 -100t87.5 -35.5z" />
    <glyph glyph-name="uni24FF" unicode="&#x24ff;" 
d="M965 1679q-178 0 -337.5 -67t-275 -181.5t-183 -274.5t-67.5 -339q0 -174 68 -333t183 -274t275 -183t337 -68q175 0 334 68t273.5 183t182.5 274t68 333q0 143 -43 275.5t-122.5 238t-185 184.5t-236.5 121.5t-271 42.5zM967 309q-95 0 -161.5 70.5t-97 183t-30.5 256.5
q0 141 30.5 253.5t97 183.5t161.5 71q94 0 161 -70.5t98 -183t31 -254.5q0 -144 -31 -257t-98 -183t-161 -70zM967 352q51 0 89 36t60.5 100.5t33.5 147.5t11 183t-11 182t-33.5 146.5t-60.5 100.5t-89 36q-67 0 -112 -63.5t-64 -165t-19 -236.5q0 -136 19 -238t64 -165.5
t112 -63.5z" />
    <glyph glyph-name="lozenge" unicode="&#x25ca;" horiz-adv-x="1103" 
d="M489 1638h121l391 -821l-391 -821h-121l-387 821zM547 106h6l332 711l-332 711h-6l-328 -711z" />
    <glyph glyph-name="uni2776" unicode="&#x2776;" 
d="M965 1679q-178 0 -337.5 -67t-275 -181.5t-183 -274.5t-67.5 -339q0 -174 68 -333t183 -274t275 -183t337 -68q175 0 334 68t273.5 183t182.5 274t68 333q0 143 -43 275.5t-122.5 238t-185 184.5t-236.5 121.5t-271 42.5zM1016 1315v-869q0 -58 21.5 -74t103.5 -16v-26
h-350v26q88 0 110.5 16t22.5 74v717q0 29 -2 42t-8 23t-23 6.5t-41.5 -12.5t-67.5 -30l-12 27l229 110z" />
    <glyph glyph-name="uni2777" unicode="&#x2777;" 
d="M965 1679q-178 0 -337.5 -67t-275 -181.5t-183 -274.5t-67.5 -339q0 -174 68 -333t183 -274t275 -183t337 -68q175 0 334 68t273.5 183t182.5 274t68 333q0 143 -43 275.5t-122.5 238t-185 184.5t-236.5 121.5t-271 42.5zM795 408h307q57 0 81 22t50 98l24 -8l-65 -190
h-510v26q83 89 133.5 146t113 138t97 143.5t58.5 137t24 144.5q0 84 -39 135t-123 51q-96 0 -150.5 -79.5t-56.5 -210.5h-32q0 166 73 267t203 101q108 0 163.5 -64t55.5 -165q0 -82 -32.5 -171t-92.5 -178.5t-127.5 -169t-154.5 -167.5v-6z" />
    <glyph glyph-name="uni2778" unicode="&#x2778;" 
d="M965 1679q-178 0 -337.5 -67t-275 -181.5t-183 -274.5t-67.5 -339q0 -174 68 -333t183 -274t275 -183t337 -68q175 0 334 68t273.5 183t182.5 274t68 333q0 143 -43 275.5t-122.5 238t-185 184.5t-236.5 121.5t-271 42.5zM707 393q0 17 12 29t31 12q15 0 26 -5.5t17 -12
t18 -23.5q35 -41 107 -41q85 0 148.5 55.5t63.5 172.5q0 68 -22.5 118t-61.5 76.5t-83.5 38.5t-96.5 12v27q226 66 226 248q0 68 -39 115t-113 47q-84 0 -128 -43t-64 -115h-31q18 110 84.5 166.5t163.5 56.5q93 0 156 -60t63 -159q0 -78 -51.5 -143.5t-153.5 -108.5v-4
q113 -14 179.5 -80t66.5 -178q0 -129 -94.5 -207t-231.5 -78q-75 0 -133.5 24t-58.5 60z" />
    <glyph glyph-name="uni2779" unicode="&#x2779;" 
d="M965 1679q-178 0 -337.5 -67t-275 -181.5t-183 -274.5t-67.5 -339q0 -174 68 -333t183 -274t275 -183t337 -68q175 0 334 68t273.5 183t182.5 274t68 333q0 143 -43 275.5t-122.5 238t-185 184.5t-236.5 121.5t-271 42.5zM989 602h-399v72l411 653h74v-653h111v-72h-111
v-156q0 -58 20 -74t97 -16v-26h-320v26q77 0 97 16t20 74v156zM645 678v-4h344v555z" />
    <glyph glyph-name="uni277A" unicode="&#x277a;" 
d="M965 1679q-178 0 -337.5 -67t-275 -181.5t-183 -274.5t-67.5 -339q0 -174 68 -333t183 -274t275 -183t337 -68q175 0 334 68t273.5 183t182.5 274t68 333q0 143 -43 275.5t-122.5 238t-185 184.5t-236.5 121.5t-271 42.5zM903 307q-80 0 -141.5 26.5t-61.5 61.5
q0 20 12 31.5t31 11.5q34 0 64 -41q41 -47 108 -47q39 0 73.5 16.5t64.5 50.5t47.5 95t17.5 141q0 131 -51 195.5t-137 64.5q-81 0 -139 -55l-46 27l95 407h350l-21 -75h-292l-68 -295l6 -4q64 55 154 55q113 0 178 -85t65 -212q0 -177 -86 -273t-223 -96z" />
    <glyph glyph-name="uni277B" unicode="&#x277b;" 
d="M965 1679q-178 0 -337.5 -67t-275 -181.5t-183 -274.5t-67.5 -339q0 -174 68 -333t183 -274t275 -183t337 -68q175 0 334 68t273.5 183t182.5 274t68 333q0 143 -43 275.5t-122.5 238t-185 184.5t-236.5 121.5t-271 42.5zM655 719q0 116 30 216t89.5 180.5t153.5 135.5
t217 76v-27q-293 -72 -371 -407q80 102 207 102q112 0 169.5 -90.5t57.5 -226.5q0 -68 -15.5 -131.5t-47 -118t-86 -87t-125.5 -32.5q-132 0 -205.5 112.5t-73.5 297.5zM752 692q0 -156 47.5 -249t138.5 -93q88 0 132 82t44 227q0 58 -8 107.5t-26.5 93t-53 68t-82.5 24.5
q-101 0 -180 -100q-12 -80 -12 -160z" />
    <glyph glyph-name="uni277C" unicode="&#x277c;" 
d="M965 1679q-178 0 -337.5 -67t-275 -181.5t-183 -274.5t-67.5 -339q0 -174 68 -333t183 -274t275 -183t337 -68q175 0 334 68t273.5 183t182.5 274t68 333q0 143 -43 275.5t-122.5 238t-185 184.5t-236.5 121.5t-271 42.5zM1237 1292l-367 -985l-73 25l342 880v5h-320
q-57 0 -79.5 -26t-43.5 -124l-26 6l35 158l14 61h518z" />
    <glyph glyph-name="uni277D" unicode="&#x277d;" 
d="M965 1679q-178 0 -337.5 -67t-275 -181.5t-183 -274.5t-67.5 -339q0 -174 68 -333t183 -274t275 -183t337 -68q175 0 334 68t273.5 183t182.5 274t68 333q0 143 -43 275.5t-122.5 238t-185 184.5t-236.5 121.5t-271 42.5zM692 543q0 82 52 153t149 144q-92 80 -133 143.5
t-41 130.5q0 92 69.5 150.5t178.5 58.5q106 0 168.5 -57t62.5 -146q0 -70 -43.5 -124t-153.5 -136q130 -104 178 -167.5t48 -137.5q0 -108 -77 -178t-196 -70q-118 0 -190 69t-72 167zM805 1126q0 -50 34 -102.5t124 -128.5q89 65 123 118.5t34 110.5q0 70 -41 112t-112 42
q-72 0 -117 -41.5t-45 -110.5zM768 543q0 -79 48.5 -134t144.5 -55q80 0 128 50t48 133q0 19 -2 36t-9.5 34t-12 28.5t-20 29t-22 25.5t-29.5 27.5t-31 26.5t-38.5 31t-40.5 32q-85 -71 -124.5 -133t-39.5 -131z" />
    <glyph glyph-name="uni277E" unicode="&#x277e;" 
d="M961 -41q178 0 337.5 67t274.5 181.5t182.5 274.5t67.5 339q0 174 -67.5 333t-182.5 274t-275 183t-337 68q-175 0 -334 -68t-274 -183t-183 -274t-68 -333q0 -179 68 -339t183 -274.5t274 -181.5t334 -67zM1270 920q0 -116 -30 -216t-89 -181t-153.5 -136t-217.5 -76v27
q292 75 371 407q-80 -102 -207 -102q-76 0 -128 45.5t-74.5 115t-22.5 157.5q0 68 15.5 131t46.5 117.5t85 87t125 32.5q132 0 205.5 -112.5t73.5 -296.5zM1174 946q0 156 -48 249t-139 93q-88 0 -132 -81.5t-44 -227.5q0 -58 8.5 -107.5t27 -92.5t53 -68t81.5 -25
q101 0 180 100q13 71 13 160z" />
    <glyph glyph-name="uni277F" unicode="&#x277f;" 
d="M965 1679q-178 0 -337.5 -67t-275 -181.5t-183 -274.5t-67.5 -339q0 -174 68 -333t183 -274t275 -183t337 -68q175 0 334 68t273.5 183t182.5 274t68 333q0 143 -43 275.5t-122.5 238t-185 184.5t-236.5 121.5t-271 42.5zM721 1315v-869q0 -58 21.5 -74t103.5 -16v-26
h-350v26q88 0 111.5 16t23.5 74l-2 717q0 29 -2 42t-8 23t-23 6.5t-41.5 -12.5t-67.5 -30l-12 27l178 86l54 24zM1161 309q-94 0 -160.5 70.5t-97.5 183.5t-31 256q0 141 30.5 253.5t97.5 183.5t161 71q95 0 162 -70.5t98 -183t31 -254.5q0 -144 -31 -257t-98 -183t-162 -70
zM1161 352q67 0 112 64t64 166t19 237q0 134 -19 235.5t-64 165.5t-112 64q-51 0 -88.5 -35.5t-60 -100t-33 -146.5t-10.5 -183q0 -137 18.5 -238.5t62.5 -165t111 -63.5z" />
    <glyph glyph-name="fi" unicode="&#xfb01;" horiz-adv-x="1015" 
d="M844 1087v-890q0 -98 23 -126t110 -28v-43h-381v43q87 0 110 28t23 126v669q0 30 -1 45t-6 37t-15.5 32.5t-31.5 19t-52 8.5h-322v-811q0 -68 13.5 -98t54 -43t129.5 -13v-43h-455v43q95 0 120 28t25 126v811h-133v51l133 14v195q0 112 26.5 195t75 132.5t110.5 73
t139 23.5q100 0 182 -53.5t82 -120.5q0 -32 -21 -53t-55 -21q-20 0 -37.5 12t-26 23t-28.5 41q-31 48 -59.5 71t-73.5 23q-201 0 -201 -330v-207h358q98 0 164 35z" />
    <glyph glyph-name="fl" unicode="&#xfb02;" horiz-adv-x="1017" 
d="M840 1634v-1437q0 -97 23.5 -125.5t111.5 -28.5v-43h-381v43q87 0 110 28t23 126v1257q-20 -8 -39 -8q-29 0 -47 17.5t-41 56.5q-33 49 -60 71.5t-69 22.5q-170 0 -170 -330v-207h213v-69h-213v-811q0 -51 5 -78t24 -46t51.5 -24.5t91.5 -5.5v-43h-430v43q95 0 120 28
t25 126v811h-133v51l133 14v205q0 211 84.5 311.5t225.5 100.5q75 0 144.5 -33.5t100.5 -81.5l76 74z" />
    <glyph glyph-name="i.loclTRK" horiz-adv-x="479" 
d="M225 1335q-38 0 -66 28.5t-28 68.5q0 38 28 66t66 28q40 0 68.5 -28t28.5 -66q0 -40 -28.5 -68.5t-68.5 -28.5zM59 0v43q88 0 112 28.5t24 125.5l-2 682v36t-0.5 28.5t-2 24t-4.5 17t-6.5 13.5t-10 6t-14.5 3t-19.5 -3.5t-24.5 -6.5t-31 -12l-17 41l150 59l70 27l24 -22
v-893q0 -98 23 -126t112 -28v-43h-383z" />
    <glyph glyph-name="C_O" horiz-adv-x="2230" 
d="M1753 696q-166 0 -271.5 141t-105.5 351q0 211 103.5 351t269.5 140q165 0 271 -140.5t106 -350.5t-104 -351t-269 -141zM78 813q0 241 75 435t217 308.5t326 114.5q196 0 318 -125q25 -23 41.5 -17.5t19.5 36.5l8 86h43l31 -568h-43q-42 256 -140 386t-265 130
q-115 0 -208.5 -60t-155 -165t-95 -246t-33.5 -303q0 -219 57 -394t168.5 -278.5t259.5 -103.5q128 0 226.5 81t156 217t80.5 317h54q-32 -324 -169.5 -510.5t-375.5 -186.5q-139 0 -252.5 66t-188 181t-115 269t-40.5 330zM1763 762q87 0 147 55t86.5 143t26.5 201
q0 126 -30.5 226t-96.5 163.5t-159 63.5q-127 0 -192.5 -112.5t-65.5 -287.5q0 -124 30.5 -224.5t96 -164t157.5 -63.5zM1745 -33q-39 0 -66.5 27.5t-27.5 66.5q0 40 27.5 68.5t66.5 28.5q38 0 66 -28.5t28 -68.5q0 -38 -28 -66t-66 -28z" />
    <glyph glyph-name="L_L" horiz-adv-x="1865" 
d="M594 1638v-43q-61 0 -98.5 -4.5t-62 -13t-35.5 -28.5t-15 -43t-4 -64v-1247q0 -76 20.5 -99.5t85.5 -23.5h310q62 0 97.5 11t67.5 53t55.5 112.5t53.5 200.5l53 -13l-92 -399l-8 -37h-981v43q75 0 116 5.5t63.5 25t28 45.5t5.5 78v1245q0 52 -5.5 77.5t-28 45t-63.5 25
t-116 5.5v43h553zM1378 1638v-43q-59 0 -95 -4.5t-60 -13t-34.5 -28.5t-14 -43t-3.5 -64v-633q0 -72 18.5 -94.5t78.5 -22.5h262q41 0 66 7.5t48.5 27t41.5 62.5t36.5 105t42.5 165l43 -10l-90 -392l-8 -34h-870v43q74 0 114 5.5t62.5 25t27.5 45t5 77.5v623q0 52 -5 77.5
t-27.5 45t-62.5 25t-114 5.5v43h538z" />
    <glyph glyph-name="L_T_D" horiz-adv-x="2744" 
d="M594 1638v-43q-61 0 -98.5 -4.5t-62 -13t-35.5 -28.5t-15 -43t-4 -64v-1247q0 -76 20.5 -99.5t85.5 -23.5h310q62 0 97.5 11t67.5 53t55.5 112.5t53.5 200.5l53 -13l-92 -399l-8 -37h-981v43q75 0 116 5.5t63.5 25t28 45.5t5.5 78v1245q0 52 -5.5 77.5t-28 45t-63.5 25
t-116 5.5v43h553zM1329 1573h-121q-41 0 -64.5 -4t-44 -15.5t-32.5 -37t-20.5 -62.5t-16.5 -98l-43 6l29 231l4 45h782l4 -45l21 -233l-43 -4q-7 76 -16 117.5t-30.5 64.5t-48 29t-77.5 6h-123q-14 0 -22.5 -9t-8.5 -24v-606q0 -52 4 -78t20 -45.5t44.5 -25t81.5 -5.5v-43
h-396v43q53 0 81.5 5.5t44.5 25t20 45.5t4 78v606q0 15 -9.5 24t-23.5 9zM2275 737h-366v43q53 0 81.5 5.5t44 25.5t19.5 45.5t4 77.5v508q0 52 -4 77.5t-19.5 45t-44 25t-81.5 5.5v43h366q185 0 293.5 -123t108.5 -327t-108.5 -327.5t-293.5 -123.5zM2275 801
q135 0 215 103t80 284q0 182 -80 284.5t-215 102.5q-53 0 -94 -12q-27 -6 -27 -37v-676q0 -31 21 -37q43 -12 100 -12zM1778 -33q-40 0 -67.5 27.5t-27.5 66.5q0 40 27.5 68.5t67.5 28.5q38 0 66 -28.5t28 -68.5q0 -38 -28 -66t-66 -28z" />
    <glyph glyph-name="O_O" horiz-adv-x="2095" 
d="M1417 1673q174 0 312 -116t213 -310.5t75 -427.5q0 -140 -26.5 -268.5t-78 -235t-123 -185t-167 -122t-205.5 -43.5q-206 0 -364 164q-154 -164 -371 -164q-174 0 -313 115.5t-215 310t-76 428.5q0 175 42 330.5t118.5 271.5t191.5 184t252 68q206 0 362 -166
q156 166 373 166zM1448 35q135 1 237.5 97.5t155 258t49.5 359.5q-2 164 -38.5 317.5t-101.5 274t-164 193t-216 71.5q-165 0 -285 -146q93 -119 144 -285.5t51 -355.5q0 -359 -160 -604q134 -180 328 -180zM727 35q167 0 283 145q-93 118 -144 284t-51 355q0 175 42 331
t120 273q-136 183 -328 183q-134 -1 -237 -98t-156 -258.5t-51 -358.5q2 -165 38.5 -318t101 -274t164 -193t218.5 -71zM1020 1358q-99 -197 -96 -467q3 -173 41.5 -331.5t109.5 -278.5q102 193 99 469q-3 170 -43 329t-111 279z" />
    <glyph glyph-name="S_T" horiz-adv-x="1939" 
d="M528 -33q-85 0 -163.5 38.5t-139.5 103.5q-28 30 -44 27t-23 -42l-17 -96h-45l2 592h45q10 -247 117.5 -400t267.5 -153q70 0 125 27t87 71t48.5 95.5t16.5 105.5q0 51 -11.5 97t-38.5 89t-52.5 76t-71.5 73.5t-76 65t-86 66.5q-59 45 -92.5 72t-82 70t-76.5 79t-56 82.5
t-40.5 97.5t-12.5 107q0 162 102.5 261t267.5 99q79 0 140 -24.5t118 -79.5q25 -23 44 -17.5t22 37.5l8 64h43l27 -533h-43q-14 143 -56 249t-119.5 170.5t-183.5 64.5q-120 0 -188 -77t-68 -190q0 -53 17 -102.5t42 -88t70.5 -83.5t84 -76t100.5 -78q52 -39 83 -63
t76.5 -63t73 -69t59 -73t49 -83t29 -90t11.5 -104q0 -170 -107.5 -282.5t-282.5 -112.5zM1399 1573h-119q-51 0 -78 -6t-48.5 -29.5t-32 -64.5t-19.5 -117l-43 6l26 231l7 45h774l6 -45l26 -231l-43 -6q-9 76 -19.5 117t-32 64.5t-48.5 29.5t-78 6h-118q-15 0 -24 -9t-9 -24
v-606q0 -52 4 -77.5t19.5 -45.5t44 -25.5t81.5 -5.5v-43h-393v43q53 0 81.5 5.5t44.5 25t20 45.5t4 78v606q0 15 -9.5 24t-23.5 9zM1481 -33q-38 0 -66.5 28t-28.5 66q0 40 28.5 68.5t66.5 28.5q39 0 66.5 -28.5t27.5 -68.5q0 -39 -27.5 -66.5t-66.5 -27.5z" />
    <glyph glyph-name="s_t" horiz-adv-x="1325" 
d="M1239 436h47q0 -238 -49.5 -353.5t-175.5 -115.5q-107 0 -157 83t-50 282v676h-147v59q198 3 208 299v14q0 110 -46.5 169t-139.5 59q-106 0 -162.5 -75.5t-56.5 -213.5q0 -105 21 -211.5t42.5 -168t59.5 -153.5l-41 -22q-33 65 -59 107t-60.5 84.5t-73 63.5t-82.5 21
q-60 0 -101.5 -43.5t-41.5 -115.5q0 -44 24.5 -85t51 -66t107.5 -92q7 -6 10 -9q106 -89 160 -144t85 -115.5t31 -127.5q0 -131 -77 -203t-187 -72q-47 0 -88 13t-63.5 29t-43.5 29t-34 13q-33 0 -33 -63h-45v399h41q16 -178 87 -263t173 -85q77 0 119.5 52t42.5 132
q0 26 -5 48.5t-11.5 40.5t-25 42t-31.5 39t-46.5 45.5t-54.5 48t-70 58.5q-78 63 -120.5 105t-71.5 97t-29 115q0 105 70.5 177.5t168.5 72.5q112 0 193 -115l4 2q-28 58 -47 155.5t-19 195.5q0 150 76.5 249t210.5 99q115 0 177.5 -83t62.5 -249v-289h250v-69h-248v-605
q0 -56 1.5 -94.5t5.5 -81t12.5 -69.5t21.5 -50.5t33.5 -34t48.5 -10.5q147 0 147 373z" />
    <glyph glyph-name="zero.dnom" horiz-adv-x="636" 
d="M317 -23q-94 0 -160.5 70.5t-97 183.5t-30.5 256q0 141 30.5 253.5t97 183.5t160.5 71q95 0 162 -70.5t98 -183t31 -254.5q0 -144 -31 -257t-98 -183t-162 -70zM317 20q67 0 112 64t64 166t19 237q0 134 -19 235.5t-64 165.5t-112 64q-51 0 -88.5 -35.5t-60 -100
t-33 -146.5t-10.5 -183q0 -137 18.5 -238.5t62.5 -165t111 -63.5z" />
    <glyph glyph-name="one.dnom" horiz-adv-x="360" 
d="M231 985v-868q0 -58 21.5 -74t103.5 -16v-27h-350v27q88 0 110.5 16t22.5 74v717q0 29 -2 41.5t-8 23t-22.5 6.5t-40.5 -13t-68 -30l-12 27l229 110z" />
    <glyph glyph-name="two.dnom" horiz-adv-x="622" 
d="M133 78h307q56 0 80 22.5t51 98.5l25 -9l-66 -190h-510v27q83 89 133 146t113 138t97 143t58.5 136.5t24.5 144.5q0 85 -38 136t-121 51q-97 0 -152 -80t-57 -211h-33q0 166 73.5 267t203.5 101q108 0 163.5 -64t55.5 -165q0 -82 -32.5 -171t-93 -178.5t-127.5 -169
t-155 -167.5v-6z" />
    <glyph glyph-name="three.dnom" horiz-adv-x="559" 
d="M10 66q0 17 12 28.5t31 11.5q20 0 33 -9t29 -31q33 -41 106 -41q39 0 75 12t68 37t51 71t19 107q0 68 -23 118t-62.5 77t-84 39t-96.5 12v26q227 67 227 248q0 68 -38.5 115t-112.5 47q-149 0 -193 -158h-31q17 110 83.5 166.5t164.5 56.5q93 0 155 -60t62 -159
q0 -79 -50.5 -144t-153.5 -108v-4q114 -14 179.5 -80t65.5 -178q0 -130 -93 -207t-230 -77q-75 0 -134 24t-59 60z" />
    <glyph glyph-name="four.dnom" horiz-adv-x="624" 
d="M408 272h-400v72l410 653h74v-653h112v-72h-112v-155q0 -58 19.5 -74t96.5 -16v-27h-319v27q77 0 98 16t21 74v155zM61 348v-4h347v555z" />
    <glyph glyph-name="five.dnom" horiz-adv-x="559" 
d="M215 -18q-80 0 -141.5 26.5t-61.5 61.5q0 20 12 31.5t31 11.5q34 0 64 -41q41 -47 108 -47q39 0 73.5 16.5t64.5 50.5t47.5 95t17.5 141q0 131 -51 195.5t-137 64.5q-81 0 -140 -56l-45 27l95 408h350l-21 -76h-293l-67 -295l6 -4q64 55 154 55q113 0 178 -85.5
t65 -213.5q0 -176 -86 -271t-223 -95z" />
    </font>
</defs>
</svg>
