<?xml version="1.0" standalone="no"?>
<!DOCTYPE svg PUBLIC "-//W3C//DTD SVG 1.1//EN" "http://www.w3.org/Graphics/SVG/1.1/DTD/svg11.dtd" >
<svg xmlns="http://www.w3.org/2000/svg" xmlns:xlink="http://www.w3.org/1999/xlink" version="1.1">
<metadata>
Created by FontForge 20201107 at Wed Nov  5 09:25:24 2025
 By 
Copyright (c) 2019 by Mathieu Desjardins. All rights reserved.
</metadata>
<defs>
<font id="PPEditorialNew-UltralightItalic" horiz-adv-x="1972" >
  <font-face 
    font-family="PP Editorial New Ultralight"
    font-weight="200"
    font-style="italic"
    font-stretch="normal"
    units-per-em="2048"
    panose-1="0 0 3 0 0 0 0 0 0 0"
    ascent="1638"
    descent="-410"
    x-height="1094"
    cap-height="1638"
    bbox="-829 -600 2681 2191"
    underline-thickness="51"
    underline-position="-169"
    slope="-17"
    unicode-range="U+0020-FB02"
  />
<missing-glyph horiz-adv-x="1064" 
d="M199 1679h673v-2130h-673v2130zM709 1466v70h-351v-70h138v-77h-140v-72h353v72h-140v77h140zM569 1112v150h-213v-222h353v72h-140zM426 1190h70v-78h-70v78zM709 913v70h-353v-70h140v-79h-140v-70h213v149h140zM709 643v213h-70v-141h-283v-72h353zM709 354v242h-213
v-121h73v49h70v-100h-213v172h-70v-242h353zM709 -14v241h-353v-241h353zM426 156h213v-99h-213v99zM709 -133v70h-353v-70h148l-148 -100v-70h353v70h-217l149 100h68z" />
    <glyph glyph-name="f_f" unicode="ff" horiz-adv-x="1081" 
d="M1354 1679q62 0 90.5 -15t28.5 -48q0 -30 -20 -53t-56 -23q-28 0 -89 31t-96 31t-58.5 -26.5t-49.5 -105.5q-15 -48 -37 -142t-35 -136l-35 -115h238l-18 -53h-236l-258 -850q-41 -135 -95.5 -244.5t-124.5 -197t-160 -135.5t-191 -48q-105 0 -105 64q0 38 31.5 64
t73.5 26q27 0 72 -22.5t75 -22.5q89 0 150.5 109t148.5 397l262 860h-403l-271 -887q-41 -137 -97.5 -250t-128.5 -200.5t-163 -136t-192 -48.5q-103 0 -103 64q0 38 31 65t74 27q29 0 75.5 -23.5t77.5 -23.5q89 0 150.5 108.5t150.5 397.5l275 907h-191l17 53h188l21 66
q19 65 36 113t41 101.5t48.5 91t57.5 73.5t71 58t86.5 35t105.5 13q111 0 111 -61q0 -31 -20.5 -53.5t-55.5 -22.5q-27 0 -86.5 29.5t-93.5 29.5q-35 0 -58 -26t-49 -105q-15 -46 -36.5 -140t-36.5 -140l-19 -62h404l34 117q28 91 51.5 153.5t61 130t81 108t107 67
t142.5 26.5z" />
    <glyph glyph-name="f_f_i" unicode="ffi" horiz-adv-x="1591" 
d="M1296 1591q-40 0 -74 -21t-58 -53t-48 -86.5t-40 -103t-39 -121.5q-10 -33 -15 -49l-25 -80h398q58 0 102 35l25 -10l-287 -881q-23 -71 -23 -104q0 -51 41 -51q59 0 124.5 83.5t123.5 212.5h43q-29 -70 -65 -133.5t-79.5 -119t-94.5 -88.5t-101 -33q-108 0 -108 106
q0 45 26 129l256 801h-397l-256 -850q-41 -135 -95 -244.5t-124 -197t-160 -135.5t-192 -48q-105 0 -105 64q0 38 31.5 64t73.5 26q27 0 72 -22.5t75 -22.5q88 0 150 110t149 396l260 860h-401l-258 -840q-41 -137 -97.5 -250t-129 -200.5t-163.5 -136t-192 -48.5
q-102 0 -102 64q0 38 30.5 64t73.5 26q29 0 76 -22.5t78 -22.5q89 0 150.5 108.5t150.5 397.5l260 860h-191l17 53h188l21 66q19 65 36 113t41 101.5t48.5 91t57.5 73.5t71 58t86.5 35t105.5 13q111 0 111 -61q0 -31 -21.5 -53.5t-58.5 -22.5q-33 0 -87 29.5t-87 29.5
q-37 0 -64 -27t-47 -104q-9 -33 -33.5 -136.5t-44.5 -170.5l-10 -35h402l24 82q79 262 195 382t315 120q209 0 209 -90q0 -30 -21 -55t-61 -25q-34 0 -72.5 25t-81.5 50t-88 25z" />
    <glyph glyph-name="f_i" unicode="fi" horiz-adv-x="1067" 
d="M770 1591q-40 0 -74.5 -22t-58 -54t-48.5 -89.5t-41 -105t-40 -124.5l-12 -39l-25 -80h399q56 0 103 35l22 -10l-286 -881q-23 -89 -23 -104q0 -51 41 -51q59 0 124.5 83.5t123.5 212.5h43q-38 -95 -88 -176t-118 -139.5t-134 -58.5q-109 0 -109 106q0 42 27 129l258 801
h-399l-256 -850q-41 -134 -96.5 -244.5t-127 -197t-162 -135t-190.5 -48.5q-61 0 -83.5 17t-22.5 47q0 38 30.5 64t73.5 26q29 0 76 -22.5t78 -22.5q89 0 150.5 108.5t150.5 397.5l260 860h-189l17 53h188l25 82q78 262 194 382t316 120q110 0 159.5 -25.5t49.5 -64.5
q0 -29 -22 -54.5t-62 -25.5q-34 0 -72.5 25t-81.5 50t-88 25z" />
    <glyph glyph-name="f_l" unicode="fl" horiz-adv-x="1083" 
d="M743 66q59 0 124.5 83.5t123.5 212.5h43q-38 -95 -88 -176t-118 -139.5t-134 -58.5q-108 0 -108 106q0 52 24 129l406 1317q-19 3 -99 32.5t-137 29.5q-20 0 -45 -7t-56 -23t-59.5 -50.5t-44.5 -81.5q-3 -12 -26.5 -103.5t-40.5 -144.5l-35 -115h236l-19 -53h-233
l-258 -850q-41 -134 -96.5 -244.5t-127 -197t-162 -135t-190.5 -48.5q-61 0 -83.5 17t-22.5 47q0 38 30.5 64t73.5 26q29 0 76 -22.5t78 -22.5q89 0 150.5 108.5t150.5 397.5l260 860h-189l17 53h188l35 117q22 75 46.5 133.5t58 116t76 98.5t96 73t124 48t154.5 16
q94 0 111 -45q43 7 98 62l25 -8l-453 -1467q-21 -81 -21 -104q0 -51 41 -51z" />
    <glyph glyph-name=".notdef" horiz-adv-x="1064" 
d="M199 1679h673v-2130h-673v2130zM709 1466v70h-351v-70h138v-77h-140v-72h353v72h-140v77h140zM569 1112v150h-213v-222h353v72h-140zM426 1190h70v-78h-70v78zM709 913v70h-353v-70h140v-79h-140v-70h213v149h140zM709 643v213h-70v-141h-283v-72h353zM709 354v242h-213
v-121h73v49h70v-100h-213v172h-70v-242h353zM709 -14v241h-353v-241h353zM426 156h213v-99h-213v99zM709 -133v70h-353v-70h148l-148 -100v-70h353v70h-217l149 100h68z" />
    <glyph glyph-name=".null" horiz-adv-x="0" 
 />
    <glyph glyph-name="nonmarkingreturn" horiz-adv-x="682" 
 />
    <glyph glyph-name="space" unicode=" " horiz-adv-x="407" 
 />
    <glyph glyph-name="exclam" unicode="!" horiz-adv-x="393" 
d="M436 1567q18 59 41 85.5t60 26.5q55 0 55 -59q0 -24 -12 -68q-11 -36 -63.5 -169t-145.5 -394.5t-197 -595.5h-41q98 329 164.5 595t96.5 403.5t42 175.5zM29 -20q-32 0 -54 20t-22 51q0 47 36 83t81 36q33 0 53 -20.5t20 -51.5q0 -46 -34.5 -82t-79.5 -36z" />
    <glyph glyph-name="quotedbl" unicode="&#x22;" horiz-adv-x="632" 
d="M381 1577q29 102 92 102q75 0 41 -110q-17 -55 -41.5 -116t-66 -157t-68.5 -161l-43 4q15 72 29.5 163.5t27 155t29.5 119.5zM670 1577q17 53 39.5 77.5t54.5 24.5q75 0 41 -110q-17 -55 -40.5 -114.5t-68 -160t-69.5 -159.5l-41 4q13 66 38 216t46 222z" />
    <glyph glyph-name="numbersign" unicode="#" horiz-adv-x="1597" 
d="M1614 1210v-86h-328l-166 -573h350v-86h-374l-146 -506h-88l146 506h-441l-145 -506h-90l145 506h-313v86h338l166 573h-361v86h385l135 469h91l-136 -469h441l135 469h88l-135 -469h303zM592 551h440l166 573h-440z" />
    <glyph glyph-name="dollar" unicode="$" horiz-adv-x="1044" 
d="M907 1726l-41 -137q82 -16 156 -54.5t123 -84.5l-90 -274h-43q24 82 24 145q0 84 -49.5 136.5t-140.5 66.5l-201 -654q131 -124 191.5 -219t60.5 -202q0 -96 -36.5 -183t-103 -153.5t-166.5 -106.5t-220 -41l-43 -139h-64l43 141q-189 18 -327 148l106 362h43
q-33 -109 -33 -192q0 -119 63.5 -179.5t168.5 -68.5l231 751q-119 112 -178 202t-59 192q0 183 122.5 299t331.5 116h31l39 129h61zM598 918l188 612h-14q-84 0 -150.5 -27t-106.5 -72t-60.5 -99.5t-20.5 -114.5q0 -72 39.5 -142t124.5 -157zM778 399q0 165 -172 342
l-215 -706q95 4 170.5 36t122 83.5t70.5 114t24 130.5z" />
    <glyph glyph-name="percent" unicode="%" horiz-adv-x="1478" 
d="M442 850q-74 0 -113.5 57.5t-39.5 151.5q0 122 57 266t154 249t196 105q74 0 114 -57.5t40 -151.5q0 -90 -35 -199t-90.5 -202t-132 -156t-150.5 -63zM158 0l1192 1638h77l-1189 -1638h-80zM446 901q74 0 151.5 107t125 248.5t47.5 246.5q0 123 -78 123q-56 0 -116 -64.5
t-104.5 -157t-73.5 -196.5t-29 -182q0 -125 77 -125zM956 -27q-74 0 -113.5 57.5t-39.5 151.5q0 122 57.5 266.5t154.5 249.5t195 105q74 0 115 -57.5t41 -151.5q0 -90 -35 -199t-91 -202.5t-132.5 -156.5t-151.5 -63zM963 25q73 0 150.5 107t125 248.5t47.5 246.5
q0 125 -80 125q-56 0 -116 -65t-104.5 -158t-73.5 -197t-29 -182q0 -125 80 -125z" />
    <glyph glyph-name="ampersand" unicode="&#x26;" horiz-adv-x="1439" 
d="M1354 891l-17 -43q-94 0 -143.5 -26.5t-85.5 -110.5q-150 -322 -311 -506q97 -125 229 -125q114 0 181 87.5t67 235.5q0 88 -23 183l39 14q35 -123 35 -221q0 -184 -94 -294t-254 -110q-153 0 -270 140q-170 -148 -357 -148q-153 0 -246.5 85.5t-93.5 248.5
q0 82 26.5 158.5t68 136t106.5 119.5t126.5 104.5t143.5 95.5v33q0 134 36 253.5t93.5 202.5t128.5 144t142 90t133 29q75 0 120.5 -42t45.5 -122q0 -50 -16 -98t-40 -87t-64 -79.5t-77 -71t-90 -66t-91.5 -58.5t-92.5 -55q-13 -7 -19 -11q-22 -12 -90 -55
q5 -168 45.5 -354.5t118.5 -313.5q136 161 260 455q38 89 21.5 114t-125.5 25l16 43h418zM1001 1612q-57 0 -125 -44t-130.5 -121t-104.5 -200.5t-43 -263.5q9 6 45 27q457 259 457 493q0 53 -27 81t-72 28zM391 45q148 0 283 117q-86 129 -132 317t-57 367
q-79 -55 -139 -110.5t-108 -121t-73.5 -140.5t-25.5 -157q0 -141 70.5 -206.5t181.5 -65.5z" />
    <glyph glyph-name="quotesingle" unicode="'" horiz-adv-x="315" 
d="M377 1577q29 102 92 102q36 0 47.5 -27.5t-6.5 -82.5q-16 -56 -38.5 -113.5t-68.5 -162t-69 -158.5l-41 4q13 70 28 163t27 156t29 119z" />
    <glyph glyph-name="parenleft" unicode="(" horiz-adv-x="702" 
d="M334 -469l-15 -41q-128 125 -197 294t-69 370q0 292 124.5 615.5t339 595t464.5 415.5l-6 -41q-211 -159 -395.5 -439.5t-293 -602.5t-108.5 -597q0 -340 156 -569z" />
    <glyph glyph-name="parenright" unicode=")" horiz-adv-x="702" 
d="M401 1739l17 41q127 -125 195.5 -294t68.5 -370q0 -219 -73.5 -463t-197.5 -463t-296.5 -405.5t-360.5 -294.5l8 41q210 159 394 439.5t292.5 602.5t108.5 596q0 345 -156 570z" />
    <glyph glyph-name="asterisk" unicode="*" horiz-adv-x="815" 
d="M487 881q-25 0 -40 17.5t-15 41.5q0 27 14 53t34.5 50t51 81t56.5 133q-95 -48 -172.5 -112t-118.5 -84q-29 -14 -45 -14q-30 0 -43.5 15t-13.5 36q0 52 69 84q24 11 122.5 31t195.5 65q-73 47 -176 74q-105 20 -105 78q0 38 28 62t64 24q51 0 101 -93q36 -71 106 -125
q6 22 11 44t7 36t3.5 35.5t1.5 27.5v29v23q0 186 102 186q53 0 53 -53q0 -34 -26 -79t-66 -112.5t-63 -136.5q94 48 173 113t99 76q49 29 70 29q24 0 37.5 -15.5t13.5 -36.5q0 -60 -90 -88q-23 -10 -113.5 -31.5t-183.5 -66.5q86 -56 164 -70q35 -8 56.5 -15t41.5 -23.5
t20 -39.5q0 -29 -20 -49q-32 -37 -70 -37q-54 0 -102 89q-37 72 -107 124q-26 -89 -26 -190q0 -75 -6 -100q-9 -40 -33 -63t-60 -23z" />
    <glyph glyph-name="plus" unicode="+" horiz-adv-x="972" 
d="M451 563h-340l30 99h342l109 352h106l-108 -352h338l-29 -99h-340l-106 -348h-107z" />
    <glyph glyph-name="comma" unicode="," horiz-adv-x="411" 
d="M-104 -248l-15 41q91 31 144.5 89.5t58.5 119.5q-25 -14 -55 -14q-33 0 -52.5 21t-19.5 54q0 42 29 74.5t80 32.5q44 0 72 -30t28 -89q0 -31 -15 -69.5t-45 -80.5t-84.5 -82t-125.5 -67z" />
    <glyph glyph-name="hyphen" unicode="-" horiz-adv-x="815" 
d="M725 502h-633l31 102h631z" />
    <glyph glyph-name="period" unicode="." horiz-adv-x="354" 
d="M10 -20q-34 0 -56 20t-22 51q0 47 36.5 83t82.5 36q33 0 53.5 -20.5t20.5 -51.5q0 -46 -35.5 -82t-79.5 -36z" />
    <glyph glyph-name="slash" unicode="/" horiz-adv-x="657" 
d="M-78 -33l903 1731h88l-901 -1731h-90z" />
    <glyph glyph-name="zero" unicode="0" horiz-adv-x="1060" 
d="M389 -31q-140 0 -214.5 108t-74.5 310q0 116 25.5 255.5t71.5 282.5t115 277.5t149.5 239.5t182 168t206.5 63q138 0 212.5 -107t74.5 -304q0 -99 -18.5 -217t-54.5 -242t-84.5 -244.5t-114 -226.5t-138 -187.5t-160.5 -128.5t-178 -47zM393 39q99 0 196 91t171 235.5
t132.5 316t89 341t30.5 302.5q0 61 -7.5 108t-26 87t-53.5 62t-85 22q-82 0 -164 -64.5t-148.5 -170t-124 -241.5t-96.5 -278.5t-61.5 -281t-22.5 -249.5q0 -60 7.5 -106.5t25 -87.5t52.5 -63.5t85 -22.5z" />
    <glyph glyph-name="one" unicode="1" horiz-adv-x="614" 
d="M702 1638l-444 -1450q-30 -92 -7.5 -118.5t140.5 -26.5l-18 -43h-488l21 43q108 0 159.5 28t77.5 117l375 1227q9 31 13.5 45.5t7 33t0.5 24.5t-10 12t-20 4t-35 -7t-49 -14t-67 -24l7 53l321 119z" />
    <glyph glyph-name="two" unicode="2" horiz-adv-x="960" 
d="M80 115h457q38 0 74 15.5t64 38.5t59 63.5t54 76t54 90.5h45l-225 -399h-771l5 45q1013 846 1013 1311q0 98 -45.5 154.5t-142.5 56.5q-142 0 -265.5 -138.5t-174.5 -359.5h-50q56 271 206 436.5t343 165.5q120 0 188 -69t68 -193q0 -115 -57 -253t-150.5 -271.5
t-220 -273t-257.5 -259.5t-271 -231v-6z" />
    <glyph glyph-name="three" unicode="3" horiz-adv-x="868" 
d="M201 -33q-111 0 -199 35.5t-88 87.5q0 28 25.5 51t58.5 23q24 0 44.5 -13.5t37.5 -32.5t36.5 -38.5t53 -33t76.5 -13.5q106 0 205 69.5t161 189t62 255.5q0 154 -92 232.5t-271 78.5l11 45q243 71 387.5 210t144.5 290q0 82 -43 127t-129 45q-74 0 -136 -27t-105 -73.5
t-72 -99t-47 -113.5h-46q50 193 176.5 301t274.5 108q123 0 188.5 -65t65.5 -179q0 -85 -46 -171.5t-119 -153.5t-160.5 -118t-172.5 -73v-10q143 -6 232.5 -101.5t89.5 -244.5q0 -115 -49 -223t-130.5 -188t-193 -128.5t-231.5 -48.5z" />
    <glyph glyph-name="four" unicode="4" horiz-adv-x="995" 
d="M594 453h-576l15 114l946 1104h100l-338 -1106h183l-35 -112h-182l-82 -265q-31 -92 -11 -118.5t131 -26.5l-16 -43h-448l16 43q96 0 142.5 28t74.5 117zM117 573l-4 -8h516l295 953z" />
    <glyph glyph-name="five" unicode="5" horiz-adv-x="858" 
d="M213 -33q-102 0 -189 36.5t-87 88.5q0 27 24.5 49.5t58.5 22.5q25 0 45 -13.5t35.5 -32.5t33.5 -38.5t48 -33t70 -13.5q102 0 203 106.5t165 274t64 334.5q0 266 -190 266q-58 0 -107.5 -23.5t-110.5 -72.5l-45 49l226 671h536l-37 -114h-477l-168 -512l8 -4
q110 96 240 96q120 0 188 -85t68 -247q0 -144 -47.5 -289t-127 -259t-192.5 -185.5t-235 -71.5z" />
    <glyph glyph-name="six" unicode="6" horiz-adv-x="952" 
d="M666 1110q126 0 189 -90t63 -236q0 -75 -16 -162.5t-47 -179.5t-79.5 -176.5t-109 -151.5t-141.5 -107t-171 -40q-142 0 -220.5 98.5t-78.5 272.5q0 118 34.5 250t97.5 265t160.5 261.5t215.5 237t269.5 195t316.5 132.5l8 -41q-227 -82 -420 -251.5t-331 -385.5
q130 109 260 109zM362 37q80 0 152.5 54t122.5 139t87 188t55 202t18 181q0 110 -41.5 175.5t-130.5 65.5q-82 0 -170.5 -60.5t-161.5 -186.5q-127 -269 -127 -488q0 -130 51.5 -200t144.5 -70z" />
    <glyph glyph-name="seven" unicode="7" horiz-adv-x="892" 
d="M1153 1638l-997 -1661l-101 48l928 1493l4 10l-471 -2q-95 0 -135 -36t-82 -165l-37 25l64 196l30 92h797z" />
    <glyph glyph-name="eight" unicode="8" horiz-adv-x="942" 
d="M1075 1395q0 -58 -24.5 -116.5t-59 -105.5t-96.5 -103.5t-111.5 -94.5t-128.5 -96q40 -52 61 -81t52.5 -79t48 -88t29 -88.5t12.5 -98.5q0 -128 -66.5 -238t-181 -174.5t-248.5 -64.5q-158 0 -255 86.5t-97 216.5q0 50 15.5 100.5t38.5 92.5t65 90t77.5 83.5t94.5 83
t99 77t106 77.5q-43 57 -69.5 95t-55.5 91t-43 105.5t-14 106.5q0 171 125 286t313 115q149 0 231 -78.5t82 -199.5zM604 946q84 62 142 111t113.5 108.5t83.5 120t28 121.5q0 86 -53 140.5t-160 54.5q-135 0 -222 -84.5t-87 -217.5q0 -90 40 -172.5t115 -181.5zM729 418
q0 102 -45 192t-129 199q-80 -57 -132.5 -97.5t-116 -99t-100 -108t-62 -111t-25.5 -123.5q0 -100 66.5 -165.5t185.5 -65.5q154 0 256 110.5t102 268.5z" />
    <glyph glyph-name="nine" unicode="9" horiz-adv-x="952" 
d="M772 1679q142 0 220.5 -98t78.5 -272q0 -142 -48 -301.5t-143 -320t-224.5 -301t-306.5 -252.5t-374 -167l-6 41q227 82 419 251t331 386q-128 -108 -260 -108q-126 0 -189 89.5t-63 235.5q0 91 22.5 197.5t70 216.5t112 199.5t159 146.5t201.5 57zM829 846
q129 270 129 493q0 131 -51 201t-143 70q-80 0 -152.5 -54t-122.5 -138.5t-87 -187.5t-54.5 -202.5t-17.5 -181.5q0 -111 41 -176.5t131 -65.5q79 0 165.5 60t161.5 182z" />
    <glyph glyph-name="colon" unicode=":" horiz-adv-x="354" 
d="M295 905q-34 0 -56 20.5t-22 51.5q0 46 36.5 81.5t82.5 35.5q33 0 53.5 -19.5t20.5 -50.5q0 -46 -35.5 -82.5t-79.5 -36.5zM12 -20q-34 0 -56 20t-22 51q0 47 36.5 83t82.5 36q33 0 53.5 -20.5t20.5 -51.5q0 -46 -35.5 -82t-79.5 -36z" />
    <glyph glyph-name="semicolon" unicode=";" horiz-adv-x="411" 
d="M293 905q-32 0 -54 20.5t-22 51.5q0 45 36 81t81 36q35 0 55.5 -19.5t20.5 -50.5q0 -46 -35.5 -82.5t-81.5 -36.5zM-104 -248l-15 41q91 31 144.5 89.5t58.5 119.5q-25 -14 -55 -14q-33 0 -52.5 21t-19.5 54q0 42 29 74.5t80 32.5q44 0 72 -30t28 -89q0 -31 -15 -69.5
t-45 -80.5t-84.5 -82t-125.5 -67z" />
    <glyph glyph-name="less" unicode="&#x3c;" horiz-adv-x="868" 
d="M152 700l727 222l-39 -117l-621 -184l-2 -11l514 -182l-33 -100l-592 223z" />
    <glyph glyph-name="equal" unicode="=" horiz-adv-x="843" 
d="M799 735h-633l31 103h632zM717 393h-633l31 101h630z" />
    <glyph glyph-name="greater" unicode="&#x3e;" horiz-adv-x="868" 
d="M768 551l-725 -223l37 116l620 187l2 10l-514 180l35 101l592 -222z" />
    <glyph glyph-name="question" unicode="?" horiz-adv-x="722" 
d="M397 1305h-39l52 315q43 25 107.5 42t131.5 17q123 0 186.5 -60.5t63.5 -172.5q0 -46 -10 -88t-33 -80t-47.5 -69.5t-65.5 -68.5t-74.5 -65t-86.5 -69q-25 -19 -37 -29q-143 -111 -204.5 -178t-61.5 -135q0 -71 77 -138l-26 -34q-65 50 -96 95t-31 101q0 44 17 87.5
t40 76t67 74t76 67t89 68.5q171 132 240 214.5t69 180.5q0 71 -37.5 112.5t-118.5 41.5q-95 0 -152 -68t-96 -237zM225 -20q-32 0 -53.5 20t-21.5 51q0 47 35.5 83t80.5 36q35 0 55.5 -20.5t20.5 -51.5q0 -46 -35.5 -82t-81.5 -36z" />
    <glyph glyph-name="at" unicode="@" horiz-adv-x="1974" 
d="M1821 272h53q-169 -346 -443 -537.5t-616 -191.5q-351 0 -549 195t-198 524q0 149 43.5 301.5t120 288.5t186 255.5t237.5 205.5t279.5 136t306.5 50q282 0 442 -156t160 -421q0 -139 -46 -280t-121 -252.5t-165 -200.5t-183 -137t-169 -48q-65 0 -99 31.5t-34 91.5
q0 72 43 180l94 236h-24q-289 -543 -506 -543q-73 0 -113.5 57.5t-40.5 157.5q0 98 37 219t102.5 236.5t146 213t176.5 157t185 59.5q91 0 138 -62t30 -159h4l70 170q30 0 59.5 17t47.5 44l26 -10l-321 -791q-50 -127 -50 -172q0 -63 66 -63q47 0 108.5 32t125.5 88
t126.5 136.5t111 171.5t78.5 200.5t30 215.5q0 239 -144 378.5t-397 139.5q-145 0 -286.5 -47.5t-260 -130t-220 -196t-172 -243t-110 -274.5t-39.5 -287q0 -309 178.5 -480t493.5 -171q312 0 572.5 171.5t429.5 493.5zM678 96q68 0 166.5 98t181.5 226t135 244
q64 144 64 231q0 66 -34 98.5t-83 32.5q-78 0 -170 -79.5t-166 -196.5t-124 -258t-50 -256q0 -140 80 -140z" />
    <glyph glyph-name="A" unicode="A" horiz-adv-x="1253" 
d="M1061 1671l-72 -1474q-5 -98 25 -126t143 -28l-18 -43h-496l14 43q88 0 129 13.5t56 43.5t18 97l21 335h-574l-241 -368q-44 -67 -47 -81q-6 -25 33 -33q33 -7 130 -7l-14 -43h-422l12 43q75 0 124.5 23t97.5 98l999 1507h82zM350 596h533l51 868h-14z" />
    <glyph glyph-name="B" unicode="B" horiz-adv-x="1165" 
d="M393 0h-493l14 43q116 0 158.5 27t70.5 118l387 1262q34 91 12.5 118t-153.5 27l12 43h467q180 0 284.5 -79.5t104.5 -231.5q0 -123 -71.5 -222t-188 -155.5t-258.5 -68.5l-2 -11q170 -5 266.5 -86.5t96.5 -228.5q0 -161 -95.5 -289t-256.5 -197t-355 -69zM672 1522
l-187 -604q57 -9 113 -9q108 0 206 30t172 83.5t117.5 133t43.5 173.5q0 244 -306 244q-142 0 -159 -51zM459 834l-211 -701q-7 -19 0 -32t39.5 -22t93.5 -9q258 0 423 141.5t165 347.5q0 65 -18.5 115t-49 81t-74.5 51t-90.5 28t-101.5 8q-108 0 -176 -8z" />
    <glyph glyph-name="C" unicode="C" horiz-adv-x="1218" 
d="M526 -33q-105 0 -186 38.5t-131 108t-75 161.5t-25 204q0 123 30 260t83 268.5t132 251.5t170.5 210.5t203.5 144t228 53.5q95 0 159.5 -33.5t111.5 -101.5q19 -28 31 -26.5t24 32.5l45 115l41 -8l-151 -562h-43q18 109 16.5 202.5t-21.5 162.5t-73 108t-138 39
q-120 0 -233.5 -75t-198 -195.5t-149.5 -267t-98 -295.5t-33 -275q0 -199 83.5 -314.5t237.5 -115.5q333 0 586 537h53q-52 -113 -99.5 -198.5t-111.5 -169.5t-131 -138.5t-154 -87.5t-184 -33z" />
    <glyph glyph-name="D" unicode="D" horiz-adv-x="1427" 
d="M406 0h-506l14 43q116 0 158.5 27t70.5 118l387 1262q34 91 12.5 118t-153.5 27l12 43h482q262 0 422.5 -158t160.5 -429q0 -206 -82.5 -398.5t-223 -336t-338.5 -230t-416 -86.5zM414 70q189 0 361.5 85t294 223.5t193.5 319.5t72 369q0 233 -122.5 369.5t-335.5 136.5
q-189 0 -207 -68l-424 -1370q-6 -22 6.5 -36t52 -21.5t109.5 -7.5z" />
    <glyph glyph-name="E" unicode="E" horiz-adv-x="1208" 
d="M1350 1638l-105 -348h-55q17 69 24 109t7 77t-14 54t-41.5 27t-73.5 10h-314q-90 0 -116 -86l-181 -588h307q84 0 125 35.5t72 132.5h45l-129 -440h-45q31 113 12.5 160.5t-98.5 47.5h-305l-197 -636q-23 -77 -12 -99t68 -22h350q116 0 188.5 61.5t173.5 235.5l58 -15
l-197 -354h-997l14 43q116 0 158.5 27t70.5 118l387 1262q34 91 12.5 118t-153.5 27l12 43h949z" />
    <glyph glyph-name="F" unicode="F" horiz-adv-x="1130" 
d="M1405 1638l-105 -348h-55q17 69 24 109.5t7 76.5t-13.5 53.5t-40.5 27.5t-71 10h-391q-71 0 -92 -68l-195 -637h330q86 0 127 35t74 133h45l-134 -459h-47q32 115 13.5 170.5t-97.5 55.5h-329l-187 -609q-11 -36 -15 -53t-3.5 -37.5t10 -28t32.5 -15.5t57 -9.5t89 -1.5
l-14 -43h-524l14 43q116 0 158.5 27t70.5 118l387 1262q34 91 12.5 118t-153.5 27l12 43h1004z" />
    <glyph glyph-name="G" unicode="G" horiz-adv-x="1392" 
d="M1001 1595q-111 0 -223 -62.5t-204 -170t-164 -242.5t-112 -290.5t-40 -303.5q0 -224 100 -354.5t304 -130.5q95 0 187 39.5t161 114.5l116 419q14 45 13.5 77t-31.5 52.5t-110 30.5t-222 10l15 43h608l-8 -43q-54 0 -83.5 -27t-54.5 -114l-139 -489q-210 -187 -475 -187
q-134 0 -235 42.5t-162 120.5t-91 180t-30 229t32.5 262.5t90.5 259.5t141 235.5t179 193t211 129.5t231 48q218 0 313 -158q6 -11 12.5 -15t13 1t11.5 18l55 140l41 -8l-147 -560h-43q18 108 13 201.5t-30.5 162t-87 107.5t-156.5 39z" />
    <glyph glyph-name="H" unicode="H" horiz-adv-x="1437" 
d="M1708 1638l-12 -43q-116 0 -159 -27t-71 -118l-387 -1262q-32 -91 -10 -118t152 -27l-13 -43h-491l12 43q114 0 156.5 27t70.5 118l197 648h-686l-199 -648q-34 -91 -12.5 -118t150.5 -27l-13 -43h-493l14 43q116 0 158.5 27t70.5 118l387 1262q34 91 12.5 118t-153.5 27
l12 43h494l-14 -43q-114 0 -156 -27t-70 -118l-166 -543h687l165 543q34 91 13 118t-148 27l13 43h489z" />
    <glyph glyph-name="I" unicode="I" horiz-adv-x="624" 
d="M143 188l387 1262q34 91 12.5 118t-153.5 27l12 43h494l-12 -43q-115 0 -157.5 -27t-70.5 -118l-387 -1262q-34 -91 -12 -118t154 -27l-15 -43h-495l14 43q116 0 158.5 27t70.5 118z" />
    <glyph glyph-name="J" unicode="J" horiz-adv-x="835" 
d="M471 465l295 985q11 36 15 53t3.5 37.5t-10 28t-32 15.5t-56.5 9.5t-88 1.5l14 43h516l-12 -43q-115 0 -157 -27t-70 -118l-293 -975q-82 -273 -183.5 -390.5t-244.5 -117.5q-60 0 -106 17.5t-72 47.5t-38.5 64.5t-12.5 73.5q0 72 35 126t87 54q26 0 42 -14t16 -39
q0 -26 -36 -76.5t-36 -93.5q0 -42 28 -68t89 -26q45 0 83 20t67.5 54.5t58 91.5t50.5 118t48 148z" />
    <glyph glyph-name="K" unicode="K" horiz-adv-x="1320" 
d="M143 188l387 1262q34 91 12.5 118t-153.5 27l12 43h494l-12 -43q-115 0 -157.5 -27t-70.5 -118l-387 -1262q-34 -91 -12 -118t154 -27l-15 -43h-495l14 43q116 0 158.5 27t70.5 118zM649 922l340 -744q37 -84 84.5 -109.5t149.5 -25.5l-15 -43h-532l10 43
q95 0 138.5 16.5t45 48.5t-19.5 80l-326 711l574 522q100 94 100 127q0 27 -28.5 37t-112.5 10l10 43h502l-13 -43q-97 0 -157.5 -27.5t-157.5 -113.5z" />
    <glyph glyph-name="L" unicode="L" horiz-adv-x="1124" 
d="M899 1638l-12 -43q-117 0 -160.5 -27t-69.5 -118l-385 -1257q-23 -77 -11 -99t75 -22h313q62 0 99.5 9.5t78 45t76 90.5t94.5 160l54 -17l-191 -360h-960l14 43q116 0 158.5 27t70.5 118l387 1262q34 91 12.5 118t-153.5 27l12 43h498z" />
    <glyph glyph-name="M" unicode="M" horiz-adv-x="1759" 
d="M745 1638l23 -1437h6l823 1437h351l-13 -43q-104 0 -142 -28t-60 -119l-308 -1258q-30 -91 -1 -119t178 -28l-15 -43h-518l14 43q115 0 155 27.5t62 119.5l320 1330h-8l-903 -1561h-58l-30 1540h-7l-401 -1311q-33 -91 -11 -118t152 -27l-12 -43h-442l14 43
q116 0 158.5 27t70.5 118l385 1262q34 91 12.5 118t-153.5 27l12 43h346z" />
    <glyph glyph-name="N" unicode="N" horiz-adv-x="1460" 
d="M1747 1638l-12 -43q-117 0 -160.5 -27t-69.5 -118l-452 -1479h-76l-397 1422l-363 -1205q-34 -91 -8.5 -118t172.5 -27l-14 -43h-467l14 43q116 0 158.5 27t70.5 118l400 1321q-22 52 -53 69t-91 17l11 43h233l393 -1421h17l377 1233q34 91 8.5 118t-172.5 27l14 43h467z
" />
    <glyph glyph-name="O" unicode="O" horiz-adv-x="1304" 
d="M492 -33q-127 0 -215.5 66t-129.5 177.5t-41 260.5q0 168 48.5 344t134.5 327t195 271t238 189t255 69q128 0 216 -66t128.5 -177t40.5 -259q0 -141 -34.5 -288.5t-94.5 -279t-144 -249t-179 -202t-203.5 -134t-214.5 -49.5zM532 39q122 0 250 105t225 267.5t159.5 370
t62.5 400.5q0 93 -15.5 166.5t-48.5 132t-91 90t-138 31.5q-122 0 -249.5 -105.5t-224.5 -268.5t-159.5 -370.5t-62.5 -400.5q0 -418 292 -418z" />
    <glyph glyph-name="P" unicode="P" horiz-adv-x="1128" 
d="M-100 0l14 43q116 0 158.5 27t70.5 118l387 1262q34 91 12.5 118t-153.5 27l12 43h480q193 0 300 -80t107 -251q0 -82 -26 -165t-78 -158t-124 -133.5t-172.5 -93t-213.5 -34.5q-136 0 -234 37l-174 -572q-8 -27 -12 -41t-6.5 -32.5t0 -26t10 -18t21 -14t35.5 -7.5t50 -5
t68 -1l-14 -43h-518zM672 793q98 0 180.5 32.5t138 85.5t95 122t57.5 140.5t18 141.5q0 258 -295 258q-102 0 -144 -16t-54 -58l-205 -668q116 -38 209 -38z" />
    <glyph glyph-name="Q" unicode="Q" horiz-adv-x="1320" 
d="M987 -309q134 0 199 96l39 -20q-43 -82 -116 -132.5t-171 -50.5q-132 0 -344 117q-94 51 -143.5 75t-116 44t-125.5 20q-65 0 -170 -22l51 141q143 -14 316 16q-148 31 -224 164t-76 332q0 168 48.5 344t134.5 327t195 271t238 189t255 69q128 0 216 -66t128.5 -177
t40.5 -259q0 -229 -86.5 -463t-231.5 -413.5t-313 -263.5q-77 -40 -163.5 -67.5t-165 -38.5t-129 -15t-95.5 -4l-6 -19q55 6 111 6q67 0 140 -19.5t115.5 -38t129.5 -60.5q168 -82 319 -82zM240 457q0 -418 292 -418q122 0 250 105t225 267.5t159.5 370t62.5 400.5
q0 93 -15.5 166.5t-48.5 132t-91 90t-138 31.5q-122 0 -249.5 -105.5t-224.5 -268.5t-159.5 -370.5t-62.5 -400.5z" />
    <glyph glyph-name="R" unicode="R" horiz-adv-x="1230" 
d="M-100 0l14 43q116 0 158.5 27t70.5 118l387 1262q34 91 12.5 118t-153.5 27l12 43h441q198 0 305.5 -83.5t107.5 -235.5q0 -141 -88 -250.5t-236.5 -165t-326.5 -47.5l-6 -10q68 -9 110.5 -53.5t71.5 -139.5l113 -366q23 -78 42 -121t50 -73t71.5 -40t106.5 -10l-12 -43
h-92q-46 0 -77 5t-64 20.5t-56.5 44t-47 77t-44.5 119.5l-117 391q-29 93 -74 130t-114 42l-195 -641q-8 -27 -12 -41t-6.5 -32.5t0 -26t10 -18t21 -14t35.5 -7.5t50 -5t68 -1l-16 -43h-520zM670 1499l-178 -584q23 -2 65 -2q166 1 292 44.5t201.5 136t75.5 225.5
q0 132 -80.5 193t-240.5 61q-57 0 -89.5 -16.5t-45.5 -57.5z" />
    <glyph glyph-name="S" unicode="S" horiz-adv-x="980" 
d="M463 -18q-188 0 -328 165q-41 47 -65 -28l-39 -119h-51l137 514h45q-24 -117 4.5 -220.5t106 -169t188.5 -65.5q75 0 133.5 28t92 74.5t50.5 100.5t17 113q0 107 -50 205t-149 225l-76 102q-74 97 -113.5 178.5t-39.5 184.5q0 78 26.5 148.5t76 127t130 90t180.5 33.5
q92 0 159.5 -34.5t133.5 -112.5q14 -14 25 -12.5t16 14.5l45 102h47l-127 -461h-45q34 208 -35.5 320t-214.5 112q-143 0 -220 -88t-77 -215q0 -50 11 -94t35.5 -87t41.5 -68t52 -70l69 -92q97 -129 133 -189q89 -152 89 -286q0 -64 -16 -125t-49.5 -116t-81.5 -96t-117 -65
t-150 -24z" />
    <glyph glyph-name="T" unicode="T" horiz-adv-x="1142" 
d="M160 0l12 43q117 0 160 27t71 118l400 1309q20 70 -51 70h-144q-41 0 -66 -2.5t-50 -15.5t-40 -27.5t-36.5 -51.5t-38.5 -73t-47 -107h-56l125 348h1028l-81 -348h-58q15 74 21 117t4 78t-18 50.5t-43 23.5t-74 8h-160q-68 0 -92 -70l-400 -1309q-34 -91 -9.5 -118
t165.5 -27l-14 -43h-508z" />
    <glyph glyph-name="U" unicode="U" horiz-adv-x="1402" 
d="M565 -31q-124 0 -209 41t-123.5 114.5t-42.5 174t35 219.5l289 932q34 91 12.5 118t-151.5 27l12 43h494l-13 -43q-117 0 -160 -27t-69 -118l-291 -942q-67 -211 -4.5 -338t244.5 -127q376 0 538 520l273 887q9 28 12.5 41.5t6.5 32t0.5 26t-10 18t-20.5 14t-34.5 7.5
t-49 5t-67.5 1l14 43h430l-10 -43q-96 0 -133 -27t-65 -118l-273 -895q-26 -86 -55 -156.5t-69 -139t-89.5 -119.5t-111 -90.5t-140 -60t-170.5 -20.5z" />
    <glyph glyph-name="V" unicode="V" horiz-adv-x="1359" 
d="M590 1444l-94 -1245h14l870 1278q45 65 49 78q8 25 -29 33q-32 7 -130 7l14 43h430l-12 -43q-80 0 -132.5 -22.5t-103.5 -95.5l-1034 -1510h-65l96 1475q6 98 -19 125.5t-122 27.5l14 43h473l-14 -43q-87 0 -128 -13t-57 -43t-20 -95z" />
    <glyph glyph-name="W" unicode="W" horiz-adv-x="1861" 
d="M2173 1638l-12 -43q-77 0 -125.5 -25t-91.5 -104l-826 -1499h-65l61 1245l-661 -1245h-64l74 1475q5 97 -20.5 125t-120.5 28l14 43h440l-12 -43q-77 0 -112.5 -13.5t-48.5 -43t-17 -96.5l-72 -1219h14l594 1137l4 82q5 98 -16 125.5t-102 27.5l12 43h422l-12 -43
q-110 0 -142.5 -28.5t-38.5 -124.5l-71 -1219h14l670 1243q38 71 39 88q2 24 -31 32q-34 9 -133 9l14 43h422z" />
    <glyph glyph-name="X" unicode="X" horiz-adv-x="1316" 
d="M1141 1595l10 43h432l-10 -43q-79 0 -130 -30t-143 -133l-507 -574l168 -668q23 -92 63.5 -119.5t142.5 -27.5l-14 -43h-481l14 43q126 0 151 28t-3 119l-146 578l-485 -594q-63 -74 -43.5 -102.5t137.5 -28.5l-8 -43h-455l12 43q87 0 147 33t150 141l527 627l-154 604
q-23 92 -59 119.5t-123 27.5l14 43h436l-12 -43q-114 0 -135.5 -28t6.5 -119l129 -514l461 528q65 76 45.5 104.5t-137.5 28.5z" />
    <glyph glyph-name="Y" unicode="Y" horiz-adv-x="1228" 
d="M748 723l-164 -535q-9 -29 -12.5 -41.5t-6.5 -31.5t-1 -26.5t9 -18t19.5 -14t33 -7.5t47 -5t64.5 -1l-14 -43h-506l12 43q117 0 160.5 27t71.5 118l164 533l-133 725q-17 93 -49.5 121t-118.5 28l12 43h455l-15 -43q-45 0 -73.5 -2t-48.5 -9.5t-29.5 -16.5t-12.5 -28.5
t-1.5 -38.5t7.5 -54l109 -627h10l492 662q5 7 15 20q27 37 35 50.5t-1.5 26.5t-43.5 15t-108 2l15 43h424l-13 -43q-77 0 -129 -21.5t-106 -92.5z" />
    <glyph glyph-name="Z" unicode="Z" horiz-adv-x="1052" 
d="M424 1638h866l-1188 -1566h488q58 0 96.5 12.5t77 52.5t71.5 100t83 169h55l-160 -406h-876v43l1157 1524h-437q-120 0 -172 -55t-112 -232h-56z" />
    <glyph glyph-name="bracketleft" unicode="[" horiz-adv-x="507" 
d="M123 -512h-336l700 2294h336l-20 -70h-207l-659 -2154h208z" />
    <glyph glyph-name="backslash" unicode="\" horiz-adv-x="839" 
d="M373 1698h88l186 -1731h-88z" />
    <glyph glyph-name="bracketright" unicode="]" horiz-adv-x="507" 
d="M401 1782h336l-700 -2294h-336l20 70h207l660 2154h-207z" />
    <glyph glyph-name="asciicircum" unicode="^" horiz-adv-x="1103" 
d="M303 817h-117l641 821h119l139 -821h-106l-115 711h-14z" />
    <glyph glyph-name="underscore" unicode="_" horiz-adv-x="1404" 
d="M1184 -184l-23 -78h-1407l25 78h1405z" />
    <glyph glyph-name="grave" unicode="`" horiz-adv-x="468" 
d="M354 1642l181 -364h-50l-276 364h145z" />
    <glyph glyph-name="a" unicode="a" horiz-adv-x="1007" 
d="M670 66q59 0 123.5 83t124.5 213h43q-39 -95 -89.5 -176t-119 -139.5t-134.5 -58.5q-108 0 -108 106q0 13 4 30t8 29t13 35.5t12 32.5l117 322h-19q-41 -89 -94 -180.5t-117.5 -180t-134.5 -144.5t-129 -56q-158 0 -158 237q0 128 56 285.5t140.5 289t194 221t207.5 89.5
q89 0 132.5 -60t35.5 -163h6l62 170q33 0 62.5 17t47.5 44l23 -10l-322 -883q-2 -7 -8 -24.5t-10 -28.5t-7 -25.5t-3 -23.5q0 -51 41 -51zM205 80q64 0 159.5 100.5t177.5 236t124 251.5q47 125 47 217q0 143 -101 143t-215 -132t-189 -320t-75 -343q0 -153 72 -153z" />
    <glyph glyph-name="b" unicode="b" horiz-adv-x="925" 
d="M745 1104q150 0 150 -246q0 -106 -29 -228t-83.5 -237.5t-125 -210t-160.5 -152t-182 -57.5q-157 0 -299 84l459 1413q24 73 -3 100t-138 27l12 41q161 0 210 9.5t79 48.5l24 -8l-344 -1061q42 89 88 166t102.5 151t119 117t120.5 43zM324 47q87 0 172 79.5t144.5 199
t96.5 258.5t37 258q0 82 -17.5 123t-60.5 41q-65 0 -155 -101.5t-165 -235t-124 -261.5l-105 -306q67 -55 177 -55z" />
    <glyph glyph-name="c" unicode="c" horiz-adv-x="733" 
d="M244 -27q-100 0 -155.5 81.5t-55.5 219.5q0 181 80.5 376t210.5 326.5t260 131.5q68 0 110.5 -43t42.5 -119q0 -83 -39.5 -154t-89.5 -71q-25 0 -40 17.5t-15 43.5q0 25 17.5 46t38 34.5t38 40t17.5 62.5q0 32 -21 53.5t-68 21.5q-82 0 -161.5 -75.5t-134.5 -188.5
t-89 -242.5t-34 -238.5q0 -105 32 -167t97 -62q84 0 173 91.5t163 241.5h38q-84 -201 -193 -313.5t-222 -112.5z" />
    <glyph glyph-name="d" unicode="d" horiz-adv-x="1028" 
d="M690 66q59 0 123.5 83t124.5 213h43q-39 -95 -89.5 -176t-118.5 -139.5t-134 -58.5q-109 0 -109 106q0 27 31 127l107 322h-25q-32 -71 -71.5 -144.5t-91 -151.5t-102 -137.5t-106 -98t-102.5 -38.5q-81 0 -119.5 66t-38.5 180q0 128 56 285.5t140.5 289t194 221
t207.5 89.5q89 0 132.5 -60t35.5 -163h2l197 589q25 71 -9 99t-147 28l13 41q147 0 208.5 11.5t94.5 46.5l24 -8l-487 -1469q-25 -73 -25 -102q0 -51 41 -51zM205 70q64 0 159 102t177 240t125 256q47 125 47 217q0 143 -101 143t-215 -132t-189 -320t-75 -343
q0 -163 72 -163z" />
    <glyph glyph-name="e" unicode="e" horiz-adv-x="753" 
d="M289 63q93 0 183.5 99t168.5 268h41q-81 -208 -196.5 -332.5t-245.5 -124.5q-101 0 -159 74.5t-58 204.5q0 122 49 271.5t126 278t182.5 215.5t207.5 87q71 0 113 -44.5t42 -117.5q0 -104 -81 -208t-212.5 -178t-275.5 -97q-29 -119 -29 -203q0 -92 39 -142.5t105 -50.5z
M569 1040q-75 0 -152 -80t-134 -196t-95 -248q188 42 321.5 160.5t133.5 265.5q0 98 -74 98z" />
    <glyph glyph-name="f" unicode="f" horiz-adv-x="557" 
d="M831 1679q63 0 90 -14.5t27 -46.5q0 -30 -20.5 -54t-55.5 -24q-28 0 -88.5 31t-95.5 31t-58 -26.5t-48 -105.5q-16 -48 -39 -143t-35 -135l-35 -115h236l-19 -53h-233l-258 -850q-41 -134 -96.5 -244.5t-127 -197t-162 -135t-190.5 -48.5q-106 0 -106 62q0 38 30 65
t72 27q31 0 78.5 -22.5t77.5 -22.5q89 0 150.5 109t148.5 397l262 860h-189l17 53h188l35 117q28 93 51.5 156t61.5 130.5t81 107.5t107 65.5t143 25.5z" />
    <glyph glyph-name="g" unicode="g" horiz-adv-x="897" 
d="M936 1110q80 0 80 -47q0 -24 -18 -44t-52 -20q-20 0 -60.5 13.5t-68.5 13.5q-31 0 -53 -12q49 -73 49 -189q0 -123 -53.5 -239t-144 -192.5t-191.5 -88.5q-270 -38 -270 -119q0 -35 41 -64.5t141 -66.5l203 -78q114 -43 160 -85t46 -107q0 -118 -133.5 -189t-341.5 -71
q-219 0 -359 71.5t-140 176.5q0 99 109 152t306 75q-72 34 -112.5 68.5t-40.5 78.5q0 49 45 85.5t103 54.5t130 28q-75 28 -117 101t-42 172q0 129 61 249.5t161.5 195.5t209.5 75q94 0 155 -64q46 31 100 48.5t97 17.5zM391 356q83 0 156.5 79t114 194.5t40.5 228.5
q0 197 -131 197q-83 0 -156.5 -79.5t-114 -194.5t-40.5 -228q0 -92 32.5 -144.5t98.5 -52.5zM496 -117l-232 86l-14 6q-373 -50 -373 -192q0 -61 61.5 -105.5t155 -65t203.5 -20.5q166 0 251 45t85 117q0 79 -137 129z" />
    <glyph glyph-name="h" unicode="h" horiz-adv-x="985" 
d="M115 0h-117l477 1470q24 73 -3 100t-138 27l12 41q133 0 199.5 13t89.5 45l24 -8l-397 -1221h17q160 341 286.5 489t233.5 148q56 0 86 -34t30 -93t-30.5 -157t-66.5 -181.5t-95.5 -218t-87.5 -201.5q-2 -6 -11 -31.5t-13.5 -42t-4.5 -28.5q0 -51 41 -51q59 0 124.5 83.5
t123.5 212.5h43q-29 -70 -65 -133.5t-79.5 -119t-94.5 -88.5t-101 -33q-109 0 -109 106q0 34 37 127q32 82 112 272.5t115 290.5t35 150q0 76 -49 76q-25 0 -59 -22.5t-78.5 -69t-98.5 -127.5t-114 -189t-131 -263t-143 -339z" />
    <glyph glyph-name="i" unicode="i" horiz-adv-x="585" 
d="M539 1350q-46 0 -74.5 27t-28.5 71q0 45 28.5 71.5t74.5 26.5q45 0 71.5 -26.5t26.5 -71.5q0 -44 -27 -71t-71 -27zM123 221l215 619q41 125 41 145q0 39 -31 39q-49 0 -117 -76t-127 -180h-43q71 136 167 234t186 98q38 0 59 -26.5t21 -65.5q0 -59 -43 -170l-218 -619
q-26 -81 -26 -102q0 -51 41 -51q59 0 124.5 83.5t123.5 212.5h43q-29 -70 -65 -133.5t-79.5 -119t-94.5 -88.5t-101 -33q-109 0 -109 106q0 34 33 127z" />
    <glyph glyph-name="j" unicode="j" horiz-adv-x="512" 
d="M520 1350q-46 0 -74 27t-28 71q0 45 28 71.5t74 26.5q45 0 71.5 -26.5t26.5 -71.5q0 -44 -27 -71t-71 -27zM455 838l-222 -645q-50 -147 -106 -257.5t-130 -201t-171 -138t-213 -47.5q-42 0 -65 18t-23 46q0 38 30 64t72 26q33 0 79 -22.5t81 -22.5q39 0 73 21.5t63 59
t62 109t63 151.5t73 206l221 635q41 125 41 145q0 39 -31 39q-48 0 -116 -76.5t-127 -179.5h-43q71 136 166.5 234t185.5 98q38 0 59 -26.5t21 -65.5q0 -59 -43 -170z" />
    <glyph glyph-name="k" unicode="k" horiz-adv-x="983" 
d="M641 80q103 0 233 264h44q-37 -77 -69.5 -133.5t-74.5 -110.5t-89 -83t-97 -29q-81 0 -119.5 84t-46.5 245q-7 110 -2 203q102 28 185 81t131.5 113t74 117t25.5 101q0 72 -56 72q-32 0 -79.5 -30t-116 -105t-141.5 -185t-160.5 -288t-169.5 -396h-115l477 1470
q24 73 -3 100t-138 27l12 41q140 0 200 11.5t89 46.5l27 -8l-398 -1221h15q63 138 129 248t124 180.5t114 117t101.5 66t86.5 19.5q59 0 91.5 -36.5t32.5 -92.5q0 -51 -30 -115.5t-83 -128.5t-136 -119.5t-177 -81.5h-2q0 -56 11 -188q6 -66 12.5 -110t18 -79t28.5 -51
t41 -16z" />
    <glyph glyph-name="l" unicode="l" horiz-adv-x="532" 
d="M627 1696l24 -8l-475 -1467q-22 -68 -22 -104q0 -51 41 -51q110 0 247 296h43q-39 -95 -89.5 -176t-118.5 -139.5t-134 -58.5q-108 0 -108 106q0 39 28 129l402 1247q26 73 -1 100t-138 27l12 41q145 0 201.5 12t87.5 46z" />
    <glyph glyph-name="m" unicode="m" horiz-adv-x="1468" 
d="M166 0h-117l289 840q41 121 41 145q0 39 -31 39q-49 0 -117 -76t-127 -180h-43q71 136 167 234t186 98q38 0 59 -26.5t21 -65.5q0 -42 -45 -168l-136 -373h17q165 349 280 493t219 144q49 0 77 -34t28 -89q0 -34 -9.5 -76t-32 -99.5t-40 -98.5t-54 -121t-53.5 -119h15
q162 342 288 489.5t234 147.5q56 0 86.5 -34t30.5 -93q0 -76 -42 -194t-126.5 -306.5t-112.5 -257.5q-2 -7 -8 -24.5t-10 -28.5t-7 -25.5t-3 -23.5q0 -26 8.5 -38.5t31.5 -12.5q59 0 123.5 83t124.5 213h43q-39 -95 -89.5 -176t-118 -139.5t-132.5 -58.5q-108 0 -108 106
q0 29 35 127q32 81 88.5 216t89 214t59.5 161.5t27 121.5q0 76 -49 76q-65 0 -180 -139t-257 -429q-75 -157 -188 -442h-117l178 459q11 29 45 115t46.5 120t33 91.5t28 91t7.5 57.5q0 76 -49 76q-38 0 -94 -52.5t-131 -164t-173.5 -316t-205.5 -477.5z" />
    <glyph glyph-name="n" unicode="n" horiz-adv-x="1038" 
d="M166 0h-117l289 840q41 121 41 145q0 39 -31 39q-49 0 -117 -76t-127 -180h-43q71 136 167 234t186 98q38 0 59 -26.5t21 -65.5q0 -42 -45 -168l-136 -373h17q162 342 287.5 489.5t232.5 147.5q56 0 86.5 -34t30.5 -93q0 -76 -39.5 -189.5t-130 -315t-111.5 -253.5
q-2 -6 -11 -31.5t-13.5 -42t-4.5 -28.5q0 -51 41 -51q59 0 124.5 83.5t123.5 212.5h43q-29 -70 -65 -133.5t-79.5 -119t-94.5 -88.5t-101 -33q-108 0 -108 106q0 34 37 127q32 82 112 272.5t115 290.5t35 150q0 76 -49 76q-30 0 -72.5 -30.5t-102.5 -106t-127 -187
t-151.5 -289t-171.5 -397.5z" />
    <glyph glyph-name="o" unicode="o" horiz-adv-x="882" 
d="M274 -27q-113 0 -175 84t-62 228q0 142 51 291.5t130 265.5t183 190t203 74q113 0 177.5 -87.5t64.5 -232.5q0 -141 -51.5 -289.5t-131.5 -263t-184.5 -187.5t-204.5 -73zM307 43q69 0 145 69t136 175.5t99.5 243t39.5 262.5q0 112 -38.5 177.5t-117.5 65.5
q-69 0 -144 -70t-134.5 -177.5t-98 -245t-38.5 -262.5q0 -238 151 -238z" />
    <glyph glyph-name="p" unicode="p" horiz-adv-x="974" 
d="M793 1104q71 0 114 -66t43 -190q0 -90 -30.5 -206t-85 -230t-121.5 -211t-148.5 -157t-158.5 -60q-60 0 -109.5 29.5t-77.5 82.5l-113 -360q-32 -91 -4.5 -117.5t164.5 -26.5l-22 -43h-439l13 43q70 0 108 28.5t66 115.5l370 1182q-59 -107 -143.5 -205.5t-181.5 -159.5
l-23 33q93 60 179.5 158.5t143.5 196t93 192.5l55 176h113l-223 -674h14q41 92 84.5 169.5t95.5 148t110 111t114 40.5zM401 49q74 0 153.5 81t138.5 198.5t97.5 253.5t38.5 243q0 181 -86 181q-51 0 -119 -69.5t-130 -173.5t-115.5 -218t-83.5 -209l-25 -82
q-2 -91 34.5 -148t96.5 -57z" />
    <glyph glyph-name="q" unicode="q" horiz-adv-x="923" 
d="M977 1104l-510 -1370q-35 -91 -22 -116.5t108 -25.5l-14 -43h-445l17 43q105 0 156.5 26.5t82.5 109.5l303 815h-10q-28 -63 -57 -120t-67 -125.5t-78 -123t-83 -102t-89.5 -73.5t-90.5 -26q-166 0 -166 246q0 128 56 285.5t140.5 289t194 221t207.5 89.5q88 0 131.5 -60
t34.5 -163h4l64 170q69 0 108 63zM211 70q64 0 157.5 102.5t172.5 239t123 256.5q47 125 47 217q0 143 -101 143q-75 0 -162 -80t-155.5 -198t-114 -259.5t-45.5 -257.5q0 -82 17.5 -122.5t60.5 -40.5z" />
    <glyph glyph-name="r" unicode="r" horiz-adv-x="761" 
d="M184 0h-118l276 840q37 123 37 145q0 39 -31 39q-49 0 -117 -76t-127 -180h-43q71 136 167 234t186 98q38 0 59 -26.5t21 -65.5q0 -42 -45 -168l-136 -373h15q51 144 106 255.5t106.5 182.5t105 116.5t100 64t92.5 18.5q65 0 65 -51q0 -35 -23 -62.5t-55 -27.5
q-17 0 -45 10t-49 10q-44 0 -98 -49t-122 -156.5t-152 -306t-175 -471.5z" />
    <glyph glyph-name="s" unicode="s" horiz-adv-x="698" 
d="M248 -27q-116 0 -193.5 65t-77.5 144q0 33 17.5 51.5t44.5 18.5q23 0 33 -16t24 -60q23 -70 65 -106.5t113 -36.5q80 0 123 53.5t43 140.5t-69 199l-62 106q-62 103 -87 162.5t-25 122.5q0 126 88.5 208.5t216.5 82.5q96 0 157.5 -53t61.5 -109q0 -31 -18.5 -49
t-43.5 -18q-23 0 -34.5 16t-22.5 49q-20 52 -50 79.5t-89 27.5q-73 0 -117.5 -47t-44.5 -130q0 -93 76 -219l59 -104q48 -84 65 -116t30.5 -73t13.5 -83q0 -134 -84.5 -220t-212.5 -86z" />
    <glyph glyph-name="t" unicode="t" horiz-adv-x="620" 
d="M473 1024l-272 -791q-25 -88 -25 -110q0 -27 9 -40t34 -13q69 0 152.5 94.5t148.5 232.5h45q-44 -106 -105 -196.5t-140.5 -151.5t-155.5 -61q-107 0 -107 108q0 44 29 133l272 795h-161l16 39q65 1 112.5 17t84.5 51.5t64 79.5t61 116h47l-93 -250h205l-16 -53h-205z
" />
    <glyph glyph-name="u" unicode="u" horiz-adv-x="1046" 
d="M174 -27q-56 0 -87.5 33.5t-31.5 91.5q0 57 31.5 156t64.5 176.5t97.5 218.5t87.5 195q4 11 14 39.5t15 43t9.5 33t4.5 27.5q0 39 -31 39q-49 0 -117 -76t-127 -180h-43q71 136 167 234t186 98q38 0 59 -27t21 -67q0 -44 -50 -168q-31 -77 -87 -206.5t-88 -206.5
t-60 -159.5t-31 -126.5q-6 -75 45 -75q70 0 166.5 100.5t208.5 300.5q91 164 164 334t80 276h149l-301 -874q-26 -75 -26 -103q0 -25 9 -37t32 -12q59 0 123 82t124 213h43q-28 -70 -64.5 -133.5t-80.5 -119.5t-95 -89t-100 -33q-108 0 -108 109q0 27 35 125l145 399h-16
q-173 -336 -302.5 -483.5t-234.5 -147.5z" />
    <glyph glyph-name="v" unicode="v" horiz-adv-x="868" 
d="M780 1106q40 0 62 -34t22 -95q0 -146 -57.5 -324.5t-144.5 -327.5t-198.5 -250.5t-209.5 -101.5q-188 0 -188 246q0 297 409 754h-12q-24 0 -105.5 20.5t-103.5 20.5t-33.5 -11.5t-11.5 -29.5q0 -20 22.5 -50.5t22.5 -54.5t-15 -39.5t-36 -15.5q-45 0 -45 61q0 52 35 121
q24 52 55 75.5t80 23.5q26 0 103.5 -10.5t98.5 -10.5q29 0 58 25l2 2l26 -31q-177 -188 -303.5 -416t-126.5 -401q0 -178 121 -178q99 0 212 135.5t186 313.5t73 306q0 47 -26.5 120t-26.5 98q0 59 55 59z" />
    <glyph glyph-name="w" unicode="w" horiz-adv-x="1275" 
d="M1174 1106q81 0 81 -164q0 -140 -49 -311t-125.5 -316t-179 -243.5t-199.5 -98.5q-69 0 -110 45t-41 121q0 56 24 150h-10q-154 -316 -329 -316q-80 0 -126.5 60t-46.5 172q0 93 35 195.5t99 205.5t129 188t149 181q-6 -2 -14 -2q-24 0 -104.5 20.5t-102.5 20.5
t-33.5 -11.5t-11.5 -29.5q0 -20 22.5 -50.5t22.5 -54.5t-15 -39.5t-36 -15.5q-19 0 -32 14.5t-13 44.5q0 55 32 123q25 52 57 75.5t81 23.5q25 0 102 -10.5t98 -10.5q33 0 58 25l2 2l26 -31q-76 -83 -147.5 -179.5t-137 -207.5t-105.5 -228.5t-40 -217.5q0 -86 23 -123
t74 -37q76 0 163 101t155 245t116 302t55 271h129q-23 -117 -67 -239.5t-81.5 -203t-66.5 -171t-29 -162.5q0 -143 97 -143q89 0 188.5 118.5t164 286.5t64.5 307q0 57 -13.5 109.5t-26.5 90.5t-13 61q0 24 14 40.5t44 16.5z" />
    <glyph glyph-name="x" unicode="x" horiz-adv-x="1011" 
d="M1026 1100q78 0 78 -53q0 -37 -27.5 -67t-62.5 -30q-17 0 -56.5 12.5t-60.5 12.5q-52 0 -133 -95.5t-205 -297.5l10 -258q4 -104 16 -161.5t26.5 -73t35.5 -15.5q31 0 71 51t109 174h41q-143 -311 -282 -311q-71 0 -98 76t-33 255l-6 136q-39 -70 -72 -121
q-107 -172 -201 -259t-184 -87q-44 0 -63 10.5t-19 34.5q0 39 30.5 69.5t63.5 30.5q20 0 54.5 -10t58.5 -10q94 0 327 417l-10 236q-4 111 -11.5 163.5t-18 67.5t-31.5 15q-27 0 -73.5 -57.5t-104.5 -168.5h-43q84 165 145.5 238.5t134.5 73.5q40 0 62.5 -20.5t36 -80
t18.5 -174.5l6 -172q150 240 254.5 344.5t216.5 104.5z" />
    <glyph glyph-name="y" unicode="y" horiz-adv-x="884" 
d="M-143 -469q-44 0 -67 17.5t-23 45.5q0 38 29.5 65.5t70.5 27.5q34 0 75.5 -20.5t71.5 -20.5q107 0 287 264q48 521 43 924q0 73 -5 112t-15 52.5t-29 13.5q-35 0 -81.5 -74t-94.5 -197h-41q131 357 260 357q65 0 91 -57.5t28 -198.5q0 -375 -45 -807q183 237 276.5 442
t93.5 352q0 59 -26.5 127.5t-26.5 90.5q0 24 15 41.5t42 17.5q84 0 84 -195q0 -315 -350 -815q-74 -107 -131.5 -182t-127.5 -152.5t-131.5 -124.5t-132 -76.5t-140.5 -29.5z" />
    <glyph glyph-name="z" unicode="z" horiz-adv-x="790" 
d="M850 1042q0 -55 -54.5 -132t-144.5 -163t-185.5 -170.5t-200 -182.5t-165.5 -171q29 13 60 13q47 0 92.5 -20.5t80 -50t66 -59.5t63.5 -50.5t60 -20.5q45 0 69.5 49t24.5 121q0 89 -28 168l41 10q35 -84 35 -176q0 -122 -48.5 -203.5t-126.5 -81.5q-42 0 -82 25.5t-72 62
t-65 73t-75.5 62t-88.5 25.5q-32 0 -53.5 -17t-21.5 -51q0 -14 5 -36t5 -33q0 -20 -14 -32.5t-33 -12.5q-23 0 -35 16t-12 43q0 61 52.5 142.5t142 171t182 173t200 181.5t168.5 164q-38 -15 -69 -15q-35 0 -72.5 18.5t-65 40t-62.5 40t-65 18.5q-49 0 -87 -49t-56 -129h-39
q17 83 42.5 143t54 90.5t54.5 44t52 13.5q32 0 64 -16.5t59.5 -39.5l55 -46t61.5 -39.5t69 -16.5q39 0 62.5 17.5t23.5 45.5q0 12 -9 30t-9 26q0 16 12 27.5t33 11.5t35 -15t14 -37z" />
    <glyph glyph-name="braceleft" unicode="{" horiz-adv-x="747" 
d="M350 -467l-14 -43q-279 40 -279 264q0 71 26 152t63 153t74 142t63 141.5t26 128.5q0 104 -55.5 146t-151.5 42l13 43q89 1 152 22.5t98 49.5t59.5 88.5t33 103.5t21.5 130q18 161 58 297q49 155 169.5 258t319.5 129l-12 -43q-68 -14 -122.5 -39.5t-92 -55t-67.5 -74
t-47 -81.5t-31.5 -93.5t-21 -95t-14.5 -100.5q-8 -71 -15 -118.5t-21 -106t-32 -96.5t-47.5 -78t-67.5 -63t-92 -38.5t-122 -17.5l-2 -6q84 -4 146.5 -57.5t62.5 -163.5q0 -64 -26.5 -139t-64.5 -146t-76 -141.5t-64.5 -147t-26.5 -141.5q0 -164 180 -205z" />
    <glyph glyph-name="bar" unicode="|" horiz-adv-x="516" 
d="M-57 -328l612 2007h104l-612 -2007h-104z" />
    <glyph glyph-name="braceright" unicode="}" horiz-adv-x="745" 
d="M442 1737l13 43q278 -40 278 -264q0 -71 -26 -152t-63 -153t-74 -142t-63 -141.5t-26 -128.5q0 -54 16 -92.5t46 -58.5t65.5 -29t81.5 -9l-14 -43q-89 -1 -152 -22t-98.5 -49.5t-59.5 -87.5t-32.5 -103t-20.5 -129q-23 -177 -59 -299q-49 -155 -170 -258t-320 -129l13 43
q53 11 98 29t79 38.5t62.5 50.5t48.5 57t36.5 66.5t26.5 69.5t19 75t14 75.5t11 77.5q8 71 15 118.5t21 106t32 96.5t47.5 78t67.5 63t92 38.5t122 17.5l2 6q-38 2 -73 14.5t-65.5 37t-49 68.5t-18.5 101q0 63 26.5 138.5t64 146.5t75 141.5t64 147t26.5 141.5
q0 163 -179 205z" />
    <glyph glyph-name="asciitilde" unicode="~" horiz-adv-x="1132" 
d="M1049 745l43 -4q-38 -117 -119 -181t-176 -64q-61 0 -122.5 22.5t-103.5 49t-101 49t-116 22.5q-155 0 -221 -143l-43 4q39 118 119.5 181.5t177.5 63.5q61 0 121 -22.5t102 -50t100.5 -50t116.5 -22.5q152 0 222 145z" />
    <glyph glyph-name="exclamdown" unicode="&#xa1;" horiz-adv-x="393" 
d="M350 1100q33 0 54.5 -19.5t21.5 -50.5q0 -47 -35.5 -83t-81.5 -36q-33 0 -53 20.5t-20 51.5q0 46 34.5 81.5t79.5 35.5zM-57 -485q-18 -60 -41 -87.5t-60 -27.5q-55 0 -55 59q0 26 12 68q11 38 63 171t145.5 394.5t197.5 595.5h43q-98 -330 -165.5 -596.5t-97.5 -402.5
t-42 -174z" />
    <glyph glyph-name="cent" unicode="&#xa2;" horiz-adv-x="747" 
d="M1028 1638h64l-367 -620q12 -30 12 -72q0 -83 -39.5 -154t-89.5 -71q-31 0 -45 24l-370 -626q32 -53 92 -53q84 0 173 91.5t163 241.5h38q-84 -201 -193 -313.5t-222 -112.5q-67 0 -115 39l-274 -463h-62l297 502q-57 82 -57 223q0 181 80.5 376t210.5 326.5t260 131.5
q64 0 106 -39zM156 295q0 -63 12 -113l485 824q-20 34 -78 34q-82 0 -161.5 -75.5t-134.5 -188.5t-89 -242.5t-34 -238.5z" />
    <glyph glyph-name="sterling" unicode="&#xa3;" horiz-adv-x="1130" 
d="M1016 1679q108 0 160.5 -62t52.5 -159q0 -67 -29 -117.5t-78 -50.5q-27 0 -44 17.5t-17 42.5q0 26 24.5 78t24.5 81q0 53 -25.5 79t-83.5 26q-217 0 -329 -432q-15 -59 -42.5 -176.5t-41.5 -174.5h311l-20 -63h-308q-98 -414 -202 -590q58 -33 87.5 -48.5t86 -32.5
t110.5 -17q55 0 101.5 19.5t80.5 49t64.5 77t51.5 92t44 104.5h49q-16 -49 -30 -87.5t-36.5 -89t-45.5 -88t-56 -77t-69.5 -64.5t-83.5 -41t-100 -16q-39 0 -78 10t-63 19t-64.5 35.5t-50 34t-52.5 40.5q-113 -139 -260 -139q-129 0 -129 111q0 80 68.5 132t161.5 52
q58 0 133 -33q68 148 149 522l6 25h-217l21 63h211q23 101 43 177t50 169.5t60 160.5t73 135t90 110.5t109 69t132 26.5zM74 31q100 0 174 114q-59 39 -113 39q-57 0 -93 -29t-36 -71q0 -53 68 -53z" />
    <glyph glyph-name="currency" unicode="&#xa4;" horiz-adv-x="1296" 
d="M1153 874q0 -111 -54 -221t-147 -194l144 -205l-66 -49l-141 203q-146 -101 -305 -101q-158 0 -252 101l-269 -205l-45 61l271 207q-33 68 -33 145q0 111 53.5 221.5t145.5 194.5l-140 203l66 49l139 -201q146 101 305 101q167 0 258 -109l273 209l45 -61l-277 -211
q29 -66 29 -138zM342 633q0 -107 68 -174.5t186 -67.5q122 0 232 69t174.5 177.5t64.5 220.5q0 106 -69 174t-185 68q-124 0 -234 -69.5t-173.5 -177t-63.5 -220.5z" />
    <glyph glyph-name="yen" unicode="&#xa5;" horiz-adv-x="1228" 
d="M1565 1638l-13 -43q-77 0 -129 -21.5t-106 -92.5l-504 -670h440l-18 -63h-469l-18 -25l-43 -143h477l-21 -66h-477l-100 -326q-9 -29 -12.5 -41.5t-6.5 -31.5t-1 -26.5t9 -18t19.5 -14t33 -7.5t47 -5t64.5 -1l-14 -43h-506l12 43q117 0 160.5 27t71.5 118l100 326h-471
l21 66h471l43 141l-4 27h-459l20 63h426l-116 635q-17 93 -49.5 121t-118.5 28l12 43h455l-15 -43q-45 0 -73.5 -2t-48.5 -9.5t-29.5 -16.5t-12.5 -28.5t-1.5 -38.5t7.5 -54l109 -627h10l492 662q5 7 15 20q27 37 35 50.5t-1.5 26.5t-43.5 15t-108 2l15 43h424z" />
    <glyph glyph-name="brokenbar" unicode="&#xa6;" horiz-adv-x="516" 
d="M305 860l250 819h104l-249 -819h-105zM-57 -328l250 820h104l-250 -820h-104z" />
    <glyph glyph-name="section" unicode="&#xa7;" horiz-adv-x="839" 
d="M776 1679q111 0 169.5 -57t58.5 -135q0 -48 -25 -83.5t-66 -35.5q-27 0 -45 14t-18 39q0 12 10 46t10 55q0 47 -26.5 67.5t-85.5 20.5q-80 0 -141 -46t-90 -111.5t-29 -135.5q0 -57 30 -115t72.5 -108.5t85 -101.5t72.5 -112t30 -122q0 -118 -77.5 -223t-225.5 -205
q56 -87 56 -176q0 -166 -108 -286t-263 -120q-110 0 -168.5 57t-58.5 134q0 48 25 85t67 37q27 0 45 -15.5t18 -39.5q0 -12 -11 -46t-11 -56q0 -46 27 -67t85 -21q60 0 111.5 27t83.5 70t50 94t18 102q0 42 -16 84.5t-42 79.5t-57 74.5t-62.5 75t-57.5 75t-42 82t-16 88.5
q0 85 42.5 165t106.5 141t156 122q-55 88 -55 178q0 107 48.5 200t133.5 149t186 56zM457 371q237 161 237 334q0 50 -21.5 101.5t-46 83.5t-69.5 86.5t-65 80.5q-240 -163 -240 -334q0 -50 22 -101.5t46 -83.5t71 -86.5t66 -80.5z" />
    <glyph glyph-name="dieresis" unicode="&#xa8;" horiz-adv-x="733" 
d="M477 1348q-43 0 -70.5 27.5t-27.5 70.5t27.5 69.5t70.5 26.5t69.5 -26.5t26.5 -69.5t-26.5 -70.5t-69.5 -27.5zM817 1348q-43 0 -70.5 27.5t-27.5 70.5t27.5 69.5t70.5 26.5t69.5 -26.5t26.5 -69.5t-26.5 -70.5t-69.5 -27.5z" />
    <glyph glyph-name="copyright" unicode="&#xa9;" horiz-adv-x="1816" 
d="M1878 1079q0 -137 -42 -275.5t-117 -261.5t-182 -231t-232 -185.5t-273 -122t-299 -44.5q-287 0 -453.5 168t-166.5 440q0 137 42 275.5t116.5 262t181 231t231.5 185.5t273 122.5t300 44.5q287 0 454 -168.5t167 -440.5zM1812 1065q0 251 -152.5 404t-418.5 153
q-142 0 -280.5 -41t-254 -113t-214.5 -172t-168 -214t-107.5 -243t-38.5 -257q0 -256 153 -407.5t419 -151.5q170 0 332.5 58t292.5 159.5t229.5 232.5t153.5 284.5t54 307.5zM446 662q0 125 58 250t151 220t218.5 154.5t252.5 59.5q76 0 138.5 -19t94 -41.5t57.5 -41.5
t36 -19q15 0 23 14t26 66h43l-86 -379h-45q29 153 -53 251.5t-242 98.5q-106 0 -209.5 -54.5t-179.5 -141.5t-123 -199.5t-47 -223.5q0 -146 77.5 -226.5t215.5 -80.5q168 0 325.5 101.5t247.5 279.5h45q-101 -212 -272.5 -331t-372.5 -119q-179 0 -279 101.5t-100 279.5z
" />
    <glyph glyph-name="guillemotleft" unicode="&#xab;" horiz-adv-x="829" 
d="M614 1094l-385 -494l119 -500h-39l-194 500l454 494h45zM899 1094l-383 -494l119 -500h-41l-193 500l455 494h43z" />
    <glyph glyph-name="logicalnot" unicode="&#xac;" horiz-adv-x="1101" 
d="M70 770l34 104h998l-162 -526h-106l129 422h-893z" />
    <glyph glyph-name="registered" unicode="&#xae;" horiz-adv-x="1816" 
d="M1257 1688q287 0 454 -168.5t167 -440.5q0 -137 -42 -275.5t-117 -261.5t-182 -231t-232 -185.5t-273 -122t-299 -44.5q-287 0 -453.5 168t-166.5 440q0 137 42 275.5t116.5 262t181 231t231.5 185.5t273 122.5t300 44.5zM750 23q170 0 332.5 58t292.5 159.5t229.5 232.5
t153.5 284.5t54 307.5q0 251 -152.5 404t-418.5 153q-142 0 -280.5 -41t-254 -113t-214.5 -172t-168 -214t-107.5 -243t-38.5 -257q0 -256 153 -407.5t419 -151.5zM993 827h-30l-2 -4q45 -7 72 -48.5t52 -127.5l58 -186q24 -80 61.5 -106.5t118.5 -26.5l-6 -37h-49
q-43 0 -65.5 2t-49 9.5t-42 24t-31.5 45t-29 72.5l-58 197q-33 108 -61 146t-98 51l-117 -375q-30 -82 -18 -106.5t104 -24.5l-8 -41h-330l8 41q70 0 101 25t55 106l221 721q31 83 18.5 107t-106.5 24l8 41h342q129 0 201.5 -58.5t72.5 -167.5q0 -130 -112.5 -216.5
t-280.5 -86.5zM956 1237l-106 -344q55 -19 125 -19q141 0 232 74t91 191q0 164 -196 164q-127 0 -146 -66z" />
    <glyph glyph-name="macron" unicode="&#xaf;" horiz-adv-x="694" 
d="M346 1397l23 78h499l-22 -78h-500z" />
    <glyph glyph-name="degree" unicode="&#xb0;" horiz-adv-x="608" 
d="M438 1090q-103 0 -165 59t-62 162q0 96 53.5 185t142.5 143.5t187 54.5q101 0 163 -60.5t62 -160.5q0 -147 -116.5 -265t-264.5 -118zM457 1167q104 0 189 90t85 199q0 77 -41 117.5t-119 40.5q-104 0 -187 -89t-83 -198q0 -78 40 -119t116 -41z" />
    <glyph glyph-name="plusminus" unicode="&#xb1;" horiz-adv-x="1005" 
d="M496 711h-340l28 96h342l109 352h106l-106 -352h338l-31 -96h-340l-106 -351h-107zM813 174h-803l37 102h803z" />
    <glyph glyph-name="acute" unicode="&#xb4;" horiz-adv-x="468" 
d="M389 1278h-49l242 364h145z" />
    <glyph glyph-name="paragraph" unicode="&#xb6;" horiz-adv-x="1222" 
d="M1436 1638l-15 -43q-116 0 -158.5 -27t-70.5 -118l-582 -1901h-84l617 2020h-215l-617 -2020h-86l412 1338q-163 0 -255.5 66t-92.5 190q0 107 46 200t123.5 157t181.5 101t218 37h578z" />
    <glyph glyph-name="periodcentered" unicode="&#xb7;" horiz-adv-x="352" 
d="M242 735q-33 0 -54.5 20.5t-21.5 51.5q0 46 35.5 81.5t81.5 35.5q33 0 53 -19.5t20 -50.5q0 -46 -35 -82.5t-79 -36.5z" />
    <glyph glyph-name="cedilla" unicode="&#xb8;" horiz-adv-x="620" 
d="M2 -150l76 170h61l-55 -124q66 -3 109 -39t43 -99q0 -90 -92 -156.5t-246 -66.5q-58 0 -107 8l21 41h61q124 0 191 52.5t67 121.5q0 92 -129 92z" />
    <glyph glyph-name="guillemotright" unicode="&#xbb;" horiz-adv-x="829" 
d="M-35 102l385 494l-119 500h41l193 -500l-455 -494h-45zM252 102l385 494l-121 500h41l193 -500l-453 -494h-45z" />
    <glyph glyph-name="onequarter" unicode="&#xbc;" horiz-adv-x="1497" 
d="M727 1655l-266 -871q-9 -30 -10 -45t12 -25.5t38 -13t74 -2.5l-14 -26h-364l14 26q75 0 109.5 16.5t50.5 69.5l221 727q17 55 9 63q-11 11 -94 -24q-12 -5 -28 -12l4 33l230 100zM188 0l1194 1638h78l-1192 -1638h-80zM1112 272h-391l20 72l602 653h74l-198 -653h108
l-22 -72h-109l-49 -159q-18 -55 -3.5 -70.5t91.5 -15.5l-12 -27h-316l13 27q65 0 96 16.5t47 69.5zM799 348l-2 -4h338l170 555z" />
    <glyph glyph-name="onehalf" unicode="&#xbd;" horiz-adv-x="1712" 
d="M727 1655l-266 -871q-9 -30 -10 -45t12 -25.5t38 -13t74 -2.5l-14 -26h-364l14 26q75 0 109.5 16.5t50.5 69.5l221 727q17 55 9 63q-11 11 -94 -24q-12 -5 -28 -12l4 33l230 100zM238 0l1192 1638h77l-1190 -1638h-79zM1337 0h-506l9 27q84 69 134 110.5t128 109.5
t125 116t103 112.5t87 117t52.5 111t21.5 111.5q0 46 -29.5 74.5t-87.5 28.5q-89 0 -163 -78.5t-113 -208.5h-35q51 166 151 267t224 101q80 0 117.5 -39.5t37.5 -107.5q0 -69 -39 -152t-99.5 -160.5t-145.5 -162.5t-165.5 -153t-170.5 -138v-4h299q22 0 41.5 7t32 15t31 31
t27.5 36.5t32 49.5h30z" />
    <glyph glyph-name="threequarters" unicode="&#xbe;" horiz-adv-x="1656" 
d="M420 653q-67 0 -122.5 22.5t-55.5 53.5q0 22 16.5 38.5t40.5 16.5q19 0 34.5 -14t26.5 -30t35 -30t56 -14q105 0 185.5 86t80.5 207q0 95 -53 145t-152 50l4 26q145 52 222 126.5t77 168.5q0 105 -110 105q-155 0 -211 -191h-35q35 128 111 191t175 63q77 0 119.5 -39
t42.5 -112q0 -99 -79 -180.5t-201 -127.5v-6q80 -3 134 -61.5t54 -151.5q0 -135 -117 -238.5t-278 -103.5zM342 0l1192 1638h78l-1190 -1638h-80zM1270 272h-391l22 72l600 653h76l-199 -653h109l-23 -72h-108l-49 -159q-19 -55 -4.5 -70.5t90.5 -15.5l-11 -27h-315l10 27
q67 0 98.5 16.5t47.5 69.5zM958 348l-2 -4h336l172 555z" />
    <glyph glyph-name="questiondown" unicode="&#xbf;" horiz-adv-x="724" 
d="M500 1100q34 0 54.5 -19.5t20.5 -50.5q0 -47 -35 -83t-81 -36q-33 0 -53.5 20.5t-20.5 51.5q0 46 35.5 81.5t79.5 35.5zM330 -225h39l-54 -314q-40 -26 -105 -43.5t-134 -17.5q-121 0 -184.5 61.5t-63.5 173.5q0 40 9 77.5t21 67t38.5 64t46 56.5t60.5 58t64.5 55
t74.5 59q25 20 38 30q73 58 114 92.5t81 76t57 76t17 69.5q0 73 -80 137l26 35q67 -50 98 -94.5t31 -100.5q0 -32 -9.5 -64t-21 -57t-37.5 -56t-43.5 -49.5t-56 -50.5t-57 -47t-63.5 -49q-171 -132 -241.5 -215.5t-70.5 -179.5q0 -71 38 -112t120 -41q93 0 150.5 67.5
t97.5 235.5z" />
    <glyph glyph-name="Agrave" unicode="&#xc0;" horiz-adv-x="1253" 
d="M901 2152l180 -364h-49l-276 364h145zM1061 1671l-72 -1474q-5 -98 25 -126t143 -28l-18 -43h-496l14 43q88 0 129 13.5t56 43.5t18 97l21 335h-574l-241 -368q-44 -67 -47 -81q-6 -25 33 -33q33 -7 130 -7l-14 -43h-422l12 43q75 0 124.5 23t97.5 98l999 1507h82z
M350 596h533l51 868h-14z" />
    <glyph glyph-name="Aacute" unicode="&#xc1;" horiz-adv-x="1253" 
d="M1282 2152h145l-337 -364h-50zM1061 1671l-72 -1474q-5 -98 25 -126t143 -28l-18 -43h-496l14 43q88 0 129 13.5t56 43.5t18 97l21 335h-574l-241 -368q-44 -67 -47 -81q-6 -25 33 -33q33 -7 130 -7l-14 -43h-422l12 43q75 0 124.5 23t97.5 98l999 1507h82zM350 596h533
l51 868h-14z" />
    <glyph glyph-name="Acircumflex" unicode="&#xc2;" horiz-adv-x="1253" 
d="M1221 2152l61 -364h-47l-109 287l-290 -287h-50l291 364h144zM1061 1671l-72 -1474q-5 -98 25 -126t143 -28l-18 -43h-496l14 43q88 0 129 13.5t56 43.5t18 97l21 335h-574l-241 -368q-44 -67 -47 -81q-6 -25 33 -33q33 -7 130 -7l-14 -43h-422l12 43q75 0 124.5 23
t97.5 98l999 1507h82zM350 596h533l51 868h-14z" />
    <glyph glyph-name="Atilde" unicode="&#xc3;" horiz-adv-x="1253" 
d="M1368 2079l41 -4q-77 -230 -211 -230q-35 0 -64 14t-49 33.5t-39 39.5t-43 34t-51 14q-49 0 -82.5 -36.5t-60.5 -106.5l-43 4q39 111 89 171.5t122 60.5q35 0 64 -14t49 -34.5t39 -41t43 -34.5t51 -14q51 0 84.5 36.5t60.5 107.5zM1061 1671l-72 -1474q-5 -98 25 -126
t143 -28l-18 -43h-496l14 43q88 0 129 13.5t56 43.5t18 97l21 335h-574l-241 -368q-44 -67 -47 -81q-6 -25 33 -33q33 -7 130 -7l-14 -43h-422l12 43q75 0 124.5 23t97.5 98l999 1507h82zM350 596h533l51 868h-14z" />
    <glyph glyph-name="Adieresis" unicode="&#xc4;" horiz-adv-x="1253" 
d="M934 1860q-43 0 -70.5 27.5t-27.5 70.5t27.5 69.5t70.5 26.5q44 0 71 -26.5t27 -69.5t-27 -70.5t-71 -27.5zM1274 2054q43 0 69.5 -26.5t26.5 -69.5t-26.5 -70.5t-69.5 -27.5t-70.5 27.5t-27.5 70.5t27.5 69.5t70.5 26.5zM1061 1671l-72 -1474q-5 -98 25 -126t143 -28
l-18 -43h-496l14 43q88 0 129 13.5t56 43.5t18 97l21 335h-574l-241 -368q-44 -67 -47 -81q-6 -25 33 -33q33 -7 130 -7l-14 -43h-422l12 43q75 0 124.5 23t97.5 98l999 1507h82zM350 596h533l51 868h-14z" />
    <glyph glyph-name="Aring" unicode="&#xc5;" horiz-adv-x="1253" 
d="M1151 2191q66 0 105.5 -39t39.5 -100q0 -89 -74 -167.5t-173 -78.5q-67 0 -106.5 41t-39.5 103q0 88 75 164.5t173 76.5zM1059 1866q74 0 121 62.5t47 121.5q0 37 -20.5 59.5t-65.5 22.5q-75 0 -121.5 -58t-46.5 -120q0 -38 21 -63t65 -25zM1061 1671l-72 -1474
q-5 -98 25 -126t143 -28l-18 -43h-496l14 43q88 0 129 13.5t56 43.5t18 97l21 335h-574l-241 -368q-44 -67 -47 -81q-6 -25 33 -33q33 -7 130 -7l-14 -43h-422l12 43q75 0 124.5 23t97.5 98l999 1507h82zM350 596h533l51 868h-14z" />
    <glyph glyph-name="AE" unicode="&#xc6;" horiz-adv-x="1771" 
d="M1913 1638l-105 -348h-55q17 69 24 109t7 77t-14 54t-41.5 27t-73.5 10h-314q-88 0 -114 -86l-180 -588h305q84 0 124.5 35t71.5 133h45l-129 -440h-45q31 113 12.5 160.5t-98.5 47.5h-305l-197 -636q-21 -77 -10.5 -99t66.5 -22h352q114 0 186.5 61.5t173.5 235.5
l58 -15l-197 -354h-997l14 43q116 0 159 27t71 118l108 353h-459l-280 -383q-49 -66 -54 -78q-9 -24 25 -31q28 -6 113 -6l-15 -43h-399l12 43q81 0 134.5 21.5t107.5 93.5l969 1323q48 66 53 77q10 24 -23 31q-28 6 -116 6l12 43h1018zM401 602h433l294 965h-20z" />
    <glyph glyph-name="Ccedilla" unicode="&#xc7;" horiz-adv-x="1218" 
d="M1368 1645l-151 -562h-43q18 109 16.5 202.5t-21.5 162.5t-73 108t-138 39q-120 0 -233.5 -75t-198 -195.5t-149.5 -267t-98 -295.5t-33 -275q0 -199 83.5 -314.5t237.5 -115.5q333 0 586 537h53q-52 -113 -99.5 -198.5t-111.5 -169.5t-131 -138.5t-154 -87.5t-184 -33
h-6l-31 -69q66 -3 109 -38.5t43 -97.5q0 -91 -91.5 -158t-244.5 -67q-34 0 -108 8l20 43q18 -2 62 -2q124 0 191 53t67 121q0 93 -129 93l53 118q-118 15 -198 85.5t-117 177.5t-37 245q0 123 30 260t83 268.5t132 251.5t170.5 210.5t203.5 144t228 53.5q95 0 159.5 -33.5
t111.5 -101.5q19 -28 31 -26.5t24 32.5l45 115z" />
    <glyph glyph-name="Egrave" unicode="&#xc8;" horiz-adv-x="1208" 
d="M817 2152l180 -364h-49l-276 364h145zM1350 1638l-105 -348h-55q17 69 24 109t7 77t-14 54t-41.5 27t-73.5 10h-314q-90 0 -116 -86l-181 -588h307q84 0 125 35.5t72 132.5h45l-129 -440h-45q31 113 12.5 160.5t-98.5 47.5h-305l-197 -636q-23 -77 -12 -99t68 -22h350
q116 0 188.5 61.5t173.5 235.5l58 -15l-197 -354h-997l14 43q116 0 158.5 27t70.5 118l387 1262q34 91 12.5 118t-153.5 27l12 43h949z" />
    <glyph glyph-name="Eacute" unicode="&#xc9;" horiz-adv-x="1208" 
d="M1008 1788h-50l242 364h146zM1350 1638l-105 -348h-55q17 69 24 109t7 77t-14 54t-41.5 27t-73.5 10h-314q-90 0 -116 -86l-181 -588h307q84 0 125 35.5t72 132.5h45l-129 -440h-45q31 113 12.5 160.5t-98.5 47.5h-305l-197 -636q-23 -77 -12 -99t68 -22h350
q116 0 188.5 61.5t173.5 235.5l58 -15l-197 -354h-997l14 43q116 0 158.5 27t70.5 118l387 1262q34 91 12.5 118t-153.5 27l12 43h949z" />
    <glyph glyph-name="Ecircumflex" unicode="&#xca;" horiz-adv-x="1208" 
d="M1153 1788l-109 287l-290 -287h-49l290 364h144l61 -364h-47zM401 1638h949l-105 -348h-55q17 69 24 109t7 77t-14 54t-41.5 27t-73.5 10h-314q-90 0 -116 -86l-181 -588h307q84 0 125 35.5t72 132.5h45l-129 -440h-45q31 113 12.5 160.5t-98.5 47.5h-305l-197 -636
q-23 -77 -12 -99t68 -22h350q116 0 188.5 61.5t173.5 235.5l58 -15l-197 -354h-997l14 43q116 0 158.5 27t70.5 118l387 1262q34 91 12.5 118t-153.5 27z" />
    <glyph glyph-name="Edieresis" unicode="&#xcb;" horiz-adv-x="1208" 
d="M852 1860q-43 0 -70.5 27.5t-27.5 70.5t27.5 69.5t70.5 26.5q44 0 71 -26.5t27 -69.5t-27 -70.5t-71 -27.5zM1192 1860q-43 0 -70.5 27.5t-27.5 70.5t27.5 69.5t70.5 26.5t69.5 -26.5t26.5 -69.5t-26.5 -70.5t-69.5 -27.5zM1350 1638l-105 -348h-55q17 69 24 109t7 77
t-14 54t-41.5 27t-73.5 10h-314q-90 0 -116 -86l-181 -588h307q84 0 125 35.5t72 132.5h45l-129 -440h-45q31 113 12.5 160.5t-98.5 47.5h-305l-197 -636q-23 -77 -12 -99t68 -22h350q116 0 188.5 61.5t173.5 235.5l58 -15l-197 -354h-997l14 43q116 0 158.5 27t70.5 118
l387 1262q34 91 12.5 118t-153.5 27l12 43h949z" />
    <glyph glyph-name="Igrave" unicode="&#xcc;" horiz-adv-x="624" 
d="M551 2152l180 -364h-49l-276 364h145zM143 188l387 1262q34 91 12.5 118t-153.5 27l12 43h494l-12 -43q-115 0 -157.5 -27t-70.5 -118l-387 -1262q-34 -91 -12 -118t154 -27l-15 -43h-495l14 43q116 0 158.5 27t70.5 118z" />
    <glyph glyph-name="Iacute" unicode="&#xcd;" horiz-adv-x="624" 
d="M741 1788h-49l242 364h145zM143 188l387 1262q34 91 12.5 118t-153.5 27l12 43h494l-12 -43q-115 0 -157.5 -27t-70.5 -118l-387 -1262q-34 -91 -12 -118t154 -27l-15 -43h-495l14 43q116 0 158.5 27t70.5 118z" />
    <glyph glyph-name="Icircumflex" unicode="&#xce;" horiz-adv-x="624" 
d="M887 1788l-109 287l-291 -287h-49l291 364h143l62 -364h-47zM401 1638h494l-12 -43q-115 0 -157.5 -27t-70.5 -118l-387 -1262q-34 -91 -12 -118t154 -27l-15 -43h-495l14 43q116 0 158.5 27t70.5 118l387 1262q34 91 12.5 118t-153.5 27z" />
    <glyph glyph-name="Idieresis" unicode="&#xcf;" horiz-adv-x="624" 
d="M586 1860q-43 0 -71 27.5t-28 70.5q0 42 28 69t71 27q44 0 71 -26.5t27 -69.5t-27 -70.5t-71 -27.5zM926 1860q-43 0 -71 27.5t-28 70.5q0 42 28 69t71 27t69.5 -26.5t26.5 -69.5t-26.5 -70.5t-69.5 -27.5zM143 188l387 1262q34 91 12.5 118t-153.5 27l12 43h494l-12 -43
q-115 0 -157.5 -27t-70.5 -118l-387 -1262q-34 -91 -12 -118t154 -27l-15 -43h-495l14 43q116 0 158.5 27t70.5 118z" />
    <glyph glyph-name="Eth" unicode="&#xd0;" horiz-adv-x="1427" 
d="M883 1638q262 0 422.5 -158t160.5 -429q0 -206 -82.5 -398.5t-223 -336t-338.5 -230t-416 -86.5h-506l14 43q116 0 158.5 27t70.5 118l201 654h-192l20 63h190l168 545q34 91 12.5 118t-153.5 27l12 43h482zM414 70q189 0 361.5 85t294 223.5t193.5 319.5t72 369
q0 233 -122.5 369.5t-335.5 136.5q-189 0 -207 -68l-187 -600h379l-20 -63h-377l-219 -707q-6 -22 6.5 -36t52 -21.5t109.5 -7.5z" />
    <glyph glyph-name="Ntilde" unicode="&#xd1;" horiz-adv-x="1460" 
d="M963 1980q-50 0 -83.5 -36.5t-60.5 -106.5l-43 4q39 111 89 171.5t122 60.5q35 0 64 -14t49 -34.5t39 -41t43 -34.5t51 -14q51 0 84.5 36.5t60.5 107.5l41 -4q-77 -230 -211 -230q-35 0 -64 14t-49 33.5t-38.5 39.5t-42.5 34t-51 14zM1747 1638l-12 -43
q-117 0 -160.5 -27t-69.5 -118l-452 -1479h-76l-397 1422l-363 -1205q-34 -91 -8.5 -118t172.5 -27l-14 -43h-467l14 43q116 0 158.5 27t70.5 118l400 1321q-22 52 -53 69t-91 17l11 43h233l393 -1421h17l377 1233q34 91 8.5 118t-172.5 27l14 43h467z" />
    <glyph glyph-name="Ograve" unicode="&#xd2;" horiz-adv-x="1304" 
d="M913 2152l181 -364h-50l-276 364h145zM492 -33q-127 0 -215.5 66t-129.5 177.5t-41 260.5q0 168 48.5 344t134.5 327t195 271t238 189t255 69q128 0 216 -66t128.5 -177t40.5 -259q0 -141 -34.5 -288.5t-94.5 -279t-144 -249t-179 -202t-203.5 -134t-214.5 -49.5zM532 39
q122 0 250 105t225 267.5t159.5 370t62.5 400.5q0 93 -15.5 166.5t-48.5 132t-91 90t-138 31.5q-122 0 -249.5 -105.5t-224.5 -268.5t-159.5 -370.5t-62.5 -400.5q0 -418 292 -418z" />
    <glyph glyph-name="Oacute" unicode="&#xd3;" horiz-adv-x="1304" 
d="M1102 1788h-49l241 364h146zM492 -33q-127 0 -215.5 66t-129.5 177.5t-41 260.5q0 168 48.5 344t134.5 327t195 271t238 189t255 69q128 0 216 -66t128.5 -177t40.5 -259q0 -141 -34.5 -288.5t-94.5 -279t-144 -249t-179 -202t-203.5 -134t-214.5 -49.5zM532 39
q122 0 250 105t225 267.5t159.5 370t62.5 400.5q0 93 -15.5 166.5t-48.5 132t-91 90t-138 31.5q-122 0 -249.5 -105.5t-224.5 -268.5t-159.5 -370.5t-62.5 -400.5q0 -418 292 -418z" />
    <glyph glyph-name="Ocircumflex" unicode="&#xd4;" horiz-adv-x="1304" 
d="M1247 1788l-108 287l-291 -287h-49l291 364h143l61 -364h-47zM977 1671q128 0 216 -66t128.5 -177t40.5 -259q0 -141 -34.5 -288.5t-94.5 -279t-144 -249t-179 -202t-203.5 -134t-214.5 -49.5q-127 0 -215.5 66t-129.5 177.5t-41 260.5q0 168 48.5 344t134.5 327t195 271
t238 189t255 69zM532 39q122 0 250 105t225 267.5t159.5 370t62.5 400.5q0 93 -15.5 166.5t-48.5 132t-91 90t-138 31.5q-122 0 -249.5 -105.5t-224.5 -268.5t-159.5 -370.5t-62.5 -400.5q0 -418 292 -418z" />
    <glyph glyph-name="Otilde" unicode="&#xd5;" horiz-adv-x="1304" 
d="M1210 1845q-35 0 -64 14t-49 33.5t-38.5 39.5t-42.5 34t-51 14q-50 0 -83.5 -36.5t-60.5 -106.5l-43 4q39 111 89 171.5t122 60.5q35 0 64 -14t49 -34.5t39 -41t43 -34.5t51 -14q51 0 84.5 36.5t60.5 107.5l41 -4q-77 -230 -211 -230zM492 -33q-127 0 -215.5 66
t-129.5 177.5t-41 260.5q0 168 48.5 344t134.5 327t195 271t238 189t255 69q128 0 216 -66t128.5 -177t40.5 -259q0 -141 -34.5 -288.5t-94.5 -279t-144 -249t-179 -202t-203.5 -134t-214.5 -49.5zM532 39q122 0 250 105t225 267.5t159.5 370t62.5 400.5q0 93 -15.5 166.5
t-48.5 132t-91 90t-138 31.5q-122 0 -249.5 -105.5t-224.5 -268.5t-159.5 -370.5t-62.5 -400.5q0 -418 292 -418z" />
    <glyph glyph-name="Odieresis" unicode="&#xd6;" horiz-adv-x="1304" 
d="M946 1860q-43 0 -70.5 27.5t-27.5 70.5t27.5 69.5t70.5 26.5q44 0 71 -26.5t27 -69.5t-27 -70.5t-71 -27.5zM1286 1860q-43 0 -70.5 27.5t-27.5 70.5t27.5 69.5t70.5 26.5t69.5 -26.5t26.5 -69.5t-26.5 -70.5t-69.5 -27.5zM492 -33q-127 0 -215.5 66t-129.5 177.5
t-41 260.5q0 168 48.5 344t134.5 327t195 271t238 189t255 69q128 0 216 -66t128.5 -177t40.5 -259q0 -141 -34.5 -288.5t-94.5 -279t-144 -249t-179 -202t-203.5 -134t-214.5 -49.5zM532 39q122 0 250 105t225 267.5t159.5 370t62.5 400.5q0 93 -15.5 166.5t-48.5 132
t-91 90t-138 31.5q-122 0 -249.5 -105.5t-224.5 -268.5t-159.5 -370.5t-62.5 -400.5q0 -418 292 -418z" />
    <glyph glyph-name="multiply" unicode="&#xd7;" horiz-adv-x="878" 
d="M809 918l63 -76l-327 -254l194 -242l-84 -67l-194 241l-311 -241l-62 75l311 244l-202 252l82 68l204 -254z" />
    <glyph glyph-name="Oslash" unicode="&#xd8;" horiz-adv-x="1304" 
d="M1473 1735l47 -33l-209 -248q51 -117 51 -285q0 -141 -34.5 -288.5t-94.5 -279t-144 -249t-179 -202t-203.5 -134t-214.5 -49.5q-202 0 -304 162l-196 -231l-45 32l213 252q-54 123 -54 289q0 168 48.5 344t134.5 327t195 271t238 189t255 69q203 0 305 -162zM240 457
q0 -93 14 -164l944 1116q-68 193 -262 193q-122 0 -249.5 -105.5t-224.5 -268.5t-159.5 -370.5t-62.5 -400.5zM1229 1182q0 86 -15 159l-942 -1114q64 -188 260 -188q122 0 250 105t225 267.5t159.5 370t62.5 400.5z" />
    <glyph glyph-name="Ugrave" unicode="&#xd9;" horiz-adv-x="1402" 
d="M958 2152l181 -364h-49l-277 364h145zM565 -31q-124 0 -209 41t-123.5 114.5t-42.5 174t35 219.5l289 932q34 91 12.5 118t-151.5 27l12 43h494l-13 -43q-117 0 -160 -27t-69 -118l-291 -942q-67 -211 -4.5 -338t244.5 -127q376 0 538 520l273 887q9 28 12.5 41.5t6.5 32
t0.5 26t-10 18t-20.5 14t-34.5 7.5t-49 5t-67.5 1l14 43h430l-10 -43q-96 0 -133 -27t-65 -118l-273 -895q-26 -86 -55 -156.5t-69 -139t-89.5 -119.5t-111 -90.5t-140 -60t-170.5 -20.5z" />
    <glyph glyph-name="Uacute" unicode="&#xda;" horiz-adv-x="1402" 
d="M1147 1788h-49l241 364h146zM565 -31q-124 0 -209 41t-123.5 114.5t-42.5 174t35 219.5l289 932q34 91 12.5 118t-151.5 27l12 43h494l-13 -43q-117 0 -160 -27t-69 -118l-291 -942q-67 -211 -4.5 -338t244.5 -127q376 0 538 520l273 887q9 28 12.5 41.5t6.5 32t0.5 26
t-10 18t-20.5 14t-34.5 7.5t-49 5t-67.5 1l14 43h430l-10 -43q-96 0 -133 -27t-65 -118l-273 -895q-26 -86 -55 -156.5t-69 -139t-89.5 -119.5t-111 -90.5t-140 -60t-170.5 -20.5z" />
    <glyph glyph-name="Ucircumflex" unicode="&#xdb;" horiz-adv-x="1402" 
d="M1292 1788l-108 287l-291 -287h-49l291 364h143l61 -364h-47zM1681 1638l-10 -43q-96 0 -133 -27t-65 -118l-273 -895q-26 -86 -55 -156.5t-69 -139t-89.5 -119.5t-111 -90.5t-140 -60t-170.5 -20.5q-124 0 -209 41t-123.5 114.5t-42.5 174t35 219.5l289 932
q34 91 12.5 118t-151.5 27l12 43h494l-13 -43q-117 0 -160 -27t-69 -118l-291 -942q-67 -211 -4.5 -338t244.5 -127q376 0 538 520l273 887q9 28 12.5 41.5t6.5 32t0.5 26t-10 18t-20.5 14t-34.5 7.5t-49 5t-67.5 1l14 43h430z" />
    <glyph glyph-name="Udieresis" unicode="&#xdc;" horiz-adv-x="1402" 
d="M991 1860q-43 0 -70.5 27.5t-27.5 70.5t27.5 69.5t70.5 26.5q44 0 71.5 -26.5t27.5 -69.5t-27.5 -70.5t-71.5 -27.5zM1331 1860q-43 0 -70.5 27.5t-27.5 70.5t27.5 69.5t70.5 26.5t69.5 -26.5t26.5 -69.5t-26.5 -70.5t-69.5 -27.5zM565 -31q-124 0 -209 41t-123.5 114.5
t-42.5 174t35 219.5l289 932q34 91 12.5 118t-151.5 27l12 43h494l-13 -43q-117 0 -160 -27t-69 -118l-291 -942q-67 -211 -4.5 -338t244.5 -127q376 0 538 520l273 887q9 28 12.5 41.5t6.5 32t0.5 26t-10 18t-20.5 14t-34.5 7.5t-49 5t-67.5 1l14 43h430l-10 -43
q-96 0 -133 -27t-65 -118l-273 -895q-26 -86 -55 -156.5t-69 -139t-89.5 -119.5t-111 -90.5t-140 -60t-170.5 -20.5z" />
    <glyph glyph-name="Yacute" unicode="&#xdd;" horiz-adv-x="1228" 
d="M1044 1788h-49l242 364h145zM748 723l-164 -535q-9 -29 -12.5 -41.5t-6.5 -31.5t-1 -26.5t9 -18t19.5 -14t33 -7.5t47 -5t64.5 -1l-14 -43h-506l12 43q117 0 160.5 27t71.5 118l164 533l-133 725q-17 93 -49.5 121t-118.5 28l12 43h455l-15 -43q-45 0 -73.5 -2
t-48.5 -9.5t-29.5 -16.5t-12.5 -28.5t-1.5 -38.5t7.5 -54l109 -627h10l492 662q5 7 15 20q27 37 35 50.5t-1.5 26.5t-43.5 15t-108 2l15 43h424l-13 -43q-77 0 -129 -21.5t-106 -92.5z" />
    <glyph glyph-name="Thorn" unicode="&#xde;" horiz-adv-x="1118" 
d="M797 1323q82 0 151 -20t122 -60t82.5 -106t29.5 -152q0 -82 -25.5 -164.5t-78 -157.5t-124.5 -133t-172 -92.5t-213 -34.5q-132 0 -223 39l-78 -254q-34 -91 -12 -118t154 -27l-15 -43h-495l14 43q116 0 158.5 27t70.5 118l387 1262q34 91 12.5 118t-153.5 27l12 43h494
l-12 -43q-115 0 -157.5 -27t-70.5 -118l-49 -162q79 35 191 35zM561 477q96 0 178.5 32.5t139.5 85.5t97.5 121.5t59.5 140t19 140.5q0 130 -71 193t-200 63q-169 0 -225 -116l-190 -621q79 -39 192 -39z" />
    <glyph glyph-name="germandbls" unicode="&#xdf;" horiz-adv-x="1028" 
d="M825 1106q-111 -100 -141.5 -139t-30.5 -82q0 -26 20.5 -60.5t41 -57.5t55.5 -60q74 -81 115 -157t41 -167q0 -69 -29 -141t-79 -132t-127 -98.5t-165 -38.5q-109 0 -219 64l101 328l43 -3q-35 -109 -35 -182q0 -137 121 -137q83 0 148.5 50.5t97.5 123t32 148.5
q0 81 -33.5 144t-99.5 136q-77 86 -98 122q-25 42 -25 77q0 67 41 122t164 171q50 47 77 74t61.5 65.5t51.5 67.5t29 65t12 72q0 62 -33.5 95.5t-97.5 33.5q-116 0 -205 -100.5t-153 -317.5l-309 -1018q-41 -134 -96 -244t-125.5 -197.5t-161 -135.5t-191.5 -48
q-61 0 -83.5 17t-22.5 47q0 38 30.5 64t73.5 26q29 0 76 -22.5t78 -22.5q89 0 150.5 108.5t150.5 397.5l260 858h-176l16 55h176l35 117q32 106 75.5 191t102 152.5t137 104.5t170.5 37q106 0 170 -57t64 -143q0 -27 -6.5 -53t-14.5 -46.5t-26.5 -46.5t-32 -42t-43 -44.5
t-46 -43t-55 -48t-57.5 -49.5z" />
    <glyph glyph-name="agrave" unicode="&#xe0;" horiz-adv-x="1007" 
d="M573 1642l181 -364h-49l-277 364h145zM670 66q59 0 123.5 83t124.5 213h43q-39 -95 -89.5 -176t-119 -139.5t-134.5 -58.5q-108 0 -108 106q0 13 4 30t8 29t13 35.5t12 32.5l117 322h-19q-41 -89 -94 -180.5t-117.5 -180t-134.5 -144.5t-129 -56q-158 0 -158 237
q0 128 56 285.5t140.5 289t194 221t207.5 89.5q89 0 132.5 -60t35.5 -163h6l62 170q33 0 62.5 17t47.5 44l23 -10l-322 -883q-2 -7 -8 -24.5t-10 -28.5t-7 -25.5t-3 -23.5q0 -51 41 -51zM205 80q64 0 159.5 100.5t177.5 236t124 251.5q47 125 47 217q0 143 -101 143
t-215 -132t-189 -320t-75 -343q0 -153 72 -153z" />
    <glyph glyph-name="aacute" unicode="&#xe1;" horiz-adv-x="1007" 
d="M954 1642h146l-338 -364h-49zM956 1112l23 -10l-322 -883q-2 -7 -8 -24.5t-10 -28.5t-7 -25.5t-3 -23.5q0 -51 41 -51q59 0 123.5 83t124.5 213h43q-39 -95 -89.5 -176t-119 -139.5t-134.5 -58.5q-108 0 -108 106q0 13 4 30t8 29t13 35.5t12 32.5l117 322h-19
q-41 -89 -94 -180.5t-117.5 -180t-134.5 -144.5t-129 -56q-158 0 -158 237q0 128 56 285.5t140.5 289t194 221t207.5 89.5q89 0 132.5 -60t35.5 -163h6l62 170q33 0 62.5 17t47.5 44zM205 80q64 0 159.5 100.5t177.5 236t124 251.5q47 125 47 217q0 143 -101 143t-215 -132
t-189 -320t-75 -343q0 -153 72 -153z" />
    <glyph glyph-name="acircumflex" unicode="&#xe2;" horiz-adv-x="1007" 
d="M907 1278l-108 287l-291 -287h-49l291 364h143l61 -364h-47zM670 66q59 0 123.5 83t124.5 213h43q-39 -95 -89.5 -176t-119 -139.5t-134.5 -58.5q-108 0 -108 106q0 13 4 30t8 29t13 35.5t12 32.5l117 322h-19q-41 -89 -94 -180.5t-117.5 -180t-134.5 -144.5t-129 -56
q-158 0 -158 237q0 128 56 285.5t140.5 289t194 221t207.5 89.5q89 0 132.5 -60t35.5 -163h6l62 170q33 0 62.5 17t47.5 44l23 -10l-322 -883q-2 -7 -8 -24.5t-10 -28.5t-7 -25.5t-3 -23.5q0 -51 41 -51zM205 80q64 0 159.5 100.5t177.5 236t124 251.5q47 125 47 217
q0 143 -101 143t-215 -132t-189 -320t-75 -343q0 -153 72 -153z" />
    <glyph glyph-name="atilde" unicode="&#xe3;" horiz-adv-x="1007" 
d="M1040 1569l41 -4q-77 -230 -211 -230q-35 0 -64 14t-49 33.5t-38.5 39.5t-42.5 34t-51 14q-50 0 -83.5 -36.5t-60.5 -106.5l-43 4q39 111 89 171.5t122 60.5q35 0 64 -14t49 -34.5t39 -41t43 -34.5t51 -14q51 0 84.5 36.5t60.5 107.5zM956 1112l23 -10l-322 -883
q-2 -7 -8 -24.5t-10 -28.5t-7 -25.5t-3 -23.5q0 -51 41 -51q59 0 123.5 83t124.5 213h43q-39 -95 -89.5 -176t-119 -139.5t-134.5 -58.5q-108 0 -108 106q0 13 4 30t8 29t13 35.5t12 32.5l117 322h-19q-41 -89 -94 -180.5t-117.5 -180t-134.5 -144.5t-129 -56
q-158 0 -158 237q0 128 56 285.5t140.5 289t194 221t207.5 89.5q89 0 132.5 -60t35.5 -163h6l62 170q33 0 62.5 17t47.5 44zM205 80q64 0 159.5 100.5t177.5 236t124 251.5q47 125 47 217q0 143 -101 143t-215 -132t-189 -320t-75 -343q0 -153 72 -153z" />
    <glyph glyph-name="adieresis" unicode="&#xe4;" horiz-adv-x="1007" 
d="M606 1350q-43 0 -70.5 27.5t-27.5 70.5t27.5 69.5t70.5 26.5q44 0 71.5 -26.5t27.5 -69.5t-27.5 -70.5t-71.5 -27.5zM946 1544q43 0 69.5 -26.5t26.5 -69.5t-26.5 -70.5t-69.5 -27.5t-70.5 27.5t-27.5 70.5t27.5 69.5t70.5 26.5zM956 1112l23 -10l-322 -883
q-2 -7 -8 -24.5t-10 -28.5t-7 -25.5t-3 -23.5q0 -51 41 -51q59 0 123.5 83t124.5 213h43q-39 -95 -89.5 -176t-119 -139.5t-134.5 -58.5q-108 0 -108 106q0 13 4 30t8 29t13 35.5t12 32.5l117 322h-19q-41 -89 -94 -180.5t-117.5 -180t-134.5 -144.5t-129 -56
q-158 0 -158 237q0 128 56 285.5t140.5 289t194 221t207.5 89.5q89 0 132.5 -60t35.5 -163h6l62 170q33 0 62.5 17t47.5 44zM205 80q64 0 159.5 100.5t177.5 236t124 251.5q47 125 47 217q0 143 -101 143t-215 -132t-189 -320t-75 -343q0 -153 72 -153z" />
    <glyph glyph-name="aring" unicode="&#xe5;" horiz-adv-x="1007" 
d="M721 1296q-67 0 -106.5 41t-39.5 103q0 88 75 164.5t173 76.5q66 0 106 -39t40 -100q0 -89 -74.5 -167.5t-173.5 -78.5zM813 1622q-75 0 -121.5 -58t-46.5 -120q0 -38 21 -63t65 -25q74 0 121 62.5t47 121.5q0 37 -20.5 59.5t-65.5 22.5zM670 66q59 0 123.5 83t124.5 213
h43q-39 -95 -89.5 -176t-119 -139.5t-134.5 -58.5q-108 0 -108 106q0 13 4 30t8 29t13 35.5t12 32.5l117 322h-19q-41 -89 -94 -180.5t-117.5 -180t-134.5 -144.5t-129 -56q-158 0 -158 237q0 128 56 285.5t140.5 289t194 221t207.5 89.5q89 0 132.5 -60t35.5 -163h6l62 170
q33 0 62.5 17t47.5 44l23 -10l-322 -883q-2 -7 -8 -24.5t-10 -28.5t-7 -25.5t-3 -23.5q0 -51 41 -51zM205 80q64 0 159.5 100.5t177.5 236t124 251.5q47 125 47 217q0 143 -101 143t-215 -132t-189 -320t-75 -343q0 -153 72 -153z" />
    <glyph glyph-name="ae" unicode="&#xe6;" horiz-adv-x="1230" 
d="M768 66q89 0 181.5 99t170.5 265h39q-79 -207 -195.5 -332t-244.5 -125q-103 0 -158 76.5t-55 204.5q0 73 14 139h-8q-31 -89 -65 -158.5t-79 -131.5t-103 -96t-124 -34q-76 0 -125 45t-49 129q0 65 34.5 123.5t89.5 102t133 81.5t155.5 64t165.5 47q82 213 82 328
q0 151 -111 151q-77 0 -149 -62t-72 -161q0 -16 2 -41.5t2 -34.5q0 -35 -17 -53t-46 -18q-33 0 -51.5 20.5t-18.5 59.5q0 76 57 159.5t145.5 139t172.5 55.5q54 0 92.5 -22t57.5 -59.5t27 -77t7 -85.5h4q80 110 171.5 175t178.5 65q74 0 114 -44t40 -112q0 -74 -48.5 -142.5
t-129.5 -120t-179 -89.5t-204 -59q-45 -146 -45 -261q0 -95 36.5 -152.5t104.5 -57.5zM1053 1038q-102 0 -202.5 -133.5t-164.5 -320.5q83 25 159.5 60t144 80t107.5 102.5t40 117.5q0 94 -84 94zM174 68q170 0 352 450q-189 -47 -314.5 -140t-125.5 -210q0 -50 23.5 -75
t64.5 -25z" />
    <glyph glyph-name="ccedilla" unicode="&#xe7;" horiz-adv-x="733" 
d="M553 782q0 25 17.5 46t38 34.5t38 40t17.5 62.5q0 32 -21 53.5t-68 21.5q-82 0 -161.5 -75.5t-134.5 -188.5t-89 -242.5t-34 -238.5q0 -105 32 -167t97 -62q84 0 173 91.5t163 241.5h38q-82 -198 -188.5 -310t-218.5 -116l-33 -73q66 -3 109 -38.5t43 -97.5
q0 -91 -91.5 -158t-244.5 -67q-35 0 -109 8l21 43q18 -2 61 -2q124 0 191 53t67 121q0 93 -129 93l56 125q-76 20 -118 97.5t-42 196.5q0 181 80.5 376t210.5 326.5t260 131.5q68 0 110.5 -43t42.5 -119q0 -83 -39.5 -154t-89.5 -71q-25 0 -40 17.5t-15 43.5z" />
    <glyph glyph-name="egrave" unicode="&#xe8;" horiz-adv-x="753" 
d="M508 1642l180 -364h-49l-277 364h146zM289 63q93 0 183.5 99t168.5 268h41q-81 -208 -196.5 -332.5t-245.5 -124.5q-101 0 -159 74.5t-58 204.5q0 122 49 271.5t126 278t182.5 215.5t207.5 87q71 0 113 -44.5t42 -117.5q0 -104 -81 -208t-212.5 -178t-275.5 -97
q-29 -119 -29 -203q0 -92 39 -142.5t105 -50.5zM569 1040q-75 0 -152 -80t-134 -196t-95 -248q188 42 321.5 160.5t133.5 265.5q0 98 -74 98z" />
    <glyph glyph-name="eacute" unicode="&#xe9;" horiz-adv-x="753" 
d="M891 1642h145l-338 -364h-49zM743 942q0 -104 -81 -208t-212.5 -178t-275.5 -97q-29 -119 -29 -203q0 -92 39 -142.5t105 -50.5q93 0 183.5 99t168.5 268h41q-81 -208 -196.5 -332.5t-245.5 -124.5q-101 0 -159 74.5t-58 204.5q0 122 49 271.5t126 278t182.5 215.5
t207.5 87q71 0 113 -44.5t42 -117.5zM569 1040q-75 0 -152 -80t-134 -196t-95 -248q188 42 321.5 160.5t133.5 265.5q0 98 -74 98z" />
    <glyph glyph-name="ecircumflex" unicode="&#xea;" horiz-adv-x="753" 
d="M829 1642l62 -364h-47l-109 287l-291 -287h-49l291 364h143zM743 942q0 -104 -81 -208t-212.5 -178t-275.5 -97q-29 -119 -29 -203q0 -92 39 -142.5t105 -50.5q93 0 183.5 99t168.5 268h41q-81 -208 -196.5 -332.5t-245.5 -124.5q-101 0 -159 74.5t-58 204.5
q0 122 49 271.5t126 278t182.5 215.5t207.5 87q71 0 113 -44.5t42 -117.5zM569 1040q-75 0 -152 -80t-134 -196t-95 -248q188 42 321.5 160.5t133.5 265.5q0 98 -74 98z" />
    <glyph glyph-name="edieresis" unicode="&#xeb;" horiz-adv-x="753" 
d="M543 1350q-43 0 -71 27.5t-28 70.5q0 42 28 69t71 27q44 0 71 -26.5t27 -69.5t-27 -70.5t-71 -27.5zM883 1544q43 0 69.5 -26.5t26.5 -69.5t-26.5 -70.5t-69.5 -27.5t-71 27.5t-28 70.5q0 42 28 69t71 27zM743 942q0 -104 -81 -208t-212.5 -178t-275.5 -97
q-29 -119 -29 -203q0 -92 39 -142.5t105 -50.5q93 0 183.5 99t168.5 268h41q-81 -208 -196.5 -332.5t-245.5 -124.5q-101 0 -159 74.5t-58 204.5q0 122 49 271.5t126 278t182.5 215.5t207.5 87q71 0 113 -44.5t42 -117.5zM569 1040q-75 0 -152 -80t-134 -196t-95 -248
q188 42 321.5 160.5t133.5 265.5q0 98 -74 98z" />
    <glyph glyph-name="igrave" unicode="&#xec;" horiz-adv-x="585" 
d="M338 1642l180 -364h-49l-276 364h145zM123 221l215 619q41 125 41 145q0 39 -31 39q-49 0 -117 -76t-127 -180h-43q71 136 167 234t186 98q38 0 59 -26.5t21 -65.5q0 -59 -43 -170l-218 -619q-26 -81 -26 -102q0 -51 41 -51q59 0 124.5 83.5t123.5 212.5h43
q-29 -70 -65 -133.5t-79.5 -119t-94.5 -88.5t-101 -33q-109 0 -109 106q0 34 33 127z" />
    <glyph glyph-name="iacute" unicode="&#xed;" horiz-adv-x="585" 
d="M526 1278h-49l242 364h145zM123 221l215 619q41 125 41 145q0 39 -31 39q-49 0 -117 -76t-127 -180h-43q71 136 167 234t186 98q38 0 59 -26.5t21 -65.5q0 -59 -43 -170l-218 -619q-26 -81 -26 -102q0 -51 41 -51q59 0 124.5 83.5t123.5 212.5h43q-29 -70 -65 -133.5
t-79.5 -119t-94.5 -88.5t-101 -33q-109 0 -109 106q0 34 33 127z" />
    <glyph glyph-name="icircumflex" unicode="&#xee;" horiz-adv-x="585" 
d="M657 1642l62 -364h-47l-109 287l-291 -287h-49l291 364h143zM248 66q59 0 124.5 83.5t123.5 212.5h43q-29 -70 -65 -133.5t-79.5 -119t-94.5 -88.5t-101 -33q-109 0 -109 106q0 34 33 127l215 619q41 125 41 145q0 39 -31 39q-49 0 -117 -76t-127 -180h-43
q71 136 167 234t186 98q38 0 59 -26.5t21 -65.5q0 -59 -43 -170l-218 -619q-26 -81 -26 -102q0 -51 41 -51z" />
    <glyph glyph-name="idieresis" unicode="&#xef;" horiz-adv-x="585" 
d="M371 1350q-43 0 -71 27.5t-28 70.5q0 42 28 69t71 27q44 0 71 -26.5t27 -69.5t-27 -70.5t-71 -27.5zM711 1350q-43 0 -71 27.5t-28 70.5q0 42 28 69t71 27t69.5 -26.5t26.5 -69.5t-26.5 -70.5t-69.5 -27.5zM123 221l215 619q41 125 41 145q0 39 -31 39q-49 0 -117 -76
t-127 -180h-43q71 136 167 234t186 98q38 0 59 -26.5t21 -65.5q0 -59 -43 -170l-218 -619q-26 -81 -26 -102q0 -51 41 -51q59 0 124.5 83.5t123.5 212.5h43q-29 -70 -65 -133.5t-79.5 -119t-94.5 -88.5t-101 -33q-109 0 -109 106q0 34 33 127z" />
    <glyph glyph-name="eth" unicode="&#xf0;" horiz-adv-x="907" 
d="M999 1579l23 -41l-266 -143q137 -215 137 -494q0 -121 -29.5 -253t-85 -252.5t-127 -217t-163.5 -154t-187 -57.5q-120 0 -186 89t-66 239q0 131 45 273.5t119.5 260.5t180 194.5t216.5 76.5q103 0 154 -64q-14 176 -82 318l-250 -135l-22 41l249 135q-74 131 -223 245
l35 39q161 -105 260 -245zM328 37q84 0 167.5 88.5t142.5 219.5t95.5 282t36.5 276v17q-37 104 -152 104q-74 0 -144.5 -47t-124 -125t-95 -174t-63 -198.5t-21.5 -194.5q0 -114 38 -181t120 -67z" />
    <glyph glyph-name="ntilde" unicode="&#xf1;" horiz-adv-x="1038" 
d="M868 1335q-35 0 -64 14t-49 33.5t-38.5 39.5t-42.5 34t-51 14q-50 0 -83.5 -36.5t-60.5 -106.5l-43 4q39 111 89 171.5t122 60.5q35 0 64 -14t49 -34.5t39 -41t43 -34.5t51 -14q51 0 84.5 36.5t60.5 107.5l41 -4q-77 -230 -211 -230zM166 0h-117l289 840q41 121 41 145
q0 39 -31 39q-49 0 -117 -76t-127 -180h-43q71 136 167 234t186 98q38 0 59 -26.5t21 -65.5q0 -42 -45 -168l-136 -373h17q162 342 287.5 489.5t232.5 147.5q56 0 86.5 -34t30.5 -93q0 -76 -39.5 -189.5t-130 -315t-111.5 -253.5q-2 -6 -11 -31.5t-13.5 -42t-4.5 -28.5
q0 -51 41 -51q59 0 124.5 83.5t123.5 212.5h43q-29 -70 -65 -133.5t-79.5 -119t-94.5 -88.5t-101 -33q-108 0 -108 106q0 34 37 127q32 82 112 272.5t115 290.5t35 150q0 76 -49 76q-30 0 -72.5 -30.5t-102.5 -106t-127 -187t-151.5 -289t-171.5 -397.5z" />
    <glyph glyph-name="ograve" unicode="&#xf2;" horiz-adv-x="882" 
d="M547 1642l180 -364h-49l-277 364h146zM274 -27q-113 0 -175 84t-62 228q0 142 51 291.5t130 265.5t183 190t203 74q113 0 177.5 -87.5t64.5 -232.5q0 -141 -51.5 -289.5t-131.5 -263t-184.5 -187.5t-204.5 -73zM307 43q69 0 145 69t136 175.5t99.5 243t39.5 262.5
q0 112 -38.5 177.5t-117.5 65.5q-69 0 -144 -70t-134.5 -177.5t-98 -245t-38.5 -262.5q0 -238 151 -238z" />
    <glyph glyph-name="oacute" unicode="&#xf3;" horiz-adv-x="882" 
d="M737 1278h-49l242 364h145zM274 -27q-113 0 -175 84t-62 228q0 142 51 291.5t130 265.5t183 190t203 74q113 0 177.5 -87.5t64.5 -232.5q0 -141 -51.5 -289.5t-131.5 -263t-184.5 -187.5t-204.5 -73zM307 43q69 0 145 69t136 175.5t99.5 243t39.5 262.5
q0 112 -38.5 177.5t-117.5 65.5q-69 0 -144 -70t-134.5 -177.5t-98 -245t-38.5 -262.5q0 -238 151 -238z" />
    <glyph glyph-name="ocircumflex" unicode="&#xf4;" horiz-adv-x="882" 
d="M866 1642l62 -364h-47l-109 287l-291 -287h-49l291 364h143zM604 1106q113 0 177.5 -87.5t64.5 -232.5q0 -141 -51.5 -289.5t-131.5 -263t-184.5 -187.5t-204.5 -73q-113 0 -175 84t-62 228q0 142 51 291.5t130 265.5t183 190t203 74zM307 43q69 0 145 69t136 175.5
t99.5 243t39.5 262.5q0 112 -38.5 177.5t-117.5 65.5q-69 0 -144 -70t-134.5 -177.5t-98 -245t-38.5 -262.5q0 -238 151 -238z" />
    <glyph glyph-name="otilde" unicode="&#xf5;" horiz-adv-x="882" 
d="M844 1335q-35 0 -64 14t-49 33.5t-39 39.5t-43 34t-51 14q-49 0 -82.5 -36.5t-60.5 -106.5l-43 4q39 111 89 171.5t122 60.5q35 0 64 -14t49 -34.5t38.5 -41t42.5 -34.5t51 -14q51 0 85 37t61 107l41 -4q-77 -230 -211 -230zM274 -27q-113 0 -175 84t-62 228
q0 142 51 291.5t130 265.5t183 190t203 74q113 0 177.5 -87.5t64.5 -232.5q0 -141 -51.5 -289.5t-131.5 -263t-184.5 -187.5t-204.5 -73zM307 43q69 0 145 69t136 175.5t99.5 243t39.5 262.5q0 112 -38.5 177.5t-117.5 65.5q-69 0 -144 -70t-134.5 -177.5t-98 -245
t-38.5 -262.5q0 -238 151 -238z" />
    <glyph glyph-name="odieresis" unicode="&#xf6;" horiz-adv-x="882" 
d="M580 1350q-43 0 -71 27.5t-28 70.5q0 42 28 69t71 27q44 0 71 -26.5t27 -69.5t-27 -70.5t-71 -27.5zM920 1350q-43 0 -71 27.5t-28 70.5q0 42 28 69t71 27t69.5 -26.5t26.5 -69.5t-26.5 -70.5t-69.5 -27.5zM274 -27q-113 0 -175 84t-62 228q0 142 51 291.5t130 265.5
t183 190t203 74q113 0 177.5 -87.5t64.5 -232.5q0 -141 -51.5 -289.5t-131.5 -263t-184.5 -187.5t-204.5 -73zM307 43q69 0 145 69t136 175.5t99.5 243t39.5 262.5q0 112 -38.5 177.5t-117.5 65.5q-69 0 -144 -70t-134.5 -177.5t-98 -245t-38.5 -262.5q0 -238 151 -238z" />
    <glyph glyph-name="divide" unicode="&#xf7;" horiz-adv-x="942" 
d="M592 868q-28 0 -46 17t-18 43q0 40 30 70t69 30q29 0 46 -17t17 -44q0 -38 -30 -68.5t-68 -30.5zM868 561h-757l30 103h758zM389 203q-28 0 -46.5 16.5t-18.5 42.5q0 39 30.5 69.5t67.5 30.5q29 0 46 -17t17 -44q0 -38 -29.5 -68t-66.5 -30z" />
    <glyph glyph-name="oslash" unicode="&#xf8;" horiz-adv-x="905" 
d="M979 1167l37 -28l-172 -199q22 -71 22 -154q0 -189 -84.5 -379.5t-218.5 -312t-268 -121.5q-132 0 -193 113l-157 -182l-39 30l174 201q-23 71 -23 150q0 142 51 291.5t131 265.5t184 190t204 74q132 0 196 -119zM176 281v-35l563 645q-30 145 -147 145q-68 0 -143 -70
t-135 -177.5t-99 -245t-39 -262.5zM748 793q0 19 -3 34l-559 -645q12 -66 48.5 -102.5t95.5 -36.5q68 0 143.5 69t135.5 175.5t99.5 243t39.5 262.5z" />
    <glyph glyph-name="ugrave" unicode="&#xf9;" horiz-adv-x="1046" 
d="M565 1642l180 -364h-49l-276 364h145zM174 -27q-56 0 -87.5 33.5t-31.5 91.5q0 57 31.5 156t64.5 176.5t97.5 218.5t87.5 195q4 11 14 39.5t15 43t9.5 33t4.5 27.5q0 39 -31 39q-49 0 -117 -76t-127 -180h-43q71 136 167 234t186 98q38 0 59 -27t21 -67q0 -44 -50 -168
q-31 -77 -87 -206.5t-88 -206.5t-60 -159.5t-31 -126.5q-6 -75 45 -75q70 0 166.5 100.5t208.5 300.5q91 164 164 334t80 276h149l-301 -874q-26 -75 -26 -103q0 -25 9 -37t32 -12q59 0 123 82t124 213h43q-28 -70 -64.5 -133.5t-80.5 -119.5t-95 -89t-100 -33
q-108 0 -108 109q0 27 35 125l145 399h-16q-173 -336 -302.5 -483.5t-234.5 -147.5z" />
    <glyph glyph-name="uacute" unicode="&#xfa;" horiz-adv-x="1046" 
d="M756 1278h-49l241 364h146zM174 -27q-56 0 -87.5 33.5t-31.5 91.5q0 57 31.5 156t64.5 176.5t97.5 218.5t87.5 195q4 11 14 39.5t15 43t9.5 33t4.5 27.5q0 39 -31 39q-49 0 -117 -76t-127 -180h-43q71 136 167 234t186 98q38 0 59 -27t21 -67q0 -44 -50 -168
q-31 -77 -87 -206.5t-88 -206.5t-60 -159.5t-31 -126.5q-6 -75 45 -75q70 0 166.5 100.5t208.5 300.5q91 164 164 334t80 276h149l-301 -874q-26 -75 -26 -103q0 -25 9 -37t32 -12q59 0 123 82t124 213h43q-28 -70 -64.5 -133.5t-80.5 -119.5t-95 -89t-100 -33
q-108 0 -108 109q0 27 35 125l145 399h-16q-173 -336 -302.5 -483.5t-234.5 -147.5z" />
    <glyph glyph-name="ucircumflex" unicode="&#xfb;" horiz-adv-x="1046" 
d="M899 1278l-108 287l-291 -287h-49l290 364h144l61 -364h-47zM952 346h43q-28 -70 -64.5 -133.5t-80.5 -119.5t-95 -89t-100 -33q-108 0 -108 109q0 27 35 125l145 399h-16q-173 -336 -302.5 -483.5t-234.5 -147.5q-56 0 -87.5 33.5t-31.5 91.5q0 57 31.5 156t64.5 176.5
t97.5 218.5t87.5 195q4 11 14 39.5t15 43t9.5 33t4.5 27.5q0 39 -31 39q-49 0 -117 -76t-127 -180h-43q71 136 167 234t186 98q38 0 59 -27t21 -67q0 -44 -50 -168q-31 -77 -87 -206.5t-88 -206.5t-60 -159.5t-31 -126.5q-6 -75 45 -75q70 0 166.5 100.5t208.5 300.5
q91 164 164 334t80 276h149l-301 -874q-26 -75 -26 -103q0 -25 9 -37t32 -12q59 0 123 82t124 213z" />
    <glyph glyph-name="udieresis" unicode="&#xfc;" horiz-adv-x="1046" 
d="M598 1350q-43 0 -70.5 27.5t-27.5 70.5t27.5 69.5t70.5 26.5q44 0 71 -26.5t27 -69.5t-27 -70.5t-71 -27.5zM938 1350q-43 0 -70.5 27.5t-27.5 70.5t27.5 69.5t70.5 26.5t69.5 -26.5t26.5 -69.5t-26.5 -70.5t-69.5 -27.5zM174 -27q-56 0 -87.5 33.5t-31.5 91.5
q0 57 31.5 156t64.5 176.5t97.5 218.5t87.5 195q4 11 14 39.5t15 43t9.5 33t4.5 27.5q0 39 -31 39q-49 0 -117 -76t-127 -180h-43q71 136 167 234t186 98q38 0 59 -27t21 -67q0 -44 -50 -168q-31 -77 -87 -206.5t-88 -206.5t-60 -159.5t-31 -126.5q-6 -75 45 -75
q70 0 166.5 100.5t208.5 300.5q91 164 164 334t80 276h149l-301 -874q-26 -75 -26 -103q0 -25 9 -37t32 -12q59 0 123 82t124 213h43q-28 -70 -64.5 -133.5t-80.5 -119.5t-95 -89t-100 -33q-108 0 -108 109q0 27 35 125l145 399h-16q-173 -336 -302.5 -483.5t-234.5 -147.5z
" />
    <glyph glyph-name="yacute" unicode="&#xfd;" horiz-adv-x="884" 
d="M621 1278h-50l242 364h145zM-143 -469q-44 0 -67 17.5t-23 45.5q0 38 29.5 65.5t70.5 27.5q34 0 75.5 -20.5t71.5 -20.5q107 0 287 264q48 521 43 924q0 73 -5 112t-15 52.5t-29 13.5q-35 0 -81.5 -74t-94.5 -197h-41q131 357 260 357q65 0 91 -57.5t28 -198.5
q0 -375 -45 -807q183 237 276.5 442t93.5 352q0 59 -26.5 127.5t-26.5 90.5q0 24 15 41.5t42 17.5q84 0 84 -195q0 -315 -350 -815q-74 -107 -131.5 -182t-127.5 -152.5t-131.5 -124.5t-132 -76.5t-140.5 -29.5z" />
    <glyph glyph-name="thorn" unicode="&#xfe;" horiz-adv-x="960" 
d="M778 1104q71 0 114.5 -66t43.5 -190q0 -82 -19 -178t-52.5 -192t-83.5 -185t-108.5 -158t-132 -110t-149.5 -41q-59 0 -107.5 29t-76.5 81l-121 -385q-31 -91 -8 -117t143 -26l-18 -43h-418l12 43q70 0 108 28t66 115l377 1198q-57 -103 -138.5 -199t-172.5 -155l-23 33
q138 93 250.5 257t161.5 312v-2l168 535h115l-349 -1053h15q41 92 84.5 169.5t95 148t109.5 111t114 40.5zM387 49q86 0 167.5 80.5t137 199.5t89.5 253t34 243q0 181 -86 181q-67 0 -160.5 -118t-169.5 -270t-116 -282l-27 -88q0 -89 36 -144t95 -55z" />
    <glyph glyph-name="ydieresis" unicode="&#xff;" horiz-adv-x="884" 
d="M465 1350q-43 0 -70.5 27.5t-27.5 70.5t27.5 69.5t70.5 26.5q44 0 71 -26.5t27 -69.5t-27 -70.5t-71 -27.5zM805 1350q-43 0 -70.5 27.5t-27.5 70.5t27.5 69.5t70.5 26.5t69.5 -26.5t26.5 -69.5t-26.5 -70.5t-69.5 -27.5zM-143 -469q-44 0 -67 17.5t-23 45.5
q0 38 29.5 65.5t70.5 27.5q34 0 75.5 -20.5t71.5 -20.5q107 0 287 264q48 521 43 924q0 73 -5 112t-15 52.5t-29 13.5q-35 0 -81.5 -74t-94.5 -197h-41q131 357 260 357q65 0 91 -57.5t28 -198.5q0 -375 -45 -807q183 237 276.5 442t93.5 352q0 59 -26.5 127.5t-26.5 90.5
q0 24 15 41.5t42 17.5q84 0 84 -195q0 -315 -350 -815q-74 -107 -131.5 -182t-127.5 -152.5t-131.5 -124.5t-132 -76.5t-140.5 -29.5z" />
    <glyph glyph-name="Amacron" unicode="&#x100;" horiz-adv-x="1253" 
d="M829 1907l23 78h500l-23 -78h-500zM1061 1671l-72 -1474q-5 -98 25 -126t143 -28l-18 -43h-496l14 43q88 0 129 13.5t56 43.5t18 97l21 335h-574l-241 -368q-44 -67 -47 -81q-6 -25 33 -33q33 -7 130 -7l-14 -43h-422l12 43q75 0 124.5 23t97.5 98l999 1507h82zM350 596
h533l51 868h-14z" />
    <glyph glyph-name="amacron" unicode="&#x101;" horiz-adv-x="1007" 
d="M502 1397l22 78h500l-23 -78h-499zM956 1112l23 -10l-322 -883q-2 -7 -8 -24.5t-10 -28.5t-7 -25.5t-3 -23.5q0 -51 41 -51q59 0 123.5 83t124.5 213h43q-39 -95 -89.5 -176t-119 -139.5t-134.5 -58.5q-108 0 -108 106q0 13 4 30t8 29t13 35.5t12 32.5l117 322h-19
q-41 -89 -94 -180.5t-117.5 -180t-134.5 -144.5t-129 -56q-158 0 -158 237q0 128 56 285.5t140.5 289t194 221t207.5 89.5q89 0 132.5 -60t35.5 -163h6l62 170q33 0 62.5 17t47.5 44zM205 80q64 0 159.5 100.5t177.5 236t124 251.5q47 125 47 217q0 143 -101 143t-215 -132
t-189 -320t-75 -343q0 -153 72 -153z" />
    <glyph glyph-name="Abreve" unicode="&#x102;" horiz-adv-x="1253" 
d="M1335 2103h41q-20 -111 -103 -177t-204 -66q-93 0 -145 41t-52 116q0 33 17 86h41q-6 -15 -6 -45q0 -56 37.5 -79t121.5 -23q210 0 252 147zM1061 1671l-72 -1474q-5 -98 25 -126t143 -28l-18 -43h-496l14 43q88 0 129 13.5t56 43.5t18 97l21 335h-574l-241 -368
q-44 -67 -47 -81q-6 -25 33 -33q33 -7 130 -7l-14 -43h-422l12 43q75 0 124.5 23t97.5 98l999 1507h82zM350 596h533l51 868h-14z" />
    <glyph glyph-name="abreve" unicode="&#x103;" horiz-adv-x="1007" 
d="M741 1350q-93 0 -144.5 41t-51.5 116q0 36 16 86h41q-6 -15 -6 -45q0 -56 38 -79t122 -23q210 0 252 147h41q-20 -111 -103.5 -177t-204.5 -66zM956 1112l23 -10l-322 -883q-2 -7 -8 -24.5t-10 -28.5t-7 -25.5t-3 -23.5q0 -51 41 -51q59 0 123.5 83t124.5 213h43
q-39 -95 -89.5 -176t-119 -139.5t-134.5 -58.5q-108 0 -108 106q0 13 4 30t8 29t13 35.5t12 32.5l117 322h-19q-41 -89 -94 -180.5t-117.5 -180t-134.5 -144.5t-129 -56q-158 0 -158 237q0 128 56 285.5t140.5 289t194 221t207.5 89.5q89 0 132.5 -60t35.5 -163h6l62 170
q33 0 62.5 17t47.5 44zM205 80q64 0 159.5 100.5t177.5 236t124 251.5q47 125 47 217q0 143 -101 143t-215 -132t-189 -320t-75 -343q0 -153 72 -153z" />
    <glyph glyph-name="Aogonek" unicode="&#x104;" horiz-adv-x="1253" 
d="M1061 1671l-72 -1474q-5 -98 25 -126t143 -28l-18 -43h-140q-53 -22 -102 -49.5t-98.5 -66t-79 -87.5t-29.5 -100q0 -98 113 -98q68 0 166 49l6 -45q-110 -72 -213 -72q-81 0 -129.5 36t-48.5 107q0 65 38 122.5t98 97.5t115.5 65.5t108.5 40.5h-301l14 43q88 0 129 13.5
t56 43.5t18 97l21 335h-574l-241 -368q-44 -67 -47 -81q-6 -25 33 -33q33 -7 130 -7l-14 -43h-422l12 43q75 0 124.5 23t97.5 98l999 1507h82zM350 596h533l51 868h-14z" />
    <glyph glyph-name="aogonek" unicode="&#x105;" horiz-adv-x="1007" 
d="M670 66q59 0 123.5 83t124.5 213h43q-51 -127 -127.5 -230.5t-159.5 -133.5h4q-53 -22 -102 -49.5t-98.5 -66t-79 -87.5t-29.5 -100q0 -98 112 -98q68 0 166 49l6 -45q-110 -72 -213 -72q-81 0 -129.5 36t-48.5 107q0 49 23 94.5t57.5 79t81 63t87.5 48.5t83 33
q-84 11 -84 104q0 13 4 30t8 29t13 35.5t12 32.5l117 322h-19q-41 -89 -94 -180.5t-117.5 -180t-134.5 -144.5t-129 -56q-158 0 -158 237q0 128 56 285.5t140.5 289t194 221t207.5 89.5q89 0 132.5 -60t35.5 -163h6l62 170q33 0 62.5 17t47.5 44l23 -10l-322 -883
q-2 -7 -8 -24.5t-10 -28.5t-7 -25.5t-3 -23.5q0 -51 41 -51zM205 80q64 0 159.5 100.5t177.5 236t124 251.5q47 125 47 217q0 143 -101 143t-215 -132t-189 -320t-75 -343q0 -153 72 -153z" />
    <glyph glyph-name="Cacute" unicode="&#x106;" horiz-adv-x="1218" 
d="M1030 1786h-49l242 364h145zM526 -33q-105 0 -186 38.5t-131 108t-75 161.5t-25 204q0 123 30 260t83 268.5t132 251.5t170.5 210.5t203.5 144t228 53.5q95 0 159.5 -33.5t111.5 -101.5q19 -28 31 -26.5t24 32.5l45 115l41 -8l-151 -562h-43q18 109 16.5 202.5
t-21.5 162.5t-73 108t-138 39q-120 0 -233.5 -75t-198 -195.5t-149.5 -267t-98 -295.5t-33 -275q0 -199 83.5 -314.5t237.5 -115.5q333 0 586 537h53q-52 -113 -99.5 -198.5t-111.5 -169.5t-131 -138.5t-154 -87.5t-184 -33z" />
    <glyph glyph-name="cacute" unicode="&#x107;" horiz-adv-x="733" 
d="M688 1278h-49l242 364h145zM244 -27q-100 0 -155.5 81.5t-55.5 219.5q0 181 80.5 376t210.5 326.5t260 131.5q68 0 110.5 -43t42.5 -119q0 -83 -39.5 -154t-89.5 -71q-25 0 -40 17.5t-15 43.5q0 25 17.5 46t38 34.5t38 40t17.5 62.5q0 32 -21 53.5t-68 21.5
q-82 0 -161.5 -75.5t-134.5 -188.5t-89 -242.5t-34 -238.5q0 -105 32 -167t97 -62q84 0 173 91.5t163 241.5h38q-84 -201 -193 -313.5t-222 -112.5z" />
    <glyph glyph-name="Cdotaccent" unicode="&#x10a;" horiz-adv-x="1218" 
d="M1024 1858q-43 0 -70.5 27.5t-27.5 70.5t27.5 69.5t70.5 26.5t69.5 -26.5t26.5 -69.5t-26.5 -70.5t-69.5 -27.5zM526 -33q-105 0 -186 38.5t-131 108t-75 161.5t-25 204q0 123 30 260t83 268.5t132 251.5t170.5 210.5t203.5 144t228 53.5q95 0 159.5 -33.5t111.5 -101.5
q19 -28 31 -26.5t24 32.5l45 115l41 -8l-151 -562h-43q18 109 16.5 202.5t-21.5 162.5t-73 108t-138 39q-120 0 -233.5 -75t-198 -195.5t-149.5 -267t-98 -295.5t-33 -275q0 -199 83.5 -314.5t237.5 -115.5q333 0 586 537h53q-52 -113 -99.5 -198.5t-111.5 -169.5
t-131 -138.5t-154 -87.5t-184 -33z" />
    <glyph glyph-name="cdotaccent" unicode="&#x10b;" horiz-adv-x="733" 
d="M680 1350q-43 0 -70.5 27.5t-27.5 70.5t27.5 69.5t70.5 26.5t69.5 -26.5t26.5 -69.5t-26.5 -70.5t-69.5 -27.5zM244 -27q-100 0 -155.5 81.5t-55.5 219.5q0 181 80.5 376t210.5 326.5t260 131.5q68 0 110.5 -43t42.5 -119q0 -83 -39.5 -154t-89.5 -71q-25 0 -40 17.5
t-15 43.5q0 25 17.5 46t38 34.5t38 40t17.5 62.5q0 32 -21 53.5t-68 21.5q-82 0 -161.5 -75.5t-134.5 -188.5t-89 -242.5t-34 -238.5q0 -105 32 -167t97 -62q84 0 173 91.5t163 241.5h38q-84 -201 -193 -313.5t-222 -112.5z" />
    <glyph glyph-name="Ccaron" unicode="&#x10c;" horiz-adv-x="1218" 
d="M895 1786l-61 364h47l108 -286l291 286h49l-291 -364h-143zM1368 1645l-151 -562h-43q18 109 16.5 202.5t-21.5 162.5t-73 108t-138 39q-120 0 -233.5 -75t-198 -195.5t-149.5 -267t-98 -295.5t-33 -275q0 -199 83.5 -314.5t237.5 -115.5q333 0 586 537h53
q-52 -113 -99.5 -198.5t-111.5 -169.5t-131 -138.5t-154 -87.5t-184 -33q-105 0 -186 38.5t-131 108t-75 161.5t-25 204q0 123 30 260t83 268.5t132 251.5t170.5 210.5t203.5 144t228 53.5q95 0 159.5 -33.5t111.5 -101.5q19 -28 31 -26.5t24 32.5l45 115z" />
    <glyph glyph-name="ccaron" unicode="&#x10d;" horiz-adv-x="733" 
d="M553 1278l-61 364h47l108 -286l291 286h49l-291 -364h-143zM584 1108q68 0 110.5 -43t42.5 -119q0 -83 -39.5 -154t-89.5 -71q-25 0 -40 17.5t-15 43.5q0 25 17.5 46t38 34.5t38 40t17.5 62.5q0 32 -21 53.5t-68 21.5q-82 0 -161.5 -75.5t-134.5 -188.5t-89 -242.5
t-34 -238.5q0 -105 32 -167t97 -62q84 0 173 91.5t163 241.5h38q-84 -201 -193 -313.5t-222 -112.5q-100 0 -155.5 81.5t-55.5 219.5q0 181 80.5 376t210.5 326.5t260 131.5z" />
    <glyph glyph-name="Dcaron" unicode="&#x10e;" horiz-adv-x="1427" 
d="M913 1788l-61 364h47l109 -286l290 286h50l-291 -364h-144zM883 1638q262 0 422.5 -158t160.5 -429q0 -206 -82.5 -398.5t-223 -336t-338.5 -230t-416 -86.5h-506l14 43q116 0 158.5 27t70.5 118l387 1262q34 91 12.5 118t-153.5 27l12 43h482zM414 70q189 0 361.5 85
t294 223.5t193.5 319.5t72 369q0 233 -122.5 369.5t-335.5 136.5q-189 0 -207 -68l-424 -1370q-6 -22 6.5 -36t52 -21.5t109.5 -7.5z" />
    <glyph glyph-name="dcaron" unicode="&#x10f;" horiz-adv-x="1028" 
d="M1137 1696l24 -8l-487 -1469q-25 -73 -25 -102q0 -51 41 -51q59 0 123.5 83t124.5 213h43q-39 -95 -89.5 -176t-118.5 -139.5t-134 -58.5q-109 0 -109 106q0 27 31 127l107 322h-25q-32 -71 -71.5 -144.5t-91 -151.5t-102 -137.5t-106 -98t-102.5 -38.5q-81 0 -119.5 66
t-38.5 180q0 128 56 285.5t140.5 289t194 221t207.5 89.5q89 0 132.5 -60t35.5 -163h2l197 589q25 71 -9 99t-147 28l13 41q147 0 208.5 11.5t94.5 46.5zM1217 1305l118 378h125l-196 -378h-47zM205 70q64 0 159 102t177 240t125 256q47 125 47 217q0 143 -101 143
t-215 -132t-189 -320t-75 -343q0 -163 72 -163z" />
    <glyph glyph-name="Dcroat" unicode="&#x110;" horiz-adv-x="1427" 
d="M883 1638q262 0 422.5 -158t160.5 -429q0 -206 -82.5 -398.5t-223 -336t-338.5 -230t-416 -86.5h-506l14 43q116 0 158.5 27t70.5 118l201 654h-192l20 63h190l168 545q34 91 12.5 118t-153.5 27l12 43h482zM414 70q189 0 361.5 85t294 223.5t193.5 319.5t72 369
q0 233 -122.5 369.5t-335.5 136.5q-189 0 -207 -68l-187 -600h379l-20 -63h-377l-219 -707q-6 -22 6.5 -36t52 -21.5t109.5 -7.5z" />
    <glyph glyph-name="dcroat" unicode="&#x111;" horiz-adv-x="1030" 
d="M1186 1266h-164l-348 -1047q-25 -73 -25 -102q0 -51 41 -51q59 0 123.5 83t124.5 213h43q-39 -95 -89.5 -176t-118.5 -139.5t-134 -58.5q-109 0 -109 106q0 27 31 127l107 322h-25q-32 -71 -71.5 -144.5t-91 -151.5t-102 -137.5t-106 -98t-102.5 -38.5q-81 0 -119.5 66
t-38.5 180q0 128 56 285.5t140.5 289t194 221t207.5 89.5q89 0 132.5 -60t35.5 -163h2l129 385h-266l14 53h269l51 151q25 71 -9 99t-147 28l13 41q147 0 208.5 11.5t94.5 46.5l24 -8l-123 -369h166zM205 70q64 0 159 102t177 240t125 256q47 125 47 217q0 143 -101 143
t-215 -132t-189 -320t-75 -343q0 -163 72 -163z" />
    <glyph glyph-name="Emacron" unicode="&#x112;" horiz-adv-x="1208" 
d="M748 1907l22 78h500l-23 -78h-499zM1350 1638l-105 -348h-55q17 69 24 109t7 77t-14 54t-41.5 27t-73.5 10h-314q-90 0 -116 -86l-181 -588h307q84 0 125 35.5t72 132.5h45l-129 -440h-45q31 113 12.5 160.5t-98.5 47.5h-305l-197 -636q-23 -77 -12 -99t68 -22h350
q116 0 188.5 61.5t173.5 235.5l58 -15l-197 -354h-997l14 43q116 0 158.5 27t70.5 118l387 1262q34 91 12.5 118t-153.5 27l12 43h949z" />
    <glyph glyph-name="emacron" unicode="&#x113;" horiz-adv-x="753" 
d="M438 1397l23 78h500l-23 -78h-500zM743 942q0 -104 -81 -208t-212.5 -178t-275.5 -97q-29 -119 -29 -203q0 -92 39 -142.5t105 -50.5q93 0 183.5 99t168.5 268h41q-81 -208 -196.5 -332.5t-245.5 -124.5q-101 0 -159 74.5t-58 204.5q0 122 49 271.5t126 278t182.5 215.5
t207.5 87q71 0 113 -44.5t42 -117.5zM569 1040q-75 0 -152 -80t-134 -196t-95 -248q188 42 321.5 160.5t133.5 265.5q0 98 -74 98z" />
    <glyph glyph-name="Edotaccent" unicode="&#x116;" horiz-adv-x="1208" 
d="M999 1860q-43 0 -70.5 27.5t-27.5 70.5t27.5 69.5t70.5 26.5t70 -26.5t27 -69.5t-27 -70.5t-70 -27.5zM1350 1638l-105 -348h-55q17 69 24 109t7 77t-14 54t-41.5 27t-73.5 10h-314q-90 0 -116 -86l-181 -588h307q84 0 125 35.5t72 132.5h45l-129 -440h-45
q31 113 12.5 160.5t-98.5 47.5h-305l-197 -636q-23 -77 -12 -99t68 -22h350q116 0 188.5 61.5t173.5 235.5l58 -15l-197 -354h-997l14 43q116 0 158.5 27t70.5 118l387 1262q34 91 12.5 118t-153.5 27l12 43h949z" />
    <glyph glyph-name="edotaccent" unicode="&#x117;" horiz-adv-x="753" 
d="M690 1544q43 0 69.5 -26.5t26.5 -69.5t-26.5 -70.5t-69.5 -27.5t-70.5 27.5t-27.5 70.5t27.5 69.5t70.5 26.5zM743 942q0 -104 -81 -208t-212.5 -178t-275.5 -97q-29 -119 -29 -203q0 -92 39 -142.5t105 -50.5q93 0 183.5 99t168.5 268h41q-81 -208 -196.5 -332.5
t-245.5 -124.5q-101 0 -159 74.5t-58 204.5q0 122 49 271.5t126 278t182.5 215.5t207.5 87q71 0 113 -44.5t42 -117.5zM569 1040q-75 0 -152 -80t-134 -196t-95 -248q188 42 321.5 160.5t133.5 265.5q0 98 -74 98z" />
    <glyph glyph-name="Eogonek" unicode="&#x118;" horiz-adv-x="1208" 
d="M401 1638h949l-105 -348h-55q17 69 24 109t7 77t-14 54t-41.5 27t-73.5 10h-314q-90 0 -116 -86l-181 -588h307q84 0 125 35.5t72 132.5h45l-129 -440h-45q31 113 12.5 160.5t-98.5 47.5h-305l-197 -636q-23 -77 -12 -99t68 -22h350q116 0 188.5 61.5t173.5 235.5l58 -15
l-197 -354h-4q-53 -22 -102 -49.5t-98.5 -66t-79 -87.5t-29.5 -100q0 -98 112 -98q68 0 166 49l6 -45q-110 -72 -213 -72q-81 0 -129.5 36t-48.5 107q0 52 26.5 101t65.5 83.5t90 64.5t94.5 47.5t84.5 29.5h-938l14 43q116 0 158.5 27t70.5 118l387 1262q34 91 12.5 118
t-153.5 27z" />
    <glyph glyph-name="eogonek" unicode="&#x119;" horiz-adv-x="753" 
d="M289 63q93 0 183.5 99t168.5 268h41q-61 -158 -144 -270t-178 -158q-1 0 -3 -1t-3 -1q-8 -3 -16 -8q-51 -22 -97.5 -49.5t-91.5 -64.5t-71.5 -83.5t-26.5 -95.5q0 -98 113 -98q68 0 166 49l6 -45q-110 -72 -213 -72q-81 0 -129.5 36t-48.5 107q0 54 25.5 102.5t68.5 85
t88.5 63t97.5 46.5q-95 6 -148.5 79.5t-53.5 199.5q0 122 49 271.5t126 278t182.5 215.5t207.5 87q71 0 113 -44.5t42 -117.5q0 -104 -81 -208t-212.5 -178t-275.5 -97q-29 -119 -29 -203q0 -92 39 -142.5t105 -50.5zM569 1040q-75 0 -152 -80t-134 -196t-95 -248
q188 42 321.5 160.5t133.5 265.5q0 98 -74 98z" />
    <glyph glyph-name="Ecaron" unicode="&#x11a;" horiz-adv-x="1208" 
d="M870 1788l-61 364h47l109 -286l290 286h50l-291 -364h-144zM401 1638h949l-105 -348h-55q17 69 24 109t7 77t-14 54t-41.5 27t-73.5 10h-314q-90 0 -116 -86l-181 -588h307q84 0 125 35.5t72 132.5h45l-129 -440h-45q31 113 12.5 160.5t-98.5 47.5h-305l-197 -636
q-23 -77 -12 -99t68 -22h350q116 0 188.5 61.5t173.5 235.5l58 -15l-197 -354h-997l14 43q116 0 158.5 27t70.5 118l387 1262q34 91 12.5 118t-153.5 27z" />
    <glyph glyph-name="ecaron" unicode="&#x11b;" horiz-adv-x="753" 
d="M563 1278l-61 364h47l108 -286l291 286h49l-290 -364h-144zM743 942q0 -104 -81 -208t-212.5 -178t-275.5 -97q-29 -119 -29 -203q0 -92 39 -142.5t105 -50.5q93 0 183.5 99t168.5 268h41q-81 -208 -196.5 -332.5t-245.5 -124.5q-101 0 -159 74.5t-58 204.5
q0 122 49 271.5t126 278t182.5 215.5t207.5 87q71 0 113 -44.5t42 -117.5zM569 1040q-75 0 -152 -80t-134 -196t-95 -248q188 42 321.5 160.5t133.5 265.5q0 98 -74 98z" />
    <glyph glyph-name="Gbreve" unicode="&#x11e;" horiz-adv-x="1392" 
d="M1327 2103h41q-20 -111 -103 -177t-204 -66q-93 0 -145 41t-52 116q0 33 17 86h41q-7 -17 -7 -45q0 -56 38 -79t122 -23q210 0 252 147zM1001 1595q-111 0 -223 -62.5t-204 -170t-164 -242.5t-112 -290.5t-40 -303.5q0 -224 100 -354.5t304 -130.5q95 0 187 39.5
t161 114.5l116 419q14 45 13.5 77t-31.5 52.5t-110 30.5t-222 10l15 43h608l-8 -43q-54 0 -83.5 -27t-54.5 -114l-139 -489q-210 -187 -475 -187q-134 0 -235 42.5t-162 120.5t-91 180t-30 229t32.5 262.5t90.5 259.5t141 235.5t179 193t211 129.5t231 48q218 0 313 -158
q6 -11 12.5 -15t13 1t11.5 18l55 140l41 -8l-147 -560h-43q18 108 13 201.5t-30.5 162t-87 107.5t-156.5 39z" />
    <glyph glyph-name="gbreve" unicode="&#x11f;" horiz-adv-x="897" 
d="M692 1368q-92 0 -144 41.5t-52 116.5q0 36 16 86h41q-6 -15 -6 -45q0 -56 38 -79.5t122 -23.5q209 0 251 148h41q-20 -111 -103 -177.5t-204 -66.5zM936 1110q80 0 80 -47q0 -24 -18 -44t-52 -20q-20 0 -60.5 13.5t-68.5 13.5q-31 0 -53 -12q49 -73 49 -189
q0 -123 -53.5 -239t-144 -192.5t-191.5 -88.5q-270 -38 -270 -119q0 -35 41 -64.5t141 -66.5l203 -78q114 -43 160 -85t46 -107q0 -118 -133.5 -189t-341.5 -71q-219 0 -359 71.5t-140 176.5q0 99 109 152t306 75q-72 34 -112.5 68.5t-40.5 78.5q0 49 45 85.5t103 54.5
t130 28q-75 28 -117 101t-42 172q0 129 61 249.5t161.5 195.5t209.5 75q94 0 155 -64q46 31 100 48.5t97 17.5zM391 356q83 0 156.5 79t114 194.5t40.5 228.5q0 197 -131 197q-83 0 -156.5 -79.5t-114 -194.5t-40.5 -228q0 -92 32.5 -144.5t98.5 -52.5zM496 -117l-232 86
l-14 6q-373 -50 -373 -192q0 -61 61.5 -105.5t155 -65t203.5 -20.5q166 0 251 45t85 117q0 79 -137 129z" />
    <glyph glyph-name="Gdotaccent" unicode="&#x120;" horiz-adv-x="1392" 
d="M1075 1860q-43 0 -70.5 27.5t-27.5 70.5t27.5 69.5t70.5 26.5t69.5 -26.5t26.5 -69.5t-26.5 -70.5t-69.5 -27.5zM1001 1595q-111 0 -223 -62.5t-204 -170t-164 -242.5t-112 -290.5t-40 -303.5q0 -224 100 -354.5t304 -130.5q95 0 187 39.5t161 114.5l116 419
q14 45 13.5 77t-31.5 52.5t-110 30.5t-222 10l15 43h608l-8 -43q-54 0 -83.5 -27t-54.5 -114l-139 -489q-210 -187 -475 -187q-134 0 -235 42.5t-162 120.5t-91 180t-30 229t32.5 262.5t90.5 259.5t141 235.5t179 193t211 129.5t231 48q218 0 313 -158q6 -11 12.5 -15t13 1
t11.5 18l55 140l41 -8l-147 -560h-43q18 108 13 201.5t-30.5 162t-87 107.5t-156.5 39z" />
    <glyph glyph-name="gdotaccent" unicode="&#x121;" horiz-adv-x="897" 
d="M705 1368q-43 0 -71 27.5t-28 70.5t28 70t71 27t69.5 -27t26.5 -70t-26.5 -70.5t-69.5 -27.5zM936 1110q80 0 80 -47q0 -24 -18 -44t-52 -20q-20 0 -60.5 13.5t-68.5 13.5q-31 0 -53 -12q49 -73 49 -189q0 -123 -53.5 -239t-144 -192.5t-191.5 -88.5q-270 -38 -270 -119
q0 -35 41 -64.5t141 -66.5l203 -78q114 -43 160 -85t46 -107q0 -118 -133.5 -189t-341.5 -71q-219 0 -359 71.5t-140 176.5q0 99 109 152t306 75q-72 34 -112.5 68.5t-40.5 78.5q0 49 45 85.5t103 54.5t130 28q-75 28 -117 101t-42 172q0 129 61 249.5t161.5 195.5t209.5 75
q94 0 155 -64q46 31 100 48.5t97 17.5zM391 356q83 0 156.5 79t114 194.5t40.5 228.5q0 197 -131 197q-83 0 -156.5 -79.5t-114 -194.5t-40.5 -228q0 -92 32.5 -144.5t98.5 -52.5zM496 -117l-232 86l-14 6q-373 -50 -373 -192q0 -61 61.5 -105.5t155 -65t203.5 -20.5
q166 0 251 45t85 117q0 79 -137 129z" />
    <glyph glyph-name="uni0122" unicode="&#x122;" horiz-adv-x="1392" 
d="M1001 1595q-111 0 -223 -62.5t-204 -170t-164 -242.5t-112 -290.5t-40 -303.5q0 -224 100 -354.5t304 -130.5q95 0 187 39.5t161 114.5l116 419q14 45 13.5 77t-31.5 52.5t-110 30.5t-222 10l15 43h608l-8 -43q-54 0 -83.5 -27t-54.5 -114l-139 -489q-210 -187 -475 -187
q-134 0 -235 42.5t-162 120.5t-91 180t-30 229t32.5 262.5t90.5 259.5t141 235.5t179 193t211 129.5t231 48q218 0 313 -158q6 -11 12.5 -15t13 1t11.5 18l55 140l41 -8l-147 -560h-43q18 108 13 201.5t-30.5 162t-87 107.5t-156.5 39zM555 -158q41 0 69.5 -30t28.5 -72
q0 -77 -65 -140.5t-195 -95.5l6 45q67 15 120.5 57t53.5 79q0 18 -16 18q-5 0 -23 -12.5t-40 -12.5q-21 0 -34.5 16t-13.5 40q0 43 30.5 75.5t78.5 32.5z" />
    <glyph glyph-name="uni0123" unicode="&#x123;" horiz-adv-x="897" 
d="M711 1382q-41 0 -70 30.5t-29 72.5q0 77 65 140t195 95l-6 -45q-66 -15 -120 -56.5t-54 -78.5q0 -18 19 -18q4 0 21 12t40 12q21 0 34 -15.5t13 -39.5q0 -43 -30 -76t-78 -33zM936 1110q80 0 80 -47q0 -24 -18 -44t-52 -20q-20 0 -60.5 13.5t-68.5 13.5q-31 0 -53 -12
q49 -73 49 -189q0 -123 -53.5 -239t-144 -192.5t-191.5 -88.5q-270 -38 -270 -119q0 -35 41 -64.5t141 -66.5l203 -78q114 -43 160 -85t46 -107q0 -118 -133.5 -189t-341.5 -71q-219 0 -359 71.5t-140 176.5q0 99 109 152t306 75q-72 34 -112.5 68.5t-40.5 78.5
q0 49 45 85.5t103 54.5t130 28q-75 28 -117 101t-42 172q0 129 61 249.5t161.5 195.5t209.5 75q94 0 155 -64q46 31 100 48.5t97 17.5zM391 356q83 0 156.5 79t114 194.5t40.5 228.5q0 197 -131 197q-83 0 -156.5 -79.5t-114 -194.5t-40.5 -228q0 -92 32.5 -144.5
t98.5 -52.5zM496 -117l-232 86l-14 6q-373 -50 -373 -192q0 -61 61.5 -105.5t155 -65t203.5 -20.5q166 0 251 45t85 117q0 79 -137 129z" />
    <glyph glyph-name="Hbar" unicode="&#x126;" horiz-adv-x="1437" 
d="M1708 1638l-12 -43q-116 0 -159 -27t-71 -118l-49 -162h160l-18 -59h-160l-320 -1041q-32 -91 -10 -118t152 -27l-13 -43h-491l12 43q114 0 156.5 27t70.5 118l197 648h-686l-199 -648q-34 -91 -12.5 -118t150.5 -27l-13 -43h-493l14 43q116 0 158.5 27t70.5 118
l320 1041h-215l18 59h215l49 162q34 91 12.5 118t-153.5 27l12 43h494l-14 -43q-114 0 -156 -27t-70 -118l-49 -162h686l49 162q34 91 13 118t-148 27l13 43h489zM489 907h687l98 322h-686z" />
    <glyph glyph-name="hbar" unicode="&#x127;" horiz-adv-x="985" 
d="M895 362h43q-29 -70 -65 -133.5t-79.5 -119t-94.5 -88.5t-101 -33q-109 0 -109 106q0 34 37 127q32 82 112 272.5t115 290.5t35 150q0 76 -49 76q-25 0 -59 -22.5t-78.5 -69t-98.5 -127.5t-114 -189t-131 -263t-143 -339h-117l422 1300h-156l17 52h155l39 118
q24 73 -3 100t-138 27l12 41q133 0 199.5 13t89.5 45l24 -8l-108 -336h266l-16 -52h-269l-270 -833h17q160 341 286.5 489t233.5 148q56 0 86 -34t30 -93t-30.5 -157t-66.5 -181.5t-95.5 -218t-87.5 -201.5q-2 -6 -11 -31.5t-13.5 -42t-4.5 -28.5q0 -51 41 -51
q59 0 124.5 83.5t123.5 212.5z" />
    <glyph glyph-name="Imacron" unicode="&#x12a;" horiz-adv-x="624" 
d="M481 1907l23 78h500l-23 -78h-500zM143 188l387 1262q34 91 12.5 118t-153.5 27l12 43h494l-12 -43q-115 0 -157.5 -27t-70.5 -118l-387 -1262q-34 -91 -12 -118t154 -27l-15 -43h-495l14 43q116 0 158.5 27t70.5 118z" />
    <glyph glyph-name="imacron" unicode="&#x12b;" horiz-adv-x="585" 
d="M266 1397l23 78h499l-22 -78h-500zM123 221l215 619q41 125 41 145q0 39 -31 39q-49 0 -117 -76t-127 -180h-43q71 136 167 234t186 98q38 0 59 -26.5t21 -65.5q0 -59 -43 -170l-218 -619q-26 -81 -26 -102q0 -51 41 -51q59 0 124.5 83.5t123.5 212.5h43
q-29 -70 -65 -133.5t-79.5 -119t-94.5 -88.5t-101 -33q-109 0 -109 106q0 34 33 127z" />
    <glyph glyph-name="Iogonek" unicode="&#x12e;" horiz-adv-x="624" 
d="M895 1638l-12 -43q-115 0 -157.5 -27t-70.5 -118l-387 -1262q-34 -91 -12 -118t154 -27l-15 -43h-51q-53 -22 -102 -49.5t-98.5 -66t-79 -87.5t-29.5 -100q0 -98 112 -98q68 0 166 49l6 -45q-110 -72 -213 -72q-81 0 -129.5 36t-48.5 107q0 52 26.5 101t65.5 83.5
t90 64.5t94.5 47.5t84.5 29.5h-389l14 43q116 0 158.5 27t70.5 118l387 1262q34 91 12.5 118t-153.5 27l12 43h494z" />
    <glyph glyph-name="iogonek" unicode="&#x12f;" horiz-adv-x="585" 
d="M518 1544q43 0 69.5 -26.5t26.5 -69.5t-26.5 -70.5t-69.5 -27.5t-70.5 27.5t-27.5 70.5t27.5 69.5t70.5 26.5zM248 66q59 0 124.5 83.5t123.5 212.5h43q-47 -117 -116.5 -216t-143.5 -138q-1 0 -3.5 -1t-3.5 -1q-3 -1 -8 -4t-8 -4q-51 -22 -97.5 -49.5t-92 -64.5
t-72.5 -83.5t-27 -95.5q0 -98 115 -98q68 0 166 49l6 -45q-110 -72 -213 -72q-81 0 -129.5 36.5t-48.5 107.5q0 57 29 108t77.5 89t97 64t101.5 46q-78 14 -78 104q0 34 33 127l215 619q41 125 41 145q0 39 -31 39q-49 0 -117 -76t-127 -180h-43q71 136 167 234t186 98
q38 0 59 -26.5t21 -65.5q0 -59 -43 -170l-218 -619q-26 -81 -26 -102q0 -51 41 -51z" />
    <glyph glyph-name="Idotaccent" unicode="&#x130;" horiz-adv-x="624" 
d="M733 1860q-43 0 -70.5 27.5t-27.5 70.5t27.5 69.5t70.5 26.5t69.5 -26.5t26.5 -69.5t-26.5 -70.5t-69.5 -27.5zM143 188l387 1262q34 91 12.5 118t-153.5 27l12 43h494l-12 -43q-115 0 -157.5 -27t-70.5 -118l-387 -1262q-34 -91 -12 -118t154 -27l-15 -43h-495l14 43
q116 0 158.5 27t70.5 118z" />
    <glyph glyph-name="dotlessi" unicode="&#x131;" horiz-adv-x="585" 
d="M123 221l215 619q41 125 41 145q0 39 -31 39q-49 0 -117 -76t-127 -180h-43q71 136 167 234t186 98q38 0 59 -26.5t21 -65.5q0 -59 -43 -170l-218 -619q-26 -81 -26 -102q0 -51 41 -51q59 0 124.5 83.5t123.5 212.5h43q-29 -70 -65 -133.5t-79.5 -119t-94.5 -88.5
t-101 -33q-109 0 -109 106q0 34 33 127z" />
    <glyph glyph-name="uni0136" unicode="&#x136;" horiz-adv-x="1320" 
d="M143 188l387 1262q34 91 12.5 118t-153.5 27l12 43h494l-12 -43q-115 0 -157.5 -27t-70.5 -118l-387 -1262q-34 -91 -12 -118t154 -27l-15 -43h-495l14 43q116 0 158.5 27t70.5 118zM649 922l340 -744q37 -84 84.5 -109.5t149.5 -25.5l-15 -43h-532l10 43
q95 0 138.5 16.5t45 48.5t-19.5 80l-326 711l574 522q100 94 100 127q0 27 -28.5 37t-112.5 10l10 43h502l-13 -43q-97 0 -157.5 -27.5t-157.5 -113.5zM459 -158q41 0 69.5 -30t28.5 -72q0 -77 -65 -140.5t-195 -95.5l6 45q67 15 120.5 57t53.5 79q0 18 -16 18
q-5 0 -23.5 -12.5t-40.5 -12.5q-21 0 -34 16t-13 40q0 43 30.5 75.5t78.5 32.5z" />
    <glyph glyph-name="uni0137" unicode="&#x137;" horiz-adv-x="983" 
d="M641 80q103 0 233 264h44q-37 -77 -69.5 -133.5t-74.5 -110.5t-89 -83t-97 -29q-81 0 -119.5 84t-46.5 245q-7 110 -2 203q102 28 185 81t131.5 113t74 117t25.5 101q0 72 -56 72q-32 0 -79.5 -30t-116 -105t-141.5 -185t-160.5 -288t-169.5 -396h-115l477 1470
q24 73 -3 100t-138 27l12 41q140 0 200 11.5t89 46.5l27 -8l-398 -1221h15q63 138 129 248t124 180.5t114 117t101.5 66t86.5 19.5q59 0 91.5 -36.5t32.5 -92.5q0 -51 -30 -115.5t-83 -128.5t-136 -119.5t-177 -81.5h-2q0 -56 11 -188q6 -66 12.5 -110t18 -79t28.5 -51
t41 -16zM276 -158q41 0 70 -30t29 -72q0 -77 -65 -140.5t-195 -95.5l6 45q67 15 120.5 57t53.5 79q0 18 -16 18q-5 0 -23.5 -12.5t-40.5 -12.5q-21 0 -34 16t-13 40q0 43 30 75.5t78 32.5z" />
    <glyph glyph-name="Lacute" unicode="&#x139;" horiz-adv-x="1124" 
d="M733 1786h-49l242 366h145zM899 1638l-12 -43q-117 0 -160.5 -27t-69.5 -118l-385 -1257q-23 -77 -11 -99t75 -22h313q62 0 99.5 9.5t78 45t76 90.5t94.5 160l54 -17l-191 -360h-960l14 43q116 0 158.5 27t70.5 118l387 1262q34 91 12.5 118t-153.5 27l12 43h498z" />
    <glyph glyph-name="lacute" unicode="&#x13a;" horiz-adv-x="532" 
d="M645 1821h-49l242 364h145zM627 1696l24 -8l-475 -1467q-22 -68 -22 -104q0 -51 41 -51q110 0 247 296h43q-39 -95 -89.5 -176t-118.5 -139.5t-134 -58.5q-108 0 -108 106q0 39 28 129l402 1247q26 73 -1 100t-138 27l12 41q145 0 201.5 12t87.5 46z" />
    <glyph glyph-name="uni013B" unicode="&#x13b;" horiz-adv-x="1124" 
d="M899 1638l-12 -43q-117 0 -160.5 -27t-69.5 -118l-385 -1257q-23 -77 -11 -99t75 -22h313q62 0 99.5 9.5t78 45t76 90.5t94.5 160l54 -17l-191 -360h-960l14 43q116 0 158.5 27t70.5 118l387 1262q34 91 12.5 118t-153.5 27l12 43h498zM412 -158q42 0 69 -30t25 -72
q-2 -76 -69 -140t-197 -96l6 45q67 15 122.5 57t57.5 79q0 18 -16 18q-5 0 -23.5 -12.5t-40.5 -12.5q-23 0 -35 16t-10 40q2 43 33.5 75.5t77.5 32.5z" />
    <glyph glyph-name="uni013C" unicode="&#x13c;" horiz-adv-x="532" 
d="M627 1696l24 -8l-475 -1467q-22 -68 -22 -104q0 -51 41 -51q110 0 247 296h43q-39 -95 -89.5 -176t-118.5 -139.5t-134 -58.5q-108 0 -108 106q0 39 28 129l402 1247q26 73 -1 100t-138 27l12 41q145 0 201.5 12t87.5 46zM111 -158q41 0 69.5 -30t28.5 -72
q0 -77 -65 -140.5t-195 -95.5l6 45q67 15 120.5 57t53.5 79q0 18 -16 18q-5 0 -23.5 -12.5t-40.5 -12.5q-21 0 -34 16t-13 40q0 43 30.5 75.5t78.5 32.5z" />
    <glyph glyph-name="Lcaron" unicode="&#x13d;" horiz-adv-x="1124" 
d="M1087 1303h-47l119 378h125zM899 1638l-12 -43q-117 0 -160.5 -27t-69.5 -118l-385 -1257q-23 -77 -11 -99t75 -22h313q62 0 99.5 9.5t78 45t76 90.5t94.5 160l54 -17l-191 -360h-960l14 43q116 0 158.5 27t70.5 118l387 1262q34 91 12.5 118t-153.5 27l12 43h498z" />
    <glyph glyph-name="lcaron" unicode="&#x13e;" horiz-adv-x="532" 
d="M627 1696l24 -8l-475 -1467q-22 -68 -22 -104q0 -51 41 -51q110 0 247 296h43q-39 -95 -89.5 -176t-118.5 -139.5t-134 -58.5q-108 0 -108 106q0 39 28 129l402 1247q26 73 -1 100t-138 27l12 41q145 0 201.5 12t87.5 46zM756 1305h-47l118 378h125z" />
    <glyph glyph-name="Lslash" unicode="&#x141;" horiz-adv-x="1150" 
d="M1022 377l53 -17l-190 -360h-959l13 43q117 0 160 27t69 118l160 521l-203 -103l-25 51l250 127l205 666q34 91 12.5 118t-153.5 27l12 43h500l-15 -43q-116 0 -158.5 -27t-70.5 -118l-180 -590l436 219l29 -49l-490 -246l-180 -591q-23 -77 -10.5 -99t75.5 -22h312
q62 0 99.5 9.5t78 45t76 90.5t94.5 160z" />
    <glyph glyph-name="lslash" unicode="&#x142;" horiz-adv-x="538" 
d="M604 940l-227 -100l-201 -619q-22 -68 -22 -104q0 -51 41 -51q110 0 247 296h43q-39 -95 -89.5 -176t-118.5 -139.5t-134 -58.5q-108 0 -108 106q0 39 28 129l181 557l-183 -80l-18 43l219 97l203 630q26 73 -1 100t-138 27l12 41q145 0 201.5 12t87.5 46l24 -8
l-256 -791l191 84z" />
    <glyph glyph-name="Nacute" unicode="&#x143;" horiz-adv-x="1460" 
d="M1292 2152h146l-338 -364h-49zM1747 1638l-12 -43q-117 0 -160.5 -27t-69.5 -118l-452 -1479h-76l-397 1422l-363 -1205q-34 -91 -8.5 -118t172.5 -27l-14 -43h-467l14 43q116 0 158.5 27t70.5 118l400 1321q-22 52 -53 69t-91 17l11 43h233l393 -1421h17l377 1233
q34 91 8.5 118t-172.5 27l14 43h467z" />
    <glyph glyph-name="nacute" unicode="&#x144;" horiz-adv-x="1038" 
d="M760 1278h-49l241 364h146zM166 0h-117l289 840q41 121 41 145q0 39 -31 39q-49 0 -117 -76t-127 -180h-43q71 136 167 234t186 98q38 0 59 -26.5t21 -65.5q0 -42 -45 -168l-136 -373h17q162 342 287.5 489.5t232.5 147.5q56 0 86.5 -34t30.5 -93q0 -76 -39.5 -189.5
t-130 -315t-111.5 -253.5q-2 -6 -11 -31.5t-13.5 -42t-4.5 -28.5q0 -51 41 -51q59 0 124.5 83.5t123.5 212.5h43q-29 -70 -65 -133.5t-79.5 -119t-94.5 -88.5t-101 -33q-108 0 -108 106q0 34 37 127q32 82 112 272.5t115 290.5t35 150q0 76 -49 76q-30 0 -72.5 -30.5
t-102.5 -106t-127 -187t-151.5 -289t-171.5 -397.5z" />
    <glyph glyph-name="uni0145" unicode="&#x145;" horiz-adv-x="1460" 
d="M1747 1638l-12 -43q-117 0 -160.5 -27t-69.5 -118l-452 -1479h-76l-397 1422l-363 -1205q-34 -91 -8.5 -118t172.5 -27l-14 -43h-467l14 43q116 0 158.5 27t70.5 118l400 1321q-22 52 -53 69t-91 17l11 43h233l393 -1421h17l377 1233q34 91 8.5 118t-172.5 27l14 43h467z
M584 -158q41 0 69.5 -30t28.5 -72q0 -77 -65 -140.5t-195 -95.5l6 45q67 15 120.5 57t53.5 79q0 18 -16 18q-5 0 -23.5 -12.5t-40.5 -12.5q-21 0 -34 16t-13 40q0 43 30.5 75.5t78.5 32.5z" />
    <glyph glyph-name="uni0146" unicode="&#x146;" horiz-adv-x="1038" 
d="M166 0h-117l289 840q41 121 41 145q0 39 -31 39q-49 0 -117 -76t-127 -180h-43q71 136 167 234t186 98q38 0 59 -26.5t21 -65.5q0 -42 -45 -168l-136 -373h17q162 342 287.5 489.5t232.5 147.5q56 0 86.5 -34t30.5 -93q0 -76 -39.5 -189.5t-130 -315t-111.5 -253.5
q-2 -6 -11 -31.5t-13.5 -42t-4.5 -28.5q0 -51 41 -51q59 0 124.5 83.5t123.5 212.5h43q-29 -70 -65 -133.5t-79.5 -119t-94.5 -88.5t-101 -33q-108 0 -108 106q0 34 37 127q32 82 112 272.5t115 290.5t35 150q0 76 -49 76q-30 0 -72.5 -30.5t-102.5 -106t-127 -187
t-151.5 -289t-171.5 -397.5zM342 -158q41 0 69.5 -30t28.5 -72q0 -77 -65 -140.5t-195 -95.5l6 45q67 15 120.5 57t53.5 79q0 18 -16 18q-5 0 -23 -12.5t-40 -12.5q-21 0 -34.5 16t-13.5 40q0 43 30.5 75.5t78.5 32.5z" />
    <glyph glyph-name="Ncaron" unicode="&#x147;" horiz-adv-x="1460" 
d="M965 1788l-62 364h47l109 -286l291 286h49l-291 -364h-143zM1747 1638l-12 -43q-117 0 -160.5 -27t-69.5 -118l-452 -1479h-76l-397 1422l-363 -1205q-34 -91 -8.5 -118t172.5 -27l-14 -43h-467l14 43q116 0 158.5 27t70.5 118l400 1321q-22 52 -53 69t-91 17l11 43h233
l393 -1421h17l377 1233q34 91 8.5 118t-172.5 27l14 43h467z" />
    <glyph glyph-name="ncaron" unicode="&#x148;" horiz-adv-x="1038" 
d="M625 1278l-62 364h47l109 -286l291 286h49l-291 -364h-143zM698 66q59 0 124.5 83.5t123.5 212.5h43q-29 -70 -65 -133.5t-79.5 -119t-94.5 -88.5t-101 -33q-108 0 -108 106q0 34 37 127q32 82 112 272.5t115 290.5t35 150q0 76 -49 76q-30 0 -72.5 -30.5t-102.5 -106
t-127 -187t-151.5 -289t-171.5 -397.5h-117l289 840q41 121 41 145q0 39 -31 39q-49 0 -117 -76t-127 -180h-43q71 136 167 234t186 98q38 0 59 -26.5t21 -65.5q0 -42 -45 -168l-136 -373h17q162 342 287.5 489.5t232.5 147.5q56 0 86.5 -34t30.5 -93q0 -76 -39.5 -189.5
t-130 -315t-111.5 -253.5q-2 -6 -11 -31.5t-13.5 -42t-4.5 -28.5q0 -51 41 -51z" />
    <glyph glyph-name="Eng" unicode="&#x14a;" horiz-adv-x="1460" 
d="M1747 1638l-12 -43q-117 0 -160.5 -27t-69.5 -118l-418 -1366l-40 -137q-25 -77 -44 -127t-45 -104t-53.5 -86t-65 -59.5t-85 -39.5t-107.5 -12q-90 0 -134 23.5t-44 58.5q0 32 27 59t65 27q27 0 49.5 -15t37 -33.5t40.5 -33.5t57 -15q69 0 120.5 82.5t119.5 298.5h-8
l-397 1422l-363 -1205q-34 -91 -8.5 -118t172.5 -27l-14 -43h-467l14 43q116 0 158.5 27t70.5 118l400 1321q-22 52 -53 69t-91 17l11 43h233l393 -1421h17l377 1233q34 91 8.5 118t-172.5 27l14 43h467z" />
    <glyph glyph-name="eng" unicode="&#x14b;" horiz-adv-x="999" 
d="M111 -455q-44 0 -67.5 18t-23.5 46q0 38 28.5 63t70.5 25q31 0 78.5 -21.5t83.5 -21.5q73 0 165 179t211 507q106 289 144.5 409.5t38.5 184.5q0 76 -49 76q-30 0 -72.5 -30.5t-102.5 -106t-127 -187t-151.5 -289t-171.5 -397.5h-117l289 840q41 121 41 145q0 39 -31 39
q-49 0 -117 -76t-127 -180h-43q71 136 167 234t186 98q38 0 59 -26.5t21 -65.5q0 -42 -45 -168l-136 -373h17q162 342 287.5 489.5t232.5 147.5q56 0 86.5 -34t30.5 -93q0 -75 -43 -216t-148 -427q-33 -87 -64 -160.5t-72 -157t-82 -149t-93 -127.5t-105 -103.5t-117 -66.5
t-132 -25z" />
    <glyph glyph-name="Omacron" unicode="&#x14c;" horiz-adv-x="1304" 
d="M842 1907l22 78h500l-23 -78h-499zM492 -33q-127 0 -215.5 66t-129.5 177.5t-41 260.5q0 168 48.5 344t134.5 327t195 271t238 189t255 69q128 0 216 -66t128.5 -177t40.5 -259q0 -141 -34.5 -288.5t-94.5 -279t-144 -249t-179 -202t-203.5 -134t-214.5 -49.5zM532 39
q122 0 250 105t225 267.5t159.5 370t62.5 400.5q0 93 -15.5 166.5t-48.5 132t-91 90t-138 31.5q-122 0 -249.5 -105.5t-224.5 -268.5t-159.5 -370.5t-62.5 -400.5q0 -418 292 -418z" />
    <glyph glyph-name="omacron" unicode="&#x14d;" horiz-adv-x="882" 
d="M477 1397l23 78h499l-22 -78h-500zM274 -27q-113 0 -175 84t-62 228q0 142 51 291.5t130 265.5t183 190t203 74q113 0 177.5 -87.5t64.5 -232.5q0 -141 -51.5 -289.5t-131.5 -263t-184.5 -187.5t-204.5 -73zM307 43q69 0 145 69t136 175.5t99.5 243t39.5 262.5
q0 112 -38.5 177.5t-117.5 65.5q-69 0 -144 -70t-134.5 -177.5t-98 -245t-38.5 -262.5q0 -238 151 -238z" />
    <glyph glyph-name="Ohungarumlaut" unicode="&#x150;" horiz-adv-x="1304" 
d="M958 1788h-47l224 364h114zM1163 1788h-49l248 364h117zM492 -33q-127 0 -215.5 66t-129.5 177.5t-41 260.5q0 168 48.5 344t134.5 327t195 271t238 189t255 69q128 0 216 -66t128.5 -177t40.5 -259q0 -141 -34.5 -288.5t-94.5 -279t-144 -249t-179 -202t-203.5 -134
t-214.5 -49.5zM532 39q122 0 250 105t225 267.5t159.5 370t62.5 400.5q0 93 -15.5 166.5t-48.5 132t-91 90t-138 31.5q-122 0 -249.5 -105.5t-224.5 -268.5t-159.5 -370.5t-62.5 -400.5q0 -418 292 -418z" />
    <glyph glyph-name="ohungarumlaut" unicode="&#x151;" horiz-adv-x="882" 
d="M594 1278h-47l223 364h115zM799 1278h-49l247 364h117zM274 -27q-113 0 -175 84t-62 228q0 142 51 291.5t130 265.5t183 190t203 74q113 0 177.5 -87.5t64.5 -232.5q0 -141 -51.5 -289.5t-131.5 -263t-184.5 -187.5t-204.5 -73zM307 43q69 0 145 69t136 175.5t99.5 243
t39.5 262.5q0 112 -38.5 177.5t-117.5 65.5q-69 0 -144 -70t-134.5 -177.5t-98 -245t-38.5 -262.5q0 -238 151 -238z" />
    <glyph glyph-name="OE" unicode="&#x152;" horiz-adv-x="1900" 
d="M551 -16q-120 0 -206.5 34.5t-137 101.5t-73.5 155t-23 204q0 165 43.5 334.5t128 321.5t198 271t264 189t314.5 70q54 0 154.5 -13.5t185.5 -13.5h643l-105 -348h-55q14 58 21 93t10 70t-3 53.5t-20.5 34t-40 21t-63.5 5.5h-313q-91 0 -117 -86l-180 -588h305
q84 0 124.5 35t73.5 133h45l-129 -440h-45q31 113 12.5 160.5t-100.5 47.5h-305l-194 -636q-22 -67 -11.5 -94t64.5 -27h352q115 0 188.5 62t172.5 235l57 -15l-197 -354h-678q-76 0 -194 -8t-166 -8zM602 49q40 0 72 5t66.5 18.5t59.5 43t38 72.5l385 1262
q25 77 -21.5 115.5t-148.5 38.5q-118 0 -228.5 -50t-198 -136t-161.5 -200t-122.5 -242t-75.5 -263t-27 -262q0 -96 16.5 -166t56.5 -125t112 -83t177 -28z" />
    <glyph glyph-name="oe" unicode="&#x153;" horiz-adv-x="1337" 
d="M872 63q90 0 184.5 101t168.5 266h41q-79 -204 -197.5 -330.5t-245.5 -126.5q-92 0 -144 66t-58 182q-77 -114 -170 -181t-183 -67q-108 0 -167.5 84t-59.5 230q0 190 78 381.5t201 314t247 123.5q107 0 166.5 -79.5t65.5 -211.5q82 131 181.5 210t199.5 79
q74 0 116.5 -48t42.5 -128q0 -101 -83.5 -202t-218 -173t-281.5 -94q-23 -108 -23 -183q0 -96 35.5 -154.5t103.5 -58.5zM1159 1038q-78 0 -157.5 -80t-137 -195.5t-94.5 -246.5q126 26 231.5 84.5t171.5 145.5t66 182q0 54 -18 82t-62 28zM311 43q87 0 177 115t147 291
t57 344q0 113 -35 178t-108 65q-92 0 -184 -116t-149.5 -292.5t-57.5 -344.5q0 -240 153 -240z" />
    <glyph glyph-name="Racute" unicode="&#x154;" horiz-adv-x="1230" 
d="M956 1788h-49l242 364h145zM-100 0l14 43q116 0 158.5 27t70.5 118l387 1262q34 91 12.5 118t-153.5 27l12 43h441q198 0 305.5 -83.5t107.5 -235.5q0 -141 -88 -250.5t-236.5 -165t-326.5 -47.5l-6 -10q68 -9 110.5 -53.5t71.5 -139.5l113 -366q23 -78 42 -121t50 -73
t71.5 -40t106.5 -10l-12 -43h-92q-46 0 -77 5t-64 20.5t-56.5 44t-47 77t-44.5 119.5l-117 391q-29 93 -74 130t-114 42l-195 -641q-8 -27 -12 -41t-6.5 -32.5t0 -26t10 -18t21 -14t35.5 -7.5t50 -5t68 -1l-16 -43h-520zM670 1499l-178 -584q23 -2 65 -2q166 1 292 44.5
t201.5 136t75.5 225.5q0 132 -80.5 193t-240.5 61q-57 0 -89.5 -16.5t-45.5 -57.5z" />
    <glyph glyph-name="racute" unicode="&#x155;" horiz-adv-x="761" 
d="M717 1278h-49l241 364h146zM184 0h-118l276 840q37 123 37 145q0 39 -31 39q-49 0 -117 -76t-127 -180h-43q71 136 167 234t186 98q38 0 59 -26.5t21 -65.5q0 -42 -45 -168l-136 -373h15q51 144 106 255.5t106.5 182.5t105 116.5t100 64t92.5 18.5q65 0 65 -51
q0 -35 -23 -62.5t-55 -27.5q-17 0 -45 10t-49 10q-44 0 -98 -49t-122 -156.5t-152 -306t-175 -471.5z" />
    <glyph glyph-name="uni0156" unicode="&#x156;" horiz-adv-x="1230" 
d="M-100 0l14 43q116 0 158.5 27t70.5 118l387 1262q34 91 12.5 118t-153.5 27l12 43h441q198 0 305.5 -83.5t107.5 -235.5q0 -141 -88 -250.5t-236.5 -165t-326.5 -47.5l-6 -10q68 -9 110.5 -53.5t71.5 -139.5l113 -366q23 -78 42 -121t50 -73t71.5 -40t106.5 -10l-12 -43
h-92q-46 0 -77 5t-64 20.5t-56.5 44t-47 77t-44.5 119.5l-117 391q-29 93 -74 130t-114 42l-195 -641q-8 -27 -12 -41t-6.5 -32.5t0 -26t10 -18t21 -14t35.5 -7.5t50 -5t68 -1l-16 -43h-520zM670 1499l-178 -584q23 -2 65 -2q166 1 292 44.5t201.5 136t75.5 225.5
q0 132 -80.5 193t-240.5 61q-57 0 -89.5 -16.5t-45.5 -57.5zM608 -158q41 0 70 -30t29 -72q0 -77 -65.5 -140.5t-195.5 -95.5l7 45q67 15 120.5 57t53.5 79q0 18 -17 18q-5 0 -23 -12.5t-40 -12.5q-21 0 -34 16t-13 40q0 43 30 75.5t78 32.5z" />
    <glyph glyph-name="uni0157" unicode="&#x157;" horiz-adv-x="761" 
d="M184 0h-118l276 840q37 123 37 145q0 39 -31 39q-49 0 -117 -76t-127 -180h-43q71 136 167 234t186 98q38 0 59 -26.5t21 -65.5q0 -42 -45 -168l-136 -373h15q51 144 106 255.5t106.5 182.5t105 116.5t100 64t92.5 18.5q65 0 65 -51q0 -35 -23 -62.5t-55 -27.5
q-17 0 -45 10t-49 10q-44 0 -98 -49t-122 -156.5t-152 -306t-175 -471.5zM72 -158q41 0 69.5 -30t28.5 -72q0 -77 -65 -140.5t-195 -95.5l6 45q67 15 120.5 57t53.5 79q0 18 -16 18q-5 0 -23.5 -12.5t-40.5 -12.5q-21 0 -34 16t-13 40q0 43 30.5 75.5t78.5 32.5z" />
    <glyph glyph-name="Rcaron" unicode="&#x158;" horiz-adv-x="1230" 
d="M821 1788l-61 364h47l108 -286l291 286h49l-290 -364h-144zM1255 1319q0 -141 -88 -250.5t-236.5 -165t-326.5 -47.5l-6 -10q68 -9 110.5 -53.5t71.5 -139.5l113 -366q23 -78 42 -121t50 -73t71.5 -40t106.5 -10l-12 -43h-92q-46 0 -77 5t-64 20.5t-56.5 44t-47 77
t-44.5 119.5l-117 391q-29 93 -74 130t-114 42l-195 -641q-8 -27 -12 -41t-6.5 -32.5t0 -26t10 -18t21 -14t35.5 -7.5t50 -5t68 -1l-16 -43h-520l14 43q116 0 158.5 27t70.5 118l387 1262q34 91 12.5 118t-153.5 27l12 43h441q198 0 305.5 -83.5t107.5 -235.5zM557 913
q166 1 292 44.5t201.5 136t75.5 225.5q0 132 -80.5 193t-240.5 61q-57 0 -89.5 -16.5t-45.5 -57.5l-178 -584q23 -2 65 -2z" />
    <glyph glyph-name="rcaron" unicode="&#x159;" horiz-adv-x="761" 
d="M580 1278l-62 364h47l109 -286l291 286h49l-291 -364h-143zM838 1104q65 0 65 -51q0 -35 -23 -62.5t-55 -27.5q-17 0 -45 10t-49 10q-44 0 -98 -49t-122 -156.5t-152 -306t-175 -471.5h-118l276 840q37 123 37 145q0 39 -31 39q-49 0 -117 -76t-127 -180h-43
q71 136 167 234t186 98q38 0 59 -26.5t21 -65.5q0 -42 -45 -168l-136 -373h15q51 144 106 255.5t106.5 182.5t105 116.5t100 64t92.5 18.5z" />
    <glyph glyph-name="Sacute" unicode="&#x15a;" horiz-adv-x="980" 
d="M864 1788h-49l242 364h145zM463 -18q-188 0 -328 165q-41 47 -65 -28l-39 -119h-51l137 514h45q-24 -117 4.5 -220.5t106 -169t188.5 -65.5q75 0 133.5 28t92 74.5t50.5 100.5t17 113q0 107 -50 205t-149 225l-76 102q-74 97 -113.5 178.5t-39.5 184.5q0 78 26.5 148.5
t76 127t130 90t180.5 33.5q92 0 159.5 -34.5t133.5 -112.5q14 -14 25 -12.5t16 14.5l45 102h47l-127 -461h-45q34 208 -35.5 320t-214.5 112q-143 0 -220 -88t-77 -215q0 -50 11 -94t35.5 -87t41.5 -68t52 -70l69 -92q97 -129 133 -189q89 -152 89 -286q0 -64 -16 -125
t-49.5 -116t-81.5 -96t-117 -65t-150 -24z" />
    <glyph glyph-name="sacute" unicode="&#x15b;" horiz-adv-x="698" 
d="M588 1278h-49l241 364h146zM248 -27q-116 0 -193.5 65t-77.5 144q0 33 17.5 51.5t44.5 18.5q23 0 33 -16t24 -60q23 -70 65 -106.5t113 -36.5q80 0 123 53.5t43 140.5t-69 199l-62 106q-62 103 -87 162.5t-25 122.5q0 126 88.5 208.5t216.5 82.5q96 0 157.5 -53
t61.5 -109q0 -31 -18.5 -49t-43.5 -18q-23 0 -34.5 16t-22.5 49q-20 52 -50 79.5t-89 27.5q-73 0 -117.5 -47t-44.5 -130q0 -93 76 -219l59 -104q48 -84 65 -116t30.5 -73t13.5 -83q0 -134 -84.5 -220t-212.5 -86z" />
    <glyph glyph-name="Scedilla" unicode="&#x15e;" horiz-adv-x="980" 
d="M1073 1524l45 102h47l-127 -461h-45q34 208 -35.5 320t-214.5 112q-143 0 -220 -88t-77 -215q0 -50 11 -94t35.5 -87t41.5 -68t52 -70l69 -92q97 -129 133 -189q89 -152 89 -286q0 -64 -16 -125t-49.5 -116t-81.5 -96t-117 -65t-150 -24q-22 0 -62 4l-39 -88
q66 -3 109 -38.5t43 -97.5q0 -91 -91.5 -158t-244.5 -67q-34 0 -108 8l20 43q18 -2 62 -2q124 0 191 53t67 121q0 93 -129 93l65 145q-117 37 -211 149q-41 47 -65 -28l-39 -119h-51l137 514h45q-24 -117 4.5 -220.5t106 -169t188.5 -65.5q75 0 133.5 28t92 74.5t50.5 100.5
t17 113q0 107 -50 205t-149 225l-76 102q-74 97 -113.5 178.5t-39.5 184.5q0 78 26.5 148.5t76 127t130 90t180.5 33.5q92 0 159.5 -34.5t133.5 -112.5q14 -14 25 -12.5t16 14.5z" />
    <glyph glyph-name="scedilla" unicode="&#x15f;" horiz-adv-x="698" 
d="M502 1108q96 0 157.5 -53t61.5 -109q0 -31 -18.5 -49t-43.5 -18q-23 0 -34.5 16t-22.5 49q-20 52 -50 79.5t-89 27.5q-73 0 -117.5 -47t-44.5 -130q0 -93 76 -219l59 -104q48 -84 65 -116t30.5 -73t13.5 -83q0 -134 -84.5 -220t-212.5 -86h-8l-33 -73q66 -3 108.5 -38.5
t42.5 -97.5q0 -91 -91 -158t-244 -67q-35 0 -109 8l20 43q18 -2 62 -2q124 0 191 53t67 121q0 93 -129 93l55 125q-90 18 -146.5 76.5t-56.5 125.5q0 33 17.5 51.5t44.5 18.5q23 0 33 -16t24 -60q23 -70 65 -106.5t113 -36.5q80 0 123 53.5t43 140.5t-69 199l-62 106
q-62 103 -87 162.5t-25 122.5q0 126 88.5 208.5t216.5 82.5z" />
    <glyph glyph-name="Scaron" unicode="&#x160;" horiz-adv-x="980" 
d="M727 1788l-61 364h47l108 -286l291 286h49l-291 -364h-143zM1073 1524l45 102h47l-127 -461h-45q34 208 -35.5 320t-214.5 112q-143 0 -220 -88t-77 -215q0 -50 11 -94t35.5 -87t41.5 -68t52 -70l69 -92q97 -129 133 -189q89 -152 89 -286q0 -64 -16 -125t-49.5 -116
t-81.5 -96t-117 -65t-150 -24q-188 0 -328 165q-41 47 -65 -28l-39 -119h-51l137 514h45q-24 -117 4.5 -220.5t106 -169t188.5 -65.5q75 0 133.5 28t92 74.5t50.5 100.5t17 113q0 107 -50 205t-149 225l-76 102q-74 97 -113.5 178.5t-39.5 184.5q0 78 26.5 148.5t76 127
t130 90t180.5 33.5q92 0 159.5 -34.5t133.5 -112.5q14 -14 25 -12.5t16 14.5z" />
    <glyph glyph-name="scaron" unicode="&#x161;" horiz-adv-x="698" 
d="M453 1278l-62 364h47l109 -286l291 286h49l-291 -364h-143zM502 1108q96 0 157.5 -53t61.5 -109q0 -31 -18.5 -49t-43.5 -18q-23 0 -34.5 16t-22.5 49q-20 52 -50 79.5t-89 27.5q-73 0 -117.5 -47t-44.5 -130q0 -93 76 -219l59 -104q48 -84 65 -116t30.5 -73t13.5 -83
q0 -134 -84.5 -220t-212.5 -86q-116 0 -193.5 65t-77.5 144q0 33 17.5 51.5t44.5 18.5q23 0 33 -16t24 -60q23 -70 65 -106.5t113 -36.5q80 0 123 53.5t43 140.5t-69 199l-62 106q-62 103 -87 162.5t-25 122.5q0 126 88.5 208.5t216.5 82.5z" />
    <glyph glyph-name="uni0162" unicode="&#x162;" horiz-adv-x="1142" 
d="M274 1290l125 348h1028l-81 -348h-58q15 74 21 117t4 78t-18 50.5t-43 23.5t-74 8h-160q-68 0 -92 -70l-400 -1309q-34 -91 -9.5 -118t165.5 -27l-14 -43h-226l-43 -102q66 -3 108 -38.5t42 -97.5q0 -91 -91.5 -158t-244.5 -67q-31 0 -109 8l23 43q18 -2 59 -2
q125 0 192.5 53t67.5 121q0 93 -131 93l66 147h-221l12 43q117 0 160 27t71 118l400 1309q20 70 -51 70h-144q-41 0 -66 -2.5t-50 -15.5t-40 -27.5t-36.5 -51.5t-38.5 -73t-47 -107h-56z" />
    <glyph glyph-name="uni0163" unicode="&#x163;" horiz-adv-x="620" 
d="M678 1024h-205l-272 -791q-25 -88 -25 -110q0 -27 9 -40t34 -13q69 0 152.5 94.5t148.5 232.5h45q-69 -166 -177.5 -286t-219.5 -123l-39 -88q66 -3 109 -38.5t43 -97.5q0 -91 -92 -158t-246 -67q-33 0 -107 8l21 43q18 -2 61 -2q124 0 191 53t67 121q0 93 -129 93
l64 143q-54 19 -54 98q0 44 29 133l272 795h-161l16 39q65 1 112.5 17t84.5 51.5t64 79.5t61 116h47l-93 -250h205z" />
    <glyph glyph-name="Tcaron" unicode="&#x164;" horiz-adv-x="1142" 
d="M868 1788l-61 364h47l109 -286l290 286h50l-291 -364h-144zM274 1290l125 348h1028l-81 -348h-58q15 74 21 117t4 78t-18 50.5t-43 23.5t-74 8h-160q-68 0 -92 -70l-400 -1309q-34 -91 -9.5 -118t165.5 -27l-14 -43h-508l12 43q117 0 160 27t71 118l400 1309
q20 70 -51 70h-144q-41 0 -66 -2.5t-50 -15.5t-40 -27.5t-36.5 -51.5t-38.5 -73t-47 -107h-56z" />
    <glyph glyph-name="tcaron" unicode="&#x165;" horiz-adv-x="620" 
d="M721 1225h-47l119 379h125zM473 1024l-272 -791q-25 -88 -25 -110q0 -27 9 -40t34 -13q69 0 152.5 94.5t148.5 232.5h45q-44 -106 -105 -196.5t-140.5 -151.5t-155.5 -61q-107 0 -107 108q0 44 29 133l272 795h-161l16 39q65 1 112.5 17t84.5 51.5t64 79.5t61 116h47
l-93 -250h205l-16 -53h-205z" />
    <glyph glyph-name="Tbar" unicode="&#x166;" horiz-adv-x="1142" 
d="M274 1290l125 348h1028l-81 -348h-58q15 74 21 117t4 78t-18 50.5t-43 23.5t-74 8h-160q-68 0 -92 -70l-201 -659h307l-18 -62h-307l-181 -588q-34 -91 -9.5 -118t165.5 -27l-14 -43h-508l12 43q117 0 160 27t71 118l181 588h-316l21 62h313l201 659q20 70 -51 70h-144
q-41 0 -66 -2.5t-50 -15.5t-40 -27.5t-36.5 -51.5t-38.5 -73t-47 -107h-56z" />
    <glyph glyph-name="tbar" unicode="&#x167;" horiz-adv-x="632" 
d="M707 1077l-17 -53h-203l-92 -268h226l-15 -54h-229l-162 -469q-25 -73 -25 -110q0 -27 8 -40t33 -13q70 0 153.5 94t150.5 233h43q-44 -106 -105 -196.5t-141 -151.5t-156 -61q-106 0 -106 108q0 41 30 133l162 473h-162l15 54h166l92 268h-162l16 39q85 2 143.5 33
t95.5 83t81 148h47l-90 -250h203z" />
    <glyph glyph-name="Umacron" unicode="&#x16a;" horiz-adv-x="1402" 
d="M887 1907l22 78h500l-23 -78h-499zM565 -31q-124 0 -209 41t-123.5 114.5t-42.5 174t35 219.5l289 932q34 91 12.5 118t-151.5 27l12 43h494l-13 -43q-117 0 -160 -27t-69 -118l-291 -942q-67 -211 -4.5 -338t244.5 -127q376 0 538 520l273 887q9 28 12.5 41.5t6.5 32
t0.5 26t-10 18t-20.5 14t-34.5 7.5t-49 5t-67.5 1l14 43h430l-10 -43q-96 0 -133 -27t-65 -118l-273 -895q-26 -86 -55 -156.5t-69 -139t-89.5 -119.5t-111 -90.5t-140 -60t-170.5 -20.5z" />
    <glyph glyph-name="umacron" unicode="&#x16b;" horiz-adv-x="1046" 
d="M496 1397l22 78h500l-23 -78h-499zM174 -27q-56 0 -87.5 33.5t-31.5 91.5q0 57 31.5 156t64.5 176.5t97.5 218.5t87.5 195q4 11 14 39.5t15 43t9.5 33t4.5 27.5q0 39 -31 39q-49 0 -117 -76t-127 -180h-43q71 136 167 234t186 98q38 0 59 -27t21 -67q0 -44 -50 -168
q-31 -77 -87 -206.5t-88 -206.5t-60 -159.5t-31 -126.5q-6 -75 45 -75q70 0 166.5 100.5t208.5 300.5q91 164 164 334t80 276h149l-301 -874q-26 -75 -26 -103q0 -25 9 -37t32 -12q59 0 123 82t124 213h43q-28 -70 -64.5 -133.5t-80.5 -119.5t-95 -89t-100 -33
q-108 0 -108 109q0 27 35 125l145 399h-16q-173 -336 -302.5 -483.5t-234.5 -147.5z" />
    <glyph glyph-name="Uring" unicode="&#x16e;" horiz-adv-x="1402" 
d="M1106 1806q-67 0 -106 41t-39 103q0 88 74.5 164.5t172.5 76.5q66 0 106 -39t40 -100q0 -89 -74.5 -167.5t-173.5 -78.5zM1116 1866q74 0 121 62.5t47 121.5q0 37 -20.5 59.5t-65.5 22.5q-75 0 -121.5 -58t-46.5 -120q0 -38 21 -63t65 -25zM565 -31q-124 0 -209 41
t-123.5 114.5t-42.5 174t35 219.5l289 932q34 91 12.5 118t-151.5 27l12 43h494l-13 -43q-117 0 -160 -27t-69 -118l-291 -942q-67 -211 -4.5 -338t244.5 -127q376 0 538 520l273 887q9 28 12.5 41.5t6.5 32t0.5 26t-10 18t-20.5 14t-34.5 7.5t-49 5t-67.5 1l14 43h430
l-10 -43q-96 0 -133 -27t-65 -118l-273 -895q-26 -86 -55 -156.5t-69 -139t-89.5 -119.5t-111 -90.5t-140 -60t-170.5 -20.5z" />
    <glyph glyph-name="uring" unicode="&#x16f;" horiz-adv-x="1046" 
d="M713 1296q-67 0 -106.5 41t-39.5 103q0 88 75 164.5t173 76.5q66 0 106 -39t40 -100q0 -89 -74.5 -167.5t-173.5 -78.5zM723 1356q74 0 121 62.5t47 121.5q0 37 -20.5 59.5t-65.5 22.5q-75 0 -121.5 -58t-46.5 -120q0 -38 21 -63t65 -25zM174 -27q-56 0 -87.5 33.5
t-31.5 91.5q0 57 31.5 156t64.5 176.5t97.5 218.5t87.5 195q4 11 14 39.5t15 43t9.5 33t4.5 27.5q0 39 -31 39q-49 0 -117 -76t-127 -180h-43q71 136 167 234t186 98q38 0 59 -27t21 -67q0 -44 -50 -168q-31 -77 -87 -206.5t-88 -206.5t-60 -159.5t-31 -126.5q-6 -75 45 -75
q70 0 166.5 100.5t208.5 300.5q91 164 164 334t80 276h149l-301 -874q-26 -75 -26 -103q0 -25 9 -37t32 -12q59 0 123 82t124 213h43q-28 -70 -64.5 -133.5t-80.5 -119.5t-95 -89t-100 -33q-108 0 -108 109q0 27 35 125l145 399h-16q-173 -336 -302.5 -483.5t-234.5 -147.5z
" />
    <glyph glyph-name="Uhungarumlaut" unicode="&#x170;" horiz-adv-x="1402" 
d="M1006 1788h-48l224 364h114zM1210 1788h-49l248 364h117zM565 -31q-124 0 -209 41t-123.5 114.5t-42.5 174t35 219.5l289 932q34 91 12.5 118t-151.5 27l12 43h494l-13 -43q-117 0 -160 -27t-69 -118l-291 -942q-67 -211 -4.5 -338t244.5 -127q376 0 538 520l273 887
q9 28 12.5 41.5t6.5 32t0.5 26t-10 18t-20.5 14t-34.5 7.5t-49 5t-67.5 1l14 43h430l-10 -43q-96 0 -133 -27t-65 -118l-273 -895q-26 -86 -55 -156.5t-69 -139t-89.5 -119.5t-111 -90.5t-140 -60t-170.5 -20.5z" />
    <glyph glyph-name="uhungarumlaut" unicode="&#x171;" horiz-adv-x="1046" 
d="M612 1278h-47l223 364h115zM817 1278h-49l248 364h117zM174 -27q-56 0 -87.5 33.5t-31.5 91.5q0 57 31.5 156t64.5 176.5t97.5 218.5t87.5 195q4 11 14 39.5t15 43t9.5 33t4.5 27.5q0 39 -31 39q-49 0 -117 -76t-127 -180h-43q71 136 167 234t186 98q38 0 59 -27t21 -67
q0 -44 -50 -168q-31 -77 -87 -206.5t-88 -206.5t-60 -159.5t-31 -126.5q-6 -75 45 -75q70 0 166.5 100.5t208.5 300.5q91 164 164 334t80 276h149l-301 -874q-26 -75 -26 -103q0 -25 9 -37t32 -12q59 0 123 82t124 213h43q-28 -70 -64.5 -133.5t-80.5 -119.5t-95 -89
t-100 -33q-108 0 -108 109q0 27 35 125l145 399h-16q-173 -336 -302.5 -483.5t-234.5 -147.5z" />
    <glyph glyph-name="Uogonek" unicode="&#x172;" horiz-adv-x="1402" 
d="M1681 1638l-10 -43q-96 0 -133 -27t-65 -118l-273 -895q-35 -116 -76.5 -205.5t-101.5 -169t-144 -131t-190 -69.5q-41 -17 -80.5 -37.5t-82 -50t-74 -61.5t-52 -72.5t-20.5 -82.5q0 -98 113 -98q67 0 165 49l7 -45q-109 -71 -213 -71q-82 0 -130.5 36t-48.5 107
q0 60 33 114t86.5 92.5t105 64.5t105.5 44h-37q-124 0 -209 41t-123.5 114.5t-42.5 174t35 219.5l289 932q34 91 12.5 118t-151.5 27l12 43h494l-13 -43q-117 0 -160 -27t-69 -118l-291 -942q-67 -211 -4.5 -338t244.5 -127q376 0 538 520l273 887q9 28 12.5 41.5t6.5 32
t0.5 26t-10 18t-20.5 14t-34.5 7.5t-49 5t-67.5 1l14 43h430z" />
    <glyph glyph-name="uogonek" unicode="&#x173;" horiz-adv-x="1046" 
d="M952 346h43q-48 -118 -117 -217t-145 -137h4q-53 -22 -102 -49.5t-98.5 -66t-79 -87.5t-29.5 -100q0 -99 113 -99q66 0 166 50l6 -46q-109 -71 -213 -71q-81 0 -129.5 36t-48.5 107q0 57 29 108t77 88.5t96.5 64t102.5 46.5q-80 14 -80 107q0 27 35 125l145 399h-16
q-173 -336 -302.5 -483.5t-234.5 -147.5q-56 0 -87.5 33.5t-31.5 91.5q0 57 31.5 156t64.5 176.5t97.5 218.5t87.5 195q4 11 14 39.5t15 43t9.5 33t4.5 27.5q0 39 -31 39q-49 0 -117 -76t-127 -180h-43q71 136 167 234t186 98q38 0 59 -27t21 -67q0 -44 -50 -168
q-31 -77 -87 -206.5t-88 -206.5t-60 -159.5t-31 -126.5q-6 -75 45 -75q70 0 166.5 100.5t208.5 300.5q91 164 164 334t80 276h149l-301 -874q-26 -75 -26 -103q0 -25 9 -37t32 -12q59 0 123 82t124 213z" />
    <glyph glyph-name="Wcircumflex" unicode="&#x174;" horiz-adv-x="1861" 
d="M1421 1806l-108 287l-291 -287h-49l291 365h143l61 -365h-47zM2173 1638l-12 -43q-77 0 -125.5 -25t-91.5 -104l-826 -1499h-65l61 1245l-661 -1245h-64l74 1475q5 97 -20.5 125t-120.5 28l14 43h440l-12 -43q-77 0 -112.5 -13.5t-48.5 -43t-17 -96.5l-72 -1219h14
l594 1137l4 82q5 98 -16 125.5t-102 27.5l12 43h422l-12 -43q-110 0 -142.5 -28.5t-38.5 -124.5l-71 -1219h14l670 1243q38 71 39 88q2 24 -31 32q-34 9 -133 9l14 43h422z" />
    <glyph glyph-name="wcircumflex" unicode="&#x175;" horiz-adv-x="1275" 
d="M1083 1276l-108 287l-291 -287h-49l291 364h143l61 -364h-47zM1174 1106q81 0 81 -164q0 -140 -49 -311t-125.5 -316t-179 -243.5t-199.5 -98.5q-69 0 -110 45t-41 121q0 56 24 150h-10q-154 -316 -329 -316q-80 0 -126.5 60t-46.5 172q0 93 35 195.5t99 205.5t129 188
t149 181q-6 -2 -14 -2q-24 0 -104.5 20.5t-102.5 20.5t-33.5 -11.5t-11.5 -29.5q0 -20 22.5 -50.5t22.5 -54.5t-15 -39.5t-36 -15.5q-19 0 -32 14.5t-13 44.5q0 55 32 123q25 52 57 75.5t81 23.5q25 0 102 -10.5t98 -10.5q33 0 58 25l2 2l26 -31q-76 -83 -147.5 -179.5
t-137 -207.5t-105.5 -228.5t-40 -217.5q0 -86 23 -123t74 -37q76 0 163 101t155 245t116 302t55 271h129q-23 -117 -67 -239.5t-81.5 -203t-66.5 -171t-29 -162.5q0 -143 97 -143q89 0 188.5 118.5t164 286.5t64.5 307q0 57 -13.5 109.5t-26.5 90.5t-13 61q0 24 14 40.5
t44 16.5z" />
    <glyph glyph-name="Ycircumflex" unicode="&#x176;" horiz-adv-x="1228" 
d="M1190 1788l-109 287l-290 -287h-50l291 364h144l61 -364h-47zM1565 1638l-13 -43q-77 0 -129 -21.5t-106 -92.5l-569 -758l-164 -535q-9 -29 -12.5 -41.5t-6.5 -31.5t-1 -26.5t9 -18t19.5 -14t33 -7.5t47 -5t64.5 -1l-14 -43h-506l12 43q117 0 160.5 27t71.5 118l164 533
l-133 725q-17 93 -49.5 121t-118.5 28l12 43h455l-15 -43q-45 0 -73.5 -2t-48.5 -9.5t-29.5 -16.5t-12.5 -28.5t-1.5 -38.5t7.5 -54l109 -627h10l492 662q5 7 15 20q27 37 35 50.5t-1.5 26.5t-43.5 15t-108 2l15 43h424z" />
    <glyph glyph-name="ycircumflex" unicode="&#x177;" horiz-adv-x="884" 
d="M766 1278l-109 287l-290 -287h-50l291 364h144l61 -364h-47zM786 1106q84 0 84 -195q0 -315 -350 -815q-74 -107 -131.5 -182t-127.5 -152.5t-131.5 -124.5t-132 -76.5t-140.5 -29.5q-44 0 -67 17.5t-23 45.5q0 38 29.5 65.5t70.5 27.5q34 0 75.5 -20.5t71.5 -20.5
q107 0 287 264q48 521 43 924q0 73 -5 112t-15 52.5t-29 13.5q-35 0 -81.5 -74t-94.5 -197h-41q131 357 260 357q65 0 91 -57.5t28 -198.5q0 -375 -45 -807q183 237 276.5 442t93.5 352q0 59 -26.5 127.5t-26.5 90.5q0 24 15 41.5t42 17.5z" />
    <glyph glyph-name="Ydieresis" unicode="&#x178;" horiz-adv-x="1228" 
d="M889 1860q-43 0 -70.5 27.5t-27.5 70.5t27.5 69.5t70.5 26.5q44 0 71 -26.5t27 -69.5t-27 -70.5t-71 -27.5zM1229 1860q-43 0 -71 27.5t-28 70.5q0 42 28 69t71 27t69.5 -26.5t26.5 -69.5t-26.5 -70.5t-69.5 -27.5zM748 723l-164 -535q-9 -29 -12.5 -41.5t-6.5 -31.5
t-1 -26.5t9 -18t19.5 -14t33 -7.5t47 -5t64.5 -1l-14 -43h-506l12 43q117 0 160.5 27t71.5 118l164 533l-133 725q-17 93 -49.5 121t-118.5 28l12 43h455l-15 -43q-45 0 -73.5 -2t-48.5 -9.5t-29.5 -16.5t-12.5 -28.5t-1.5 -38.5t7.5 -54l109 -627h10l492 662q5 7 15 20
q27 37 35 50.5t-1.5 26.5t-43.5 15t-108 2l15 43h424l-13 -43q-77 0 -129 -21.5t-106 -92.5z" />
    <glyph glyph-name="Zacute" unicode="&#x179;" horiz-adv-x="1052" 
d="M897 1788h-49l242 364h145zM424 1638h866l-1188 -1566h488q58 0 96.5 12.5t77 52.5t71.5 100t83 169h55l-160 -406h-876v43l1157 1524h-437q-120 0 -172 -55t-112 -232h-56z" />
    <glyph glyph-name="zacute" unicode="&#x17a;" horiz-adv-x="790" 
d="M819 1642h146l-338 -364h-49zM801 1094q21 0 35 -15t14 -37q0 -55 -54.5 -132t-144.5 -163t-185.5 -170.5t-200 -182.5t-165.5 -171q29 13 60 13q47 0 92.5 -20.5t80 -50t66 -59.5t63.5 -50.5t60 -20.5q45 0 69.5 49t24.5 121q0 89 -28 168l41 10q35 -84 35 -176
q0 -122 -48.5 -203.5t-126.5 -81.5q-42 0 -82 25.5t-72 62t-65 73t-75.5 62t-88.5 25.5q-32 0 -53.5 -17t-21.5 -51q0 -14 5 -36t5 -33q0 -20 -14 -32.5t-33 -12.5q-23 0 -35 16t-12 43q0 61 52.5 142.5t142 171t182 173t200 181.5t168.5 164q-38 -15 -69 -15
q-35 0 -72.5 18.5t-65 40t-62.5 40t-65 18.5q-49 0 -87 -49t-56 -129h-39q17 83 42.5 143t54 90.5t54.5 44t52 13.5q32 0 64 -16.5t59.5 -39.5l55 -46t61.5 -39.5t69 -16.5q39 0 62.5 17.5t23.5 45.5q0 12 -9 30t-9 26q0 16 12 27.5t33 11.5z" />
    <glyph glyph-name="Zdotaccent" unicode="&#x17b;" horiz-adv-x="1052" 
d="M889 1860q-43 0 -70.5 27.5t-27.5 70.5t27.5 69.5t70.5 26.5t69.5 -26.5t26.5 -69.5t-26.5 -70.5t-69.5 -27.5zM424 1638h866l-1188 -1566h488q58 0 96.5 12.5t77 52.5t71.5 100t83 169h55l-160 -406h-876v43l1157 1524h-437q-120 0 -172 -55t-112 -232h-56z" />
    <glyph glyph-name="zdotaccent" unicode="&#x17c;" horiz-adv-x="790" 
d="M618 1350q-43 0 -70.5 27.5t-27.5 70.5t27.5 69.5t70.5 26.5t70 -26.5t27 -69.5t-27 -70.5t-70 -27.5zM850 1042q0 -55 -54.5 -132t-144.5 -163t-185.5 -170.5t-200 -182.5t-165.5 -171q29 13 60 13q47 0 92.5 -20.5t80 -50t66 -59.5t63.5 -50.5t60 -20.5q45 0 69.5 49
t24.5 121q0 89 -28 168l41 10q35 -84 35 -176q0 -122 -48.5 -203.5t-126.5 -81.5q-42 0 -82 25.5t-72 62t-65 73t-75.5 62t-88.5 25.5q-32 0 -53.5 -17t-21.5 -51q0 -14 5 -36t5 -33q0 -20 -14 -32.5t-33 -12.5q-23 0 -35 16t-12 43q0 61 52.5 142.5t142 171t182 173
t200 181.5t168.5 164q-38 -15 -69 -15q-35 0 -72.5 18.5t-65 40t-62.5 40t-65 18.5q-49 0 -87 -49t-56 -129h-39q17 83 42.5 143t54 90.5t54.5 44t52 13.5q32 0 64 -16.5t59.5 -39.5l55 -46t61.5 -39.5t69 -16.5q39 0 62.5 17.5t23.5 45.5q0 12 -9 30t-9 26q0 16 12 27.5
t33 11.5t35 -15t14 -37z" />
    <glyph glyph-name="Zcaron" unicode="&#x17d;" horiz-adv-x="1052" 
d="M762 1788l-62 364h48l108 -286l291 286h49l-291 -364h-143zM102 72h488q58 0 96.5 12.5t77 52.5t71.5 100t83 169h55l-160 -406h-876v43l1157 1524h-437q-120 0 -172 -55t-112 -232h-56l107 358h866z" />
    <glyph glyph-name="zcaron" unicode="&#x17e;" horiz-adv-x="790" 
d="M492 1278l-62 364h47l109 -286l291 286h49l-291 -364h-143zM801 1094q21 0 35 -15t14 -37q0 -55 -54.5 -132t-144.5 -163t-185.5 -170.5t-200 -182.5t-165.5 -171q29 13 60 13q47 0 92.5 -20.5t80 -50t66 -59.5t63.5 -50.5t60 -20.5q45 0 69.5 49t24.5 121q0 89 -28 168
l41 10q35 -84 35 -176q0 -122 -48.5 -203.5t-126.5 -81.5q-42 0 -82 25.5t-72 62t-65 73t-75.5 62t-88.5 25.5q-32 0 -53.5 -17t-21.5 -51q0 -14 5 -36t5 -33q0 -20 -14 -32.5t-33 -12.5q-23 0 -35 16t-12 43q0 61 52.5 142.5t142 171t182 173t200 181.5t168.5 164
q-38 -15 -69 -15q-35 0 -72.5 18.5t-65 40t-62.5 40t-65 18.5q-49 0 -87 -49t-56 -129h-39q17 83 42.5 143t54 90.5t54.5 44t52 13.5q32 0 64 -16.5t59.5 -39.5l55 -46t61.5 -39.5t69 -16.5q39 0 62.5 17.5t23.5 45.5q0 12 -9 30t-9 26q0 16 12 27.5t33 11.5z" />
    <glyph glyph-name="uni0218" unicode="&#x218;" horiz-adv-x="980" 
d="M463 -18q-188 0 -328 165q-41 47 -65 -28l-39 -119h-51l137 514h45q-24 -117 4.5 -220.5t106 -169t188.5 -65.5q75 0 133.5 28t92 74.5t50.5 100.5t17 113q0 107 -50 205t-149 225l-76 102q-74 97 -113.5 178.5t-39.5 184.5q0 78 26.5 148.5t76 127t130 90t180.5 33.5
q92 0 159.5 -34.5t133.5 -112.5q14 -14 25 -12.5t16 14.5l45 102h47l-127 -461h-45q34 208 -35.5 320t-214.5 112q-143 0 -220 -88t-77 -215q0 -50 11 -94t35.5 -87t41.5 -68t52 -70l69 -92q97 -129 133 -189q89 -152 89 -286q0 -64 -16 -125t-49.5 -116t-81.5 -96t-117 -65
t-150 -24zM340 -158q41 0 69.5 -30t28.5 -72q0 -77 -65 -140.5t-195 -95.5l6 45q67 15 120.5 57t53.5 79q0 18 -16 18q-5 0 -23 -12.5t-40 -12.5q-21 0 -34.5 16t-13.5 40q0 43 30.5 75.5t78.5 32.5z" />
    <glyph glyph-name="uni0219" unicode="&#x219;" horiz-adv-x="698" 
d="M248 -27q-116 0 -193.5 65t-77.5 144q0 33 17.5 51.5t44.5 18.5q23 0 33 -16t24 -60q23 -70 65 -106.5t113 -36.5q80 0 123 53.5t43 140.5t-69 199l-62 106q-62 103 -87 162.5t-25 122.5q0 126 88.5 208.5t216.5 82.5q96 0 157.5 -53t61.5 -109q0 -31 -18.5 -49
t-43.5 -18q-23 0 -34.5 16t-22.5 49q-20 52 -50 79.5t-89 27.5q-73 0 -117.5 -47t-44.5 -130q0 -93 76 -219l59 -104q48 -84 65 -116t30.5 -73t13.5 -83q0 -134 -84.5 -220t-212.5 -86zM184 -156q41 0 70 -30t29 -72q0 -77 -65 -140.5t-195 -95.5l6 45q67 15 120.5 57
t53.5 79q0 18 -17 18q-5 0 -23 -12t-40 -12q-21 0 -34 15.5t-13 39.5q0 43 30 75.5t78 32.5z" />
    <glyph glyph-name="uni021A" unicode="&#x21a;" horiz-adv-x="1142" 
d="M160 0l12 43q117 0 160 27t71 118l400 1309q20 70 -51 70h-144q-41 0 -66 -2.5t-50 -15.5t-40 -27.5t-36.5 -51.5t-38.5 -73t-47 -107h-56l125 348h1028l-81 -348h-58q15 74 21 117t4 78t-18 50.5t-43 23.5t-74 8h-160q-68 0 -92 -70l-400 -1309q-34 -91 -9.5 -118
t165.5 -27l-14 -43h-508zM379 -158q41 0 69.5 -30t28.5 -72q0 -77 -65 -140.5t-195 -95.5l6 45q67 15 120.5 57t53.5 79q0 18 -16 18q-5 0 -23.5 -12.5t-40.5 -12.5q-21 0 -34 16t-13 40q0 43 30.5 75.5t78.5 32.5z" />
    <glyph glyph-name="uni021B" unicode="&#x21b;" horiz-adv-x="620" 
d="M473 1024l-272 -791q-25 -88 -25 -110q0 -27 9 -40t34 -13q69 0 152.5 94.5t148.5 232.5h45q-44 -106 -105 -196.5t-140.5 -151.5t-155.5 -61q-107 0 -107 108q0 44 29 133l272 795h-161l16 39q65 1 112.5 17t84.5 51.5t64 79.5t61 116h47l-93 -250h205l-16 -53h-205z
M121 -158q41 0 69.5 -30t28.5 -72q0 -77 -65 -140.5t-195 -95.5l6 45q67 15 120.5 57t53.5 79q0 18 -16 18q-5 0 -23.5 -12.5t-40.5 -12.5q-21 0 -34 16t-13 40q0 43 30.5 75.5t78.5 32.5z" />
    <glyph glyph-name="circumflex" unicode="&#x2c6;" horiz-adv-x="665" 
d="M721 1642l61 -364h-47l-108 287l-291 -287h-49l291 364h143z" />
    <glyph glyph-name="caron" unicode="&#x2c7;" horiz-adv-x="665" 
d="M842 1642h49l-291 -364h-143l-62 364h47l109 -286z" />
    <glyph glyph-name="breve" unicode="&#x2d8;" horiz-adv-x="692" 
d="M850 1593h41q-20 -111 -103 -177t-204 -66q-93 0 -145 41t-52 116q0 36 16 86h41q-6 -15 -6 -45q0 -56 38 -79t122 -23q210 0 252 147z" />
    <glyph glyph-name="dotaccent" unicode="&#x2d9;" horiz-adv-x="387" 
d="M473 1348q-43 0 -70.5 27.5t-27.5 70.5t27.5 69.5t70.5 26.5t69.5 -26.5t26.5 -69.5t-26.5 -70.5t-69.5 -27.5z" />
    <glyph glyph-name="ring" unicode="&#x2da;" horiz-adv-x="589" 
d="M514 1296q-67 0 -106 41t-39 103q0 88 74.5 164.5t172.5 76.5q66 0 106 -39t40 -100q0 -89 -74.5 -167.5t-173.5 -78.5zM524 1356q74 0 121 62.5t47 121.5q0 37 -20.5 59.5t-65.5 22.5q-75 0 -121.5 -58t-46.5 -120q0 -38 21 -63t65 -25z" />
    <glyph glyph-name="ogonek" unicode="&#x2db;" horiz-adv-x="616" 
d="M231 -20h56q-41 -17 -80.5 -37.5t-83 -50t-75 -61.5t-52.5 -72.5t-21 -82.5q0 -98 115 -98q68 0 166 49l6 -45q-109 -71 -213 -71q-81 0 -129.5 36t-48.5 107q0 65 38 122.5t98 97.5t115.5 65.5t108.5 40.5z" />
    <glyph glyph-name="tilde" unicode="&#x2dc;" horiz-adv-x="774" 
d="M754 1335q-35 0 -64 14t-49 33.5t-39 39.5t-43 34t-51 14q-49 0 -82.5 -36.5t-60.5 -106.5l-43 4q39 111 88.5 171.5t121.5 60.5q35 0 64 -14t49 -34.5t39 -41t43 -34.5t51 -14q51 0 85 37t61 107l41 -4q-77 -230 -211 -230z" />
    <glyph glyph-name="hungarumlaut" unicode="&#x2dd;" horiz-adv-x="649" 
d="M391 1278h-49l223 364h115zM594 1278h-49l248 364h116z" />
    <glyph glyph-name="gravecomb" unicode="&#x300;" horiz-adv-x="0" 
d="M-102 1642l180 -364h-49l-277 364h146z" />
    <glyph glyph-name="acutecomb" unicode="&#x301;" horiz-adv-x="0" 
d="M-39 1278h-49l242 364h145z" />
    <glyph glyph-name="uni0302" unicode="&#x302;" horiz-adv-x="0" 
d="M39 1642l61 -364h-47l-108 287l-291 -287h-49l291 364h143z" />
    <glyph glyph-name="tildecomb" unicode="&#x303;" horiz-adv-x="0" 
d="M-20 1335q-35 0 -64 14t-49 33.5t-39 39.5t-43 34t-51 14q-50 0 -83.5 -36.5t-60.5 -106.5l-43 4q39 111 89 171.5t122 60.5q35 0 64 -14t49 -34.5t39 -41t43 -34.5t51 -14q51 0 85 37t61 107l40 -4q-37 -110 -87.5 -170t-122.5 -60z" />
    <glyph glyph-name="uni0304" unicode="&#x304;" horiz-adv-x="0" 
d="M-348 1397l22 78h502l-22 -78h-502z" />
    <glyph glyph-name="uni0306" unicode="&#x306;" horiz-adv-x="0" 
d="M158 1593h41q-20 -111 -103.5 -177t-204.5 -66q-93 0 -144.5 41t-51.5 116q0 36 16 86h41q-6 -15 -6 -45q0 -56 38 -79t122 -23q210 0 252 147z" />
    <glyph glyph-name="uni0307" unicode="&#x307;" horiz-adv-x="0" 
d="M59 1350q-43 0 -70.5 27.5t-27.5 70.5t27.5 69.5t70.5 26.5t70 -26.5t27 -69.5t-27 -70.5t-70 -27.5z" />
    <glyph glyph-name="uni0308" unicode="&#x308;" horiz-adv-x="0" 
d="M-264 1350q-43 0 -70.5 27.5t-27.5 70.5t27.5 69.5t70.5 26.5q44 0 71 -26.5t27 -69.5t-27 -70.5t-71 -27.5zM78 1350q-43 0 -72 28t-29 70t29 69t72 27t69.5 -26.5t26.5 -69.5t-26.5 -70.5t-69.5 -27.5z" />
    <glyph glyph-name="uni030A" unicode="&#x30a;" horiz-adv-x="0" 
d="M-76 1296q-67 0 -106 41t-39 103q0 88 75 164.5t173 76.5q66 0 105.5 -39t39.5 -100q0 -89 -74.5 -167.5t-173.5 -78.5zM-66 1356q74 0 121 62.5t47 121.5q0 37 -20.5 59.5t-65.5 22.5q-75 0 -121.5 -58t-46.5 -120q0 -38 21 -63t65 -25z" />
    <glyph glyph-name="uni030B" unicode="&#x30b;" horiz-adv-x="0" 
d="M-199 1278h-47l223 364h115zM6 1278h-49l248 364h117z" />
    <glyph glyph-name="uni030C" unicode="&#x30c;" horiz-adv-x="0" 
d="M176 1642h49l-291 -364h-143l-61 364h47l108 -286z" />
    <glyph glyph-name="uni0312" unicode="&#x312;" horiz-adv-x="0" 
d="M55 1364q-42 0 -71 30t-29 72q0 76 66 140t196 96l-6 -45q-66 -15 -120 -56.5t-54 -78.5q0 -19 18 -19q4 0 21.5 12.5t40.5 12.5q21 0 34 -15.5t13 -39.5q0 -43 -30.5 -76t-78.5 -33z" />
    <glyph glyph-name="uni0326" unicode="&#x326;" horiz-adv-x="0" 
d="M-440 -158q41 0 69.5 -30t28.5 -72q0 -77 -65 -140.5t-195 -95.5l6 45q66 15 120 57t54 79q0 18 -18 18q-4 0 -21.5 -12.5t-40.5 -12.5q-21 0 -34 16t-13 40q0 43 30.5 75.5t78.5 32.5z" />
    <glyph glyph-name="uni0327" unicode="&#x327;" horiz-adv-x="0" 
d="M-618 -147l75 170h62l-56 -125q66 -3 109 -38.5t43 -97.5q0 -91 -92 -158t-246 -67q-32 0 -106 8l20 43q18 -2 61 -2q124 0 191.5 53t67.5 121q0 93 -129 93z" />
    <glyph glyph-name="uni0328" unicode="&#x328;" horiz-adv-x="0" 
d="M-385 -20h55q-53 -22 -102.5 -49.5t-99 -66t-79.5 -88t-30 -100.5q0 -98 115 -98q68 0 166 49l6 -45q-109 -71 -213 -71q-81 0 -129.5 36t-48.5 107q0 65 38 122.5t98 97.5t115.5 65.5t108.5 40.5z" />
    <glyph glyph-name="Wgrave" unicode="&#x1e80;" horiz-adv-x="1861" 
d="M1087 2171l181 -365h-49l-277 365h145zM2173 1638l-12 -43q-77 0 -125.5 -25t-91.5 -104l-826 -1499h-65l61 1245l-661 -1245h-64l74 1475q5 97 -20.5 125t-120.5 28l14 43h440l-12 -43q-77 0 -112.5 -13.5t-48.5 -43t-17 -96.5l-72 -1219h14l594 1137l4 82
q5 98 -16 125.5t-102 27.5l12 43h422l-12 -43q-110 0 -142.5 -28.5t-38.5 -124.5l-71 -1219h14l670 1243q38 71 39 88q2 24 -31 32q-34 9 -133 9l14 43h422z" />
    <glyph glyph-name="wgrave" unicode="&#x1e81;" horiz-adv-x="1275" 
d="M748 1640l180 -364h-49l-277 364h146zM1174 1106q81 0 81 -164q0 -140 -49 -311t-125.5 -316t-179 -243.5t-199.5 -98.5q-69 0 -110 45t-41 121q0 56 24 150h-10q-154 -316 -329 -316q-80 0 -126.5 60t-46.5 172q0 93 35 195.5t99 205.5t129 188t149 181q-6 -2 -14 -2
q-24 0 -104.5 20.5t-102.5 20.5t-33.5 -11.5t-11.5 -29.5q0 -20 22.5 -50.5t22.5 -54.5t-15 -39.5t-36 -15.5q-19 0 -32 14.5t-13 44.5q0 55 32 123q25 52 57 75.5t81 23.5q25 0 102 -10.5t98 -10.5q33 0 58 25l2 2l26 -31q-76 -83 -147.5 -179.5t-137 -207.5t-105.5 -228.5
t-40 -217.5q0 -86 23 -123t74 -37q76 0 163 101t155 245t116 302t55 271h129q-23 -117 -67 -239.5t-81.5 -203t-66.5 -171t-29 -162.5q0 -143 97 -143q89 0 188.5 118.5t164 286.5t64.5 307q0 57 -13.5 109.5t-26.5 90.5t-13 61q0 24 14 40.5t44 16.5z" />
    <glyph glyph-name="Wacute" unicode="&#x1e82;" horiz-adv-x="1861" 
d="M1470 2171h146l-338 -365h-49zM2173 1638l-12 -43q-77 0 -125.5 -25t-91.5 -104l-826 -1499h-65l61 1245l-661 -1245h-64l74 1475q5 97 -20.5 125t-120.5 28l14 43h440l-12 -43q-77 0 -112.5 -13.5t-48.5 -43t-17 -96.5l-72 -1219h14l594 1137l4 82q5 98 -16 125.5
t-102 27.5l12 43h422l-12 -43q-110 0 -142.5 -28.5t-38.5 -124.5l-71 -1219h14l670 1243q38 71 39 88q2 24 -31 32q-34 9 -133 9l14 43h422z" />
    <glyph glyph-name="wacute" unicode="&#x1e83;" horiz-adv-x="1275" 
d="M1130 1640h146l-338 -364h-49zM1174 1106q81 0 81 -164q0 -140 -49 -311t-125.5 -316t-179 -243.5t-199.5 -98.5q-69 0 -110 45t-41 121q0 56 24 150h-10q-154 -316 -329 -316q-80 0 -126.5 60t-46.5 172q0 93 35 195.5t99 205.5t129 188t149 181q-6 -2 -14 -2
q-24 0 -104.5 20.5t-102.5 20.5t-33.5 -11.5t-11.5 -29.5q0 -20 22.5 -50.5t22.5 -54.5t-15 -39.5t-36 -15.5q-19 0 -32 14.5t-13 44.5q0 55 32 123q25 52 57 75.5t81 23.5q25 0 102 -10.5t98 -10.5q33 0 58 25l2 2l26 -31q-76 -83 -147.5 -179.5t-137 -207.5t-105.5 -228.5
t-40 -217.5q0 -86 23 -123t74 -37q76 0 163 101t155 245t116 302t55 271h129q-23 -117 -67 -239.5t-81.5 -203t-66.5 -171t-29 -162.5q0 -143 97 -143q89 0 188.5 118.5t164 286.5t64.5 307q0 57 -13.5 109.5t-26.5 90.5t-13 61q0 24 14 40.5t44 16.5z" />
    <glyph glyph-name="Wdieresis" unicode="&#x1e84;" horiz-adv-x="1861" 
d="M1120 1878q-43 0 -70.5 27.5t-27.5 70.5t27.5 70t70.5 27q44 0 71.5 -27t27.5 -70t-27.5 -70.5t-71.5 -27.5zM1460 1878q-43 0 -70.5 27.5t-27.5 70.5t27.5 70t70.5 27t69.5 -27t26.5 -70t-26.5 -70.5t-69.5 -27.5zM2173 1638l-12 -43q-77 0 -125.5 -25t-91.5 -104
l-826 -1499h-65l61 1245l-661 -1245h-64l74 1475q5 97 -20.5 125t-120.5 28l14 43h440l-12 -43q-77 0 -112.5 -13.5t-48.5 -43t-17 -96.5l-72 -1219h14l594 1137l4 82q5 98 -16 125.5t-102 27.5l12 43h422l-12 -43q-110 0 -142.5 -28.5t-38.5 -124.5l-71 -1219h14l670 1243
q38 71 39 88q2 24 -31 32q-34 9 -133 9l14 43h422z" />
    <glyph glyph-name="wdieresis" unicode="&#x1e85;" horiz-adv-x="1275" 
d="M782 1348q-43 0 -70.5 27.5t-27.5 70.5t27.5 69.5t70.5 26.5q44 0 71.5 -26.5t27.5 -69.5t-27.5 -70.5t-71.5 -27.5zM1122 1348q-43 0 -70.5 27.5t-27.5 70.5t27.5 69.5t70.5 26.5t70 -26.5t27 -69.5t-27 -70.5t-70 -27.5zM1174 1106q81 0 81 -164q0 -140 -49 -311
t-125.5 -316t-179 -243.5t-199.5 -98.5q-69 0 -110 45t-41 121q0 56 24 150h-10q-154 -316 -329 -316q-80 0 -126.5 60t-46.5 172q0 93 35 195.5t99 205.5t129 188t149 181q-6 -2 -14 -2q-24 0 -104.5 20.5t-102.5 20.5t-33.5 -11.5t-11.5 -29.5q0 -20 22.5 -50.5
t22.5 -54.5t-15 -39.5t-36 -15.5q-19 0 -32 14.5t-13 44.5q0 55 32 123q25 52 57 75.5t81 23.5q25 0 102 -10.5t98 -10.5q33 0 58 25l2 2l26 -31q-76 -83 -147.5 -179.5t-137 -207.5t-105.5 -228.5t-40 -217.5q0 -86 23 -123t74 -37q76 0 163 101t155 245t116 302t55 271
h129q-23 -117 -67 -239.5t-81.5 -203t-66.5 -171t-29 -162.5q0 -143 97 -143q89 0 188.5 118.5t164 286.5t64.5 307q0 57 -13.5 109.5t-26.5 90.5t-13 61q0 24 14 40.5t44 16.5z" />
    <glyph glyph-name="Ygrave" unicode="&#x1ef2;" horiz-adv-x="1228" 
d="M854 2152l180 -364h-49l-276 364h145zM748 723l-164 -535q-9 -29 -12.5 -41.5t-6.5 -31.5t-1 -26.5t9 -18t19.5 -14t33 -7.5t47 -5t64.5 -1l-14 -43h-506l12 43q117 0 160.5 27t71.5 118l164 533l-133 725q-17 93 -49.5 121t-118.5 28l12 43h455l-15 -43q-45 0 -73.5 -2
t-48.5 -9.5t-29.5 -16.5t-12.5 -28.5t-1.5 -38.5t7.5 -54l109 -627h10l492 662q5 7 15 20q27 37 35 50.5t-1.5 26.5t-43.5 15t-108 2l15 43h424l-13 -43q-77 0 -129 -21.5t-106 -92.5z" />
    <glyph glyph-name="ygrave" unicode="&#x1ef3;" horiz-adv-x="884" 
d="M432 1642l180 -364h-49l-276 364h145zM-143 -469q-44 0 -67 17.5t-23 45.5q0 38 29.5 65.5t70.5 27.5q34 0 75.5 -20.5t71.5 -20.5q107 0 287 264q48 521 43 924q0 73 -5 112t-15 52.5t-29 13.5q-35 0 -81.5 -74t-94.5 -197h-41q131 357 260 357q65 0 91 -57.5t28 -198.5
q0 -375 -45 -807q183 237 276.5 442t93.5 352q0 59 -26.5 127.5t-26.5 90.5q0 24 15 41.5t42 17.5q84 0 84 -195q0 -315 -350 -815q-74 -107 -131.5 -182t-127.5 -152.5t-131.5 -124.5t-132 -76.5t-140.5 -29.5z" />
    <glyph glyph-name="endash" unicode="&#x2013;" horiz-adv-x="1247" 
d="M1217 502h-1205l33 102h1204z" />
    <glyph glyph-name="emdash" unicode="&#x2014;" horiz-adv-x="2416" 
d="M2404 502h-2410l33 102h2408z" />
    <glyph glyph-name="quoteleft" unicode="&#x2018;" horiz-adv-x="313" 
d="M461 1386q29 0 47 -19.5t18 -53.5q0 -49 -35 -80t-85 -31q-47 0 -78 30.5t-31 86.5q0 185 283 340l16 -37q-82 -46 -150.5 -116.5t-68.5 -131.5q0 -14 12 -14q4 0 26.5 13t45.5 13z" />
    <glyph glyph-name="quoteright" unicode="&#x2019;" horiz-adv-x="327" 
d="M397 1462q-27 0 -46 21t-19 55q0 47 35.5 79t85.5 32q47 0 77.5 -30.5t30.5 -86.5q0 -188 -280 -340l-19 35q84 48 151.5 117.5t67.5 130.5q0 16 -10 16q-5 0 -28.5 -14.5t-45.5 -14.5z" />
    <glyph glyph-name="quotesinglbase" unicode="&#x201a;" horiz-adv-x="391" 
d="M-20 -27q-28 0 -47 20t-19 54q0 49 35 80t86 31q47 0 77.5 -30.5t30.5 -86.5q0 -184 -280 -340l-19 37q83 46 151 116.5t68 131.5q0 14 -10 14q-5 0 -28 -13.5t-45 -13.5z" />
    <glyph glyph-name="quotedblleft" unicode="&#x201c;" horiz-adv-x="636" 
d="M461 1386q29 0 47 -19.5t18 -53.5q0 -49 -35 -80t-85 -31q-47 0 -78 30.5t-31 86.5q0 185 283 340l16 -37q-82 -46 -150.5 -116.5t-68.5 -131.5q0 -14 12 -14q4 0 26.5 13t45.5 13zM784 1386q29 0 47.5 -19.5t18.5 -53.5q0 -48 -35 -79.5t-84 -31.5q-47 0 -78.5 30.5
t-31.5 86.5q0 185 282 340l17 -37q-83 -47 -151.5 -117.5t-68.5 -130.5q0 -14 13 -14q4 0 26 13t45 13z" />
    <glyph glyph-name="quotedblright" unicode="&#x201d;" horiz-adv-x="651" 
d="M397 1462q-27 0 -46 21t-19 55q0 47 35.5 79t85.5 32q47 0 77.5 -30.5t30.5 -86.5q0 -188 -280 -340l-19 35q84 48 151.5 117.5t67.5 130.5q0 16 -10 16q-5 0 -28.5 -14.5t-45.5 -14.5zM721 1462q-27 0 -46.5 21t-19.5 55q0 47 35.5 79t85.5 32q47 0 78 -30.5t31 -86.5
q0 -187 -281 -340l-18 35q84 48 151.5 117.5t67.5 130.5q0 16 -10 16q-5 0 -28.5 -14.5t-45.5 -14.5z" />
    <glyph glyph-name="quotedblbase" unicode="&#x201e;" horiz-adv-x="714" 
d="M-20 -27q-28 0 -47 20t-19 54q0 49 35 80t86 31q47 0 77.5 -30.5t30.5 -86.5q0 -184 -280 -340l-19 37q83 46 151 116.5t68 131.5q0 14 -10 14q-5 0 -28 -13.5t-45 -13.5zM305 -27q-29 0 -48 20t-19 54q0 48 35.5 79.5t84.5 31.5q47 0 79 -30.5t32 -86.5
q0 -183 -283 -340l-16 37q82 46 149.5 116.5t67.5 131.5q0 14 -10 14q-5 0 -28 -13.5t-44 -13.5z" />
    <glyph glyph-name="dagger" unicode="&#x2020;" horiz-adv-x="905" 
d="M172 -451h-43l231 760q97 315 130.5 472t21.5 261q60 61 95.5 116t62.5 130q-60 -2 -112.5 -17t-90 -29.5t-61.5 -14.5q-41 0 -60.5 21.5t-7.5 60.5q21 69 96 69q25 0 51 -10t47.5 -21.5t60.5 -21.5t87 -10q23 77 15 162.5t5 126.5q12 36 37 56.5t58 20.5q37 0 52 -24.5
t3 -65.5q-12 -36 -38 -76t-56 -90.5t-51 -111.5q60 3 113 19t90.5 31t62.5 15q39 0 57 -20.5t8 -59.5q-10 -34 -35.5 -52.5t-60.5 -18.5q-29 0 -61 15t-77 30t-106 16q-23 -78 -23 -135t23 -119q-72 -103 -136 -261.5t-159 -469.5z" />
    <glyph glyph-name="daggerdbl" unicode="&#x2021;" horiz-adv-x="909" 
d="M162 -436q-37 0 -51 25t-2 67q12 41 64.5 121t78.5 155q-59 -3 -111.5 -19t-90 -31t-62.5 -15q-41 0 -59.5 21.5t-6.5 60.5q21 69 96 69q28 0 60 -14.5t77 -29.5t105 -17q25 81 25.5 137t-25.5 119l30 48t33.5 54t30 51t33 61t28.5 59.5t30 70.5t24 72q25 81 36.5 158.5
t10.5 134t-2 120.5q61 62 97 117t61 129q-77 -2 -157.5 -31.5t-106.5 -29.5q-41 0 -59.5 21.5t-8.5 60.5q21 69 96 69q25 0 51.5 -10t47.5 -21.5t60 -21.5t87 -10q23 77 16 163t7 126q23 77 94 77q37 0 51 -24.5t2 -65.5q-12 -40 -65.5 -120.5t-79.5 -157.5q60 3 113 19
t90.5 31t62.5 15q41 0 59 -20.5t6 -59.5q-10 -34 -35.5 -52.5t-60.5 -18.5q-29 0 -61 15t-77 30t-106 16q-24 -80 -24 -137t26 -117q-5 -8 -26 -42t-28.5 -46t-27 -45t-29 -51t-25.5 -50t-26.5 -57.5t-23 -58.5t-22.5 -66q-25 -81 -36.5 -158.5t-11 -134.5t1.5 -120
q-61 -62 -96.5 -117t-60.5 -131q77 2 157.5 31.5t106.5 29.5q40 0 59 -20.5t9 -58.5q-12 -34 -38 -53t-59 -19q-25 0 -51.5 10t-47 22t-59.5 22t-87 11q-23 -78 -16.5 -163t-6.5 -125q-23 -80 -94 -80z" />
    <glyph glyph-name="bullet" unicode="&#x2022;" horiz-adv-x="593" 
d="M322 532q-78 0 -129.5 49t-51.5 121q0 113 84.5 198t194.5 85q81 0 129.5 -47.5t48.5 -122.5q0 -109 -84 -196t-192 -87z" />
    <glyph glyph-name="ellipsis" unicode="&#x2026;" horiz-adv-x="1232" 
d="M10 -20q-34 0 -56 20t-22 51q0 47 36.5 83t82.5 36q33 0 53.5 -20.5t20.5 -51.5q0 -46 -35.5 -82t-79.5 -36zM449 -20q-32 0 -54 20t-22 51q0 47 35.5 83t80.5 36q35 0 55.5 -20.5t20.5 -51.5q0 -46 -35 -82t-81 -36zM889 -20q-32 0 -54 20t-22 51q0 47 35.5 83t81.5 36
q33 0 53.5 -20.5t20.5 -51.5q0 -46 -35 -82t-80 -36z" />
    <glyph glyph-name="perthousand" unicode="&#x2030;" horiz-adv-x="2121" 
d="M442 850q-74 0 -113.5 57.5t-39.5 151.5q0 122 57 266t154 249t196 105q74 0 114 -57.5t40 -151.5q0 -90 -35 -199t-90.5 -202t-132 -156t-150.5 -63zM158 0l1192 1638h77l-1189 -1638h-80zM446 901q74 0 151.5 107t125 248.5t47.5 246.5q0 123 -78 123q-56 0 -116 -64.5
t-104.5 -157t-73.5 -196.5t-29 -182q0 -125 77 -125zM956 -27q-74 0 -113.5 57.5t-39.5 151.5q0 122 57.5 266.5t154.5 249.5t195 105q74 0 115 -57.5t41 -151.5q0 -90 -35 -199t-91 -202.5t-132.5 -156.5t-151.5 -63zM1599 -27q-74 0 -113.5 57.5t-39.5 151.5
q0 122 57.5 266.5t154.5 249.5t195 105q74 0 114 -57.5t40 -151.5q0 -90 -35 -199t-90 -202.5t-131.5 -156.5t-151.5 -63zM963 25q73 0 150.5 107t125 248.5t47.5 246.5q0 125 -80 125q-56 0 -116 -65t-104.5 -158t-73.5 -197t-29 -182q0 -125 80 -125zM1604 25q56 0 116 65
t104.5 158t73.5 197t29 182q0 125 -78 125q-56 0 -116 -65t-104.5 -158t-73.5 -197t-29 -182q0 -125 78 -125z" />
    <glyph glyph-name="guilsinglleft" unicode="&#x2039;" horiz-adv-x="544" 
d="M614 1094l-385 -494l119 -500h-39l-194 500l454 494h45z" />
    <glyph glyph-name="guilsinglright" unicode="&#x203a;" horiz-adv-x="544" 
d="M-35 100l385 494l-119 500h41l193 -500l-455 -494h-45z" />
    <glyph glyph-name="fraction" unicode="&#x2044;" horiz-adv-x="811" 
d="M-143 0l1192 1638h77l-1189 -1638h-80z" />
    <glyph glyph-name="Euro" unicode="&#x20ac;" horiz-adv-x="1222" 
d="M1028 1679q208 0 309 -147l-114 -381h-41q32 106 43 185t0 143t-56.5 97.5t-126.5 33.5q-92 0 -181 -54t-163 -149t-134.5 -207t-110.5 -244h491l-41 -63h-473q-18 -56 -39 -127h434l-41 -64h-409q-49 -189 -49 -329q0 -158 57 -246t168 -88q159 0 298 145.5t243 403.5
l45 2q-110 -298 -266 -463.5t-361 -165.5q-153 0 -232 112t-79 306q0 138 45 323h-133l41 64h108q21 71 39 127h-131l41 63h113q44 114 97.5 217t121.5 196.5t142.5 161.5t163.5 108t181 40z" />
    <glyph glyph-name="trademark" unicode="&#x2122;" horiz-adv-x="2115" 
d="M694 1573h-102q-94 0 -136 -36.5t-98 -164.5h-43l109 266h780l-63 -266h-43q29 117 8 159t-113 42h-100q-55 0 -70 -51l-182 -596q-33 -91 -20 -118.5t108 -27.5l-10 -43h-363l9 43q84 0 118 28t62 118l184 600q6 20 -3.5 33.5t-31.5 13.5zM1536 1638l57 -766h6l527 766
h231l-8 -43q-70 0 -101 -28t-57 -117l-149 -524q-32 -91 -16.5 -118.5t122.5 -27.5l-10 -43h-375l9 43q82 0 115.5 28t58.5 118l163 573h-6l-561 -803h-26l-66 803h-8l-174 -573q-33 -91 -21.5 -118.5t103.5 -27.5l-11 -43h-327l10 43q82 0 116 28t62 118l162 524
q33 91 22 118t-100 27l10 43h242z" />
    <glyph glyph-name="oneeighth" unicode="&#x215b;" horiz-adv-x="1636" 
d="M727 1655l-266 -871q-9 -30 -10 -45t12 -25.5t38 -13t74 -2.5l-14 -26h-364l14 26q75 0 109.5 16.5t50.5 69.5l221 727q17 55 9 63q-11 11 -94 -24q-12 -5 -28 -12l4 33l230 100zM227 0l1192 1638h78l-1190 -1638h-80zM870 170q0 51 20.5 97.5t47 78.5t75 68t80.5 55
t87 49q-101 130 -101 225q0 105 89 178.5t216 73.5q89 0 140 -40t51 -113q0 -45 -21.5 -87t-65 -82t-91 -73t-117.5 -74q5 -7 25 -31t27 -32.5t23.5 -30.5t23 -34t18 -33t16 -36.5t8.5 -35.5t4 -39q0 -112 -92 -193t-231 -81q-108 0 -170 52t-62 138zM1167 752
q0 -86 84 -191q115 73 180.5 141.5t65.5 141.5q0 51 -31.5 79.5t-89.5 28.5q-89 0 -149 -59.5t-60 -140.5zM950 176q0 -69 38.5 -110t121.5 -41q99 0 162 56.5t63 143.5q0 68 -35 129t-94 129q-36 -22 -52.5 -32t-49.5 -33t-49.5 -38t-40 -40.5t-35 -48.5t-20.5 -53t-9 -62z
" />
    <glyph glyph-name="threeeighths" unicode="&#x215c;" horiz-adv-x="1806" 
d="M420 653q-67 0 -122.5 22.5t-55.5 53.5q0 22 16.5 38.5t40.5 16.5q19 0 34.5 -14t26.5 -30t35 -30t56 -14q105 0 185.5 86t80.5 207q0 95 -53 145t-152 50l4 26q145 52 222 126.5t77 168.5q0 105 -110 105q-155 0 -211 -191h-35q35 128 111 191t175 63q77 0 119.5 -39
t42.5 -112q0 -99 -79 -180.5t-201 -127.5v-6q80 -3 134 -61.5t54 -151.5q0 -135 -117 -238.5t-278 -103.5zM381 0l1192 1638h78l-1190 -1638h-80zM1042 170q0 51 20.5 97.5t47 78.5t75 68t80.5 55t87 49q-101 130 -101 225q0 105 89 178.5t216 73.5q87 0 138 -40t51 -113
q0 -86 -74.5 -158.5t-218.5 -157.5q5 -7 25 -31t27 -32.5t23.5 -30.5t23 -34t18 -33t16 -36.5t8.5 -35.5t4 -39q0 -112 -92 -193t-231 -81q-108 0 -170 52t-62 138zM1339 752q0 -86 84 -191q114 72 179 141t65 142q0 52 -30.5 80t-88.5 28q-89 0 -149 -59.5t-60 -140.5z
M1122 176q0 -69 38.5 -110t121.5 -41q99 0 162 56.5t63 143.5q0 68 -35 129t-94 129q-40 -24 -62 -38t-57.5 -39t-55 -46.5t-41 -50.5t-31 -62.5t-9.5 -70.5z" />
    <glyph glyph-name="fiveeighths" unicode="&#x215d;" horiz-adv-x="1742" 
d="M375 653q-73 0 -125.5 22.5t-52.5 53.5q0 21 18 38t39 17q19 0 35 -14t26.5 -30t32.5 -30t51 -14q70 0 142 64t119 165t47 201q0 65 -33 99.5t-88 34.5q-69 0 -140 -56l-30 27l166 407h344l-29 -75h-293l-121 -295l6 -4q73 55 154 55q75 0 118.5 -49t43.5 -131
q0 -120 -62 -233.5t-162.5 -183t-205.5 -69.5zM334 0l1194 1638h78l-1192 -1638h-80zM979 170q0 51 20.5 97.5t47 78.5t74.5 68t80 55t87 49q-100 129 -100 225q0 105 89 178.5t216 73.5q88 0 138 -40t50 -113q0 -86 -74 -158.5t-218 -157.5q5 -7 25 -31t27 -32.5
t23.5 -30.5t23 -34t18 -33t16 -36.5t8.5 -35.5t4 -39q0 -112 -92.5 -193t-231.5 -81q-107 0 -169 52t-62 138zM1276 752q0 -86 84 -191q114 72 179 141t65 142q0 52 -30.5 80t-88.5 28q-89 0 -149 -59.5t-60 -140.5zM1059 176q0 -69 38.5 -110t121.5 -41q99 0 162 56.5
t63 143.5q0 68 -35 129t-94 129q-36 -22 -52.5 -32t-49.5 -33t-49.5 -38t-40 -40.5t-35 -48.5t-20.5 -53t-9 -62z" />
    <glyph glyph-name="seveneighths" unicode="&#x215e;" horiz-adv-x="1652" 
d="M225 0l1192 1638h78l-1190 -1638h-80zM995 1638l-641 -985l-82 27l596 883h-305q-57 0 -86.5 -24.5t-73.5 -108.5l-18 20l68 125l34 63h508zM887 170q0 51 20.5 97.5t47 78.5t74.5 68t80 55t87 49q-98 126 -98 225q0 105 88 178.5t215 73.5q89 0 139.5 -40t50.5 -113
q0 -45 -21.5 -87t-65 -82t-91 -73t-117.5 -74q5 -6 29 -35t30.5 -38t25.5 -34.5t26 -40.5l17.5 -37.5t14 -43.5t3.5 -43q0 -112 -92.5 -193t-231.5 -81q-107 0 -169 52t-62 138zM1184 752q0 -86 84 -191q115 72 180 141t65 142q0 51 -31 79.5t-89 28.5q-89 0 -149 -59.5
t-60 -140.5zM967 176q0 -69 38 -110t121 -41q99 0 162.5 56.5t63.5 143.5q0 115 -129 258q-36 -22 -52.5 -32t-49.5 -33t-49.5 -38t-40 -40.5t-35 -48.5t-20.5 -53t-9 -62z" />
    <glyph glyph-name="arrowleft" unicode="&#x2190;" horiz-adv-x="1681" 
d="M1579 600v-94h-1047q-55 0 -144.5 13t-139.5 13v-6q73 -38 131 -80t101 -88t69.5 -82t58.5 -86l-80 -75q-82 144 -180 243t-246 170v52q148 72 246.5 170t179.5 241l80 -73q-31 -51 -58 -87.5t-69.5 -82.5t-101 -88t-131.5 -80v-7q50 0 139.5 13.5t144.5 13.5h1047z" />
    <glyph glyph-name="arrowup" unicode="&#x2191;" horiz-adv-x="1085" 
d="M590 950v-1048h-94v1048q0 55 13 145t13 140h-6q-38 -73 -80 -131.5t-88 -101t-82 -70t-86 -58.5l-76 80q144 82 243.5 180t170.5 246h51q72 -148 170 -246.5t242 -179.5l-74 -80q-50 31 -87 58.5t-83 70t-88 101t-80 131.5h-6q0 -50 13.5 -140t13.5 -145z" />
    <glyph glyph-name="arrowright" unicode="&#x2192;" horiz-adv-x="1681" 
d="M1151 506h-1049v94h1049q53 0 143 -13.5t140 -13.5v7q-138 72 -217.5 153t-141.5 185l80 73q79 -142 177.5 -240.5t246.5 -170.5v-52q-147 -72 -246 -171t-178 -242l-80 75q63 103 142.5 183.5t216.5 152.5v6q-50 0 -140 -13t-143 -13z" />
    <glyph glyph-name="arrowdown" unicode="&#x2193;" horiz-adv-x="1085" 
d="M496 1255h94v-1048q0 -55 -13.5 -145t-13.5 -140h6q38 73 80 131.5t88 101t83 70t87 58.5l74 -80q-144 -81 -242 -179.5t-170 -246.5h-51q-71 148 -170.5 246t-243.5 180l76 80q50 -31 86 -58.5t82 -70t88 -101t80 -131.5h6q0 50 -13 140t-13 145v1048z" />
    <glyph glyph-name="arrowboth" unicode="&#x2194;" horiz-adv-x="2213" 
d="M1608 918l80 73q79 -142 177 -240.5t246 -170.5v-52q-147 -72 -245.5 -171t-177.5 -242l-80 75q63 103 142 183.5t216 152.5v6q-51 0 -140.5 -13t-142.5 -13h-1151q-55 0 -144.5 13t-139.5 13v-6q73 -38 131 -80t101 -88t69.5 -82t58.5 -86l-80 -75q-82 144 -180 243
t-246 170v52q148 72 246.5 170t179.5 241l80 -73q-31 -51 -58 -87.5t-69.5 -82.5t-101 -88t-131.5 -80v-7q50 0 139.5 13.5t144.5 13.5h1151q53 0 143 -13.5t140 -13.5v7q-138 72 -216.5 153t-141.5 185z" />
    <glyph glyph-name="arrowupdn" unicode="&#x2195;" horiz-adv-x="1081" 
d="M561 -309h6q38 73 80 131t88 101t82 69.5t86 58.5l76 -80q-144 -82 -243.5 -180t-170.5 -246h-51q-72 148 -170 246.5t-242 179.5l74 80q51 -31 87.5 -58t82.5 -69.5t88 -101t80 -131.5h6q0 50 -13 139.5t-13 144.5v1151q0 54 13 143t13 140h-6q-72 -138 -153 -216.5
t-185 -141.5l-74 79q142 79 241 177.5t171 246.5h51q72 -147 171.5 -246t242.5 -178l-76 -79q-103 63 -183.5 142t-152.5 216h-6q0 -51 13.5 -140t13.5 -143v-1151q0 -55 -13.5 -144.5t-13.5 -139.5z" />
    <glyph glyph-name="uni2196" unicode="&#x2196;" horiz-adv-x="1304" 
d="M1198 76l-68 -68l-741 742q-39 39 -91.5 111.5t-88.5 107.5l-4 -4q32 -103 40 -198.5t0.5 -156.5t-26.5 -137l-108 2q29 106 39 196t-1 191t-47 207l35 35q106 -36 207 -46.5t190.5 -0.5t194.5 39l4 -109q-76 -19 -137 -26.5t-156 0.5t-198 40l-4 -4q35 -35 107.5 -88
t111.5 -92z" />
    <glyph glyph-name="uni2197" unicode="&#x2197;" horiz-adv-x="1304" 
d="M913 750l-739 -742l-68 68l742 741q38 39 111 92t108 88l-4 4q-103 -32 -198.5 -40t-156.5 -0.5t-137 26.5l2 109q106 -29 196 -39t191 0.5t207 46.5l35 -35q-36 -106 -46.5 -207t-0.5 -191t39 -196l-109 -2q-18 75 -25.5 136.5t0.5 157t40 198.5l-4 4
q-35 -35 -89 -107.5t-94 -111.5z" />
    <glyph glyph-name="uni2198" unicode="&#x2198;" horiz-adv-x="1304" 
d="M106 1030l68 68l739 -742q40 -39 94 -111.5t89 -107.5l4 4q-32 103 -40 198.5t-0.5 157t25.5 136.5l109 -2q-29 -106 -39 -196t0.5 -191t46.5 -207l-35 -35q-106 36 -207 46.5t-191 0.5t-196 -39l-2 109q75 18 136.5 25.5t157 -0.5t198.5 -40l4 5q-35 36 -108 89t-111 91
z" />
    <glyph glyph-name="uni2199" unicode="&#x2199;" horiz-adv-x="1304" 
d="M389 356l741 742l68 -68l-741 -741q-39 -38 -111.5 -91t-107.5 -89l4 -5q103 32 198 40t156 0.5t137 -25.5l-4 -109q-105 29 -194.5 39t-190.5 -0.5t-207 -46.5l-35 35q36 106 47 207t1 191t-39 196l108 2q19 -76 26.5 -137t-0.5 -156.5t-40 -198.5l4 -4
q36 36 88.5 108.5t91.5 110.5z" />
    <glyph glyph-name="partialdiff" unicode="&#x2202;" horiz-adv-x="1116" 
d="M633 1659q202 0 299.5 -221t68.5 -631q-26 -399 -164 -613t-354 -214q-171 0 -275 132.5t-104 366.5q0 111 32 213.5t90 183t148 129t199 48.5q252 0 367 -256q11 168 -1 300t-41 216.5t-74 140t-96 78t-112 22.5q-199 0 -315 -215h-39q51 141 147 230.5t224 89.5z
M492 51q178 0 294.5 181.5t147.5 490.5q-46 115 -126.5 186.5t-199.5 71.5q-88 0 -161 -48t-118.5 -124.5t-70.5 -168t-25 -183.5q0 -187 68.5 -296.5t190.5 -109.5z" />
    <glyph glyph-name="emptyset" unicode="&#x2205;" horiz-adv-x="1286" 
d="M1135 1171l49 -49l-156 -155q127 -143 127 -336q0 -212 -150 -362t-362 -150q-193 0 -336 127l-155 -156l-50 49l156 156q-127 143 -127 336q0 212 150 362t362 150q193 0 336 -127zM201 631q0 -162 106 -287l623 623q-125 106 -287 106q-183 0 -312.5 -129.5
t-129.5 -312.5zM1085 631q0 162 -106 287l-623 -623q126 -107 287 -107q183 0 312.5 130t129.5 313z" />
    <glyph glyph-name="product" unicode="&#x220f;" horiz-adv-x="1589" 
d="M1806 1675l-12 -45q-82 0 -124 -11.5t-66 -40.5t-43 -91l-500 -1632q-34 -89 -11.5 -116.5t156.5 -27.5l-14 -43h-504l14 43q118 0 162 27t72 117l537 1751h-707l-537 -1751q-34 -89 -11.5 -116.5t157.5 -27.5l-15 -43h-503l14 43q118 0 161.5 27t71.5 117l500 1632
q34 89 11 116t-156 27l12 45h1335z" />
    <glyph glyph-name="summation" unicode="&#x2211;" horiz-adv-x="1409" 
d="M412 1675h1106l-9 -43l-63 -276l-39 26q12 54 18 89t4.5 61.5t-7.5 40t-23.5 21.5t-37 10t-54.5 2h-754l346 -846l-932 -973h803q40 0 67 7t54 24.5t53.5 55.5t55.5 91t71 141l31 -38l-152 -312l-43 -90h-1110l13 45l958 998l2 6l-371 915z" />
    <glyph glyph-name="minus" unicode="&#x2212;" horiz-adv-x="942" 
d="M868 561h-757l30 103h758z" />
    <glyph glyph-name="radical" unicode="&#x221a;" horiz-adv-x="1271" 
d="M1538 1774h70l-1178 -1844h-51l29 1094l-302 -117l-4 60l441 174l-31 -967h6z" />
    <glyph glyph-name="infinity" unicode="&#x221e;" horiz-adv-x="1695" 
d="M1343 1151q140 0 228 -87.5t88 -244.5q0 -163 -92.5 -254.5t-227.5 -91.5q-25 0 -48.5 4t-42.5 8t-43 17t-38.5 20t-40.5 28t-37 30t-40.5 38t-39.5 38.5t-45 46t-46 47.5q-134 -126 -232.5 -181t-202.5 -55q-135 0 -208.5 82.5t-73.5 206.5q0 135 84 221t211 86
q55 0 105 -16.5t102 -54.5t86.5 -69.5t95.5 -92.5q140 133 197 176q131 98 261 98zM1335 559q104 0 179 71t75 187q0 107 -64 174.5t-167 67.5q-21 0 -41 -3.5t-36.5 -7.5t-38 -16t-34.5 -18.5t-37 -26t-35 -28t-39 -35t-38 -36.5t-43 -42.5t-45 -44.5l-6 -6
q85 -85 134 -128t112 -75.5t124 -32.5zM473 606q80 0 155 47.5t208 175.5q-111 108 -186.5 151.5t-151.5 43.5q-101 0 -165.5 -62t-64.5 -153q0 -82 52 -142.5t153 -60.5z" />
    <glyph glyph-name="integral" unicode="&#x222b;" horiz-adv-x="894" 
d="M438 41q-122 -410 -395 -410q-76 0 -120 43.5t-44 110.5q0 55 30.5 96t72.5 41q25 0 39 -13t14 -36q0 -9 -8 -42.5t-12 -59t10.5 -48t52.5 -22.5q142 0 241 328q42 142 69 319t38 318t39 318.5t72 322.5q128 413 397 413q75 0 119.5 -43.5t44.5 -109.5q0 -56 -31 -96.5
t-74 -40.5q-51 0 -51 51q0 11 8.5 44.5t12.5 58.5t-10.5 46t-53.5 21q-140 0 -244 -332q-46 -150 -74 -329t-38.5 -318.5t-36.5 -314t-68 -316.5z" />
    <glyph glyph-name="approxequal" unicode="&#x2248;" horiz-adv-x="1134" 
d="M1100 920l45 -5q-38 -117 -119.5 -181t-177.5 -64q-61 0 -122 22.5t-103 49t-100 49t-115 22.5q-158 0 -224 -143l-41 4q39 118 119 182t176 64q61 0 121.5 -23t102.5 -50t101 -50t116 -23q154 0 221 146zM995 571l43 -4q-37 -117 -118 -181t-177 -64q-61 0 -122 22.5
t-103 49t-100 49t-115 22.5q-157 0 -223 -143l-41 4q37 118 117.5 181.5t177.5 63.5q50 0 98 -15t87 -36t77.5 -42.5t84.5 -36.5t93 -15q154 0 221 145z" />
    <glyph glyph-name="notequal" unicode="&#x2260;" horiz-adv-x="843" 
d="M782 1118h72l-203 -280h178l-30 -103h-224l-174 -241h344l-28 -101h-389l-199 -274h-72l199 274h-172l31 101h215l174 241h-338l31 103h383z" />
    <glyph glyph-name="lessequal" unicode="&#x2264;" horiz-adv-x="880" 
d="M182 799l725 223l-37 -117l-620 -186l-2 -8l514 -183l-35 -100l-590 223zM680 238h-641l31 102h641z" />
    <glyph glyph-name="greaterequal" unicode="&#x2265;" horiz-adv-x="868" 
d="M801 649l-727 -221l39 117l620 186l2 8l-514 183l33 100l592 -223zM657 238h-643l31 102h641z" />
    <glyph glyph-name="uni2460" unicode="&#x2460;" horiz-adv-x="1974" 
d="M920 -20q-171 0 -311.5 50t-234.5 139.5t-145 213.5t-51 270q0 122 35.5 244t100 233t160.5 207.5t212 166.5t259.5 110.5t297.5 40.5q177 0 317.5 -53.5t228.5 -146t133.5 -212t45.5 -256.5q0 -118 -33.5 -238.5t-95.5 -232.5t-155.5 -210t-206.5 -170t-257 -114
t-300 -42zM928 27q147 0 282 39.5t241.5 108t194 160.5t145 197.5t89 219.5t31.5 225q0 130 -42 242.5t-123.5 200t-213 138t-299.5 50.5q-173 0 -331 -53.5t-277.5 -146t-208 -212.5t-134.5 -257t-46 -275q0 -284 185 -460.5t507 -176.5zM1286 1313l-264 -871
q-9 -30 -10 -45t11.5 -25.5t37.5 -13t74 -2.5l-15 -26h-362l12 26q75 0 109.5 16.5t50.5 69.5l221 727q17 55 9 63q-11 11 -94 -24q-12 -5 -28 -12l4 33l232 100z" />
    <glyph glyph-name="uni2461" unicode="&#x2461;" 
d="M920 -20q-171 0 -311.5 50t-234.5 139.5t-145 213.5t-51 270q0 122 35.5 244t100 233t160.5 207.5t212 166.5t259.5 110.5t297.5 40.5q177 0 317.5 -53.5t228.5 -146t133.5 -212t45.5 -256.5q0 -118 -33.5 -238.5t-95.5 -232.5t-155.5 -210t-206.5 -170t-257 -114
t-300 -42zM928 27q147 0 282 39.5t241.5 108t194 160.5t145 197.5t89 219.5t31.5 225q0 130 -42 242.5t-123.5 200t-213 138t-299.5 50.5q-173 0 -331 -53.5t-277.5 -146t-208 -212.5t-134.5 -257t-46 -275q0 -284 185 -460.5t507 -176.5zM1155 330h-506l6 26
q86 70 134.5 110.5t127.5 109.5t125.5 116.5t104 113t88.5 117t52.5 110.5t21.5 112q0 46 -30 74t-89 28q-89 0 -163.5 -78t-113.5 -208h-32q48 165 148.5 266.5t223.5 101.5q156 0 156 -147q0 -69 -38.5 -152t-99 -160.5t-145.5 -162t-165 -153.5t-170 -138l-3 -4h299
q36 0 64 17.5t43.5 37.5t48.5 72q5 8 8 12h31z" />
    <glyph glyph-name="uni2462" unicode="&#x2462;" 
d="M920 -20q-171 0 -311.5 50t-234.5 139.5t-145 213.5t-51 270q0 122 35.5 244t100 233t160.5 207.5t212 166.5t259.5 110.5t297.5 40.5q177 0 317.5 -53.5t228.5 -146t133.5 -212t45.5 -256.5q0 -118 -33.5 -238.5t-95.5 -232.5t-155.5 -210t-206.5 -170t-257 -114
t-300 -42zM928 27q147 0 282 39.5t241.5 108t194 160.5t145 197.5t89 219.5t31.5 225q0 130 -42 242.5t-123.5 200t-213 138t-299.5 50.5q-173 0 -331 -53.5t-277.5 -146t-208 -212.5t-134.5 -257t-46 -275q0 -284 185 -460.5t507 -176.5zM877 309q-67 0 -123 22.5t-56 53.5
q0 22 17 38.5t41 16.5q19 0 34.5 -14t26.5 -30t34.5 -30t55.5 -14q105 0 186 86t81 207q0 95 -53 145t-152 50l4 26q145 52 222 126.5t77 168.5q0 105 -111 105q-155 0 -211 -191h-35q37 128 113.5 191t175.5 63q76 0 118 -39t42 -112q0 -99 -79.5 -180.5t-201.5 -127.5v-6
q80 -3 134.5 -61.5t54.5 -151.5q0 -135 -117 -238.5t-278 -103.5z" />
    <glyph glyph-name="uni2463" unicode="&#x2463;" 
d="M920 -20q-171 0 -311.5 50t-234.5 139.5t-145 213.5t-51 270q0 122 35.5 244t100 233t160.5 207.5t212 166.5t259.5 110.5t297.5 40.5q177 0 317.5 -53.5t228.5 -146t133.5 -212t45.5 -256.5q0 -118 -33.5 -238.5t-95.5 -232.5t-155.5 -210t-206.5 -170t-257 -114
t-300 -42zM928 27q147 0 282 39.5t241.5 108t194 160.5t145 197.5t89 219.5t31.5 225q0 130 -42 242.5t-123.5 200t-213 138t-299.5 50.5q-173 0 -331 -53.5t-277.5 -146t-208 -212.5t-134.5 -257t-46 -275q0 -284 185 -460.5t507 -176.5zM1049 602h-392l23 72l600 653h74
l-199 -653h109l-23 -72h-108l-50 -160q-18 -56 -3.5 -71t91.5 -15l-12 -26h-315l12 26q65 0 96 16.5t47 69.5zM737 678l-4 -4h338l170 555z" />
    <glyph glyph-name="uni2464" unicode="&#x2464;" 
d="M920 -20q-171 0 -311.5 50t-234.5 139.5t-145 213.5t-51 270q0 122 35.5 244t100 233t160.5 207.5t212 166.5t259.5 110.5t297.5 40.5q177 0 317.5 -53.5t228.5 -146t133.5 -212t45.5 -256.5q0 -118 -33.5 -238.5t-95.5 -232.5t-155.5 -210t-206.5 -170t-257 -114
t-300 -42zM928 27q147 0 282 39.5t241.5 108t194 160.5t145 197.5t89 219.5t31.5 225q0 130 -42 242.5t-123.5 200t-213 138t-299.5 50.5q-173 0 -331 -53.5t-277.5 -146t-208 -212.5t-134.5 -257t-46 -275q0 -284 185 -460.5t507 -176.5zM856 307q-74 0 -126 23t-52 55
q0 20 18 36.5t39 16.5q19 0 35 -14t27 -30t33.5 -30t52.5 -14q69 0 140.5 64t118 165t46.5 201q0 65 -33 99t-88 34q-70 0 -137 -55l-33 27l166 407h344l-29 -75h-293l-120 -295l6 -4q73 55 153 55q75 0 118.5 -49t43.5 -131q0 -120 -62 -233.5t-162.5 -183t-205.5 -69.5z
" />
    <glyph glyph-name="uni2465" unicode="&#x2465;" 
d="M920 -20q-171 0 -311.5 50t-234.5 139.5t-145 213.5t-51 270q0 122 35.5 244t100 233t160.5 207.5t212 166.5t259.5 110.5t297.5 40.5q177 0 317.5 -53.5t228.5 -146t133.5 -212t45.5 -256.5q0 -118 -33.5 -238.5t-95.5 -232.5t-155.5 -210t-206.5 -170t-257 -114
t-300 -42zM928 27q147 0 282 39.5t241.5 108t194 160.5t145 197.5t89 219.5t31.5 225q0 130 -42 242.5t-123.5 200t-213 138t-299.5 50.5q-173 0 -331 -53.5t-277.5 -146t-208 -212.5t-134.5 -257t-46 -275q0 -284 185 -460.5t507 -176.5zM905 309q-99 0 -151 61.5
t-52 174.5q0 85 32 183.5t95 196t146 181t195 143.5t233 78l4 -31q-309 -74 -492 -389l5 -4q92 92 196 92q89 0 133.5 -56t44.5 -151q0 -69 -26.5 -150t-74 -155.5t-124 -124t-164.5 -49.5zM909 350q66 0 124.5 48.5t94 119t56 144.5t20.5 131q0 74 -27.5 116.5t-82.5 42.5
q-48 0 -103.5 -28t-103.5 -80q-99 -168 -99 -336q0 -74 30.5 -116t90.5 -42z" />
    <glyph glyph-name="uni2466" unicode="&#x2466;" 
d="M920 -20q-171 0 -311.5 50t-234.5 139.5t-145 213.5t-51 270q0 122 35.5 244t100 233t160.5 207.5t212 166.5t259.5 110.5t297.5 40.5q177 0 317.5 -53.5t228.5 -146t133.5 -212t45.5 -256.5q0 -118 -33.5 -238.5t-95.5 -232.5t-155.5 -210t-206.5 -170t-257 -114
t-300 -42zM928 27q147 0 282 39.5t241.5 108t194 160.5t145 197.5t89 219.5t31.5 225q0 130 -42 242.5t-123.5 200t-213 138t-299.5 50.5q-173 0 -331 -53.5t-277.5 -146t-208 -212.5t-134.5 -257t-46 -275q0 -284 185 -460.5t507 -176.5zM1458 1292l-639 -985l-82 27
l594 883h-305q-55 0 -84.5 -24.5t-73.5 -107.5l-20 19l67 125l35 63h508z" />
    <glyph glyph-name="uni2467" unicode="&#x2467;" 
d="M920 -20q-171 0 -311.5 50t-234.5 139.5t-145 213.5t-51 270q0 122 35.5 244t100 233t160.5 207.5t212 166.5t259.5 110.5t297.5 40.5q177 0 317.5 -53.5t228.5 -146t133.5 -212t45.5 -256.5q0 -118 -33.5 -238.5t-95.5 -232.5t-155.5 -210t-206.5 -170t-257 -114
t-300 -42zM928 27q147 0 282 39.5t241.5 108t194 160.5t145 197.5t89 219.5t31.5 225q0 130 -42 242.5t-123.5 200t-213 138t-299.5 50.5q-173 0 -331 -53.5t-277.5 -146t-208 -212.5t-134.5 -257t-46 -275q0 -284 185 -460.5t507 -176.5zM711 498q0 51 20.5 97.5t46.5 78.5
t74.5 68t79.5 55t86 49q-98 126 -98 225q0 104 88.5 178t214.5 74q88 0 139 -40.5t51 -113.5q0 -45 -21 -86.5t-65 -81.5t-90 -72t-117 -75q4 -5 33 -40t36.5 -45t28 -40t27 -48t14 -45.5t7.5 -53.5q0 -112 -92.5 -193.5t-233.5 -81.5q-106 0 -167.5 52.5t-61.5 138.5z
M1008 1079q0 -85 84 -190q114 73 178.5 141t64.5 141q0 51 -30.5 80t-87.5 29q-90 0 -149.5 -59.5t-59.5 -141.5zM791 504q0 -70 38 -111t121 -41q98 0 161 57t63 144q0 69 -34.5 130t-92.5 128q-40 -24 -62 -38t-57.5 -39t-55 -46.5t-41 -50.5t-31 -62.5t-9.5 -70.5z" />
    <glyph glyph-name="uni2468" unicode="&#x2468;" 
d="M1227 1659q171 0 311.5 -50.5t234 -140t144.5 -213.5t51 -270t-49.5 -291.5t-144.5 -272.5t-222.5 -225t-296 -155t-352.5 -57q-143 0 -262 35t-204 96.5t-144 145.5t-87 182.5t-28 207.5q0 118 33.5 239t95.5 233t155.5 209.5t207 170t257.5 114.5t300 42zM1219 1612
q-147 0 -282 -39.5t-241.5 -108t-194 -160.5t-145 -197.5t-89 -219.5t-31.5 -225q0 -130 42 -242.5t123 -200t212.5 -138t299.5 -50.5q173 0 331 53.5t277.5 146t208.5 212.5t135 257t46 275q0 284 -185 460.5t-507 176.5zM1239 1329q100 0 151.5 -60.5t51.5 -174.5
q0 -85 -32 -183.5t-95 -196.5t-146 -181.5t-195 -143.5t-233 -78l-4 33q312 72 492 387l-4 4q-95 -92 -197 -92q-88 0 -132 56t-44 151q0 69 26.5 150t73.5 155.5t123 124t164 49.5zM1235 1288q-53 0 -101.5 -32t-83 -82t-60 -109.5t-38 -116t-12.5 -100.5q0 -75 28 -118.5
t83 -43.5q48 0 104.5 28.5t101.5 80.5q99 168 99 335q0 75 -30 116.5t-91 41.5z" />
    <glyph glyph-name="uni2469" unicode="&#x2469;" 
d="M920 -20q-171 0 -311.5 50t-234.5 139.5t-145 213.5t-51 270q0 122 35.5 244t100 233t160.5 207.5t212 166.5t259.5 110.5t297.5 40.5q177 0 317.5 -53.5t228.5 -146t133.5 -212t45.5 -256.5q0 -118 -33.5 -238.5t-95.5 -232.5t-155.5 -210t-206.5 -170t-257 -114
t-300 -42zM922 27q147 0 282 39.5t241.5 108t194 160.5t145 197.5t89 219.5t31.5 225q0 130 -42 242.5t-123.5 200t-213 138t-299.5 50.5q-173 0 -331 -53.5t-277.5 -146t-208.5 -212.5t-135 -257t-46 -275q0 -284 185.5 -460.5t507.5 -176.5zM1001 1313l-262 -871
q-9 -30 -10 -45t11.5 -25.5t37.5 -13t74 -2.5l-14 -26h-361l12 26q75 0 108.5 16.5t49.5 69.5l221 727q17 55 10 63q-11 11 -90 -22q-13 -6 -32 -14l4 33l229 100zM1122 309q-91 0 -138.5 64.5t-47.5 175.5q0 129 44.5 270t113.5 252t157.5 183.5t171.5 72.5q93 0 141 -65.5
t48 -180.5q0 -173 -74.5 -354.5t-190 -299.5t-225.5 -118zM1124 354q81 0 175.5 123.5t158.5 304.5t64 336q0 78 -25.5 121t-75.5 43q-80 0 -174 -123.5t-157.5 -304.5t-63.5 -336q0 -78 24.5 -121t73.5 -43z" />
    <glyph glyph-name="uni246A" unicode="&#x246a;" 
d="M920 -20q-171 0 -311.5 50t-234.5 139.5t-145 213.5t-51 270q0 122 35.5 244t100 233t160.5 207.5t212 166.5t259.5 110.5t297.5 40.5q177 0 317.5 -53.5t228.5 -146t133.5 -212t45.5 -256.5q0 -118 -33.5 -238.5t-95.5 -232.5t-155.5 -210t-206.5 -170t-257 -114
t-300 -42zM922 27q147 0 282 39.5t241.5 108t194 160.5t145 197.5t89 219.5t31.5 225q0 130 -42 242.5t-123.5 200t-213 138t-299.5 50.5q-173 0 -331 -53.5t-277.5 -146t-208.5 -212.5t-135 -257t-46 -275q0 -284 185.5 -460.5t507.5 -176.5zM1057 1313l-266 -871
q-18 -56 1 -71t113 -15l-14 -26h-365l15 26q74 0 107 16.5t50 69.5l222 727q17 55 9 63q-11 11 -92 -24q-12 -5 -28 -12l2 33l231 100zM1501 1313l-266 -871q-17 -56 2.5 -71t112.5 -15l-15 -26h-364l14 26q75 0 109.5 16.5t50.5 69.5l221 727q17 55 9 63q-11 11 -94 -24
q-12 -5 -28 -12l4 33l230 100z" />
    <glyph glyph-name="uni246B" unicode="&#x246b;" 
d="M920 -20q-171 0 -311.5 50t-234.5 139.5t-145 213.5t-51 270q0 122 35.5 244t100 233t160.5 207.5t212 166.5t259.5 110.5t297.5 40.5q177 0 317.5 -53.5t228.5 -146t133.5 -212t45.5 -256.5q0 -118 -33.5 -238.5t-95.5 -232.5t-155.5 -210t-206.5 -170t-257 -114
t-300 -42zM922 27q147 0 282 39.5t241.5 108t194 160.5t145 197.5t89 219.5t31.5 225q0 130 -42 242.5t-123.5 200t-213 138t-299.5 50.5q-173 0 -331 -53.5t-277.5 -146t-208.5 -212.5t-135 -257t-46 -275q0 -284 185.5 -460.5t507.5 -176.5zM987 1313l-264 -871
q-9 -30 -10 -45t11.5 -25.5t37.5 -13t74 -2.5l-13 -26h-364l14 26q75 0 108.5 16.5t49.5 69.5l221 727q17 55 9 63q-11 11 -94 -24q-12 -5 -28 -12l4 33l232 100zM1378 330h-506l7 26q65 53 104 85t101.5 85.5t101 89.5t91 87.5t85 91t68.5 88t56 90t33 86.5t13 86
q0 46 -30 74t-89 28q-89 0 -163 -78t-113 -208h-33q48 165 149 266.5t224 101.5q155 0 155 -147q0 -69 -38.5 -152t-99 -160.5t-145.5 -162t-165 -153.5t-170 -138l-2 -4h299q36 0 64 17.5t43.5 37.5t48.5 72q5 8 8 12h30z" />
    <glyph glyph-name="uni246C" unicode="&#x246c;" 
d="M920 -20q-171 0 -311.5 50t-234.5 139.5t-145 213.5t-51 270q0 122 35.5 244t100 233t160.5 207.5t212 166.5t259.5 110.5t297.5 40.5q177 0 317.5 -53.5t228.5 -146t133.5 -212t45.5 -256.5q0 -118 -33.5 -238.5t-95.5 -232.5t-155.5 -210t-206.5 -170t-257 -114
t-300 -42zM922 27q147 0 282 39.5t241.5 108t194 160.5t145 197.5t89 219.5t31.5 225q0 130 -42 242.5t-123.5 200t-213 138t-299.5 50.5q-173 0 -331 -53.5t-277.5 -146t-208.5 -212.5t-135 -257t-46 -275q0 -284 185.5 -460.5t507.5 -176.5zM997 1313l-264 -871
q-9 -30 -10 -45t11.5 -25.5t37.5 -13t74 -2.5l-15 -26h-362l12 26q75 0 109.5 16.5t50.5 69.5l221 727q17 55 10 63q-11 11 -90 -22q-13 -6 -32 -14l4 33l231 100zM1098 309q-68 0 -123 22.5t-55 53.5q0 22 16.5 38.5t40.5 16.5q19 0 34.5 -14t26 -30t33.5 -30t55 -14
q105 0 187 86t82 207q0 95 -53 145t-152 50l4 26q145 52 222 126.5t77 168.5q0 105 -113 105q-152 0 -211 -191h-32q35 128 111 191t175 63q77 0 119.5 -39t42.5 -112q0 -99 -79 -180.5t-201 -127.5v-6q80 -3 134 -61.5t54 -151.5q0 -135 -117 -238.5t-278 -103.5z" />
    <glyph glyph-name="uni246D" unicode="&#x246d;" 
d="M920 -20q-171 0 -311.5 50t-234.5 139.5t-145 213.5t-51 270q0 122 35.5 244t100 233t160.5 207.5t212 166.5t259.5 110.5t297.5 40.5q177 0 317.5 -53.5t228.5 -146t133.5 -212t45.5 -256.5q0 -118 -33.5 -238.5t-95.5 -232.5t-155.5 -210t-206.5 -170t-257 -114
t-300 -42zM922 27q147 0 282 39.5t241.5 108t194 160.5t145 197.5t89 219.5t31.5 225q0 130 -42 242.5t-123.5 200t-213 138t-299.5 50.5q-173 0 -331 -53.5t-277.5 -146t-208.5 -212.5t-135 -257t-46 -275q0 -284 185.5 -460.5t507.5 -176.5zM983 1313l-264 -871
q-15 -36 -9 -55t31 -25t90 -6l-14 -26h-362l12 26q75 0 109.5 16.5t50.5 69.5l221 727q17 55 9 63q-11 11 -94 -24q-12 -5 -28 -12l4 33l232 100zM1294 602h-391l23 72l600 653h76l-199 -653h108l-22 -72h-109l-49 -160q-18 -56 -3.5 -71t89.5 -15l-10 -26h-315l10 26
q67 0 98 16.5t47 69.5zM983 678l-2 -4h336l172 555z" />
    <glyph glyph-name="uni246E" unicode="&#x246e;" 
d="M920 -20q-171 0 -311.5 50t-234.5 139.5t-145 213.5t-51 270q0 122 35.5 244t100 233t160.5 207.5t212 166.5t259.5 110.5t297.5 40.5q177 0 317.5 -53.5t228.5 -146t133.5 -212t45.5 -256.5q0 -118 -33.5 -238.5t-95.5 -232.5t-155.5 -210t-206.5 -170t-257 -114
t-300 -42zM922 27q147 0 282 39.5t241.5 108t194 160.5t145 197.5t89 219.5t31.5 225q0 130 -42 242.5t-123.5 200t-213 138t-299.5 50.5q-173 0 -331 -53.5t-277.5 -146t-208.5 -212.5t-135 -257t-46 -275q0 -284 185.5 -460.5t507.5 -176.5zM1016 1313l-266 -871
q-9 -30 -10 -45t12 -25.5t38 -13t74 -2.5l-14 -26h-363l13 26q75 0 109 16.5t50 69.5l222 727q17 55 9 63q-11 11 -94 -24q-12 -5 -28 -12l4 33l170 74l59 26zM1094 322q-72 0 -124 22t-52 53q0 22 17.5 39t39.5 17q16 0 28.5 -9t22.5 -22t21 -26t30 -22t43 -9
q70 0 141.5 64t117.5 165t46 201q0 66 -32 99.5t-86 33.5q-70 0 -140 -58l-32 29l168 408h344l-31 -76h-293l-119 -295l6 -4q73 55 154 55q74 0 117 -49.5t43 -130.5q0 -120 -62 -233t-162.5 -182.5t-205.5 -69.5z" />
    <glyph glyph-name="uni246F" unicode="&#x246f;" 
d="M920 -20q-171 0 -311.5 50t-234.5 139.5t-145 213.5t-51 270q0 122 35.5 244t100 233t160.5 207.5t212 166.5t259.5 110.5t297.5 40.5q177 0 317.5 -53.5t228.5 -146t133.5 -212t45.5 -256.5q0 -118 -33.5 -238.5t-95.5 -232.5t-155.5 -210t-206.5 -170t-257 -114
t-300 -42zM922 27q147 0 282 39.5t241.5 108t194 160.5t145 197.5t89 219.5t31.5 225q0 130 -42 242.5t-123.5 200t-213 138t-299.5 50.5q-173 0 -331 -53.5t-277.5 -146t-208.5 -212.5t-135 -257t-46 -275q0 -284 185.5 -460.5t507.5 -176.5zM1151 315q-99 0 -150 61
t-51 175q0 85 32 183.5t94 196t144.5 181t193.5 143.5t231 78l4 -30q-308 -75 -488 -390l4 -4q92 92 197 92q86 0 130 -55.5t44 -150.5q0 -55 -16 -118.5t-49 -127.5t-77.5 -116t-108 -85t-134.5 -33zM991 1313l-266 -873q-9 -30 -10 -45t12 -25.5t38 -13t75 -2.5l-15 -26
h-364l14 26q75 0 108.5 16.5t49.5 69.5l221 727q17 55 9 63q-11 11 -92 -24q-12 -5 -28 -12l2 33l232 100zM1155 356q66 0 123.5 48.5t93 119t56 144.5t20.5 131q0 73 -28 116t-83 43q-46 0 -101 -28t-103 -80q-97 -164 -97 -336q0 -74 29.5 -116t89.5 -42z" />
    <glyph glyph-name="uni2470" unicode="&#x2470;" 
d="M920 -20q-171 0 -311.5 50t-234.5 139.5t-145 213.5t-51 270q0 122 35.5 244t100 233t160.5 207.5t212 166.5t259.5 110.5t297.5 40.5q177 0 317.5 -53.5t228.5 -146t133.5 -212t45.5 -256.5q0 -118 -33.5 -238.5t-95.5 -232.5t-155.5 -210t-206.5 -170t-257 -114
t-300 -42zM922 27q147 0 282 39.5t241.5 108t194 160.5t145 197.5t89 219.5t31.5 225q0 130 -42 242.5t-123.5 200t-213 138t-299.5 50.5q-173 0 -331 -53.5t-277.5 -146t-208.5 -212.5t-135 -257t-46 -275q0 -284 185.5 -460.5t507.5 -176.5zM1024 1313l-266 -871
q-18 -56 1 -71t113 -15l-14 -26h-364l14 26q75 0 108.5 16.5t49.5 69.5l221 727q17 55 9 63q-11 11 -92 -24q-12 -5 -28 -12l2 33l232 100zM1716 1307l-637 -985l-82 24l594 885h-303q-57 0 -86 -24.5t-74 -108.5l-18 20l68 125l32 64h506z" />
    <glyph glyph-name="uni2471" unicode="&#x2471;" 
d="M920 -20q-171 0 -311.5 50t-234.5 139.5t-145 213.5t-51 270q0 122 35.5 244t100 233t160.5 207.5t212 166.5t259.5 110.5t297.5 40.5q177 0 317.5 -53.5t228.5 -146t133.5 -212t45.5 -256.5q0 -118 -33.5 -238.5t-95.5 -232.5t-155.5 -210t-206.5 -170t-257 -114
t-300 -42zM922 27q147 0 282 39.5t241.5 108t194 160.5t145 197.5t89 219.5t31.5 225q0 130 -42 242.5t-123.5 200t-213 138t-299.5 50.5q-173 0 -331 -53.5t-277.5 -146t-208.5 -212.5t-135 -257t-46 -275q0 -284 185.5 -460.5t507.5 -176.5zM993 1313l-266 -871
q-7 -24 -7.5 -37.5t3.5 -24.5t19 -15.5t37.5 -6.5t62.5 -2l-15 -26h-362l12 26q75 0 109.5 16.5t50.5 69.5l221 727q17 55 9 63q-11 11 -94 -24q-12 -5 -28 -12l5 33l170 74l59 26zM930 500q0 51 20.5 97.5t46.5 78.5t74.5 68t79.5 55t86 49q-98 126 -98 225q0 105 89 178.5
t216 73.5q87 0 137.5 -40.5t50.5 -113.5q0 -45 -21 -87t-64.5 -81.5t-90.5 -72.5t-117 -74q5 -6 29 -35t30.5 -38t25.5 -34.5t26 -40.5l17.5 -37.5t14 -43.5t3.5 -43q0 -112 -92.5 -193.5t-231.5 -81.5q-107 0 -169 52.5t-62 138.5zM1227 1081q0 -85 84 -190
q114 73 178.5 141.5t64.5 141.5q0 52 -30 80t-88 28q-90 0 -149.5 -59.5t-59.5 -141.5zM1010 506q0 -70 38 -111t121 -41q99 0 161.5 57t62.5 144q0 69 -34.5 130t-92.5 128q-40 -24 -62 -38t-57.5 -39t-55 -46.5t-41 -50.5t-31 -62.5t-9.5 -70.5z" />
    <glyph glyph-name="uni2472" unicode="&#x2472;" 
d="M920 -20q-171 0 -311.5 50t-234.5 139.5t-145 213.5t-51 270q0 122 35.5 244t100 233t160.5 207.5t212 166.5t259.5 110.5t297.5 40.5q177 0 317.5 -53.5t228.5 -146t133.5 -212t45.5 -256.5q0 -118 -33.5 -238.5t-95.5 -232.5t-155.5 -210t-206.5 -170t-257 -114
t-300 -42zM922 27q147 0 282 39.5t241.5 108t194 160.5t145 197.5t89 219.5t31.5 225q0 130 -42 242.5t-123.5 200t-213 138t-299.5 50.5q-173 0 -331 -53.5t-277.5 -146t-208.5 -212.5t-135 -257t-46 -275q0 -284 185.5 -460.5t507.5 -176.5zM1481 1335q99 0 150.5 -61.5
t51.5 -173.5q0 -86 -32 -185t-94.5 -196.5t-145.5 -181t-195 -143t-233 -77.5l-4 31q306 71 491 389l-4 4q-92 -92 -196 -92q-89 0 -133.5 55t-44.5 150q0 70 26.5 151.5t74 156t124 124t164.5 49.5zM1016 1313l-264 -871q-15 -36 -9 -55t31 -25t90 -6l-14 -26h-363l13 26
q75 0 109 16.5t50 69.5l222 727q17 55 9 63q-11 11 -94 -24q-12 -5 -28 -12l4 33l232 100zM1477 1294q-66 0 -124.5 -48t-94 -119t-56 -144.5t-20.5 -130.5q0 -74 27.5 -117t82.5 -43q47 0 103 28t104 79q98 169 98 338q0 157 -120 157z" />
    <glyph glyph-name="uni2473" unicode="&#x2473;" 
d="M920 -20q-171 0 -311.5 50t-234.5 139.5t-145 213.5t-51 270q0 122 35.5 244t100 233t160.5 207.5t212 166.5t259.5 110.5t297.5 40.5q177 0 317.5 -53.5t228.5 -146t133.5 -212t45.5 -256.5q0 -118 -33.5 -238.5t-95.5 -232.5t-155.5 -210t-206.5 -170t-257 -114
t-300 -42zM922 27q147 0 282 39.5t241.5 108t194 160.5t145 197.5t89 219.5t31.5 225q0 130 -42 242.5t-123.5 200t-213 138t-299.5 50.5q-173 0 -331 -53.5t-277.5 -146t-208.5 -212.5t-135 -257t-46 -275q0 -284 185.5 -460.5t507.5 -176.5zM864 330h-499l8 26
q83 68 132.5 110t126 110t123 116.5t102 113t86.5 117t52 111t21 111.5q0 46 -29.5 74t-87.5 28q-88 0 -160.5 -78t-111.5 -208h-33q48 166 147.5 267t221.5 101q78 0 114.5 -39.5t36.5 -107.5q0 -86 -55 -189t-150 -207t-193 -193t-212 -177v-4h295q49 0 79 28t75 98
q5 9 8 13h28zM1241 309q-91 0 -137.5 64.5t-46.5 175.5q0 129 44 270t112.5 252t156.5 183.5t170 72.5q92 0 139 -65.5t47 -180.5q0 -129 -44.5 -269.5t-113 -250t-157 -181t-170.5 -71.5zM1245 354q80 0 173.5 123.5t156.5 304.5t63 336q0 164 -100 164q-79 0 -172 -123.5
t-156 -304.5t-63 -336q0 -164 98 -164z" />
    <glyph glyph-name="uni24EA" unicode="&#x24ea;" 
d="M920 -20q-171 0 -311.5 50t-234.5 139.5t-145 213.5t-51 270q0 122 35.5 244t100 233t160.5 207.5t212 166.5t259.5 110.5t297.5 40.5q177 0 317.5 -53.5t228.5 -146t133.5 -212t45.5 -256.5q0 -118 -33.5 -238.5t-95.5 -232.5t-155.5 -210t-206.5 -170t-257 -114
t-300 -42zM928 27q147 0 282 39.5t241.5 108t194 160.5t145 197.5t89 219.5t31.5 225q0 130 -42 242.5t-123.5 200t-213 138t-299.5 50.5q-173 0 -331 -53.5t-277.5 -146t-208 -212.5t-134.5 -257t-46 -275q0 -284 185 -460.5t507 -176.5zM918 309q-93 0 -141 64.5
t-48 175.5q0 104 29 216.5t79.5 211t112.5 178t134 126t139 46.5q94 0 142 -65t48 -181q0 -173 -75 -354.5t-191.5 -299.5t-228.5 -118zM920 354q82 0 178 123.5t160.5 304.5t64.5 336q0 164 -102 164q-81 0 -176.5 -123.5t-160.5 -304.5t-65 -336q0 -78 25.5 -121t75.5 -43
z" />
    <glyph glyph-name="uni24EB" unicode="&#x24eb;" 
d="M920 -20q156 0 300 42t257 114t206.5 170t155.5 210t95.5 232.5t33.5 238.5q0 137 -45.5 256.5t-133.5 212t-228.5 146t-317.5 53.5q-154 0 -297.5 -40.5t-259.5 -110.5t-212 -166.5t-160.5 -207.5t-100 -233t-35.5 -244q0 -146 51 -270t145 -213.5t234.5 -139.5
t311.5 -50zM1057 1313l-266 -871q-18 -56 1 -71t113 -15l-14 -26h-365l15 26q74 0 107 16.5t50 69.5l222 727q17 55 9 63q-11 11 -92 -24q-12 -5 -28 -12l2 33l231 100zM1501 1313l-266 -871q-17 -56 2.5 -71t112.5 -15l-15 -26h-364l14 26q75 0 109.5 16.5t50.5 69.5
l221 727q17 55 9 63q-11 11 -94 -24q-12 -5 -28 -12l4 33l230 100z" />
    <glyph glyph-name="uni24EC" unicode="&#x24ec;" 
d="M920 -20q156 0 300 42t257 114t206.5 170t155.5 210t95.5 232.5t33.5 238.5q0 137 -45.5 256.5t-133.5 212t-228.5 146t-317.5 53.5q-154 0 -297.5 -40.5t-259.5 -110.5t-212 -166.5t-160.5 -207.5t-100 -233t-35.5 -244q0 -146 51 -270t145 -213.5t234.5 -139.5
t311.5 -50zM987 1313l-264 -871q-9 -30 -10 -45t11.5 -25.5t37.5 -13t74 -2.5l-13 -26h-364l14 26q75 0 108.5 16.5t49.5 69.5l221 727q17 55 9 63q-11 11 -94 -24q-12 -5 -28 -12l4 33l232 100zM1378 330h-506l7 26q65 53 104 85t101.5 85.5t101 89.5t91 87.5t85 91
t68.5 88t56 90t33 86.5t13 86q0 46 -30 74t-89 28q-89 0 -163 -78t-113 -208h-33q48 165 149 266.5t224 101.5q155 0 155 -147q0 -69 -38.5 -152t-99 -160.5t-145.5 -162t-165 -153.5t-170 -138l-2 -4h299q36 0 64 17.5t43.5 37.5t48.5 72q5 8 8 12h30z" />
    <glyph glyph-name="uni24ED" unicode="&#x24ed;" 
d="M920 -20q156 0 300 42t257 114t206.5 170t155.5 210t95.5 232.5t33.5 238.5q0 137 -45.5 256.5t-133.5 212t-228.5 146t-317.5 53.5q-154 0 -297.5 -40.5t-259.5 -110.5t-212 -166.5t-160.5 -207.5t-100 -233t-35.5 -244q0 -146 51 -270t145 -213.5t234.5 -139.5
t311.5 -50zM997 1313l-264 -871q-9 -30 -10 -45t11.5 -25.5t37.5 -13t74 -2.5l-15 -26h-362l12 26q75 0 109.5 16.5t50.5 69.5l221 727q17 55 10 63q-11 11 -90 -22q-13 -6 -32 -14l4 33l231 100zM1098 309q-68 0 -123 22.5t-55 53.5q0 22 16.5 38.5t40.5 16.5
q19 0 34.5 -14t26 -30t33.5 -30t55 -14q105 0 187 86t82 207q0 95 -53 145t-152 50l4 26q145 52 222 126.5t77 168.5q0 105 -113 105q-152 0 -211 -191h-32q35 128 111 191t175 63q77 0 119.5 -39t42.5 -112q0 -99 -79 -180.5t-201 -127.5v-6q80 -3 134 -61.5t54 -151.5
q0 -135 -117 -238.5t-278 -103.5z" />
    <glyph glyph-name="uni24EE" unicode="&#x24ee;" 
d="M920 -20q156 0 300 42t257 114t206.5 170t155.5 210t95.5 232.5t33.5 238.5q0 137 -45.5 256.5t-133.5 212t-228.5 146t-317.5 53.5q-154 0 -297.5 -40.5t-259.5 -110.5t-212 -166.5t-160.5 -207.5t-100 -233t-35.5 -244q0 -146 51 -270t145 -213.5t234.5 -139.5
t311.5 -50zM981 1313l-266 -871q-9 -30 -10 -45t12 -25.5t38 -13t74 -2.5l-14 -26h-362l12 26q75 0 109.5 16.5t50.5 69.5l221 727q17 55 9 63q-11 11 -94 -24q-12 -5 -28 -12l4 33l170 74l60 26zM1294 602h-391l23 72l600 653h76l-199 -653h108l-22 -72h-109l-49 -160
q-18 -56 -3.5 -71t89.5 -15l-10 -26h-315l10 26q67 0 98 16.5t47 69.5zM983 678l-2 -4h336l172 555z" />
    <glyph glyph-name="uni24EF" unicode="&#x24ef;" 
d="M920 -20q156 0 300 42t257 114t206.5 170t155.5 210t95.5 232.5t33.5 238.5q0 137 -45.5 256.5t-133.5 212t-228.5 146t-317.5 53.5q-154 0 -297.5 -40.5t-259.5 -110.5t-212 -166.5t-160.5 -207.5t-100 -233t-35.5 -244q0 -146 51 -270t145 -213.5t234.5 -139.5
t311.5 -50zM1016 1313l-266 -871q-9 -30 -10 -45t12 -25.5t38 -13t74 -2.5l-14 -26h-363l13 26q75 0 109 16.5t50 69.5l222 727q17 55 9 63q-11 11 -94 -24q-12 -5 -28 -12l4 33l170 74l59 26zM1094 322q-72 0 -124 22t-52 53q0 22 17.5 39t39.5 17q16 0 28.5 -9t22.5 -22
t21 -26t30 -22t43 -9q70 0 141.5 64t117.5 165t46 201q0 66 -32 99.5t-86 33.5q-70 0 -140 -58l-32 29l168 408h344l-31 -76h-293l-119 -295l6 -4q73 55 154 55q74 0 117 -49.5t43 -130.5q0 -120 -62 -233t-162.5 -182.5t-205.5 -69.5z" />
    <glyph glyph-name="uni24F0" unicode="&#x24f0;" 
d="M920 -20q156 0 300 42t257 114t206.5 170t155.5 210t95.5 232.5t33.5 238.5q0 137 -45.5 256.5t-133.5 212t-228.5 146t-317.5 53.5q-154 0 -297.5 -40.5t-259.5 -110.5t-212 -166.5t-160.5 -207.5t-100 -233t-35.5 -244q0 -146 51 -270t145 -213.5t234.5 -139.5
t311.5 -50zM1151 315q-99 0 -151 61.5t-52 174.5q0 71 23.5 152t65.5 162.5t105.5 159t139.5 140.5t171 108t196 60l6 -30q-312 -74 -492 -390l4 -4q92 92 197 92q88 0 132 -55.5t44 -150.5q0 -55 -16 -118.5t-49.5 -127.5t-78.5 -116t-109 -85t-136 -33zM987 1313
l-264 -873q-9 -30 -10 -45t11.5 -25.5t37.5 -13t74 -2.5l-15 -26h-362l12 26q75 0 109.5 16.5t50.5 69.5l221 727q17 55 9 63q-11 11 -94 -24q-12 -5 -28 -12l4 33l232 100zM1155 356q66 0 124.5 48.5t94 119t56 144.5t20.5 131q0 73 -27.5 116t-81.5 43q-49 0 -104.5 -28
t-101.5 -80q-99 -162 -99 -336q0 -74 29.5 -116t89.5 -42z" />
    <glyph glyph-name="uni24F1" unicode="&#x24f1;" 
d="M920 -20q156 0 300 42t257 114t206.5 170t155.5 210t95.5 232.5t33.5 238.5q0 137 -45.5 256.5t-133.5 212t-228.5 146t-317.5 53.5q-154 0 -297.5 -40.5t-259.5 -110.5t-212 -166.5t-160.5 -207.5t-100 -233t-35.5 -244q0 -146 51 -270t145 -213.5t234.5 -139.5
t311.5 -50zM1020 1313l-264 -871q-15 -36 -9 -55t31 -25t90 -6l-14 -26h-362l12 26q75 0 109.5 16.5t50.5 69.5l221 727q17 55 9 63q-11 11 -94 -24q-12 -5 -28 -12l4 33l232 100zM1720 1307l-641 -985l-82 24l596 885h-305q-57 0 -86 -24.5t-74 -108.5l-18 20l68 125l34 64
h508z" />
    <glyph glyph-name="uni24F2" unicode="&#x24f2;" 
d="M920 -20q156 0 300 42t257 114t206.5 170t155.5 210t95.5 232.5t33.5 238.5q0 137 -45.5 256.5t-133.5 212t-228.5 146t-317.5 53.5q-154 0 -297.5 -40.5t-259.5 -110.5t-212 -166.5t-160.5 -207.5t-100 -233t-35.5 -244q0 -146 51 -270t145 -213.5t234.5 -139.5
t311.5 -50zM993 1313l-266 -871q-7 -24 -7.5 -37.5t3.5 -24.5t19 -15.5t37.5 -6.5t62.5 -2l-15 -26h-362l12 26q75 0 109.5 16.5t50.5 69.5l221 727q17 55 9 63q-11 11 -94 -24q-12 -5 -28 -12l5 33l170 74l59 26zM930 500q0 51 20.5 97.5t46.5 78.5t74.5 68t79.5 55t86 49
q-98 126 -98 225q0 105 89 178.5t216 73.5q87 0 137.5 -40.5t50.5 -113.5q0 -45 -21 -87t-64.5 -81.5t-90.5 -72.5t-117 -74q5 -6 29 -35t30.5 -38t25.5 -34.5t26 -40.5l17.5 -37.5t14 -43.5t3.5 -43q0 -112 -92.5 -193.5t-231.5 -81.5q-107 0 -169 52.5t-62 138.5z
M1227 1081q0 -85 84 -190q114 73 178.5 141.5t64.5 141.5q0 52 -30 80t-88 28q-90 0 -149.5 -59.5t-59.5 -141.5zM1010 506q0 -70 38 -111t121 -41q99 0 161.5 57t62.5 144q0 69 -34.5 130t-92.5 128q-40 -24 -62 -38t-57.5 -39t-55 -46.5t-41 -50.5t-31 -62.5t-9.5 -70.5z
" />
    <glyph glyph-name="uni24F3" unicode="&#x24f3;" 
d="M920 -20q156 0 300 42t257 114t206.5 170t155.5 210t95.5 232.5t33.5 238.5q0 137 -45.5 256.5t-133.5 212t-228.5 146t-317.5 53.5q-154 0 -297.5 -40.5t-259.5 -110.5t-212 -166.5t-160.5 -207.5t-100 -233t-35.5 -244q0 -146 51 -270t145 -213.5t234.5 -139.5
t311.5 -50zM1481 1335q99 0 150.5 -61.5t51.5 -173.5q0 -86 -32 -185t-94.5 -196.5t-145.5 -181t-195 -143t-233 -77.5l-4 31q306 71 491 389l-4 4q-92 -92 -196 -92q-89 0 -133.5 55t-44.5 150q0 70 26.5 151.5t74 156t124 124t164.5 49.5zM1016 1313l-264 -871
q-15 -36 -9 -55t31 -25t90 -6l-14 -26h-363l13 26q75 0 109 16.5t50 69.5l222 727q17 55 9 63q-11 11 -94 -24q-12 -5 -28 -12l4 33l232 100zM1477 1294q-66 0 -124.5 -48t-94 -119t-56 -144.5t-20.5 -130.5q0 -74 27.5 -117t82.5 -43q47 0 103 28t104 79q98 169 98 338
q0 157 -120 157z" />
    <glyph glyph-name="uni24F4" unicode="&#x24f4;" 
d="M920 -20q156 0 300 42t257 114t206.5 170t155.5 210t95.5 232.5t33.5 238.5q0 137 -45.5 256.5t-133.5 212t-228.5 146t-317.5 53.5q-154 0 -297.5 -40.5t-259.5 -110.5t-212 -166.5t-160.5 -207.5t-100 -233t-35.5 -244q0 -146 51 -270t145 -213.5t234.5 -139.5
t311.5 -50zM858 330h-498l9 26q84 70 132 110.5t125.5 109.5t123 116.5t101.5 113t86 117t51.5 110.5t21.5 112q0 47 -28.5 74.5t-86.5 27.5q-88 0 -161.5 -78.5t-110.5 -207.5h-33q48 166 146.5 267t219.5 101q80 0 117 -39.5t37 -107.5q0 -85 -55.5 -188.5t-150.5 -207.5
t-192.5 -192.5t-211.5 -177.5v-4h295q27 0 47 7.5t41.5 31.5t32.5 39.5t40 60.5h29zM1243 309q-91 0 -138.5 64.5t-47.5 175.5q0 129 44.5 270t113 252t157 183.5t170.5 72.5q93 0 141 -65.5t48 -180.5q0 -173 -74 -354.5t-189 -299.5t-225 -118zM1245 354q81 0 175 123.5
t157 304.5t63 336q0 164 -98 164q-80 0 -174 -123.5t-157.5 -304.5t-63.5 -336q0 -78 24.5 -121t73.5 -43z" />
    <glyph glyph-name="uni24FF" unicode="&#x24ff;" 
d="M920 -20q156 0 300 42t257 114t206.5 170t155.5 210t95.5 232.5t33.5 238.5q0 137 -45.5 256.5t-133.5 212t-228.5 146t-317.5 53.5q-154 0 -297.5 -40.5t-259.5 -110.5t-212 -166.5t-160.5 -207.5t-100 -233t-35.5 -244q0 -146 51 -270t145 -213.5t234.5 -139.5
t311.5 -50zM911 309q-93 0 -140.5 64.5t-47.5 175.5q0 104 29 216.5t79.5 211t112.5 178t134 126t139 46.5q95 0 143.5 -65.5t48.5 -180.5q0 -129 -45.5 -269.5t-116 -250t-161.5 -181t-175 -71.5zM915 354q82 0 177.5 123.5t160 304.5t64.5 336q0 164 -100 164
q-82 0 -177.5 -123.5t-160 -304.5t-64.5 -336q0 -164 100 -164z" />
    <glyph glyph-name="lozenge" unicode="&#x25ca;" horiz-adv-x="1103" 
d="M444 -4h-118l-140 821l641 821h119l139 -821zM293 817l115 -711h16l545 711l-105 711h-14z" />
    <glyph glyph-name="uni2776" unicode="&#x2776;" horiz-adv-x="1974" 
d="M928 -20q183 0 349 59.5t289.5 160t215.5 229t139 270.5t47 280q0 149 -45.5 271.5t-134 213.5t-229.5 141t-322 50q-152 0 -295 -40.5t-258 -111t-210.5 -166.5t-160 -206t-100 -230.5t-35.5 -238.5q0 -309 200 -495.5t550 -186.5zM1286 1313l-264 -871q-9 -30 -10 -45
t11.5 -25.5t37.5 -13t74 -2.5l-15 -26h-362l12 26q75 0 109.5 16.5t50.5 69.5l221 727q17 55 9 63q-11 11 -94 -24q-12 -5 -28 -12l4 33l232 100z" />
    </font>
</defs>
</svg>
