<?xml version="1.0" standalone="no"?>
<!DOCTYPE svg PUBLIC "-//W3C//DTD SVG 1.1//EN" "http://www.w3.org/Graphics/SVG/1.1/DTD/svg11.dtd" >
<svg xmlns="http://www.w3.org/2000/svg" xmlns:xlink="http://www.w3.org/1999/xlink" version="1.1">
<metadata>
Created by FontForge 20201107 at Wed Nov  5 09:27:29 2025
 By 
Elena Genova
</metadata>
<defs>
<font id="TheSeasons-Bold" horiz-adv-x="0" >
  <font-face 
    font-family="The Seasons"
    font-weight="700"
    font-stretch="normal"
    units-per-em="2048"
    panose-1="0 0 0 0 0 0 0 0 0 0"
    ascent="1638"
    descent="-410"
    x-height="1024"
    cap-height="1434"
    bbox="-328 -608 2417 2091"
    underline-thickness="102"
    underline-position="-255"
    unicode-range="U+0020-2260"
  />
<missing-glyph horiz-adv-x="1024" 
d="M510 381q0 66 -38.5 112t-113.5 46v24q74 0 113 50t39 114h25q0 -64 38.5 -114t106.5 -50v-24q-69 0 -107 -46.5t-38 -111.5h-25z" />
    <glyph glyph-name="f_i" unicode="fi" horiz-adv-x="1097" 
d="M72 0v29q49 17 65.5 66.5t16.5 164.5v717v16h-101l13 31h90q11 107 70 211.5t144.5 183.5t195.5 127.5t218 48.5q71 0 119.5 -17.5t48.5 -51.5q0 -63 -47 -115.5t-110 -52.5q-104 0 -299 123q-27 -15 -46 -31t-41.5 -48.5t-34.5 -87.5t-12 -130v-160h277l-12 -31h-265
v-733q0 -115 16.5 -164.5t65.5 -66.5v-29h-372zM664 0v29q49 17 65 66.5t16 164.5v471q0 58 -11 91.5t-25.5 46t-44.5 26.5v29l270 118l20 -16v-766q0 -115 16.5 -164.5t65.5 -66.5v-29h-372z" />
    <glyph glyph-name="f_l" unicode="fl" horiz-adv-x="1064" 
d="M641 0v29q49 17 65.5 66.5t16.5 164.5v1147l-221 76q-58 -30 -103 -107t-45 -192v-160h203l-12 -31h-191v-733q0 -115 16.5 -164.5t65.5 -66.5v-29h-373v29q49 17 65.5 66.5t16.5 164.5v715v18h-92l13 31h81q12 107 71 212.5t144 184.5t193 128.5t213 49.5q19 0 27 -2
l118 56l19 -13v-1380q0 -115 16.5 -164.5t65.5 -66.5v-29h-373z" />
    <glyph glyph-name=".notdef" horiz-adv-x="1024" 
d="M510 381q0 66 -38.5 112t-113.5 46v24q74 0 113 50t39 114h25q0 -64 38.5 -114t106.5 -50v-24q-69 0 -107 -46.5t-38 -111.5h-25z" />
    <glyph glyph-name=".null" 
 />
    <glyph glyph-name="nonmarkingreturn" horiz-adv-x="682" 
 />
    <glyph glyph-name="space" unicode=" " horiz-adv-x="409" 
 />
    <glyph glyph-name="space" unicode="&#xa0;" horiz-adv-x="409" 
 />
    <glyph glyph-name="exclam" unicode="!" horiz-adv-x="464" 
d="M221 326l-129 962l236 139l12 -8l-90 -1093h-29zM233 -14q-49 0 -84.5 37t-35.5 88t35 86.5t85 35.5t84.5 -35.5t34.5 -86.5t-35 -88t-84 -37z" />
    <glyph glyph-name="quotedbl" unicode="&#x22;" horiz-adv-x="606" 
d="M78 1296q-12 67 10.5 109.5t71.5 42.5t71.5 -42.5t10.5 -109.5l-74 -374h-16zM365 1296q-12 67 10 109.5t71 42.5t71.5 -42.5t10.5 -109.5l-73 -374h-17z" />
    <glyph glyph-name="numbersign" unicode="#" horiz-adv-x="1656" 
d="M1067 -2v442h-487v-442h-37v442h-437v29h437v500h-437v28h437v437h37v-437h487v437h37v-437h438v-28h-438v-500h438v-29h-438v-442h-37zM580 469h487v500h-487v-500z" />
    <glyph glyph-name="dollar" unicode="$" horiz-adv-x="1105" 
d="M547 -20q-121 0 -238.5 29t-179.5 81l-25 350l27 2q61 -221 157.5 -318t258.5 -106v566q-177 87 -234 123q-173 107 -213 239q-14 46 -14 96q0 73 29 141t84 124.5t145 94t203 44.5v192h37v-190h18q211 0 363 -86l22 -260l-22 -4q-48 114 -110 183.5t-126 96.5t-145 31
v-571q181 -85 247 -127q171 -109 196 -250q5 -27 5 -55q0 -181 -123.5 -298t-324.5 -128v-246h-37v246zM244 1169q0 -54 23 -100t69 -84.5t93.5 -66.5t117.5 -62v553q-149 -1 -226 -72t-77 -168zM584 18q76 0 132.5 22.5t87 60.5t44.5 80t14 89q0 49 -20.5 91.5t-63 79
t-86 63.5t-108.5 61v-547z" />
    <glyph glyph-name="percent" unicode="%" horiz-adv-x="1591" 
d="M186 -10l-20 20l1218 1434l21 -21zM397 723q-65 0 -128.5 22t-116 62.5t-85 107t-32.5 148.5q0 89 34.5 162.5t91.5 120t125.5 71.5t139.5 25q91 0 170.5 -37t132.5 -113.5t53 -177.5q0 -78 -24 -144.5t-63 -111t-90 -76t-103.5 -45.5t-104.5 -14zM465 770q90 0 137 60.5
t47 177.5q0 99 -36 189t-102.5 148t-145.5 58q-84 0 -141.5 -59.5t-57.5 -165.5q0 -168 89 -288t210 -120zM1176 -20q-66 0 -129 21.5t-116 62t-85.5 107t-32.5 148.5q0 89 34.5 162.5t91.5 120t125.5 71.5t139.5 25q67 0 130 -22t114 -62t82 -103.5t31 -139.5
q0 -78 -24 -144.5t-63 -111t-90 -76t-103.5 -45.5t-104.5 -14zM1243 27q90 0 137 60.5t47 176.5q0 99 -36 189t-102.5 148t-145.5 58q-84 0 -141.5 -59.5t-57.5 -165.5q0 -168 89 -287.5t210 -119.5z" />
    <glyph glyph-name="ampersand" unicode="&#x26;" horiz-adv-x="1761" 
d="M1307 -14q-157 0 -433 266q-69 -124 -173.5 -198t-231.5 -74q-96 0 -175.5 37.5t-129 97.5t-76.5 131.5t-27 142.5q0 139 97 245t270 171q-96 169 -96 297q0 40 13 83.5t46.5 91.5t82.5 85t129.5 61.5t180.5 24.5q73 0 156.5 -15.5t144.5 -50.5l23 -260l-23 -4
q-39 90 -85 151t-94 89.5t-88 39.5t-85 11q-60 0 -105.5 -20.5t-69.5 -52.5t-35 -64.5t-11 -63.5q0 -115 92 -267.5t252 -338.5q182 -207 365 -356.5t266 -149.5q102 0 102 301q0 66 -14.5 142.5t-43 134t-61.5 57.5h-458l8 33h758l-9 -33h-237q91 -39 149 -121.5t58 -179.5
q0 -88 -61.5 -191.5t-164.5 -178t-206 -74.5zM240 475q0 -66 22.5 -130.5t63 -117.5t105 -85.5t142.5 -32.5q91 0 163 47t116 118q-87 87 -158 172q-171 202 -252 334q-202 -86 -202 -305z" />
    <glyph glyph-name="quotesingle" unicode="'" horiz-adv-x="315" 
d="M78 1296q-12 67 10.5 109.5t71.5 42.5t71.5 -42.5t10.5 -109.5l-74 -374h-16z" />
    <glyph glyph-name="parenleft" unicode="(" horiz-adv-x="819" 
d="M731 -555q-251 167 -413 473.5t-162 609.5q0 305 165.5 608t448.5 502l14 -18q-124 -90 -216 -217.5t-143.5 -273.5t-76 -295t-24.5 -306q0 -156 22 -302.5t69.5 -290t131.5 -267t198 -207.5z" />
    <glyph glyph-name="parenright" unicode=")" horiz-adv-x="819" 
d="M92 -539q114 84 198 207.5t131.5 267t70 290.5t22.5 302q0 157 -24.5 306t-76.5 295t-144 273.5t-216 217.5l15 18q283 -199 448.5 -502t165.5 -608q0 -303 -162.5 -609.5t-413.5 -473.5z" />
    <glyph glyph-name="asterisk" unicode="*" horiz-adv-x="718" 
d="M354 764q-39 0 -58.5 34t-6.5 85l57 215l-158 -158q-39 -37 -77.5 -37t-59.5 35q-19 33 1 67.5t71 47.5l215 59l-215 59q-51 13 -71 47.5t-1 67.5q21 35 59.5 35t77.5 -37l158 -158l-57 215q-13 51 6.5 85t58.5 34t59 -34t7 -85l-58 -215l158 158q39 37 77.5 37t59.5 -35
q20 -32 0 -67t-71 -48l-215 -59l215 -59q51 -13 71 -48t0 -67q-21 -35 -59.5 -35t-77.5 37l-158 158l58 -215q13 -51 -7 -85t-59 -34z" />
    <glyph glyph-name="plus" unicode="+" horiz-adv-x="1142" 
d="M553 319v347h-350l14 32h336v334l33 15v-349h344l-15 -32h-329v-332z" />
    <glyph glyph-name="comma" unicode="," horiz-adv-x="493" 
d="M102 -283q75 36 119.5 113t50.5 162q-32 -8 -51 -8q-50 0 -82.5 32.5t-32.5 81.5q0 59 34.5 97t92.5 38q68 0 108 -43t40 -129q0 -117 -84.5 -223t-183.5 -141z" />
    <glyph glyph-name="hyphen" unicode="-" horiz-adv-x="747" 
d="M106 494v32h535v-32h-535z" />
    <glyph glyph-name="period" unicode="." horiz-adv-x="464" 
d="M233 -14q-49 0 -84.5 37t-35.5 88t35 86.5t85 35.5t84.5 -35.5t34.5 -86.5t-35 -88t-84 -37z" />
    <glyph glyph-name="slash" unicode="/" horiz-adv-x="800" 
d="M-43 -559l-31 12l918 2192l30 -13z" />
    <glyph glyph-name="zero" unicode="0" horiz-adv-x="1409" 
d="M707 -20q-88 0 -175.5 28t-171 88t-147.5 145.5t-102.5 210t-38.5 271.5q0 133 36 250.5t97.5 203t142 147.5t171 93t183.5 31q88 0 175.5 -28t171 -88t147.5 -145.5t102.5 -210t38.5 -271.5q0 -133 -36 -250.5t-97.5 -203t-142 -147.5t-171 -93t-183.5 -31zM791 23
q157 0 246 151t89 406q0 151 -35 297.5t-98.5 264.5t-161.5 190.5t-213 72.5q-155 0 -245 -152.5t-90 -406.5q0 -150 35.5 -296t99 -264t161 -190.5t212.5 -72.5z" />
    <glyph glyph-name="one" unicode="1" horiz-adv-x="653" 
d="M127 0v29q59 17 78.5 66.5t19.5 164.5v977l-180 -76l-4 15l385 268h16v-1184q0 -115 20 -164.5t79 -66.5v-29h-414z" />
    <glyph glyph-name="two" unicode="2" horiz-adv-x="1038" 
d="M2 29q101 97 180 179t175.5 197.5t160.5 216.5t108 217t44 216q0 52 -13 97.5t-41 83t-76.5 59.5t-113.5 22q-157 0 -281 -135l-18 18q99 124 205.5 186t238.5 62q142 0 237.5 -90.5t96.5 -249.5q0 -70 -23.5 -145.5t-57.5 -139.5t-94 -140t-109 -129.5t-126.5 -126
t-122.5 -112t-121 -103.5q-37 -31 -54 -46h450q104 0 156.5 9.5t78.5 32t46 71.5l22 -3l-30 -276h-918v29z" />
    <glyph glyph-name="three" unicode="3" horiz-adv-x="954" 
d="M39 -266q147 75 266.5 178t193.5 209t113 208.5t39 188.5q0 81 -18.5 139t-51.5 90.5t-73.5 47t-89.5 14.5q-62 0 -129 -37l-10 23q140 69 212 152.5t72 193.5q0 84 -55.5 132t-151.5 48q-161 0 -288 -139l-19 18q102 123 206.5 185.5t233.5 62.5q123 0 198 -69.5
t75 -166.5q0 -67 -24 -122t-73 -100t-105.5 -79t-139.5 -73q54 14 117 14q44 0 89 -8.5t92 -30.5t83 -54.5t59 -86t23 -119.5q0 -100 -45 -198t-117.5 -180.5t-184 -168t-224.5 -154.5t-259 -147z" />
    <glyph glyph-name="four" unicode="4" horiz-adv-x="1048" 
d="M31 362l-11 21l768 1065h39v-942h193l2 -4l-14 -109q-2 -28 -50 -28h-131v-105q0 -115 16.5 -164.5t65.5 -66.5v-29h-377v29q49 17 65.5 66.5t16.5 164.5v102h-583zM152 506h462v645z" />
    <glyph glyph-name="five" unicode="5" horiz-adv-x="985" 
d="M35 -262q121 78 225 168t191.5 193.5t137.5 219.5t50 228q0 129 -82 194.5t-225 63.5q-33 -1 -69.5 -5t-57 -8t-52.5 -10.5t-36 -7.5l-21 14l111 646h315q129 0 192 33t91 100l26 -13q-14 -32 -23.5 -52t-28.5 -53t-37 -54t-47.5 -47t-61 -40.5t-75 -25t-93.5 -10.5h-254
l-53 -330q116 35 270 35q94 0 170 -22t124.5 -57t81.5 -82.5t46.5 -96t13.5 -98.5q0 -229 -202.5 -448t-606.5 -462z" />
    <glyph glyph-name="six" unicode="6" horiz-adv-x="1101" 
d="M557 -20q-215 0 -350 151t-135 404q0 121 45.5 258.5t133.5 282t235 289.5t333 261l19 -27q-122 -78 -216.5 -177t-152 -203t-90.5 -197t-51 -191q149 107 313 107q180 0 289.5 -118.5t109.5 -325.5q0 -105 -31 -193t-80.5 -146t-114 -98.5t-129.5 -58.5t-128 -18z
M305 592q0 -116 18.5 -217.5t54 -182t94.5 -127.5t134 -47q116 0 172 93t56 254q0 233 -76.5 360t-227.5 127q-111 0 -211 -61q-14 -93 -14 -199z" />
    <glyph glyph-name="seven" unicode="7" horiz-adv-x="837" 
d="M166 0q0 187 135 483q47 103 116.5 231t170.5 301t145 253l-454 6q-83 3 -130 1t-71 -21.5t-49 -77.5l-25 2l39 256h813v-17q-136 -239 -239.5 -503t-153.5 -445q-35 -127 -46.5 -255.5t3.5 -213.5h-254z" />
    <glyph glyph-name="eight" unicode="8" horiz-adv-x="1079" 
d="M524 -20q-81 0 -159 21t-144.5 60.5t-107.5 106t-41 149.5q0 233 276 418q-95 67 -148 150.5t-53 199.5q0 63 28.5 127t79.5 117t130.5 86t173.5 33q162 0 261.5 -83t99.5 -200q0 -191 -242 -360q62 -35 100.5 -59.5t87 -62.5t76 -73.5t47 -84t19.5 -101.5
q0 -197 -139 -320.5t-345 -123.5zM279 410q0 -103 27.5 -180.5t74 -120.5t98.5 -63.5t109 -20.5q65 0 116 22.5t80 59.5t43.5 79.5t14.5 87.5q0 55 -21.5 103.5t-53 83t-82.5 70.5t-96 61t-108 60.5t-104 62.5q-98 -98 -98 -305zM303 1198q0 -37 10 -71t25.5 -62t42.5 -56.5
t51.5 -49t63 -46.5t66.5 -42.5t73 -41.5q38 62 63 144.5t25 156.5q0 51 -9 95.5t-30.5 89t-66 70.5t-107.5 26q-100 0 -153.5 -61.5t-53.5 -151.5z" />
    <glyph glyph-name="nine" unicode="9" horiz-adv-x="1101" 
d="M545 1448q215 0 350 -151t135 -404q0 -121 -45.5 -259t-133.5 -282.5t-235 -289.5t-333 -261l-19 27q122 78 216.5 177t152 203t90.5 197t51 191q-149 -107 -313 -107q-180 0 -290 119t-110 326q0 105 31 193t81 146t114 98.5t129.5 58.5t128.5 18zM268 1063
q0 -234 76 -361t227 -127q110 0 211 62q15 100 15 199q0 116 -18.5 217t-54 182t-94.5 127.5t-134 46.5q-116 0 -172 -92.5t-56 -253.5z" />
    <glyph glyph-name="colon" unicode=":" horiz-adv-x="354" 
d="M233 -14q-49 0 -84.5 37t-35.5 88t35 86.5t85 35.5t84.5 -35.5t34.5 -86.5t-35 -88t-84 -37zM233 662q-49 0 -84.5 36.5t-35.5 87.5t35 87t85 36q49 0 84 -36t35 -87t-35 -87.5t-84 -36.5z" />
    <glyph glyph-name="semicolon" unicode=";" horiz-adv-x="354" 
d="M125 -283q75 36 119.5 113t50.5 162q-32 -8 -51 -8q-50 0 -82.5 32.5t-32.5 81.5q0 59 34.5 97t92.5 38q68 0 107.5 -43t39.5 -129q0 -117 -84.5 -223t-183.5 -141zM233 662q-49 0 -84.5 36.5t-35.5 87.5t35 87t85 36q49 0 84 -36t35 -87t-35 -87.5t-84 -36.5z" />
    <glyph glyph-name="less" unicode="&#x3c;" horiz-adv-x="1142" 
d="M887 397l-602 269v41l602 268l12 -29l-575 -260l575 -260z" />
    <glyph glyph-name="equal" unicode="=" horiz-adv-x="1142" 
d="M203 825l14 33h713l-15 -33h-712zM203 498l14 32h713l-15 -32h-712z" />
    <glyph glyph-name="greater" unicode="&#x3e;" horiz-adv-x="1142" 
d="M297 397l-12 29l575 260l-575 260l12 29l602 -268v-41z" />
    <glyph glyph-name="question" unicode="?" horiz-adv-x="802" 
d="M293 311l-12 6l-2 410q148 74 214 178.5t66 212.5q0 107 -59 168.5t-156 61.5q-90 0 -168 -54t-127 -153l-29 14q61 126 172 209.5t259 83.5q133 0 222 -73.5t89 -205.5q0 -242 -309 -389l12 -397zM369 -14q-49 0 -85 37t-36 88t35.5 86.5t85.5 35.5q49 0 83.5 -35.5
t34.5 -86.5t-34.5 -88t-83.5 -37z" />
    <glyph glyph-name="at" unicode="@" horiz-adv-x="1974" 
d="M688 -406q-94 0 -178.5 14.5t-168.5 52.5t-144.5 96.5t-98 154.5t-37.5 219q0 129 50 269.5t135.5 268.5t205 244t252.5 201.5t285 135.5t297 50q132 0 239.5 -27.5t178 -72.5t119 -105.5t69.5 -123.5t21 -129q0 -132 -54.5 -265.5t-142.5 -238.5t-192.5 -188t-211 -128
t-192.5 -45q-59 0 -90 35t-31 84q0 128 160 486q-62 -94 -115 -168.5t-120 -158.5t-123 -139.5t-115 -92.5t-106 -37q-60 0 -102 61t-42 137q0 78 31.5 173.5t84 189t124.5 183t150.5 157.5t165 109.5t163.5 41.5q48 0 104.5 -29t98.5 -89l94 116l21 -10q-41 -69 -84 -160
l-3 -2q-67 -128 -145 -323q-131 -312 -131 -416q0 -17 1.5 -27t8 -28t25 -27.5t47.5 -9.5q94 0 181.5 51t150.5 133t111 183t72 204.5t24 194.5q0 70 -10 128t-41.5 120.5t-83.5 105.5t-142.5 70.5t-212.5 27.5q-144 0 -281 -46.5t-247 -126t-203.5 -186.5t-156 -226.5
t-97.5 -246.5t-35 -247q0 -95 20 -173.5t52.5 -131t78.5 -92t92.5 -61.5t100.5 -36t95.5 -18t84.5 -4q188 0 382.5 76.5t340.5 195.5l13 -18q-63 -52 -143 -103t-183.5 -101t-226.5 -81t-240 -31zM635 209q0 -123 59 -123q35 0 106 72t156 187.5t154 216t133 200.5l2 6
q-40 86 -92.5 143t-126.5 56q-73 -1 -147 -86t-126 -204.5t-85 -248t-33 -219.5z" />
    <glyph glyph-name="A" unicode="A" horiz-adv-x="1316" 
d="M-43 0v29q102 38 172 213l383 950q22 57 -4 111l-27 57l201 90l508 -1210q71 -168 158 -211v-29h-373v29q23 8 33 19.5t5 37.5t-13 47.5t-30 73.5q-9 21 -14 33l-122 295h-547l-119 -293q-40 -103 -33 -152t60 -61v-29h-238zM299 567h520l-264 633z" />
    <glyph glyph-name="B" unicode="B" horiz-adv-x="1294" 
d="M541 0h-445v29q49 17 65.5 66.5t16.5 164.5v914q0 115 -16.5 164.5t-65.5 66.5v29h506q242 0 350.5 -70t108.5 -201q0 -114 -82 -196.5t-264 -114.5q246 -7 378 -109t134 -262q1 -74 -21 -142t-74 -130.5t-130 -108.5t-196.5 -73t-264.5 -27zM559 33q213 0 318.5 101
t105.5 272q0 193 -110.5 306t-331.5 113h-146v-614q0 -110 20.5 -144t86.5 -34h57zM578 858q109 0 174 73.5t65 184.5q0 134 -90 209.5t-248 75.5h-84v-543h183z" />
    <glyph glyph-name="C" unicode="C" horiz-adv-x="1538" 
d="M901 -20q-370 0 -580 185.5t-210 526.5q0 155 59.5 293t166 240.5t263 162.5t340.5 60q130 0 262.5 -25t206.5 -75l8 -271l-24 -6q-62 155 -203 246.5t-303 91.5q-124 0 -226 -41t-176.5 -118.5t-115.5 -196.5t-41 -269q0 -119 27 -231t81 -208t129 -168t177 -113
t219 -41q167 0 285 93.5t175 258.5l27 -4l-33 -293q-218 -98 -514 -98z" />
    <glyph glyph-name="D" unicode="D" horiz-adv-x="1497" 
d="M653 0h-557v29q49 17 65.5 66.5t16.5 164.5v914q0 115 -16.5 164.5t-65.5 66.5v29h512q170 0 307 -43t224 -112.5t146 -161.5t83 -184.5t25 -187.5q1 -220 -89.5 -389t-259 -262.5t-391.5 -93.5zM639 33q255 0 383.5 146t128.5 466q0 160 -42 295.5t-123 239.5
t-211.5 162.5t-297.5 58.5h-82v-1219q0 -79 26.5 -114t106.5 -35h111z" />
    <glyph glyph-name="E" unicode="E" horiz-adv-x="1218" 
d="M1133 0h-1037v29q49 17 65.5 66.5t16.5 164.5v914q0 115 -16.5 164.5t-65.5 66.5v29h983l23 -289l-27 -6q-60 147 -161.5 204.5t-278.5 57.5h-240v-615h197q123 0 196 17.5t106.5 50t51.5 88.5h29v-344h-29q-18 56 -51.5 88.5t-106.5 50t-196 17.5h-197v-619
q0 -49 26.5 -75.5t76.5 -26.5h196q164 0 267 60t159 210l27 -4z" />
    <glyph glyph-name="F" unicode="F" horiz-adv-x="1148" 
d="M96 0v29q49 17 65.5 66.5t16.5 164.5v914q0 115 -16.5 164.5t-65.5 66.5v29h989l15 -228l-27 -6q-58 109 -139.5 153t-231.5 44h-307v-594h166q123 0 196 17.5t106.5 49.5t51.5 88h29v-348h-29q-18 56 -51.5 88.5t-106.5 50t-196 17.5h-166v-506q0 -115 16.5 -164.5
t65.5 -66.5v-29h-381z" />
    <glyph glyph-name="G" unicode="G" horiz-adv-x="1544" 
d="M883 -20q-352 0 -562 202.5t-210 540.5q0 147 56 279t155.5 231t244.5 157t314 58q112 0 241.5 -25.5t202.5 -74.5l8 -271l-24 -6q-61 154 -203.5 246t-300.5 92q-102 0 -187.5 -34.5t-150.5 -101.5t-102.5 -173t-38.5 -242q-1 -117 25 -235t80 -224.5t128 -189
t175.5 -131.5t215.5 -49q100 0 180 40t117 115v187q0 123 -21 173t-85 68v29h317v-377q-73 -95 -179.5 -161.5t-205.5 -94.5t-190 -28z" />
    <glyph glyph-name="H" unicode="H" horiz-adv-x="1503" 
d="M96 0v29q49 17 65.5 66.5t16.5 164.5v914q0 115 -16.5 164.5t-65.5 66.5v29h381v-29q-49 -17 -65.5 -66.5t-16.5 -164.5v-396h713v396q0 115 -16.5 164.5t-65.5 66.5v29h381v-29q-49 -17 -65.5 -66.5t-16.5 -164.5v-914q0 -115 16.5 -164.5t65.5 -66.5v-29h-381v29
q49 17 65.5 66.5t16.5 164.5v481h-713v-481q0 -115 16.5 -164.5t65.5 -66.5v-29h-381z" />
    <glyph glyph-name="I" unicode="I" horiz-adv-x="573" 
d="M96 0v29q49 17 65.5 66.5t16.5 164.5v914q0 115 -16.5 164.5t-65.5 66.5v29h381v-29q-49 -17 -65.5 -66.5t-16.5 -164.5v-914q0 -115 16.5 -164.5t65.5 -66.5v-29h-381z" />
    <glyph glyph-name="J" unicode="J" horiz-adv-x="581" 
d="M-162 -246q-52 0 -75 11t-23 45q0 41 35.5 75.5t93.5 34.5q14 0 28.5 -1t26 -2.5t33.5 -6t35.5 -7.5t48.5 -10t57 -12q19 13 31.5 27t27.5 42.5t23 79t8 120.5v1024q0 115 -16.5 164.5t-65.5 66.5v29h379v-29q-49 -17 -65.5 -66.5t-16.5 -164.5v-676q0 -157 -47 -297
t-125 -237t-180.5 -153.5t-212.5 -56.5z" />
    <glyph glyph-name="K" unicode="K" horiz-adv-x="1320" 
d="M96 0v29q49 17 65.5 66.5t16.5 164.5v914q0 115 -16.5 164.5t-65.5 66.5v29h381v-29q-49 -17 -65.5 -66.5t-16.5 -164.5v-482l498 510q186 189 49 211v21h322v-29q-54 -15 -88.5 -28t-89.5 -47t-103 -83l-436 -446l51 2q116 6 188 -9.5t127.5 -72.5t90 -125t88.5 -207
q64 -164 96.5 -234.5t58.5 -98t60 -27.5q18 0 30 2v-31q-55 -14 -139 -14q-27 0 -47 1t-39.5 7t-33 10t-29.5 19t-26 24.5t-25 35.5t-24.5 44t-27 57.5t-29 68t-34.5 83.5q-14 35 -35.5 88t-31.5 79t-27 65t-27 57t-25.5 44.5t-28 37.5t-30.5 25.5t-36.5 20t-41.5 9.5t-51 4
h-37l-117 -121v-385q0 -115 16.5 -164.5t65.5 -66.5v-29h-381z" />
    <glyph glyph-name="L" unicode="L" horiz-adv-x="1124" 
d="M1071 0h-975v29q49 17 65.5 66.5t16.5 164.5v914q0 115 -16.5 164.5t-65.5 66.5v29h381v-29q-49 -17 -65.5 -66.5t-16.5 -164.5v-1035q0 -49 26.5 -75.5t76.5 -26.5h168q159 0 247 48t148 177l26 -4z" />
    <glyph glyph-name="M" unicode="M" horiz-adv-x="1710" 
d="M86 0v29q49 17 65.5 66.5t16.5 164.5v791q0 123 -16 196t-44.5 106.5t-78.5 51.5v29h307l506 -840l481 840h291v-29q-50 -18 -78.5 -51.5t-44.5 -106.5t-16 -196v-791q0 -115 16 -164.5t65 -66.5v-29h-380v29q49 17 65 66.5t16 164.5v991l-491 -862h-47l-514 844v-850
q0 -123 17.5 -196t49.5 -106.5t88 -51.5v-29h-274z" />
    <glyph glyph-name="N" unicode="N" horiz-adv-x="1355" 
d="M1176 -16l-961 1212v-813q0 -123 17.5 -196t50 -106.5t88.5 -51.5v-29h-275v29q49 17 65.5 66.5t16.5 164.5v914q0 115 -21 164.5t-85 66.5v29h231l860 -1078v695q0 123 -17.5 196t-49.5 106.5t-88 51.5v29h276v-29q-49 -17 -65.5 -66.5t-16.5 -164.5v-1190h-26z" />
    <glyph glyph-name="O" unicode="O" horiz-adv-x="1679" 
d="M844 -20q-107 0 -210 27.5t-198 87t-167 144.5t-115 210t-43 274q0 151 54 284.5t149 231.5t232.5 154.5t297.5 56.5q106 0 209 -28t197.5 -88t166.5 -145.5t115 -208.5t43 -269q0 -145 -43 -267.5t-115 -206.5t-167 -143t-198 -86.5t-208 -27.5zM961 43q91 0 164 27
t120 73.5t77 111t41 138t5 156.5q-16 221 -97 412.5t-222 313.5t-312 122q-208 0 -319 -149.5t-94 -399.5q9 -122 43.5 -240.5t93 -220t133.5 -179t170 -121.5t197 -44z" />
    <glyph glyph-name="P" unicode="P" horiz-adv-x="1144" 
d="M96 0v29q49 17 65.5 66.5t16.5 164.5v914q0 115 -16.5 164.5t-65.5 66.5v29h430q113 0 204.5 -17.5t152.5 -49t105 -70t67.5 -85t34 -89t10.5 -87.5q0 -98 -36 -182t-107.5 -150t-189.5 -103.5t-271 -37.5h-101v-303q0 -115 16.5 -164.5t65.5 -66.5v-29h-381zM485 596
q194 0 288.5 103t94.5 284q0 57 -11 111.5t-40 111.5t-73.5 99t-118 69t-166.5 27q-36 0 -64 -4v-801h90z" />
    <glyph glyph-name="Q" unicode="Q" horiz-adv-x="1679" 
d="M1421 -387q-65 0 -130 33t-126 94.5t-105.5 116.5t-96.5 131q-55 -8 -119 -8q-107 0 -210 27.5t-198 87t-167 144.5t-115 210t-43 274q0 151 54 284.5t149 231.5t232.5 154.5t297.5 56.5q106 0 209 -28t197.5 -88t166.5 -145.5t115 -208.5t43 -269q0 -123 -31 -230
t-84.5 -186.5t-127 -141.5t-155.5 -100t-173 -57q140 -108 255 -162.5t234 -54.5q142 0 219 80l19 -17q-33 -41 -43.5 -53.5t-39.5 -45.5t-42.5 -44.5t-40 -33.5t-46 -29.5t-45.5 -15t-53 -7.5zM961 43q91 0 164 27t120 73.5t77 111t41 138t5 156.5q-16 221 -97 412.5
t-222 313.5t-312 122q-208 0 -319 -149.5t-94 -399.5q9 -122 43.5 -240.5t93 -220t133.5 -179t170 -121.5t197 -44z" />
    <glyph glyph-name="R" unicode="R" horiz-adv-x="1265" 
d="M1139 -14q-50 0 -88 15.5t-63 34t-55 72t-46 90t-53 126.5q-3 8 -5 12q-16 39 -37 92t-31.5 80t-27 64t-27 54.5t-26.5 40t-30.5 32t-35.5 20t-44.5 13.5t-53.5 3h-121v-475q0 -115 16.5 -164.5t65.5 -66.5v-29h-381v29q49 17 65.5 66.5t16.5 164.5v914
q0 115 -16.5 164.5t-65.5 66.5v29h430q129 0 226.5 -18.5t156 -48.5t94.5 -74t49 -88.5t13 -98.5q0 -146 -101.5 -242.5t-299.5 -120.5q44 -5 78.5 -13t64 -22.5t51.5 -29t44.5 -42t37.5 -50.5t35.5 -66t35 -77.5t38.5 -94.5q86 -215 118.5 -268t87.5 -53q21 0 31 2v-29
q-55 -14 -147 -14zM526 768q165 0 243.5 80t78.5 209q0 65 -21.5 124.5t-63.5 109.5t-114 80t-164 30q-43 0 -90 -6v-627h131z" />
    <glyph glyph-name="S" unicode="S" horiz-adv-x="1132" 
d="M586 -20q-151 0 -287 41.5t-219 103.5l-8 307l26 4q68 -186 207 -299.5t334 -113.5q112 0 192 69t80 189q0 54 -26.5 102.5t-66.5 83.5t-95.5 66.5t-106 53t-104.5 43.5q-20 7 -29 11q-165 69 -226 108q-128 81 -154 209q-7 36 -7 78q0 190 142.5 301t384.5 111
q221 0 393 -86l8 -266l-23 -9q-62 156 -183.5 241t-272.5 85q-127 0 -210 -70t-83 -188q0 -36 11.5 -68.5t28 -57t47.5 -49.5t55 -41t66.5 -36t67 -30.5t70.5 -28.5q17 -7 25 -10q185 -71 263 -118q189 -123 193 -300q0 -82 -28.5 -153t-77 -122t-112 -88t-134 -55
t-141.5 -18z" />
    <glyph glyph-name="T" unicode="T" horiz-adv-x="1146" 
d="M385 0v29q49 17 65.5 66.5t16.5 164.5v1137h-64q-138 0 -216 -47t-134 -168l-24 4l12 248h1067l12 -248l-24 -4q-56 121 -134.5 168t-216.5 47h-59v-1137q0 -115 16.5 -164.5t65.5 -66.5v-29h-383z" />
    <glyph glyph-name="U" unicode="U" horiz-adv-x="1406" 
d="M756 -20q-93 0 -176 17.5t-161.5 59.5t-135 106.5t-91 165t-34.5 228.5v617q0 115 -16.5 164.5t-65.5 66.5v29h381v-29q-49 -17 -65.5 -66.5t-16.5 -164.5v-633q0 -512 463 -512q45 0 89 11.5t89.5 35.5t83.5 66t68.5 98t47.5 136.5t17 176.5v498q0 123 -17.5 196
t-50 106.5t-88.5 51.5v29h275v-29q-49 -17 -65.5 -66.5t-16.5 -164.5v-617q0 -151 -38 -263.5t-107.5 -180t-161.5 -100.5t-207 -33z" />
    <glyph glyph-name="V" unicode="V" horiz-adv-x="1327" 
d="M145 1192q-66 170 -153 213v29h377v-29q-23 -8 -33 -21t-7 -36.5t12.5 -51t27.5 -74.5l12 -30l377 -956l370 956q39 103 31 152t-61 61v29h237v-29q-49 -19 -89.5 -67.5t-78.5 -145.5l-462 -1192h-78z" />
    <glyph glyph-name="W" unicode="W" horiz-adv-x="1910" 
d="M748 1192q-68 170 -156 213v29h371v-29q-23 -8 -32.5 -20t-6.5 -36t12.5 -49.5t28.5 -73.5q9 -22 14 -34l100 -244l90 242q37 103 28.5 153t-62.5 62v29h237v-29q-48 -18 -88 -67.5t-78 -147.5l-108 -291l262 -637l338 928q37 103 28 153t-63 62v29h238v-29
q-49 -18 -88 -67.5t-74 -147.5l-432 -1190h-74l-270 662l-269 -662h-78l-454 1190q-63 173 -150 215v29h371v-29q-19 -6 -28 -16.5t-12 -23t3 -36.5t13.5 -45.5t23.5 -62.5q8 -20 12 -31l359 -932l188 457z" />
    <glyph glyph-name="X" unicode="X" horiz-adv-x="1173" 
d="M827 0v29q40 14 32 46q-5 21 -59 107q-15 23 -26 41l-262 436l-295 -442q-60 -92 -55 -134t74 -54v-29h-265v29q49 16 97 58.5t106 129.5l318 477l-312 516q-97 158 -180 195v29h381v-29q-41 -14 -32 -47q5 -22 60 -109q15 -22 25 -39l221 -366l248 373q60 92 55.5 134
t-73.5 54v29h264v-29q-49 -16 -97 -58.5t-106 -129.5l-270 -408l352 -586q96 -157 180 -194v-29h-381z" />
    <glyph glyph-name="Y" unicode="Y" horiz-adv-x="1153" 
d="M377 0v29q49 17 65.5 66.5t16.5 164.5l-2 397l-303 549q-81 149 -183 199v29h383v-29q-22 -7 -30.5 -17t-2.5 -31.5t15 -39t34 -60.5q18 -32 29 -51l271 -487l276 487q53 97 47.5 142t-69.5 57v29h264v-29q-114 -43 -201 -199l-309 -551v-395q0 -115 16.5 -164.5
t65.5 -66.5v-29h-383z" />
    <glyph glyph-name="Z" unicode="Z" horiz-adv-x="1073" 
d="M33 0v31l725 1366h-271q-159 0 -248 -60t-149 -219h-27l39 316h914v-31l-735 -1366h325q160 0 249 59.5t149 218.5h26l-39 -315h-958z" />
    <glyph glyph-name="bracketleft" unicode="[" horiz-adv-x="757" 
d="M199 -551v2189h516v-24h-371v-2140h371v-25h-516z" />
    <glyph glyph-name="backslash" unicode="\" horiz-adv-x="729" 
d="M815 -559l-917 2191l30 13l918 -2192z" />
    <glyph glyph-name="bracketright" unicode="]" horiz-adv-x="755" 
d="M559 -551h-516v25h371v2140h-371v24h516v-2189z" />
    <glyph glyph-name="asciicircum" unicode="^" horiz-adv-x="811" 
d="M182 956l-28 17l227 461h37l227 -461l-29 -17l-217 441z" />
    <glyph glyph-name="underscore" unicode="_" horiz-adv-x="1024" 
d="M-57 -195v33h1149v-33h-1149z" />
    <glyph glyph-name="a" unicode="a" horiz-adv-x="1085" 
d="M840 0q-82 0 -82 82v338q-46 -190 -156 -315t-262 -125q-119 0 -199 71.5t-80 196.5q0 61 25.5 112t65 86.5t105 67.5t125.5 52.5t148 45.5l228 66q-3 145 -74 212.5t-192 67.5q-187 0 -332 -174l-21 19q90 110 207 172.5t252 62.5q365 0 365 -383v-395q0 -115 16 -164.5
t65 -66.5v-29h-204zM252 319q0 -94 56 -142t134 -48q58 0 109.5 31t88 80.5t64 111.5t40.5 125t14 119v53l-219 -63q-36 -10 -67.5 -22t-74 -35t-72.5 -50.5t-51.5 -69.5t-21.5 -90z" />
    <glyph glyph-name="b" unicode="b" horiz-adv-x="1232" 
d="M594 -18q-107 0 -201 42t-153 109l-84 -133h-23v1346q0 58 -11 91.5t-26 45.5t-45 26v29l271 119l20 -17v-722q185 120 340 120q140 0 248.5 -71t163.5 -182t55 -240q0 -157 -67 -284.5t-194.5 -203t-293.5 -75.5zM342 360q0 -78 50 -156.5t128 -128.5t154 -50
q63 0 111.5 20.5t79 54t49.5 81.5t26.5 98.5t7.5 109.5q0 50 -8 106.5t-25 122t-48.5 124.5t-72.5 107.5t-102.5 77.5t-134.5 29q-103 0 -215 -71v-525z" />
    <glyph glyph-name="c" unicode="c" horiz-adv-x="1081" 
d="M549 -20q-95 0 -182 33t-155 94t-108.5 156t-40.5 210q0 125 46 232.5t123 179.5t176.5 112.5t207.5 40.5q158 0 263.5 -35.5t105.5 -80.5q0 -47 -46.5 -90.5t-92.5 -43.5q-43 0 -116 51.5t-191 164.5q-131 -20 -212 -134.5t-81 -265.5q0 -203 115.5 -331t308.5 -128
q209 0 354 162l18 -20q-39 -59 -84.5 -109t-106.5 -97t-139 -74t-163 -27z" />
    <glyph glyph-name="d" unicode="d" horiz-adv-x="1181" 
d="M500 -25q-126 2 -227.5 73.5t-155.5 184t-54 240.5q0 157 67.5 284t199.5 203t305 76q119 0 219 -51v361q0 58 -11 91.5t-26 45.5t-45 26v29l270 119l21 -17v-1380q0 -115 16.5 -164.5t65.5 -66.5v-29h-209q-82 0 -82 82v86q-171 -198 -354 -193zM264 639q0 -53 6.5 -108
t21.5 -118.5t43 -117.5t66.5 -99.5t96.5 -71.5t129 -26q121 0 227 113v453q0 76 -39.5 152t-111.5 126.5t-154 50.5q-65 0 -116 -21.5t-82 -56t-51 -82t-28 -95t-8 -99.5z" />
    <glyph glyph-name="e" unicode="e" horiz-adv-x="1093" 
d="M549 -20q-69 0 -137.5 19t-131.5 59.5t-111 97.5t-77 139t-29 178q0 101 30.5 192t83 158t121 116t146.5 74t158 25q100 0 182 -32.5t134 -85t80 -117.5t28 -133h-776q-4 -46 -4 -66q0 -203 115.5 -331t308.5 -128q209 0 354 162l18 -20q-39 -59 -84.5 -109t-106.5 -97
t-139 -74t-163 -27zM252 698h567q-21 129 -98.5 215.5t-181.5 87.5q-122 1 -194 -85t-93 -218z" />
    <glyph glyph-name="f" unicode="f" horiz-adv-x="645" 
d="M72 0v29q49 17 65.5 66.5t16.5 164.5v705h-119l10 32h109q7 149 101.5 288t248.5 226.5t321 87.5q146 0 146 -57q0 -39 -45.5 -88t-108.5 -49q-74 0 -146 18t-175 58q-27 -15 -46 -31t-41.5 -48.5t-34.5 -87.5t-12 -130v-187h256l-10 -32h-246v-705q0 -115 16.5 -164.5
t65.5 -66.5v-29h-372z" />
    <glyph glyph-name="g" unicode="g" horiz-adv-x="1093" 
d="M356 -567q-40 0 -81.5 7t-86 25t-78 45t-55.5 71.5t-22 99.5q0 162 252 313q-138 40 -138 158q0 55 39 100t125 96q-190 91 -190 299q0 160 125 275.5t293 115.5q79 0 149 -18q45 67 109 110q104 74 221 74q51 0 85 -13.5t34 -41.5q0 -36 -36 -80.5t-93 -44.5t-228 57
q-31 -25 -61 -71q106 -35 169.5 -115t63.5 -205q0 -82 -41 -157t-103 -124.5t-133.5 -78.5t-135.5 -29q-111 0 -199 35q-30 -20 -44.5 -37t-14.5 -41q0 -17 8 -29.5t29.5 -26t67 -22t112.5 -12.5l274 -16q167 -10 240 -51.5t73 -145.5q0 -83 -62 -175.5t-160.5 -169
t-234.5 -127t-272 -50.5zM582 336q50 0 86.5 19.5t57 54t29.5 75t9 88.5q0 70 -20.5 147.5t-56.5 145t-93 108t-123 34.5q-160 -18 -160 -248q0 -66 16.5 -137.5t48 -137t85.5 -107.5t121 -42zM201 -219q0 -115 84.5 -170t216.5 -55q208 0 346.5 87t138.5 199q0 53 -44.5 80
t-160.5 33l-329 16q-50 2 -134 15q-118 -85 -118 -205z" />
    <glyph glyph-name="h" unicode="h" horiz-adv-x="1189" 
d="M41 0v29q49 17 65.5 66.5t16.5 164.5v1086q0 58 -11 91.5t-26 45.5t-45 26v29l270 119l21 -17v-786q226 184 420 184q148 0 231.5 -82.5t83.5 -255.5v-440q0 -115 16.5 -164.5t65.5 -66.5v-29h-373v29q49 17 65.5 66.5t16.5 164.5v404q0 140 -59 216t-172 76
q-70 0 -139 -33.5t-156 -103.5v-559q0 -115 16.5 -164.5t65.5 -66.5v-29h-373z" />
    <glyph glyph-name="i" unicode="i" horiz-adv-x="491" 
d="M57 0v29q49 17 65.5 66.5t16.5 164.5v471q0 83 -18.5 113.5t-63.5 50.5v29l271 118l20 -16v-766q0 -115 16.5 -164.5t65.5 -66.5v-29h-373zM231 1112q-59 0 -99 40t-40 99q0 60 40 101t99 41q61 0 100.5 -40.5t39.5 -101.5q0 -58 -40.5 -98.5t-99.5 -40.5z" />
    <glyph glyph-name="j" unicode="j" horiz-adv-x="497" 
d="M-199 -569q-57 0 -93 14t-36 43q0 36 39 80.5t90 44.5q25 0 61.5 -4.5t58.5 -8.5t78 -15.5t71 -14.5q17 13 30.5 26.5t23 31.5t16.5 30t11 38t6.5 39.5t3.5 48.5t1 51.5v62.5v32v801q0 83 -18.5 113.5t-63.5 50.5v29l270 118l21 -16v-938q0 -103 -50 -220t-128.5 -213.5
t-184 -160t-207.5 -63.5zM246 1112q-59 0 -99.5 40.5t-40.5 98.5q0 60 40.5 101t99.5 41q61 0 100 -40.5t39 -101.5q0 -59 -40.5 -99t-98.5 -40z" />
    <glyph glyph-name="k" unicode="k" horiz-adv-x="1105" 
d="M61 0v29q49 17 65.5 66.5t16.5 164.5v1086q0 58 -11 91.5t-26 45.5t-45 26v29l271 119l20 -17v-1177l322 319q61 61 89 112t24.5 77.5t-25.5 34.5v18h260v-29q-63 -19 -121.5 -52t-128.5 -103l-131 -131l244 -441q70 -125 122 -182t119 -57v-29h-163q-79 0 -151 57
t-142 189l-170 323l-148 -147v-162q0 -115 16.5 -164.5t65.5 -66.5v-29h-373z" />
    <glyph glyph-name="l" unicode="l" horiz-adv-x="503" 
d="M61 0v29q49 17 65.5 66.5t16.5 164.5v1086q0 58 -11 91.5t-26 45.5t-45 26v29l271 119l20 -17v-1380q0 -115 16.5 -164.5t65.5 -66.5v-29h-373z" />
    <glyph glyph-name="m" unicode="m" horiz-adv-x="1875" 
d="M57 0v29q49 17 65.5 66.5t16.5 164.5v471q0 83 -18.5 113.5t-63.5 50.5v29l271 118l20 -16v-172q226 184 420 184q221 0 276 -186q228 186 424 186q145 0 220 -81.5t75 -256.5v-440q0 -115 16.5 -164.5t65.5 -66.5v-29h-372v29q49 17 65 66.5t16 164.5v404
q0 143 -50 217.5t-161 74.5q-69 0 -137.5 -32.5t-154.5 -100.5q12 -55 12 -123v-440q0 -115 16.5 -164.5t65.5 -66.5v-29h-373v29q49 17 65.5 66.5t16.5 164.5v404q0 143 -50 217.5t-161 74.5q-70 0 -139 -33.5t-156 -103.5v-559q0 -115 16.5 -164.5t65.5 -66.5v-29h-373z
" />
    <glyph glyph-name="n" unicode="n" horiz-adv-x="1206" 
d="M57 0v29q49 17 65.5 66.5t16.5 164.5v471q0 83 -18.5 113.5t-63.5 50.5v29l271 118l20 -16v-172q226 184 420 184q148 0 231.5 -82.5t83.5 -255.5v-440q0 -115 16.5 -164.5t65.5 -66.5v-29h-372v29q49 17 65 66.5t16 164.5v404q0 140 -59 216t-172 76q-70 0 -139 -33.5
t-156 -103.5v-559q0 -115 16.5 -164.5t65.5 -66.5v-29h-373z" />
    <glyph glyph-name="o" unicode="o" horiz-adv-x="1239" 
d="M610 -20q-103 0 -198.5 31t-174.5 90.5t-126.5 159t-47.5 224.5q0 121 46 226t122 175.5t175 111t204 40.5q78 0 154 -18t147.5 -58t125 -98.5t86 -145t32.5 -190.5q0 -126 -51 -232.5t-131.5 -173.5t-175 -104.5t-187.5 -37.5zM682 25q72 0 125.5 29.5t83 80t43.5 110
t14 128.5q0 79 -20 167.5t-60 172.5t-92 150.5t-123 104t-147 29.5q-64 -7 -111.5 -38.5t-74.5 -82t-39.5 -109.5t-12.5 -128q0 -94 27.5 -198.5t77.5 -198.5t131.5 -155.5t177.5 -61.5z" />
    <glyph glyph-name="p" unicode="p" horiz-adv-x="1245" 
d="M614 -18q-134 0 -252 67v-342q0 -115 16.5 -164.5t65.5 -66.5v-29h-372v29q49 17 65.5 66.5t16.5 164.5v1024q0 83 -18.5 113.5t-63.5 50.5v29l270 118l20 -16v-133q208 145 383 145q188 0 302 -139.5t114 -353.5q0 -117 -38.5 -220t-108.5 -179t-173.5 -120t-226.5 -44z
M362 342q0 -51 31 -109.5t78.5 -105t108.5 -77t116 -30.5q273 0 273 369q0 51 -6.5 106t-20.5 121.5t-42 124.5t-67 107t-98.5 77.5t-132.5 28.5q-114 0 -240 -96v-516z" />
    <glyph glyph-name="q" unicode="q" horiz-adv-x="1167" 
d="M500 -25q-126 2 -227.5 73.5t-155.5 184t-54 240.5q0 157 67.5 284t199.5 203t305 76q187 0 321 -123l95 111h14v-1317q0 -115 16.5 -164.5t65.5 -66.5v-29h-373v29q49 17 65.5 66.5t16.5 164.5v463q-174 -200 -356 -195zM264 639q0 -53 6.5 -108t21.5 -118.5t43 -117.5
t66.5 -99.5t96.5 -71.5t129 -26q123 0 229 115l-2 451q0 57 -24 115.5t-65 106t-99.5 77.5t-122.5 30t-113.5 -21.5t-80 -56t-50.5 -82t-27.5 -95t-7.5 -99.5z" />
    <glyph glyph-name="r" unicode="r" horiz-adv-x="923" 
d="M57 0v29q49 17 65.5 66.5t16.5 164.5v471q0 83 -18.5 113.5t-63.5 50.5v29l271 118l20 -16v-248q47 110 150 180q115 80 252 80q57 0 94 -15.5t37 -45.5q0 -42 -38.5 -87.5t-101.5 -45.5q-71 0 -266 61q-46 -39 -84.5 -103t-42.5 -134v-408q0 -115 16.5 -164.5
t65.5 -66.5v-29h-373z" />
    <glyph glyph-name="s" unicode="s" horiz-adv-x="917" 
d="M453 -16q-107 0 -207 27.5t-162 68.5l-21 268l21 4q68 -153 177 -244t241 -92q92 -1 150.5 51.5t58.5 125.5q0 92 -67 141.5t-216 95.5q-92 28 -147 51t-105.5 58.5t-73 84t-22.5 115.5q0 127 101 213t298 86q86 0 172 -14.5t140 -36.5l10 -225l-25 -4
q-55 113 -146 182.5t-200 69.5q-95 0 -154 -44.5t-59 -111.5q0 -80 66.5 -127t220.5 -98q142 -48 191 -74q133 -70 150 -197q3 -21 3 -43q0 -49 -12 -94.5t-41.5 -89t-73.5 -76t-113 -52t-155 -19.5z" />
    <glyph glyph-name="t" unicode="t" horiz-adv-x="729" 
d="M385 -20q-107 0 -160 73.5t-53 235.5v702h-131v33l307 270h33v-270h317l-8 -33h-309v-704q0 -183 137 -183q99 0 182 103l21 -21q-88 -101 -168.5 -153.5t-167.5 -52.5z" />
    <glyph glyph-name="u" unicode="u" horiz-adv-x="1169" 
d="M430 -20q-160 0 -233.5 95.5t-73.5 286.5v369q0 83 -18.5 113.5t-63.5 50.5v29l270 118l21 -16v-637q0 -175 39.5 -251.5t152.5 -76.5q137 0 293 156v514q0 83 -18.5 113.5t-63.5 50.5v29l271 118l20 -16v-766q0 -115 16.5 -164.5t65.5 -66.5v-29h-209q-82 0 -82 82v92
q-92 -89 -193 -141.5t-194 -52.5z" />
    <glyph glyph-name="v" unicode="v" horiz-adv-x="978" 
d="M121 784q-76 180 -146 211v29h351v-29q-24 -8 -33 -21.5t-6 -35t15.5 -53.5t31.5 -75q8 -17 12 -26l244 -575l221 571q25 69 29.5 114t-11 69t-51.5 32v29h219v-29q-45 -15 -79.5 -63t-73.5 -152l-299 -780h-96z" />
    <glyph glyph-name="w" unicode="w" horiz-adv-x="1449" 
d="M92 774q-31 106 -57 156t-60 65v29h351v-29q-46 -16 -47 -63q0 -35 34 -158l156 -549l274 799h125l271 -791l161 541q29 106 16 157.5t-67 63.5v29h219v-29q-43 -15 -72.5 -64t-60.5 -157l-233 -774h-105l-284 838l-291 -838h-105z" />
    <glyph glyph-name="x" unicode="x" horiz-adv-x="944" 
d="M612 0v29q40 14 31 44q-7 20 -62 101q-17 24 -30 43l-158 240l-180 -248q-64 -86 -73 -109q-15 -39 29 -56q22 -8 62 -15v-29h-270v29q107 36 213 180l201 274l-213 324q-99 148 -189 188v29h359v-29q-40 -14 -31 -44q7 -20 62 -101q17 -24 30 -43l125 -191l137 195
q61 88 69 111q15 40 -29 58q-22 8 -62 15v29h268v-29q-106 -36 -209 -184l-155 -223l243 -371q99 -148 189 -188v-29h-357z" />
    <glyph glyph-name="y" unicode="y" horiz-adv-x="1034" 
d="M74 -395q-64 -2 -107 16.5t-43 48.5q0 37 43.5 83t108.5 46q60 0 278 -37q72 78 144 228l-344 794q-69 167 -160 211v29h362v-29q-23 -8 -32 -20t-5.5 -33.5t13.5 -46.5t29 -69q12 -26 18 -40l233 -532l230 530q42 103 36 151t-59 60v29h234v-29q-50 -19 -94 -66.5
t-85 -142.5l-313 -725q-58 -132 -115 -221.5t-117.5 -140t-120.5 -71.5t-134 -23z" />
    <glyph glyph-name="z" unicode="z" horiz-adv-x="868" 
d="M45 0v23l514 968h-188q-102 0 -168 -52t-117 -185l-25 4l39 266h697v-23l-510 -968h223q114 0 190 68t95 221h22l-8 -322h-764z" />
    <glyph glyph-name="braceleft" unicode="{" horiz-adv-x="911" 
d="M723 -608q-116 0 -212 40.5t-157 124t-61 197.5q0 62 19 140t42.5 139.5t42.5 132.5t19 121q0 95 -43.5 154t-122.5 59v26q79 0 122.5 59t43.5 154q0 52 -19 123t-42.5 131.5t-42.5 138t-19 140.5q0 85 44.5 155.5t113.5 113.5t145.5 66t146.5 23v-22q-147 -5 -232 -82.5
t-85 -210.5q0 -65 19 -142t42.5 -136.5t42.5 -134.5t19 -136q0 -80 -68.5 -151.5t-163.5 -100.5q99 -31 165.5 -102.5t66.5 -151.5q0 -61 -19 -136.5t-41.5 -135.5t-41.5 -137t-19 -140q0 -147 70.5 -218t226.5 -77z" />
    <glyph glyph-name="bar" unicode="|" horiz-adv-x="546" 
d="M264 -553v2191h37v-2191h-37z" />
    <glyph glyph-name="braceright" unicode="}" horiz-adv-x="911" 
d="M195 -584q156 6 226.5 77t70.5 218q0 63 -19 140t-41.5 137t-41.5 135.5t-19 136.5q0 80 66 151.5t165 102.5q-94 29 -162.5 100t-68.5 152q0 61 19 136t42.5 134.5t42.5 136.5t19 142q0 133 -85.5 210.5t-232.5 82.5v22q70 0 146.5 -23t146 -66t114 -113.5t44.5 -155.5
q0 -63 -19 -140.5t-42.5 -138t-42.5 -131.5t-19 -123q0 -95 43.5 -154t122.5 -59v-26q-79 0 -122.5 -59t-43.5 -154q0 -50 19 -121t42.5 -132.5t42.5 -139.5t19 -140q0 -114 -61 -197.5t-157 -124t-212 -40.5z" />
    <glyph glyph-name="asciitilde" unicode="~" horiz-adv-x="954" 
d="M688 633q-51 0 -230 38t-243 38q-74 0 -109 -45l-14 8q10 15 28.5 44.5t28.5 44.5t26.5 36t29.5 31t31.5 18t37.5 8q50 0 225.5 -38t252.5 -38q68 0 98 56l16 -7q-45 -93 -85.5 -143.5t-92.5 -50.5z" />
    <glyph glyph-name="exclamdown" unicode="&#xa1;" horiz-adv-x="370" 
d="M129 719l129 -963l-235 -139l-13 8l90 1094h29zM117 1059q49 0 85 -37t36 -88t-35.5 -87t-85.5 -36q-49 0 -84 36t-35 87t35 88t84 37z" />
    <glyph glyph-name="cent" unicode="&#xa2;" horiz-adv-x="1083" 
d="M559 -266v450q-70 2 -139.5 22.5t-134 62t-114 99t-79 141t-29.5 181.5q0 110 40.5 207t108.5 166.5t158 115t189 58.5v401h37v-397q14 2 43 2q172 0 275.5 -49.5t103.5 -116.5q0 -43 -31 -84t-69 -41q-25 0 -50 24.5t-49 60t-52.5 72t-73 64.5t-97.5 33v-864
q62 -8 98 -8q216 0 330 141l23 -16q-33 -45 -62 -78t-72 -71.5t-87 -63t-104 -42.5t-126 -20v-450h-37zM264 809q0 -178 78.5 -298t216.5 -159v856q-98 -3 -166.5 -63t-98.5 -147t-30 -189z" />
    <glyph glyph-name="sterling" unicode="&#xa3;" horiz-adv-x="1312" 
d="M899 -55q-68 0 -144.5 30t-133.5 67.5t-124.5 79.5t-109.5 58q-17 -31 -59 -96q-63 -90 -146 -90q-58 0 -97.5 29.5t-39.5 89.5q0 55 42 94t124 39q35 0 137 -17q11 89 39 426h-293l17 33h278l8 96q27 301 166 482.5t361 181.5q65 0 125.5 -12.5t106.5 -44.5t46 -78
q0 -48 -25 -81.5t-57 -33.5q-33 0 -61 21t-49 50.5t-43.5 59.5t-56 51t-74.5 21q-95 0 -141 -111q-33 -79 -65 -301q-21 -149 -24 -170q-9 -65 -24 -131h385l-17 -33h-377q-56 -224 -163 -436q12 -2 56 -9t58 -9.5t53.5 -8.5t56 -8.5t51.5 -7.5t54.5 -7t49.5 -5t51.5 -4.5
t46.5 -2.5t47 -1q219 0 311 133l17 -8q-36 -68 -70.5 -120t-81 -105t-100.5 -82t-111 -29z" />
    <glyph glyph-name="yen" unicode="&#xa5;" horiz-adv-x="1069" 
d="M127 635l16 33h308l-297 538q-81 149 -183 199v29h383v-29q-22 -7 -30.5 -17t-2.5 -31.5t15 -39t34 -60.5q18 -32 29 -51l271 -487l276 487q53 97 47.5 142t-69.5 57v29h264v-29q-114 -43 -201 -199l-303 -538h295l-16 -33h-285v-248h301l-16 -33h-285v-94
q0 -115 16.5 -164.5t65.5 -66.5v-29h-383v29q49 17 65.5 66.5t16.5 164.5v94h-332l16 33h316l-2 248h-330z" />
    <glyph glyph-name="brokenbar" unicode="&#xa6;" horiz-adv-x="546" 
d="M264 676v962h37v-962h-37zM264 -553v963h37v-963h-37z" />
    <glyph glyph-name="section" unicode="&#xa7;" horiz-adv-x="1153" 
d="M469 -383q-55 0 -119 20t-114 59t-50 85q0 50 26.5 86.5t63.5 36.5q26 0 49.5 -17.5t40 -44t38 -57.5t42.5 -57.5t53.5 -44t71.5 -17.5q54 0 86.5 32.5t32.5 86.5q0 125 -246 393q-50 55 -66 72.5t-67.5 77.5t-74.5 92t-62 90.5t-57.5 101t-33.5 95t-15 98.5
q0 107 59 198.5t178 157.5q11 126 108 205.5t246 79.5q55 0 118.5 -18t113 -55t49.5 -83q0 -50 -26.5 -86.5t-63.5 -36.5q-31 0 -57.5 23.5t-47.5 57.5t-45 68t-60.5 57.5t-82.5 23.5q-54 0 -86.5 -34.5t-32.5 -88.5q0 -38 19 -86t44 -88.5t70 -97.5t74 -91t80 -90
q43 -46 58.5 -63.5t62 -71t69.5 -84.5t59.5 -84.5t55 -92.5t33 -86t14.5 -87q0 -225 -256 -375q-19 -116 -114 -188t-238 -72zM199 961q0 -47 24 -107t54.5 -111t81.5 -117t81.5 -101.5t77.5 -88.5q52 -58 76 -86t77 -95.5t80 -113.5t50.5 -105t23.5 -106v-16
q60 43 81.5 86.5t21.5 101.5q0 152 -287 484q-8 9 -42 48.5t-46 53t-44 52t-46 57.5t-41 55t-39.5 58t-31 55t-26.5 57.5t-15 52.5t-7 53q-104 -62 -104 -167z" />
    <glyph glyph-name="copyright" unicode="&#xa9;" horiz-adv-x="1671" 
d="M793 -27q-156 0 -290 51.5t-228 142.5t-147.5 220t-53.5 279q0 128 45.5 248.5t125 214t181 164t218.5 108t233 37.5q201 0 364 -84t258.5 -242.5t95.5 -363.5q0 -138 -47 -262.5t-126.5 -216.5t-182 -159.5t-217.5 -102t-229 -34.5zM842 18q141 0 265 53.5t212.5 146
t140 223t51.5 278.5q0 145 -53 271.5t-144 215t-215.5 139t-264.5 50.5t-265 -53.5t-215.5 -145.5t-143 -222t-52.5 -276q0 -142 53 -268.5t144 -216.5t218 -142.5t269 -52.5zM842 276q-187 0 -302.5 111.5t-115.5 296.5q0 202 140 325.5t358 123.5q65 0 130 -17t97 -37
l18 -170l-14 -2q-49 92 -123.5 139.5t-165.5 47.5q-127 0 -199 -96.5t-75 -245.5q-2 -110 43.5 -191t120 -120.5t166.5 -39.5q197 0 299 164l16 -8q-58 -131 -157.5 -206t-235.5 -75z" />
    <glyph glyph-name="ordfeminine" unicode="&#xaa;" horiz-adv-x="937" 
d="M666 711q-51 0 -76 28t-25 90v37q-126 -157 -266 -157q-82 0 -139.5 51t-57.5 131q0 97 77.5 158.5t240.5 107.5l145 41q-5 184 -174 184q-107 0 -223 -96l-14 19q161 141 309 141q125 0 191.5 -68t66.5 -198v-314q0 -38 7 -58t30 -20q25 0 63 33l15 -18
q-103 -92 -170 -92zM106 502v33h691v-33h-691zM254 950q0 -65 37 -104t102 -39q99 0 172 94v273l-141 -44q-170 -52 -170 -180z" />
    <glyph glyph-name="guillemotleft" unicode="&#xab;" horiz-adv-x="1126" 
d="M655 49l-542 463l542 463l21 -25l-514 -438l514 -438zM1004 49l-543 463l543 463l20 -25l-514 -438l514 -438z" />
    <glyph glyph-name="registered" unicode="&#xae;" horiz-adv-x="1646" 
d="M793 -27q-156 0 -290 51.5t-228 142.5t-147.5 220t-53.5 279q0 128 45.5 248.5t125 214t181 164t218.5 108t233 37.5q201 0 364 -84t258.5 -242.5t95.5 -363.5q0 -138 -47 -262.5t-126.5 -216.5t-182 -159.5t-217.5 -102t-229 -34.5zM483 303v16q28 10 37.5 39.5
t9.5 96.5v536q0 67 -9.5 96t-37.5 39v17h228q198 0 304.5 -61t106.5 -179q0 -100 -81.5 -179t-233.5 -101q166 -20 233 -144l29 -53q53 -96 115 -113v-10h-113q-63 0 -98.5 26.5t-67.5 84.5l-28 51q-10 18 -24 45.5t-20.5 39t-18.5 27.5t-24 22t-31.5 11.5t-45.5 5.5h-4h-21
v-161q0 -67 9.5 -96.5t37.5 -39.5v-16h-252zM842 18q141 0 265 53.5t212.5 146t140 223t51.5 278.5q0 145 -53 271.5t-144 215t-215.5 139t-264.5 50.5t-265 -53.5t-215.5 -145.5t-143 -222t-52.5 -276q0 -142 53 -268.5t144 -216.5t218 -142.5t269 -52.5zM688 637h27
q79 0 133.5 20.5t82 59t38 80.5t10.5 96q0 112 -61 170.5t-207 58.5h-23v-485z" />
    <glyph glyph-name="degree" unicode="&#xb0;" horiz-adv-x="743" 
d="M375 874q-119 0 -203 84t-84 203t84 203t203 84q117 0 202 -84.5t85 -202.5q0 -119 -84 -203t-203 -84zM375 907q106 0 178 73t72 181t-72 181t-178 73t-178 -73t-72 -181t72 -181t178 -73z" />
    <glyph glyph-name="plusminus" unicode="&#xb1;" horiz-adv-x="1142" 
d="M207 928l14 33h336v280l33 14v-294h344l-14 -33h-330v-262l-33 -15v277h-350zM207 395l14 33h713l-14 -33h-713z" />
    <glyph glyph-name="uni00B2" unicode="&#xb2;" horiz-adv-x="733" 
d="M2 518q83 80 147.5 151t136.5 165.5t112 190t40 181.5q0 183 -143 183q-50 0 -93.5 -15.5t-97.5 -60.5l-14 20q75 62 137 90.5t142 28.5q96 0 170 -61.5t75 -165.5q0 -47 -17 -97t-42.5 -94t-67 -94t-78.5 -88t-90 -84.5t-87.5 -75t-83.5 -68.5l-15 -12l313 -2
q98 0 128.5 17.5t50.5 83.5l20 -4l-22 -211h-621v22z" />
    <glyph glyph-name="uni00B3" unicode="&#xb3;" horiz-adv-x="684" 
d="M39 324q188 95 294.5 243.5t106.5 272.5q0 186 -141 186q-44 0 -92 -31l-10 25q70 33 111 72t54 76t13 85q0 60 -30.5 98.5t-86.5 39.5q-90 4 -180 -72l-17 20q136 113 273 113q93 0 147 -49t54 -119q0 -79 -48.5 -127t-148.5 -96q12 2 39 2q39 0 77 -10.5t75 -32
t60 -62.5t23 -96q0 -66 -30 -131t-79 -119.5t-124 -111.5t-151.5 -103.5t-174.5 -97.5z" />
    <glyph glyph-name="paragraph" unicode="&#xb6;" horiz-adv-x="1318" 
d="M680 -328v1051h-100q-186 0 -295 89t-109 241q0 158 101.5 240.5t293.5 82.5h572v-28q-49 -17 -65.5 -67t-16.5 -165v-1444h-33v1512q0 103 -13.5 133.5t-62.5 30.5h-239v-1676h-33z" />
    <glyph glyph-name="periodcentered" unicode="&#xb7;" horiz-adv-x="444" 
d="M223 426q-49 0 -85 37t-36 88t35.5 87t85.5 36q49 0 84 -36t35 -87t-35 -88t-84 -37z" />
    <glyph glyph-name="uni00B9" unicode="&#xb9;" horiz-adv-x="491" 
d="M88 496v18q37 10 50.5 44t13.5 108v645l-101 -49l-10 22l248 166h26v-784q0 -74 13.5 -108t50.5 -44v-18h-291z" />
    <glyph glyph-name="ordmasculine" unicode="&#xba;" horiz-adv-x="962" 
d="M481 711q-71 0 -137 21.5t-121 63t-88 111t-33 156.5q0 166 113.5 274.5t265.5 108.5q54 0 107 -12.5t102.5 -40.5t87 -68t60 -100.5t22.5 -132.5q0 -88 -35.5 -162t-91.5 -120.5t-122 -72.5t-130 -26zM156 502v33h690v-33h-690zM530 750q46 0 79.5 19.5t51 54t25.5 74
t8 87.5q0 69 -19.5 144.5t-54.5 141.5t-90.5 106t-119.5 34q-148 -15 -148 -244q0 -65 16.5 -135.5t48 -134.5t85 -105.5t118.5 -41.5z" />
    <glyph glyph-name="guillemotright" unicode="&#xbb;" horiz-adv-x="1126" 
d="M483 49l-20 25l514 438l-514 438l20 25l543 -463zM135 49l-20 25l514 438l-514 438l20 25l543 -463z" />
    <glyph glyph-name="questiondown" unicode="&#xbf;" horiz-adv-x="802" 
d="M489 713l13 -6l2 -410q-148 -74 -214.5 -178.5t-66.5 -212.5q0 -107 59 -168.5t156 -61.5q90 0 168 54t127 153l29 -14q-62 -126 -172 -209.5t-258 -83.5q-133 0 -222.5 73.5t-89.5 205.5q0 241 310 389l-13 397zM414 1038q49 0 85 -37t36 -88t-35.5 -86.5t-85.5 -35.5
t-84.5 35.5t-34.5 86.5t35 88t84 37z" />
    <glyph glyph-name="Agrave" unicode="&#xc0;" horiz-adv-x="1316" 
d="M-43 0v29q102 38 172 213l383 950q22 57 -4 111l-27 57l201 90l508 -1210q71 -168 158 -211v-29h-373v29q23 8 33 19.5t5 37.5t-13 47.5t-30 73.5q-9 21 -14 33l-122 295h-547l-119 -293q-40 -103 -33 -152t60 -61v-29h-238zM453 1640q-48 14 -63 30.5t-15 39.5
q0 22 45.5 48t83.5 26q23 0 42 -10.5t60 -47.5l207 -178l-8 -14zM299 567h520l-264 633z" />
    <glyph glyph-name="Aacute" unicode="&#xc1;" horiz-adv-x="1316" 
d="M-43 0v29q102 38 172 213l383 950q22 57 -4 111l-27 57l201 90l508 -1210q71 -168 158 -211v-29h-373v29q23 8 33 19.5t5 37.5t-13 47.5t-30 73.5q-9 21 -14 33l-122 295h-547l-119 -293q-40 -103 -33 -152t60 -61v-29h-238zM735 1640l-352 -106l-8 14l207 178
q41 37 60 47.5t42 10.5q38 0 83.5 -26t45.5 -48q0 -23 -15 -39.5t-63 -30.5zM299 567h520l-264 633z" />
    <glyph glyph-name="Acircumflex" unicode="&#xc2;" horiz-adv-x="1316" 
d="M-43 0v29q102 38 172 213l383 950q22 57 -4 111l-27 57l201 90l508 -1210q71 -168 158 -211v-29h-373v29q23 8 33 19.5t5 37.5t-13 47.5t-30 73.5q-9 21 -14 33l-122 295h-547l-119 -293q-40 -103 -33 -152t60 -61v-29h-238zM416 1534l-17 14l224 244h12l237 -240
l-18 -18l-225 94zM299 567h520l-264 633z" />
    <glyph glyph-name="Atilde" unicode="&#xc3;" horiz-adv-x="1316" 
d="M-43 0v29q102 38 172 213l383 950q22 57 -4 111l-27 57l201 90l508 -1210q71 -168 158 -211v-29h-373v29q23 8 33 19.5t5 37.5t-13 47.5t-30 73.5q-9 21 -14 33l-122 295h-547l-119 -293q-40 -103 -33 -152t60 -61v-29h-238zM324 1546q85 223 206 223q42 0 156.5 -40.5
t153.5 -40.5t62.5 23.5t47.5 88.5l21 -6q-38 -121 -92.5 -183.5t-118.5 -62.5q-54 0 -108 21t-105 42t-98 21q-38 0 -62 -22t-43 -72zM299 567h520l-264 633z" />
    <glyph glyph-name="Adieresis" unicode="&#xc4;" horiz-adv-x="1316" 
d="M-43 0v29q102 38 172 213l383 950q22 57 -4 111l-27 57l201 90l508 -1210q71 -168 158 -211v-29h-373v29q23 8 33 19.5t5 37.5t-13 47.5t-30 73.5q-9 21 -14 33l-122 295h-547l-119 -293q-40 -103 -33 -152t60 -61v-29h-238zM811 1559q-48 0 -80.5 31.5t-32.5 80.5
q0 44 33 75.5t80 31.5q44 0 76.5 -32.5t32.5 -78.5t-31.5 -77t-77.5 -31zM459 1559q-46 0 -77.5 31.5t-31.5 80.5q0 44 31.5 75.5t77.5 31.5q49 0 80.5 -31.5t31.5 -79.5q0 -46 -32.5 -77t-79.5 -31zM299 567h520l-264 633z" />
    <glyph glyph-name="Aring" unicode="&#xc5;" horiz-adv-x="1316" 
d="M-43 0v29q102 38 172 213l383 950q22 57 -4 111l-27 57l201 90l508 -1210q71 -168 158 -211v-29h-373v29q23 8 33 19.5t5 37.5t-13 47.5t-30 73.5q-9 21 -14 33l-122 295h-547l-119 -293q-40 -103 -33 -152t60 -61v-29h-238zM633 1532q-61 0 -100 39.5t-39 97.5
q0 61 39 102t100 41q67 0 105 -39t38 -100q0 -59 -40.5 -100t-102.5 -41zM633 1552q51 0 85 34.5t34 86.5q0 53 -33 86t-86 33q-50 0 -82.5 -34t-32.5 -89q0 -51 32.5 -84t82.5 -33zM299 567h520l-264 633z" />
    <glyph glyph-name="AE" unicode="&#xc6;" horiz-adv-x="1667" 
d="M-43 0v29q49 19 91.5 67t82.5 144l494 1194h774l24 -230l-26 -6q-48 107 -140 153t-262 46h-229l174 -606h53q123 0 196 17.5t107.5 49.5t51.5 88h28v-348h-28q-18 56 -52 88.5t-107 50t-196 17.5h-43l183 -631q24 -86 110 -86q122 0 194 48t132 177h26l-14 -262h-727v29
q17 6 27 14t14.5 22t5 28t-4.5 40t-11 48.5t-17 61.5q-1 5 -2 7l-65 239h-529l-102 -249q-42 -101 -35 -150t60 -61v-29h-238zM287 522h504l-203 731z" />
    <glyph glyph-name="Ccedilla" unicode="&#xc7;" horiz-adv-x="1538" 
d="M784 -481q-68 0 -110.5 26t-42.5 56q0 22 28.5 41.5t57.5 19.5q27 0 55 -20.5t60.5 -41t70.5 -20.5q48 0 78.5 31.5t30.5 73.5q0 46 -47.5 80t-139.5 34q-13 0 -21.5 -1t-14 -2t-18.5 -4.5t-26 -6.5l-10 12l139 183q-359 8 -561 192.5t-202 519.5q0 155 59.5 293
t166 240.5t263 162.5t340.5 60q130 0 262.5 -25t206.5 -75l8 -271l-24 -6q-62 155 -203 246.5t-303 91.5q-124 0 -226 -41t-176.5 -118.5t-115.5 -196.5t-41 -269q0 -119 27 -231t81 -208t129 -168t177 -113t219 -41q167 0 285 93.5t175 258.5l27 -4l-33 -293
q-218 -98 -508 -98l-63 -86q120 23 181.5 -16.5t61.5 -110.5q0 -92 -92.5 -170t-210.5 -78z" />
    <glyph glyph-name="Egrave" unicode="&#xc8;" horiz-adv-x="1218" 
d="M1133 0h-1037v29q49 17 65.5 66.5t16.5 164.5v914q0 115 -16.5 164.5t-65.5 66.5v29h983l23 -289l-27 -6q-60 147 -161.5 204.5t-278.5 57.5h-240v-615h197q123 0 196 17.5t106.5 50t51.5 88.5h29v-344h-29q-18 56 -51.5 88.5t-106.5 50t-196 17.5h-197v-619
q0 -49 26.5 -75.5t76.5 -26.5h196q164 0 267 60t159 210l27 -4zM420 1640q-48 14 -63 30.5t-15 39.5q0 22 45.5 48t83.5 26q23 0 42 -10.5t60 -47.5l207 -178l-8 -14z" />
    <glyph glyph-name="Eacute" unicode="&#xc9;" horiz-adv-x="1218" 
d="M1133 0h-1037v29q49 17 65.5 66.5t16.5 164.5v914q0 115 -16.5 164.5t-65.5 66.5v29h983l23 -289l-27 -6q-60 147 -161.5 204.5t-278.5 57.5h-240v-615h197q123 0 196 17.5t106.5 50t51.5 88.5h29v-344h-29q-18 56 -51.5 88.5t-106.5 50t-196 17.5h-197v-619
q0 -49 26.5 -75.5t76.5 -26.5h196q164 0 267 60t159 210l27 -4zM702 1640l-352 -106l-8 14l207 178q41 37 60 47.5t42 10.5q38 0 83.5 -26t45.5 -48q0 -23 -15 -39.5t-63 -30.5z" />
    <glyph glyph-name="Ecircumflex" unicode="&#xca;" horiz-adv-x="1218" 
d="M1133 0h-1037v29q49 17 65.5 66.5t16.5 164.5v914q0 115 -16.5 164.5t-65.5 66.5v29h983l23 -289l-27 -6q-60 147 -161.5 204.5t-278.5 57.5h-240v-615h197q123 0 196 17.5t106.5 50t51.5 88.5h29v-344h-29q-18 56 -51.5 88.5t-106.5 50t-196 17.5h-197v-619
q0 -49 26.5 -75.5t76.5 -26.5h196q164 0 267 60t159 210l27 -4zM383 1534l-16 14l223 244h12l238 -240l-19 -18l-225 94z" />
    <glyph glyph-name="Edieresis" unicode="&#xcb;" horiz-adv-x="1218" 
d="M1133 0h-1037v29q49 17 65.5 66.5t16.5 164.5v914q0 115 -16.5 164.5t-65.5 66.5v29h983l23 -289l-27 -6q-60 147 -161.5 204.5t-278.5 57.5h-240v-615h197q123 0 196 17.5t106.5 50t51.5 88.5h29v-344h-29q-18 56 -51.5 88.5t-106.5 50t-196 17.5h-197v-619
q0 -49 26.5 -75.5t76.5 -26.5h196q164 0 267 60t159 210l27 -4zM778 1559q-48 0 -80 31.5t-32 80.5q0 44 32.5 75.5t79.5 31.5q44 0 76.5 -32.5t32.5 -78.5t-31.5 -77t-77.5 -31zM426 1559q-46 0 -77.5 31.5t-31.5 80.5q0 44 31.5 75.5t77.5 31.5q49 0 81 -31.5t32 -79.5
q0 -46 -33 -77t-80 -31z" />
    <glyph glyph-name="Igrave" unicode="&#xcc;" horiz-adv-x="573" 
d="M96 0v29q49 17 65.5 66.5t16.5 164.5v914q0 115 -16.5 164.5t-65.5 66.5v29h381v-29q-49 -17 -65.5 -66.5t-16.5 -164.5v-914q0 -115 16.5 -164.5t65.5 -66.5v-29h-381zM104 1640q-47 14 -62 30.5t-15 39.5q0 22 45.5 48t83.5 26q23 0 42 -10.5t60 -47.5l207 -178l-8 -14
z" />
    <glyph glyph-name="Iacute" unicode="&#xcd;" horiz-adv-x="573" 
d="M96 0v29q49 17 65.5 66.5t16.5 164.5v914q0 115 -16.5 164.5t-65.5 66.5v29h381v-29q-49 -17 -65.5 -66.5t-16.5 -164.5v-914q0 -115 16.5 -164.5t65.5 -66.5v-29h-381zM387 1640l-352 -106l-8 14l206 178q41 36 60.5 47t42.5 11q38 0 83.5 -26t45.5 -48q0 -23 -15 -39.5
t-63 -30.5z" />
    <glyph glyph-name="Icircumflex" unicode="&#xce;" horiz-adv-x="573" 
d="M96 0v29q49 17 65.5 66.5t16.5 164.5v914q0 115 -16.5 164.5t-65.5 66.5v29h381v-29q-49 -17 -65.5 -66.5t-16.5 -164.5v-914q0 -115 16.5 -164.5t65.5 -66.5v-29h-381zM68 1534l-17 14l223 244h13l237 -240l-18 -18l-225 94z" />
    <glyph glyph-name="Idieresis" unicode="&#xcf;" horiz-adv-x="573" 
d="M96 0v29q49 17 65.5 66.5t16.5 164.5v914q0 115 -16.5 164.5t-65.5 66.5v29h381v-29q-49 -17 -65.5 -66.5t-16.5 -164.5v-914q0 -115 16.5 -164.5t65.5 -66.5v-29h-381zM463 1559q-48 0 -80.5 31.5t-32.5 80.5q0 44 33 75.5t80 31.5q44 0 76 -32.5t32 -78.5t-31 -77
t-77 -31zM111 1559q-46 0 -77.5 31.5t-31.5 80.5q0 44 31.5 75.5t77.5 31.5q49 0 80.5 -31.5t31.5 -79.5q0 -46 -32.5 -77t-79.5 -31z" />
    <glyph glyph-name="Eth" unicode="&#xd0;" horiz-adv-x="1497" 
d="M653 0h-557v29q49 17 65.5 66.5t16.5 164.5v914q0 115 -16.5 164.5t-65.5 66.5v29h512q170 0 307 -43t224 -112.5t146 -161.5t83 -184.5t25 -187.5q1 -220 -89.5 -389t-259 -262.5t-391.5 -93.5zM639 33q255 0 383.5 146t128.5 466q0 160 -42 295.5t-123 239.5
t-211.5 162.5t-297.5 58.5h-82v-1219q0 -79 26.5 -114t106.5 -35h111zM86 795h498h-498z" />
    <glyph glyph-name="Ntilde" unicode="&#xd1;" horiz-adv-x="1355" 
d="M1176 -16l-961 1212v-813q0 -123 17.5 -196t50 -106.5t88.5 -51.5v-29h-275v29q49 17 65.5 66.5t16.5 164.5v914q0 115 -21 164.5t-85 66.5v29h231l860 -1078v695q0 123 -17.5 196t-49.5 106.5t-88 51.5v29h276v-29q-49 -17 -65.5 -66.5t-16.5 -164.5v-1190h-26z
M379 1546q85 223 207 223q42 0 156 -40.5t153 -40.5t63 23.5t48 88.5l20 -6q-38 -121 -92.5 -183.5t-118.5 -62.5q-54 0 -108 21t-105 42t-98 21q-38 0 -62 -22t-43 -72z" />
    <glyph glyph-name="Ograve" unicode="&#xd2;" horiz-adv-x="1679" 
d="M844 -20q-107 0 -210 27.5t-198 87t-167 144.5t-115 210t-43 274q0 151 54 284.5t149 231.5t232.5 154.5t297.5 56.5q106 0 209 -28t197.5 -88t166.5 -145.5t115 -208.5t43 -269q0 -145 -43 -267.5t-115 -206.5t-167 -143t-198 -86.5t-208 -27.5zM961 43q91 0 164 27
t120 73.5t77 111t41 138t5 156.5q-16 221 -97 412.5t-222 313.5t-312 122q-208 0 -319 -149.5t-94 -399.5q9 -122 43.5 -240.5t93 -220t133.5 -179t170 -121.5t197 -44zM639 1640q-48 14 -63 30.5t-15 39.5q0 22 45.5 48t83.5 26q23 0 42.5 -11t60.5 -47l206 -178l-8 -14z
" />
    <glyph glyph-name="Oacute" unicode="&#xd3;" horiz-adv-x="1679" 
d="M844 -20q-107 0 -210 27.5t-198 87t-167 144.5t-115 210t-43 274q0 151 54 284.5t149 231.5t232.5 154.5t297.5 56.5q106 0 209 -28t197.5 -88t166.5 -145.5t115 -208.5t43 -269q0 -145 -43 -267.5t-115 -206.5t-167 -143t-198 -86.5t-208 -27.5zM961 43q91 0 164 27
t120 73.5t77 111t41 138t5 156.5q-16 221 -97 412.5t-222 313.5t-312 122q-208 0 -319 -149.5t-94 -399.5q9 -122 43.5 -240.5t93 -220t133.5 -179t170 -121.5t197 -44zM922 1640l-353 -106l-8 14l207 178q41 37 60 47.5t42 10.5q38 0 83.5 -26t45.5 -48q0 -15 -4 -25.5
t-22 -23t-51 -21.5z" />
    <glyph glyph-name="Ocircumflex" unicode="&#xd4;" horiz-adv-x="1679" 
d="M844 -20q-107 0 -210 27.5t-198 87t-167 144.5t-115 210t-43 274q0 151 54 284.5t149 231.5t232.5 154.5t297.5 56.5q106 0 209 -28t197.5 -88t166.5 -145.5t115 -208.5t43 -269q0 -145 -43 -267.5t-115 -206.5t-167 -143t-198 -86.5t-208 -27.5zM961 43q91 0 164 27
t120 73.5t77 111t41 138t5 156.5q-16 221 -97 412.5t-222 313.5t-312 122q-208 0 -319 -149.5t-94 -399.5q9 -122 43.5 -240.5t93 -220t133.5 -179t170 -121.5t197 -44zM602 1534l-16 14l223 244h12l238 -240l-19 -18l-225 94z" />
    <glyph glyph-name="Otilde" unicode="&#xd5;" horiz-adv-x="1679" 
d="M844 -20q-107 0 -210 27.5t-198 87t-167 144.5t-115 210t-43 274q0 151 54 284.5t149 231.5t232.5 154.5t297.5 56.5q106 0 209 -28t197.5 -88t166.5 -145.5t115 -208.5t43 -269q0 -145 -43 -267.5t-115 -206.5t-167 -143t-198 -86.5t-208 -27.5zM961 43q91 0 164 27
t120 73.5t77 111t41 138t5 156.5q-16 221 -97 412.5t-222 313.5t-312 122q-208 0 -319 -149.5t-94 -399.5q9 -122 43.5 -240.5t93 -220t133.5 -179t170 -121.5t197 -44zM510 1546q85 223 207 223q43 0 156 -40.5t153 -40.5q39 0 63 23.5t48 88.5l20 -6
q-38 -121 -92.5 -183.5t-118.5 -62.5q-66 0 -161 42t-150 42q-38 0 -62 -22t-43 -72z" />
    <glyph glyph-name="Odieresis" unicode="&#xd6;" horiz-adv-x="1679" 
d="M844 -20q-107 0 -210 27.5t-198 87t-167 144.5t-115 210t-43 274q0 151 54 284.5t149 231.5t232.5 154.5t297.5 56.5q106 0 209 -28t197.5 -88t166.5 -145.5t115 -208.5t43 -269q0 -145 -43 -267.5t-115 -206.5t-167 -143t-198 -86.5t-208 -27.5zM961 43q91 0 164 27
t120 73.5t77 111t41 138t5 156.5q-16 221 -97 412.5t-222 313.5t-312 122q-208 0 -319 -149.5t-94 -399.5q9 -122 43.5 -240.5t93 -220t133.5 -179t170 -121.5t197 -44zM997 1559q-48 0 -80 31.5t-32 80.5q0 44 32.5 75.5t79.5 31.5q44 0 76.5 -32.5t32.5 -78.5t-31.5 -77
t-77.5 -31zM645 1559q-46 0 -77 31.5t-31 80.5q0 45 31.5 76t76.5 31q49 0 81 -31.5t32 -79.5q0 -46 -33 -77t-80 -31z" />
    <glyph glyph-name="multiply" unicode="&#xd7;" horiz-adv-x="1142" 
d="M866 383l-282 281l-281 -281l-33 12l291 291l-287 287l33 14l277 -276l276 276l33 -12l-287 -287l293 -291z" />
    <glyph glyph-name="Oslash" unicode="&#xd8;" horiz-adv-x="1679" 
d="M844 -20q-107 0 -210 27.5t-198 87t-167 144.5t-115 210t-43 274q0 151 54 284.5t149 231.5t232.5 154.5t297.5 56.5q106 0 209 -28t197.5 -88t166.5 -145.5t115 -208.5t43 -269q0 -145 -43 -267.5t-115 -206.5t-167 -143t-198 -86.5t-208 -27.5zM961 43q91 0 164 27
t120 73.5t77 111t41 138t5 156.5q-16 221 -97 412.5t-222 313.5t-312 122q-208 0 -319 -149.5t-94 -399.5q9 -122 43.5 -240.5t93 -220t133.5 -179t170 -121.5t197 -44zM219 -219l1172 1857z" />
    <glyph glyph-name="Ugrave" unicode="&#xd9;" horiz-adv-x="1406" 
d="M756 -20q-93 0 -176 17.5t-161.5 59.5t-135 106.5t-91 165t-34.5 228.5v617q0 115 -16.5 164.5t-65.5 66.5v29h381v-29q-49 -17 -65.5 -66.5t-16.5 -164.5v-633q0 -512 463 -512q45 0 89 11.5t89.5 35.5t83.5 66t68.5 98t47.5 136.5t17 176.5v498q0 123 -17.5 196
t-50 106.5t-88.5 51.5v29h275v-29q-49 -17 -65.5 -66.5t-16.5 -164.5v-617q0 -151 -38 -263.5t-107.5 -180t-161.5 -100.5t-207 -33zM578 1640q-48 14 -63 30.5t-15 39.5q0 22 45.5 48t83.5 26q23 0 42 -10.5t60 -47.5l207 -178l-8 -14z" />
    <glyph glyph-name="Uacute" unicode="&#xda;" horiz-adv-x="1406" 
d="M756 -20q-93 0 -176 17.5t-161.5 59.5t-135 106.5t-91 165t-34.5 228.5v617q0 115 -16.5 164.5t-65.5 66.5v29h381v-29q-49 -17 -65.5 -66.5t-16.5 -164.5v-633q0 -512 463 -512q45 0 89 11.5t89.5 35.5t83.5 66t68.5 98t47.5 136.5t17 176.5v498q0 123 -17.5 196
t-50 106.5t-88.5 51.5v29h275v-29q-49 -17 -65.5 -66.5t-16.5 -164.5v-617q0 -151 -38 -263.5t-107.5 -180t-161.5 -100.5t-207 -33zM860 1640l-352 -106l-8 14l207 178q41 37 60 47.5t42 10.5q38 0 83.5 -26t45.5 -48q0 -23 -15 -39.5t-63 -30.5z" />
    <glyph glyph-name="Ucircumflex" unicode="&#xdb;" horiz-adv-x="1406" 
d="M756 -20q-93 0 -176 17.5t-161.5 59.5t-135 106.5t-91 165t-34.5 228.5v617q0 115 -16.5 164.5t-65.5 66.5v29h381v-29q-49 -17 -65.5 -66.5t-16.5 -164.5v-633q0 -512 463 -512q45 0 89 11.5t89.5 35.5t83.5 66t68.5 98t47.5 136.5t17 176.5v498q0 123 -17.5 196
t-50 106.5t-88.5 51.5v29h275v-29q-49 -17 -65.5 -66.5t-16.5 -164.5v-617q0 -151 -38 -263.5t-107.5 -180t-161.5 -100.5t-207 -33zM541 1534l-17 14l224 244h12l237 -240l-18 -18l-225 94z" />
    <glyph glyph-name="Udieresis" unicode="&#xdc;" horiz-adv-x="1406" 
d="M756 -20q-93 0 -176 17.5t-161.5 59.5t-135 106.5t-91 165t-34.5 228.5v617q0 115 -16.5 164.5t-65.5 66.5v29h381v-29q-49 -17 -65.5 -66.5t-16.5 -164.5v-633q0 -512 463 -512q45 0 89 11.5t89.5 35.5t83.5 66t68.5 98t47.5 136.5t17 176.5v498q0 123 -17.5 196
t-50 106.5t-88.5 51.5v29h275v-29q-49 -17 -65.5 -66.5t-16.5 -164.5v-617q0 -151 -38 -263.5t-107.5 -180t-161.5 -100.5t-207 -33zM936 1559q-48 0 -80.5 31.5t-32.5 80.5q0 44 33 75.5t80 31.5q44 0 76 -32.5t32 -78.5t-31 -77t-77 -31zM584 1559q-46 0 -77.5 31.5
t-31.5 80.5q0 44 31.5 75.5t77.5 31.5q49 0 80.5 -31.5t31.5 -79.5q0 -46 -32.5 -77t-79.5 -31z" />
    <glyph glyph-name="Yacute" unicode="&#xdd;" horiz-adv-x="1153" 
d="M377 0v29q49 17 65.5 66.5t16.5 164.5l-2 397l-303 549q-81 149 -183 199v29h383v-29q-22 -7 -30.5 -17t-2.5 -31.5t15 -39t34 -60.5q18 -32 29 -51l271 -487l276 487q53 97 47.5 142t-69.5 57v29h264v-29q-114 -43 -201 -199l-309 -551v-395q0 -115 16.5 -164.5
t65.5 -66.5v-29h-383zM676 1640l-352 -106l-9 14l207 178q41 36 60.5 47t42.5 11q38 0 83.5 -26t45.5 -48q0 -23 -15 -39.5t-63 -30.5z" />
    <glyph glyph-name="Thorn" unicode="&#xde;" horiz-adv-x="1202" 
d="M96 0v29q49 17 65.5 66.5t16.5 164.5v914q0 115 -16.5 164.5t-65.5 66.5v29h381v-29q-45 -15 -62.5 -59t-19.5 -138h197q116 0 208.5 -16t152.5 -45.5t101.5 -65t63 -81.5t30.5 -88t9 -91q0 -103 -38 -189t-114 -154t-203.5 -106t-295.5 -38h-111v-74q0 -115 16.5 -164.5
t65.5 -66.5v-29h-381zM395 373h101q110 0 195 31t137.5 87t79 130t26.5 163q0 62 -12.5 115.5t-44.5 104.5t-82.5 87t-132 58t-187.5 22h-80v-798z" />
    <glyph glyph-name="germandbls" unicode="&#xdf;" horiz-adv-x="1267" 
d="M868 -16q-212 0 -356 79l-14 242l26 4q72 -150 166 -220.5t197 -70.5q102 0 156.5 56.5t54.5 132.5q0 60 -29 105t-75.5 73.5t-102 52t-111.5 47.5t-102.5 53t-75.5 76t-29 109q0 70 33 136t80 119.5t94 106t80 117t33 131.5q0 92 -59.5 143.5t-161.5 51.5
q-72 0 -127 -21.5t-99.5 -70.5t-68 -138t-23.5 -215v-823q0 -115 16.5 -164.5t65.5 -66.5v-29h-373v29q49 17 65.5 66.5t16.5 164.5v721v14h-92l13 29h81q8 100 52 191.5t109.5 158.5t145.5 117t162 75.5t156 26.5q136 1 212.5 -53t76.5 -141q0 -59 -27.5 -113t-68.5 -92
t-89.5 -78t-89.5 -73.5t-68.5 -77t-27.5 -88.5q0 -49 30 -88t78.5 -66t107 -52.5t116.5 -54.5t106.5 -64.5t78.5 -90.5t30 -125q0 -148 -107.5 -250t-261.5 -102z" />
    <glyph glyph-name="agrave" unicode="&#xe0;" horiz-adv-x="1085" 
d="M840 0q-82 0 -82 82v338q-46 -190 -156 -315t-262 -125q-119 0 -199 71.5t-80 196.5q0 61 25.5 112t65 86.5t105 67.5t125.5 52.5t148 45.5l228 66q-3 145 -74 212.5t-192 67.5q-187 0 -332 -174l-21 19q90 110 207 172.5t252 62.5q365 0 365 -383v-395q0 -115 16 -164.5
t65 -66.5v-29h-204zM416 1333q-47 21 -62.5 35.5t-15.5 34.5q0 22 45.5 48t83.5 26q26 0 46 -10.5t56 -47.5l207 -219l-8 -14zM252 319q0 -94 56 -142t134 -48q58 0 109.5 31t88 80.5t64 111.5t40.5 125t14 119v53l-219 -63q-36 -10 -67.5 -22t-74 -35t-72.5 -50.5
t-51.5 -69.5t-21.5 -90z" />
    <glyph glyph-name="aacute" unicode="&#xe1;" horiz-adv-x="1085" 
d="M840 0q-82 0 -82 82v338q-46 -190 -156 -315t-262 -125q-119 0 -199 71.5t-80 196.5q0 61 25.5 112t65 86.5t105 67.5t125.5 52.5t148 45.5l228 66q-3 145 -74 212.5t-192 67.5q-187 0 -332 -174l-21 19q90 110 207 172.5t252 62.5q365 0 365 -383v-395q0 -115 16 -164.5
t65 -66.5v-29h-204zM780 1333l-352 -147l-8 14l207 219q36 37 56 47.5t46 10.5q38 0 83.5 -26t45.5 -48q0 -20 -15.5 -34.5t-62.5 -35.5zM252 319q0 -94 56 -142t134 -48q58 0 109.5 31t88 80.5t64 111.5t40.5 125t14 119v53l-219 -63q-36 -10 -67.5 -22t-74 -35
t-72.5 -50.5t-51.5 -69.5t-21.5 -90z" />
    <glyph glyph-name="acircumflex" unicode="&#xe2;" horiz-adv-x="1085" 
d="M840 0q-82 0 -82 82v338q-46 -190 -156 -315t-262 -125q-119 0 -199 71.5t-80 196.5q0 61 25.5 112t65 86.5t105 67.5t125.5 52.5t148 45.5l228 66q-3 145 -74 212.5t-192 67.5q-187 0 -332 -174l-21 19q90 110 207 172.5t252 62.5q365 0 365 -383v-395q0 -115 16 -164.5
t65 -66.5v-29h-204zM334 1176l-17 14l269 285h12l279 -281l-19 -18l-266 135zM252 319q0 -94 56 -142t134 -48q58 0 109.5 31t88 80.5t64 111.5t40.5 125t14 119v53l-219 -63q-36 -10 -67.5 -22t-74 -35t-72.5 -50.5t-51.5 -69.5t-21.5 -90z" />
    <glyph glyph-name="atilde" unicode="&#xe3;" horiz-adv-x="1085" 
d="M840 0q-82 0 -82 82v338q-46 -190 -156 -315t-262 -125q-119 0 -199 71.5t-80 196.5q0 61 25.5 112t65 86.5t105 67.5t125.5 52.5t148 45.5l228 66q-3 145 -74 212.5t-192 67.5q-187 0 -332 -174l-21 19q90 110 207 172.5t252 62.5q365 0 365 -383v-395q0 -115 16 -164.5
t65 -66.5v-29h-204zM287 1137q85 223 207 223q42 0 156 -41t153 -41t62 24t48 89l21 -7q-38 -121 -92.5 -183t-118.5 -62q-54 0 -108 21t-105 42t-98 21q-38 0 -62 -22.5t-43 -72.5zM252 319q0 -94 56 -142t134 -48q58 0 109.5 31t88 80.5t64 111.5t40.5 125t14 119v53
l-219 -63q-36 -10 -67.5 -22t-74 -35t-72.5 -50.5t-51.5 -69.5t-21.5 -90z" />
    <glyph glyph-name="adieresis" unicode="&#xe4;" horiz-adv-x="1085" 
d="M840 0q-82 0 -82 82v338q-46 -190 -156 -315t-262 -125q-119 0 -199 71.5t-80 196.5q0 61 25.5 112t65 86.5t105 67.5t125.5 52.5t148 45.5l228 66q-3 145 -74 212.5t-192 67.5q-187 0 -332 -174l-21 19q90 110 207 172.5t252 62.5q365 0 365 -383v-395q0 -115 16 -164.5
t65 -66.5v-29h-204zM774 1149q-48 0 -80 32t-32 81q0 44 32.5 75t79.5 31q44 0 76.5 -32.5t32.5 -78.5t-31.5 -77t-77.5 -31zM422 1149q-46 0 -77.5 32t-31.5 81q0 44 31.5 75t77.5 31q49 0 81 -31.5t32 -79.5q0 -46 -33 -77t-80 -31zM252 319q0 -94 56 -142t134 -48
q58 0 109.5 31t88 80.5t64 111.5t40.5 125t14 119v53l-219 -63q-36 -10 -67.5 -22t-74 -35t-72.5 -50.5t-51.5 -69.5t-21.5 -90z" />
    <glyph glyph-name="aring" unicode="&#xe5;" horiz-adv-x="1085" 
d="M840 0q-82 0 -82 82v338q-46 -190 -156 -315t-262 -125q-119 0 -199 71.5t-80 196.5q0 61 25.5 112t65 86.5t105 67.5t125.5 52.5t148 45.5l228 66q-3 145 -74 212.5t-192 67.5q-187 0 -332 -174l-21 19q90 110 207 172.5t252 62.5q365 0 365 -383v-395q0 -115 16 -164.5
t65 -66.5v-29h-204zM596 1122q-61 0 -100 40t-39 98q0 61 39 102t100 41q67 0 105 -39t38 -100q0 -59 -40.5 -100.5t-102.5 -41.5zM596 1143q51 0 85 34.5t34 86.5t-33 85t-86 33q-50 0 -82.5 -33.5t-32.5 -88.5q0 -51 32.5 -84t82.5 -33zM252 319q0 -94 56 -142t134 -48
q58 0 109.5 31t88 80.5t64 111.5t40.5 125t14 119v53l-219 -63q-36 -10 -67.5 -22t-74 -35t-72.5 -50.5t-51.5 -69.5t-21.5 -90z" />
    <glyph glyph-name="ae" unicode="&#xe6;" horiz-adv-x="1751" 
d="M340 -20q-119 0 -199 71.5t-80 196.5q0 61 25.5 112t65 86.5t105 67.5t125.5 52.5t148 45.5l224 64q1 146 -69.5 214t-192.5 68q-187 0 -332 -174l-21 19q90 110 207 172.5t252 62.5q123 0 194 -43.5t101 -132.5q77 84 181 130t212 46q100 0 182 -32.5t134 -85t80 -117.5
t28 -133h-776q-4 -46 -4 -66q0 -203 115.5 -331t308.5 -128q209 0 354 162l18 -20q-39 -59 -84.5 -109t-106.5 -97t-139 -74t-163 -27q-80 0 -158 26t-145.5 75.5t-115 129.5t-60.5 180q-21 -79 -57.5 -151t-88 -131t-121 -94t-147.5 -35zM750 528l4 119l-215 -61
q-36 -10 -67.5 -22t-74 -35t-72.5 -50.5t-51.5 -69.5t-21.5 -90q0 -94 56 -142t134 -48q54 0 103.5 27t84 69t61 94t40.5 100.5t17 88.5l2 14v6zM936 698h567q-21 129 -98.5 215.5t-181.5 87.5q-122 1 -194 -85t-93 -218z" />
    <glyph glyph-name="ccedilla" unicode="&#xe7;" horiz-adv-x="1081" 
d="M549 -20h-19l-65 -86q120 23 182 -17t62 -110q0 -92 -92.5 -170t-210.5 -78q-68 0 -111 26t-43 56q0 22 28.5 41.5t57.5 19.5q27 0 55 -20.5t60.5 -41t70.5 -20.5q48 0 78.5 31.5t30.5 73.5q0 46 -47.5 80t-139.5 34q-13 0 -21.5 -1t-13.5 -2t-18 -4.5t-26 -6.5l-11 12
l142 185q-88 9 -165.5 45.5t-138 97.5t-96 151t-35.5 197q0 125 46 232.5t123 179.5t176.5 112.5t207.5 40.5q158 0 263.5 -35.5t105.5 -80.5q0 -47 -46.5 -90.5t-92.5 -43.5q-43 0 -116 51.5t-191 164.5q-131 -20 -212 -134.5t-81 -265.5q0 -203 115.5 -331t308.5 -128
q209 0 354 162l18 -20q-39 -59 -84.5 -109t-106.5 -97t-139 -74t-163 -27z" />
    <glyph glyph-name="egrave" unicode="&#xe8;" horiz-adv-x="1093" 
d="M549 -20q-69 0 -137.5 19t-131.5 59.5t-111 97.5t-77 139t-29 178q0 101 30.5 192t83 158t121 116t146.5 74t158 25q100 0 182 -32.5t134 -85t80 -117.5t28 -133h-776q-4 -46 -4 -66q0 -203 115.5 -331t308.5 -128q209 0 354 162l18 -20q-39 -59 -84.5 -109t-106.5 -97
t-139 -74t-163 -27zM381 1333q-47 21 -62.5 35.5t-15.5 34.5q0 22 45.5 48t83.5 26q26 0 46.5 -10.5t56.5 -47.5l206 -219l-8 -14zM252 698h567q-21 129 -98.5 215.5t-181.5 87.5q-122 1 -194 -85t-93 -218z" />
    <glyph glyph-name="eacute" unicode="&#xe9;" horiz-adv-x="1093" 
d="M549 -20q-69 0 -137.5 19t-131.5 59.5t-111 97.5t-77 139t-29 178q0 101 30.5 192t83 158t121 116t146.5 74t158 25q100 0 182 -32.5t134 -85t80 -117.5t28 -133h-776q-4 -46 -4 -66q0 -203 115.5 -331t308.5 -128q209 0 354 162l18 -20q-39 -59 -84.5 -109t-106.5 -97
t-139 -74t-163 -27zM745 1333l-352 -147l-8 14l207 219q36 37 56 47.5t46 10.5q38 0 83.5 -26t45.5 -48q0 -20 -15.5 -34.5t-62.5 -35.5zM252 698h567q-21 129 -98.5 215.5t-181.5 87.5q-122 1 -194 -85t-93 -218z" />
    <glyph glyph-name="ecircumflex" unicode="&#xea;" horiz-adv-x="1093" 
d="M549 -20q-69 0 -137.5 19t-131.5 59.5t-111 97.5t-77 139t-29 178q0 101 30.5 192t83 158t121 116t146.5 74t158 25q100 0 182 -32.5t134 -85t80 -117.5t28 -133h-776q-4 -46 -4 -66q0 -203 115.5 -331t308.5 -128q209 0 354 162l18 -20q-39 -59 -84.5 -109t-106.5 -97
t-139 -74t-163 -27zM299 1176l-16 14l268 285h12l279 -281l-19 -18l-266 135zM252 698h567q-21 129 -98.5 215.5t-181.5 87.5q-122 1 -194 -85t-93 -218z" />
    <glyph glyph-name="edieresis" unicode="&#xeb;" horiz-adv-x="1093" 
d="M549 -20q-69 0 -137.5 19t-131.5 59.5t-111 97.5t-77 139t-29 178q0 101 30.5 192t83 158t121 116t146.5 74t158 25q100 0 182 -32.5t134 -85t80 -117.5t28 -133h-776q-4 -46 -4 -66q0 -203 115.5 -331t308.5 -128q209 0 354 162l18 -20q-39 -59 -84.5 -109t-106.5 -97
t-139 -74t-163 -27zM739 1149q-48 0 -80 32t-32 81q0 44 32.5 75t79.5 31q44 0 76.5 -32.5t32.5 -78.5t-31.5 -77t-77.5 -31zM387 1149q-46 0 -77 32t-31 81q0 44 31 75t77 31q49 0 81 -31.5t32 -79.5q0 -46 -33 -77t-80 -31zM252 698h567q-21 129 -98.5 215.5t-181.5 87.5
q-122 1 -194 -85t-93 -218z" />
    <glyph glyph-name="igrave" unicode="&#xec;" horiz-adv-x="491" 
d="M57 0v29q49 17 65.5 66.5t16.5 164.5v471q0 83 -18.5 113.5t-63.5 50.5v29l271 118l20 -16v-766q0 -115 16.5 -164.5t65.5 -66.5v-29h-373zM49 1333q-47 21 -62.5 35.5t-15.5 34.5q0 22 45.5 48t83.5 26q26 0 46.5 -10.5t56.5 -47.5l207 -219l-9 -14z" />
    <glyph glyph-name="iacute" unicode="&#xed;" horiz-adv-x="491" 
d="M57 0v29q49 17 65.5 66.5t16.5 164.5v471q0 83 -18.5 113.5t-63.5 50.5v29l271 118l20 -16v-766q0 -115 16.5 -164.5t65.5 -66.5v-29h-373zM414 1333l-353 -147l-8 14l207 219q36 37 56 47.5t46 10.5q38 0 84 -26t46 -48q0 -20 -15.5 -34.5t-62.5 -35.5z" />
    <glyph glyph-name="icircumflex" unicode="&#xee;" horiz-adv-x="491" 
d="M57 0v29q49 17 65.5 66.5t16.5 164.5v471q0 83 -18.5 113.5t-63.5 50.5v29l271 118l20 -16v-766q0 -115 16.5 -164.5t65.5 -66.5v-29h-373zM-33 1176l-16 14l268 285h12l279 -281l-18 -18l-267 135z" />
    <glyph glyph-name="idieresis" unicode="&#xef;" horiz-adv-x="491" 
d="M57 0v29q49 17 65.5 66.5t16.5 164.5v471q0 83 -18.5 113.5t-63.5 50.5v29l271 118l20 -16v-766q0 -115 16.5 -164.5t65.5 -66.5v-29h-373zM408 1149q-48 0 -80.5 32t-32.5 81q0 44 33 75t80 31q44 0 76 -32.5t32 -78.5t-31 -77t-77 -31zM55 1149q-46 0 -77 32t-31 81
q0 44 31 75t77 31q49 0 81 -31.5t32 -79.5q0 -46 -33 -77t-80 -31z" />
    <glyph glyph-name="eth" unicode="&#xf0;" horiz-adv-x="1228" 
d="M586 -20q-76 0 -151.5 19t-145 60t-122.5 98.5t-84.5 141t-31.5 180.5q0 105 33 197t88.5 157t126 112t146 69.5t149.5 21.5q148 0 256 -84q-57 191 -186 353l-224 -129l-2 2l2 24q4 22 19 31l178 102q-128 150 -320 260l17 19q225 -87 401 -221l156 90h4l-2 -27
q0 -20 -19 -31l-102 -59q383 -306 383 -713q0 -121 -24.5 -223t-68 -174t-99 -126.5t-120 -86.5t-129 -47.5t-128.5 -15.5zM686 39q132 0 207.5 92.5t75.5 253.5q0 152 -56.5 290.5t-157.5 226t-218 87.5q-125 0 -212 -90.5t-87 -241.5q0 -125 37 -239.5t98 -197.5
t143.5 -132t169.5 -49z" />
    <glyph glyph-name="ntilde" unicode="&#xf1;" horiz-adv-x="1206" 
d="M57 0v29q49 17 65.5 66.5t16.5 164.5v471q0 83 -18.5 113.5t-63.5 50.5v29l271 118l20 -16v-172q226 184 420 184q148 0 231.5 -82.5t83.5 -255.5v-440q0 -115 16.5 -164.5t65.5 -66.5v-29h-372v29q49 17 65 66.5t16 164.5v404q0 140 -59 216t-172 76q-70 0 -139 -33.5
t-156 -103.5v-559q0 -115 16.5 -164.5t65.5 -66.5v-29h-373zM276 1137q85 223 207 223q43 0 157 -41t153 -41t62 24t48 89l21 -7q-38 -121 -92.5 -183t-118.5 -62q-67 0 -162 42t-150 42q-38 0 -61.5 -22t-42.5 -73z" />
    <glyph glyph-name="ograve" unicode="&#xf2;" horiz-adv-x="1239" 
d="M610 -20q-103 0 -198.5 31t-174.5 90.5t-126.5 159t-47.5 224.5q0 121 46 226t122 175.5t175 111t204 40.5q78 0 154 -18t147.5 -58t125 -98.5t86 -145t32.5 -190.5q0 -126 -51 -232.5t-131.5 -173.5t-175 -104.5t-187.5 -37.5zM682 25q72 0 125.5 29.5t83 80t43.5 110
t14 128.5q0 79 -20 167.5t-60 172.5t-92 150.5t-123 104t-147 29.5q-64 -7 -111.5 -38.5t-74.5 -82t-39.5 -109.5t-12.5 -128q0 -94 27.5 -198.5t77.5 -198.5t131.5 -155.5t177.5 -61.5zM432 1333q-47 21 -62.5 35.5t-15.5 34.5q0 22 45.5 48t83.5 26q26 0 46.5 -10.5
t56.5 -47.5l207 -219l-9 -14z" />
    <glyph glyph-name="oacute" unicode="&#xf3;" horiz-adv-x="1239" 
d="M610 -20q-103 0 -198.5 31t-174.5 90.5t-126.5 159t-47.5 224.5q0 121 46 226t122 175.5t175 111t204 40.5q78 0 154 -18t147.5 -58t125 -98.5t86 -145t32.5 -190.5q0 -126 -51 -232.5t-131.5 -173.5t-175 -104.5t-187.5 -37.5zM682 25q72 0 125.5 29.5t83 80t43.5 110
t14 128.5q0 79 -20 167.5t-60 172.5t-92 150.5t-123 104t-147 29.5q-64 -7 -111.5 -38.5t-74.5 -82t-39.5 -109.5t-12.5 -128q0 -94 27.5 -198.5t77.5 -198.5t131.5 -155.5t177.5 -61.5zM797 1333l-353 -147l-8 14l207 219q36 37 56 47.5t46 10.5q38 0 83.5 -26t45.5 -48
q0 -20 -15 -34.5t-62 -35.5z" />
    <glyph glyph-name="ocircumflex" unicode="&#xf4;" horiz-adv-x="1239" 
d="M610 -20q-103 0 -198.5 31t-174.5 90.5t-126.5 159t-47.5 224.5q0 121 46 226t122 175.5t175 111t204 40.5q78 0 154 -18t147.5 -58t125 -98.5t86 -145t32.5 -190.5q0 -126 -51 -232.5t-131.5 -173.5t-175 -104.5t-187.5 -37.5zM682 25q72 0 125.5 29.5t83 80t43.5 110
t14 128.5q0 79 -20 167.5t-60 172.5t-92 150.5t-123 104t-147 29.5q-64 -7 -111.5 -38.5t-74.5 -82t-39.5 -109.5t-12.5 -128q0 -94 27.5 -198.5t77.5 -198.5t131.5 -155.5t177.5 -61.5zM350 1176l-16 14l268 285h12l279 -281l-19 -18l-266 135z" />
    <glyph glyph-name="otilde" unicode="&#xf5;" horiz-adv-x="1239" 
d="M610 -20q-103 0 -198.5 31t-174.5 90.5t-126.5 159t-47.5 224.5q0 121 46 226t122 175.5t175 111t204 40.5q78 0 154 -18t147.5 -58t125 -98.5t86 -145t32.5 -190.5q0 -126 -51 -232.5t-131.5 -173.5t-175 -104.5t-187.5 -37.5zM682 25q72 0 125.5 29.5t83 80t43.5 110
t14 128.5q0 79 -20 167.5t-60 172.5t-92 150.5t-123 104t-147 29.5q-64 -7 -111.5 -38.5t-74.5 -82t-39.5 -109.5t-12.5 -128q0 -94 27.5 -198.5t77.5 -198.5t131.5 -155.5t177.5 -61.5zM303 1137q85 223 207 223q42 0 156 -41t153 -41t63 24t48 89l20 -7
q-38 -121 -92.5 -183t-118.5 -62q-54 0 -108 21t-105 42t-98 21q-38 0 -61.5 -22t-42.5 -73z" />
    <glyph glyph-name="odieresis" unicode="&#xf6;" horiz-adv-x="1239" 
d="M610 -20q-103 0 -198.5 31t-174.5 90.5t-126.5 159t-47.5 224.5q0 121 46 226t122 175.5t175 111t204 40.5q78 0 154 -18t147.5 -58t125 -98.5t86 -145t32.5 -190.5q0 -126 -51 -232.5t-131.5 -173.5t-175 -104.5t-187.5 -37.5zM682 25q72 0 125.5 29.5t83 80t43.5 110
t14 128.5q0 79 -20 167.5t-60 172.5t-92 150.5t-123 104t-147 29.5q-64 -7 -111.5 -38.5t-74.5 -82t-39.5 -109.5t-12.5 -128q0 -94 27.5 -198.5t77.5 -198.5t131.5 -155.5t177.5 -61.5zM791 1149q-48 0 -80.5 32t-32.5 81q0 44 33 75t80 31q44 0 76 -32.5t32 -78.5t-31 -77
t-77 -31zM438 1149q-46 0 -77 32t-31 81q0 44 31 75t77 31q49 0 81 -31.5t32 -79.5q0 -46 -33 -77t-80 -31z" />
    <glyph glyph-name="divide" unicode="&#xf7;" horiz-adv-x="1142" 
d="M207 670l14 32h713l-14 -32h-713zM643 291q-49 0 -85 37t-36 88t35.5 87t85.5 36q49 0 84 -36t35 -87t-35 -88t-84 -37zM643 829q-49 0 -85 37t-36 88t35.5 87t85.5 36q49 0 84 -36t35 -87t-35 -88t-84 -37z" />
    <glyph glyph-name="oslash" unicode="&#xf8;" horiz-adv-x="1239" 
d="M610 -20q-103 0 -198.5 31t-174.5 90.5t-126.5 159t-47.5 224.5q0 121 46 226t122 175.5t175 111t204 40.5q78 0 154 -18t147.5 -58t125 -98.5t86 -145t32.5 -190.5q0 -126 -51 -232.5t-131.5 -173.5t-175 -104.5t-187.5 -37.5zM682 25q72 0 125.5 29.5t83 80t43.5 110
t14 128.5q0 79 -20 167.5t-60 172.5t-92 150.5t-123 104t-147 29.5q-64 -7 -111.5 -38.5t-74.5 -82t-39.5 -109.5t-12.5 -128q0 -94 27.5 -198.5t77.5 -198.5t131.5 -155.5t177.5 -61.5zM156 -219l903 1427z" />
    <glyph glyph-name="ugrave" unicode="&#xf9;" horiz-adv-x="1169" 
d="M430 -20q-160 0 -233.5 95.5t-73.5 286.5v369q0 83 -18.5 113.5t-63.5 50.5v29l270 118l21 -16v-637q0 -175 39.5 -251.5t152.5 -76.5q137 0 293 156v514q0 83 -18.5 113.5t-63.5 50.5v29l271 118l20 -16v-766q0 -115 16.5 -164.5t65.5 -66.5v-29h-209q-82 0 -82 82v92
q-92 -89 -193 -141.5t-194 -52.5zM446 1333q-47 21 -62 35.5t-15 34.5q0 22 45.5 48t83.5 26q26 0 46 -10.5t56 -47.5l207 -219l-8 -14z" />
    <glyph glyph-name="uacute" unicode="&#xfa;" horiz-adv-x="1169" 
d="M430 -20q-160 0 -233.5 95.5t-73.5 286.5v369q0 83 -18.5 113.5t-63.5 50.5v29l270 118l21 -16v-637q0 -175 39.5 -251.5t152.5 -76.5q137 0 293 156v514q0 83 -18.5 113.5t-63.5 50.5v29l271 118l20 -16v-766q0 -115 16.5 -164.5t65.5 -66.5v-29h-209q-82 0 -82 82v92
q-92 -89 -193 -141.5t-194 -52.5zM811 1333l-352 -147l-8 14l206 219q36 37 56.5 47.5t46.5 10.5q38 0 83.5 -26t45.5 -48q0 -20 -15.5 -34.5t-62.5 -35.5z" />
    <glyph glyph-name="ucircumflex" unicode="&#xfb;" horiz-adv-x="1169" 
d="M430 -20q-160 0 -233.5 95.5t-73.5 286.5v369q0 83 -18.5 113.5t-63.5 50.5v29l270 118l21 -16v-637q0 -175 39.5 -251.5t152.5 -76.5q137 0 293 156v514q0 83 -18.5 113.5t-63.5 50.5v29l271 118l20 -16v-766q0 -115 16.5 -164.5t65.5 -66.5v-29h-209q-82 0 -82 82v92
q-92 -89 -193 -141.5t-194 -52.5zM365 1176l-17 14l268 285h13l278 -281l-18 -18l-266 135z" />
    <glyph glyph-name="udieresis" unicode="&#xfc;" horiz-adv-x="1169" 
d="M430 -20q-160 0 -233.5 95.5t-73.5 286.5v369q0 83 -18.5 113.5t-63.5 50.5v29l270 118l21 -16v-637q0 -175 39.5 -251.5t152.5 -76.5q137 0 293 156v514q0 83 -18.5 113.5t-63.5 50.5v29l271 118l20 -16v-766q0 -115 16.5 -164.5t65.5 -66.5v-29h-209q-82 0 -82 82v92
q-92 -89 -193 -141.5t-194 -52.5zM805 1149q-48 0 -80.5 32t-32.5 81q0 44 33 75t80 31q44 0 76 -32.5t32 -78.5t-31 -77t-77 -31zM453 1149q-46 0 -77.5 32t-31.5 81q0 44 31.5 75t77.5 31q49 0 80.5 -31.5t31.5 -79.5q0 -46 -32.5 -77t-79.5 -31z" />
    <glyph glyph-name="yacute" unicode="&#xfd;" horiz-adv-x="1034" 
d="M74 -395q-64 -2 -107 16.5t-43 48.5q0 37 43.5 83t108.5 46q60 0 278 -37q72 78 144 228l-344 794q-69 167 -160 211v29h362v-29q-23 -8 -32 -20t-5.5 -33.5t13.5 -46.5t29 -69q12 -26 18 -40l233 -532l230 530q42 103 36 151t-59 60v29h234v-29q-50 -19 -94 -66.5
t-85 -142.5l-313 -725q-58 -132 -115 -221.5t-117.5 -140t-120.5 -71.5t-134 -23zM668 1333l-353 -147l-8 14l207 219q36 37 56 47.5t46 10.5q38 0 83.5 -26t45.5 -48q0 -20 -15 -34.5t-62 -35.5z" />
    <glyph glyph-name="thorn" unicode="&#xfe;" horiz-adv-x="1230" 
d="M582 -18q-138 0 -230 53v-328q0 -115 16.5 -164.5t65.5 -66.5v-29h-373v29q49 17 65.5 66.5t16.5 164.5v1639q0 58 -11 91.5t-26 45.5t-45 26v29l271 119l20 -17v-780q97 76 208.5 127t209.5 51q174 0 275.5 -119t101.5 -311q0 -128 -39 -241.5t-109.5 -199
t-178.5 -135.5t-238 -50zM352 207q45 -74 130 -128t180 -54q299 0 299 411q0 100 -18 190t-53 165.5t-95.5 120t-137.5 44.5q-139 0 -305 -131v-618z" />
    <glyph glyph-name="ydieresis" unicode="&#xff;" horiz-adv-x="1034" 
d="M74 -395q-64 -2 -107 16.5t-43 48.5q0 37 43.5 83t108.5 46q60 0 278 -37q72 78 144 228l-344 794q-69 167 -160 211v29h362v-29q-23 -8 -32 -20t-5.5 -33.5t13.5 -46.5t29 -69q12 -26 18 -40l233 -532l230 530q42 103 36 151t-59 60v29h234v-29q-50 -19 -94 -66.5
t-85 -142.5l-313 -725q-58 -132 -115 -221.5t-117.5 -140t-120.5 -71.5t-134 -23zM662 1149q-48 0 -80.5 32t-32.5 81q0 44 33 75t80 31q44 0 76 -32.5t32 -78.5t-31 -77t-77 -31zM309 1149q-46 0 -77 32t-31 81q0 44 31 75t77 31q49 0 81 -31.5t32 -79.5q0 -46 -33 -77
t-80 -31z" />
    <glyph glyph-name="Amacron" unicode="&#x100;" horiz-adv-x="1316" 
d="M-43 0v29q102 38 172 213l383 950q22 57 -4 111l-27 57l201 90l508 -1210q71 -168 158 -211v-29h-373v29q23 8 33 19.5t5 37.5t-13 47.5t-30 73.5q-9 21 -14 33l-122 295h-547l-119 -293q-40 -103 -33 -152t60 -61v-29h-238zM352 1604l-6 8l49 63q21 29 62 29h465l6 -8
l-49 -64q-20 -28 -62 -28h-465zM299 567h520l-264 633z" />
    <glyph glyph-name="amacron" unicode="&#x101;" horiz-adv-x="1085" 
d="M840 0q-82 0 -82 82v338q-46 -190 -156 -315t-262 -125q-119 0 -199 71.5t-80 196.5q0 61 25.5 112t65 86.5t105 67.5t125.5 52.5t148 45.5l228 66q-3 145 -74 212.5t-192 67.5q-187 0 -332 -174l-21 19q90 110 207 172.5t252 62.5q365 0 365 -383v-395q0 -115 16 -164.5
t65 -66.5v-29h-204zM315 1194l-6 8l49 64q20 28 62 28h465l6 -8l-49 -63q-21 -29 -62 -29h-465zM252 319q0 -94 56 -142t134 -48q58 0 109.5 31t88 80.5t64 111.5t40.5 125t14 119v53l-219 -63q-36 -10 -67.5 -22t-74 -35t-72.5 -50.5t-51.5 -69.5t-21.5 -90z" />
    <glyph glyph-name="Abreve" unicode="&#x102;" horiz-adv-x="1316" 
d="M-43 0v29q102 38 172 213l383 950q22 57 -4 111l-27 57l201 90l508 -1210q71 -168 158 -211v-29h-373v29q23 8 33 19.5t5 37.5t-13 47.5t-30 73.5q-9 21 -14 33l-122 295h-547l-119 -293q-40 -103 -33 -152t60 -61v-29h-238zM635 1538q-75 0 -122 49t-103 170l24 10
q27 -31 46.5 -47.5t60 -31.5t94.5 -15t94.5 14.5t61 32t45.5 47.5l22 -10q-56 -122 -102.5 -170.5t-120.5 -48.5zM299 567h520l-264 633z" />
    <glyph glyph-name="abreve" unicode="&#x103;" horiz-adv-x="1085" 
d="M840 0q-82 0 -82 82v338q-46 -190 -156 -315t-262 -125q-119 0 -199 71.5t-80 196.5q0 61 25.5 112t65 86.5t105 67.5t125.5 52.5t148 45.5l228 66q-3 145 -74 212.5t-192 67.5q-187 0 -332 -174l-21 19q90 110 207 172.5t252 62.5q365 0 365 -383v-395q0 -115 16 -164.5
t65 -66.5v-29h-204zM598 1165q-75 0 -124.5 51.5t-121.5 188.5l25 10q39 -43 61.5 -63t63.5 -36t96 -16q79 0 123 26.5t98 88.5l23 -10q-72 -138 -121 -189t-123 -51zM252 319q0 -94 56 -142t134 -48q58 0 109.5 31t88 80.5t64 111.5t40.5 125t14 119v53l-219 -63
q-36 -10 -67.5 -22t-74 -35t-72.5 -50.5t-51.5 -69.5t-21.5 -90z" />
    <glyph glyph-name="Aogonek" unicode="&#x104;" horiz-adv-x="1316" 
d="M-43 0v29q102 38 172 213l383 950q22 57 -4 111l-27 57l201 90l508 -1210q71 -168 158 -211v-29h-172q-56 -55 -78.5 -94.5t-22.5 -77.5q0 -45 33.5 -69.5t85.5 -24.5q53 0 104 33l11 -9l-74 -129q-34 -24 -94 -24q-67 0 -114.5 39.5t-47.5 103.5q0 60 40.5 119.5
t119.5 132.5h-164v29q23 8 33 19.5t5 37.5t-13 47.5t-30 73.5q-9 21 -14 33l-122 295h-547l-119 -293q-40 -103 -33 -152t60 -61v-29h-238zM299 567h520l-264 633z" />
    <glyph glyph-name="aogonek" unicode="&#x105;" horiz-adv-x="1085" 
d="M840 0q-82 0 -82 82v338q-46 -190 -156 -315t-262 -125q-119 0 -199 71.5t-80 196.5q0 61 25.5 112t65 86.5t105 67.5t125.5 52.5t148 45.5l228 66q-3 145 -74 212.5t-192 67.5q-187 0 -332 -174l-21 19q90 110 207 172.5t252 62.5q365 0 365 -383v-395q0 -115 16 -164.5
t65 -66.5v-29h-71q-56 -55 -78.5 -94.5t-22.5 -77.5q0 -45 33.5 -69.5t85.5 -24.5q54 0 105 33l10 -9l-74 -129q-34 -24 -94 -24q-67 0 -114.5 39.5t-47.5 103.5q0 60 40.5 119.5t119.5 132.5h-96zM252 319q0 -94 56 -142t134 -48q58 0 109.5 31t88 80.5t64 111.5t40.5 125
t14 119v53l-219 -63q-36 -10 -67.5 -22t-74 -35t-72.5 -50.5t-51.5 -69.5t-21.5 -90z" />
    <glyph glyph-name="Cacute" unicode="&#x106;" horiz-adv-x="1538" 
d="M901 -20q-370 0 -580 185.5t-210 526.5q0 155 59.5 293t166 240.5t263 162.5t340.5 60q130 0 262.5 -25t206.5 -75l8 -271l-24 -6q-62 155 -203 246.5t-303 91.5q-124 0 -226 -41t-176.5 -118.5t-115.5 -196.5t-41 -269q0 -119 27 -231t81 -208t129 -168t177 -113
t219 -41q167 0 285 93.5t175 258.5l27 -4l-33 -293q-218 -98 -514 -98zM1004 1640l-353 -106l-8 14l207 178q41 37 60 47.5t42 10.5q38 0 83.5 -26t45.5 -48q0 -15 -4 -25.5t-22 -23t-51 -21.5z" />
    <glyph glyph-name="cacute" unicode="&#x107;" horiz-adv-x="1081" 
d="M549 -20q-95 0 -182 33t-155 94t-108.5 156t-40.5 210q0 125 46 232.5t123 179.5t176.5 112.5t207.5 40.5q158 0 263.5 -35.5t105.5 -80.5q0 -47 -46.5 -90.5t-92.5 -43.5q-43 0 -116 51.5t-191 164.5q-131 -20 -212 -134.5t-81 -265.5q0 -203 115.5 -331t308.5 -128
q209 0 354 162l18 -20q-39 -59 -84.5 -109t-106.5 -97t-139 -74t-163 -27zM748 1333l-353 -147l-8 14l207 219q36 37 56 47.5t46 10.5q38 0 83.5 -26t45.5 -48q0 -20 -15 -34.5t-62 -35.5z" />
    <glyph glyph-name="Cdotaccent" unicode="&#x10a;" horiz-adv-x="1538" 
d="M901 -20q-370 0 -580 185.5t-210 526.5q0 155 59.5 293t166 240.5t263 162.5t340.5 60q130 0 262.5 -25t206.5 -75l8 -271l-24 -6q-62 155 -203 246.5t-303 91.5q-124 0 -226 -41t-176.5 -118.5t-115.5 -196.5t-41 -269q0 -119 27 -231t81 -208t129 -168t177 -113
t219 -41q167 0 285 93.5t175 258.5l27 -4l-33 -293q-218 -98 -514 -98zM903 1522q-59 0 -99 40t-40 99q0 60 40 100.5t99 40.5q61 0 100 -40t39 -101q0 -59 -40 -99t-99 -40z" />
    <glyph glyph-name="cdotaccent" unicode="&#x10b;" horiz-adv-x="1081" 
d="M549 -20q-95 0 -182 33t-155 94t-108.5 156t-40.5 210q0 125 46 232.5t123 179.5t176.5 112.5t207.5 40.5q158 0 263.5 -35.5t105.5 -80.5q0 -47 -46.5 -90.5t-92.5 -43.5q-43 0 -116 51.5t-191 164.5q-131 -20 -212 -134.5t-81 -265.5q0 -203 115.5 -331t308.5 -128
q209 0 354 162l18 -20q-39 -59 -84.5 -109t-106.5 -97t-139 -74t-163 -27zM565 1112q-59 0 -99 40t-40 99q0 60 40 101t99 41q61 0 100.5 -40.5t39.5 -101.5q0 -58 -40.5 -98.5t-99.5 -40.5z" />
    <glyph glyph-name="Ccaron" unicode="&#x10c;" horiz-adv-x="1538" 
d="M901 -20q-370 0 -580 185.5t-210 526.5q0 155 59.5 293t166 240.5t263 162.5t340.5 60q130 0 262.5 -25t206.5 -75l8 -271l-24 -6q-62 155 -203 246.5t-303 91.5q-124 0 -226 -41t-176.5 -118.5t-115.5 -196.5t-41 -269q0 -119 27 -231t81 -208t129 -168t177 -113
t219 -41q167 0 285 93.5t175 258.5l27 -4l-33 -293q-218 -98 -514 -98zM684 1792l213 -94l225 94l19 -18l-238 -240h-12l-223 244z" />
    <glyph glyph-name="ccaron" unicode="&#x10d;" horiz-adv-x="1081" 
d="M549 -20q-95 0 -182 33t-155 94t-108.5 156t-40.5 210q0 125 46 232.5t123 179.5t176.5 112.5t207.5 40.5q158 0 263.5 -35.5t105.5 -80.5q0 -47 -46.5 -90.5t-92.5 -43.5q-43 0 -116 51.5t-191 164.5q-131 -20 -212 -134.5t-81 -265.5q0 -203 115.5 -331t308.5 -128
q209 0 354 162l18 -20q-39 -59 -84.5 -109t-106.5 -97t-139 -74t-163 -27zM301 1475l258 -136l266 136l19 -19l-279 -280h-12l-268 284z" />
    <glyph glyph-name="Dcaron" unicode="&#x10e;" horiz-adv-x="1497" 
d="M653 0h-557v29q49 17 65.5 66.5t16.5 164.5v914q0 115 -16.5 164.5t-65.5 66.5v29h512q170 0 307 -43t224 -112.5t146 -161.5t83 -184.5t25 -187.5q1 -220 -89.5 -389t-259 -262.5t-391.5 -93.5zM639 33q255 0 383.5 146t128.5 466q0 160 -42 295.5t-123 239.5
t-211.5 162.5t-297.5 58.5h-82v-1219q0 -79 26.5 -114t106.5 -35h111zM498 1792l213 -94l225 94l18 -18l-237 -240h-12l-224 244z" />
    <glyph glyph-name="dcaron" unicode="&#x10f;" horiz-adv-x="1181" 
d="M500 -25q-126 2 -227.5 73.5t-155.5 184t-54 240.5q0 157 67.5 284t199.5 203t305 76q119 0 219 -51v361q0 58 -11 91.5t-26 45.5t-45 26v29l270 119l21 -17v-1380q0 -115 16.5 -164.5t65.5 -66.5v-29h-209q-82 0 -82 82v86q-171 -198 -354 -193zM1274 1190q18 54 18 96
q0 58 -43 138t-43 124q0 43 23.5 74t70.5 31q29 0 49.5 -12.5t30 -33t13.5 -40.5t4 -41q0 -101 -94 -344zM264 639q0 -53 6.5 -108t21.5 -118.5t43 -117.5t66.5 -99.5t96.5 -71.5t129 -26q121 0 227 113v453q0 76 -39.5 152t-111.5 126.5t-154 50.5q-65 0 -116 -21.5
t-82 -56t-51 -82t-28 -95t-8 -99.5z" />
    <glyph glyph-name="Dcroat" unicode="&#x110;" horiz-adv-x="1497" 
d="M653 0h-557v29q49 17 65.5 66.5t16.5 164.5v914q0 115 -16.5 164.5t-65.5 66.5v29h512q170 0 307 -43t224 -112.5t146 -161.5t83 -184.5t25 -187.5q1 -220 -89.5 -389t-259 -262.5t-391.5 -93.5zM639 33q255 0 383.5 146t128.5 466q0 160 -42 295.5t-123 239.5
t-211.5 162.5t-297.5 58.5h-82v-1219q0 -79 26.5 -114t106.5 -35h111zM86 795h498h-498z" />
    <glyph glyph-name="dcroat" unicode="&#x111;" horiz-adv-x="1181" 
d="M500 -25q-126 2 -227.5 73.5t-155.5 184t-54 240.5q0 157 67.5 284t199.5 203t305 76q119 0 219 -51v361q0 58 -11 91.5t-26 45.5t-45 26v29l270 119l21 -17v-1380q0 -115 16.5 -164.5t65.5 -66.5v-29h-209q-82 0 -82 82v86q-171 -198 -354 -193zM264 639q0 -53 6.5 -108
t21.5 -118.5t43 -117.5t66.5 -99.5t96.5 -71.5t129 -26q121 0 227 113v453q0 76 -39.5 152t-111.5 126.5t-154 50.5q-65 0 -116 -21.5t-82 -56t-51 -82t-28 -95t-8 -99.5zM588 1188h559h-559z" />
    <glyph glyph-name="Emacron" unicode="&#x112;" horiz-adv-x="1218" 
d="M1133 0h-1037v29q49 17 65.5 66.5t16.5 164.5v914q0 115 -16.5 164.5t-65.5 66.5v29h983l23 -289l-27 -6q-60 147 -161.5 204.5t-278.5 57.5h-240v-615h197q123 0 196 17.5t106.5 50t51.5 88.5h29v-344h-29q-18 56 -51.5 88.5t-106.5 50t-196 17.5h-197v-619
q0 -49 26.5 -75.5t76.5 -26.5h196q164 0 267 60t159 210l27 -4zM319 1604l-6 8l49 63q21 29 62 29h465l6 -8l-49 -64q-20 -28 -62 -28h-465z" />
    <glyph glyph-name="emacron" unicode="&#x113;" horiz-adv-x="1093" 
d="M549 -20q-69 0 -137.5 19t-131.5 59.5t-111 97.5t-77 139t-29 178q0 101 30.5 192t83 158t121 116t146.5 74t158 25q100 0 182 -32.5t134 -85t80 -117.5t28 -133h-776q-4 -46 -4 -66q0 -203 115.5 -331t308.5 -128q209 0 354 162l18 -20q-39 -59 -84.5 -109t-106.5 -97
t-139 -74t-163 -27zM281 1194l-7 8l50 64q20 28 61 28h465l6 -8l-49 -63q-21 -29 -62 -29h-464zM252 698h567q-21 129 -98.5 215.5t-181.5 87.5q-122 1 -194 -85t-93 -218z" />
    <glyph glyph-name="Edotaccent" unicode="&#x116;" horiz-adv-x="1218" 
d="M1133 0h-1037v29q49 17 65.5 66.5t16.5 164.5v914q0 115 -16.5 164.5t-65.5 66.5v29h983l23 -289l-27 -6q-60 147 -161.5 204.5t-278.5 57.5h-240v-615h197q123 0 196 17.5t106.5 50t51.5 88.5h29v-344h-29q-18 56 -51.5 88.5t-106.5 50t-196 17.5h-197v-619
q0 -49 26.5 -75.5t76.5 -26.5h196q164 0 267 60t159 210l27 -4zM602 1522q-58 0 -98.5 40t-40.5 99q0 60 40 100.5t99 40.5q61 0 100 -40t39 -101q0 -59 -40.5 -99t-98.5 -40z" />
    <glyph glyph-name="edotaccent" unicode="&#x117;" horiz-adv-x="1093" 
d="M549 -20q-69 0 -137.5 19t-131.5 59.5t-111 97.5t-77 139t-29 178q0 101 30.5 192t83 158t121 116t146.5 74t158 25q100 0 182 -32.5t134 -85t80 -117.5t28 -133h-776q-4 -46 -4 -66q0 -203 115.5 -331t308.5 -128q209 0 354 162l18 -20q-39 -59 -84.5 -109t-106.5 -97
t-139 -74t-163 -27zM563 1112q-59 0 -99 40t-40 99q0 60 40 101t99 41q61 0 100 -40.5t39 -101.5q0 -59 -40 -99t-99 -40zM252 698h567q-21 129 -98.5 215.5t-181.5 87.5q-122 1 -194 -85t-93 -218z" />
    <glyph glyph-name="Eogonek" unicode="&#x118;" horiz-adv-x="1218" 
d="M1133 0h-105q-56 -55 -78 -94t-22 -78q0 -45 33.5 -69.5t85.5 -24.5q53 0 104 33l10 -9l-74 -129q-34 -24 -94 -24q-67 0 -114.5 39.5t-47.5 103.5q0 60 40.5 119.5t119.5 132.5h-895v29q49 17 65.5 66.5t16.5 164.5v914q0 115 -16.5 164.5t-65.5 66.5v29h983l23 -289
l-27 -6q-60 147 -161.5 204.5t-278.5 57.5h-240v-615h197q123 0 196 17.5t106.5 50t51.5 88.5h29v-344h-29q-18 56 -51.5 88.5t-106.5 50t-196 17.5h-197v-619q0 -49 26.5 -75.5t76.5 -26.5h196q164 0 267 60t159 210l27 -4z" />
    <glyph glyph-name="eogonek" unicode="&#x119;" horiz-adv-x="1093" 
d="M549 -20q-69 0 -137.5 19t-131.5 59.5t-111 97.5t-77 139t-29 178q0 101 30.5 192t83 158t121 116t146.5 74t158 25q100 0 182 -32.5t134 -85t80 -117.5t28 -133h-776q-4 -46 -4 -66q0 -203 115.5 -331t308.5 -128q209 0 354 162l18 -20q-133 -198 -294 -267
q-68 -64 -94.5 -107.5t-26.5 -84.5q0 -45 33 -69.5t85 -24.5q54 0 105 33l10 -9l-74 -129q-34 -24 -94 -24q-67 0 -114.5 39.5t-47.5 103.5q0 60 40.5 119.5t119.5 132.5q-72 -20 -141 -20zM252 698h567q-21 129 -98.5 215.5t-181.5 87.5q-122 1 -194 -85t-93 -218z" />
    <glyph glyph-name="Ecaron" unicode="&#x11a;" horiz-adv-x="1218" 
d="M1133 0h-1037v29q49 17 65.5 66.5t16.5 164.5v914q0 115 -16.5 164.5t-65.5 66.5v29h983l23 -289l-27 -6q-60 147 -161.5 204.5t-278.5 57.5h-240v-615h197q123 0 196 17.5t106.5 50t51.5 88.5h29v-344h-29q-18 56 -51.5 88.5t-106.5 50t-196 17.5h-197v-619
q0 -49 26.5 -75.5t76.5 -26.5h196q164 0 267 60t159 210l27 -4zM383 1792l213 -94l225 94l19 -18l-238 -240h-12l-223 244z" />
    <glyph glyph-name="ecaron" unicode="&#x11b;" horiz-adv-x="1093" 
d="M549 -20q-69 0 -137.5 19t-131.5 59.5t-111 97.5t-77 139t-29 178q0 101 30.5 192t83 158t121 116t146.5 74t158 25q100 0 182 -32.5t134 -85t80 -117.5t28 -133h-776q-4 -46 -4 -66q0 -203 115.5 -331t308.5 -128q209 0 354 162l18 -20q-39 -59 -84.5 -109t-106.5 -97
t-139 -74t-163 -27zM299 1475l258 -136l266 136l19 -19l-279 -280h-12l-268 284zM252 698h567q-21 129 -98.5 215.5t-181.5 87.5q-122 1 -194 -85t-93 -218z" />
    <glyph glyph-name="Gbreve" unicode="&#x11e;" horiz-adv-x="1544" 
d="M883 -20q-352 0 -562 202.5t-210 540.5q0 147 56 279t155.5 231t244.5 157t314 58q112 0 241.5 -25.5t202.5 -74.5l8 -271l-24 -6q-61 154 -203.5 246t-300.5 92q-102 0 -187.5 -34.5t-150.5 -101.5t-102.5 -173t-38.5 -242q-1 -117 25 -235t80 -224.5t128 -189
t175.5 -131.5t215.5 -49q100 0 180 40t117 115v187q0 123 -21 173t-85 68v29h317v-377q-73 -95 -179.5 -161.5t-205.5 -94.5t-190 -28zM842 1538q-75 0 -123 49.5t-103 169.5l25 10q27 -31 46.5 -47.5t60 -31.5t94.5 -15q78 0 119.5 24t80.5 70l23 -10
q-56 -122 -102.5 -170.5t-120.5 -48.5z" />
    <glyph glyph-name="gbreve" unicode="&#x11f;" horiz-adv-x="1093" 
d="M356 -567q-40 0 -81.5 7t-86 25t-78 45t-55.5 71.5t-22 99.5q0 162 252 313q-138 40 -138 158q0 55 39 100t125 96q-190 91 -190 299q0 160 125 275.5t293 115.5q79 0 149 -18q45 67 109 110q104 74 221 74q51 0 85 -13.5t34 -41.5q0 -36 -36 -80.5t-93 -44.5t-228 57
q-31 -25 -61 -71q106 -35 169.5 -115t63.5 -205q0 -82 -41 -157t-103 -124.5t-133.5 -78.5t-135.5 -29q-111 0 -199 35q-30 -20 -44.5 -37t-14.5 -41q0 -17 8 -29.5t29.5 -26t67 -22t112.5 -12.5l274 -16q167 -10 240 -51.5t73 -145.5q0 -83 -62 -175.5t-160.5 -169
t-234.5 -127t-272 -50.5zM582 336q50 0 86.5 19.5t57 54t29.5 75t9 88.5q0 70 -20.5 147.5t-56.5 145t-93 108t-123 34.5q-160 -18 -160 -248q0 -66 16.5 -137.5t48 -137t85.5 -107.5t121 -42zM549 1165q-75 0 -124.5 51.5t-121.5 188.5l25 10q39 -43 61.5 -63t63.5 -36
t96 -16q79 0 123 26.5t98 88.5l23 -10q-72 -138 -121 -189t-123 -51zM201 -219q0 -115 84.5 -170t216.5 -55q208 0 346.5 87t138.5 199q0 53 -44.5 80t-160.5 33l-329 16q-50 2 -134 15q-118 -85 -118 -205z" />
    <glyph glyph-name="Gdotaccent" unicode="&#x120;" horiz-adv-x="1544" 
d="M883 -20q-352 0 -562 202.5t-210 540.5q0 147 56 279t155.5 231t244.5 157t314 58q112 0 241.5 -25.5t202.5 -74.5l8 -271l-24 -6q-61 154 -203.5 246t-300.5 92q-102 0 -187.5 -34.5t-150.5 -101.5t-102.5 -173t-38.5 -242q-1 -117 25 -235t80 -224.5t128 -189
t175.5 -131.5t215.5 -49q100 0 180 40t117 115v187q0 123 -21 173t-85 68v29h317v-377q-73 -95 -179.5 -161.5t-205.5 -94.5t-190 -28zM842 1522q-59 0 -99.5 40.5t-40.5 98.5q0 60 40.5 100.5t99.5 40.5q61 0 100 -40t39 -101q0 -59 -40.5 -99t-98.5 -40z" />
    <glyph glyph-name="gdotaccent" unicode="&#x121;" horiz-adv-x="1093" 
d="M356 -567q-40 0 -81.5 7t-86 25t-78 45t-55.5 71.5t-22 99.5q0 162 252 313q-138 40 -138 158q0 55 39 100t125 96q-190 91 -190 299q0 160 125 275.5t293 115.5q79 0 149 -18q45 67 109 110q104 74 221 74q51 0 85 -13.5t34 -41.5q0 -36 -36 -80.5t-93 -44.5t-228 57
q-31 -25 -61 -71q106 -35 169.5 -115t63.5 -205q0 -82 -41 -157t-103 -124.5t-133.5 -78.5t-135.5 -29q-111 0 -199 35q-30 -20 -44.5 -37t-14.5 -41q0 -17 8 -29.5t29.5 -26t67 -22t112.5 -12.5l274 -16q167 -10 240 -51.5t73 -145.5q0 -83 -62 -175.5t-160.5 -169
t-234.5 -127t-272 -50.5zM582 336q50 0 86.5 19.5t57 54t29.5 75t9 88.5q0 70 -20.5 147.5t-56.5 145t-93 108t-123 34.5q-160 -18 -160 -248q0 -66 16.5 -137.5t48 -137t85.5 -107.5t121 -42zM549 1112q-59 0 -99 40t-40 99q0 60 40 101t99 41q61 0 100 -40.5t39 -101.5
q0 -59 -40 -99t-99 -40zM201 -219q0 -115 84.5 -170t216.5 -55q208 0 346.5 87t138.5 199q0 53 -44.5 80t-160.5 33l-329 16q-50 2 -134 15q-118 -85 -118 -205z" />
    <glyph glyph-name="uni0122" unicode="&#x122;" horiz-adv-x="1544" 
d="M883 -20q-352 0 -562 202.5t-210 540.5q0 147 56 279t155.5 231t244.5 157t314 58q112 0 241.5 -25.5t202.5 -74.5l8 -271l-24 -6q-61 154 -203.5 246t-300.5 92q-102 0 -187.5 -34.5t-150.5 -101.5t-102.5 -173t-38.5 -242q-1 -117 25 -235t80 -224.5t128 -189
t175.5 -131.5t215.5 -49q100 0 180 40t117 115v187q0 123 -21 173t-85 68v29h317v-377q-73 -95 -179.5 -161.5t-205.5 -94.5t-190 -28zM737 -522q65 36 102 95t42 128q-28 -8 -43 -8q-41 0 -69 27.5t-28 68.5q0 50 29 81.5t78 31.5q56 0 89.5 -36.5t33.5 -107.5
q0 -97 -71 -185.5t-152 -117.5z" />
    <glyph glyph-name="uni0123" unicode="&#x123;" horiz-adv-x="1093" 
d="M356 -567q-40 0 -81.5 7t-86 25t-78 45t-55.5 71.5t-22 99.5q0 162 252 313q-138 40 -138 158q0 55 39 100t125 96q-190 91 -190 299q0 160 125 275.5t293 115.5q79 0 149 -18q45 67 109 110q104 74 221 74q51 0 85 -13.5t34 -41.5q0 -36 -36 -80.5t-93 -44.5t-228 57
q-31 -25 -61 -71q106 -35 169.5 -115t63.5 -205q0 -82 -41 -157t-103 -124.5t-133.5 -78.5t-135.5 -29q-111 0 -199 35q-30 -20 -44.5 -37t-14.5 -41q0 -17 8 -29.5t29.5 -26t67 -22t112.5 -12.5l274 -16q167 -10 240 -51.5t73 -145.5q0 -83 -62 -175.5t-160.5 -169
t-234.5 -127t-272 -50.5zM582 336q50 0 86.5 19.5t57 54t29.5 75t9 88.5q0 70 -20.5 147.5t-56.5 145t-93 108t-123 34.5q-160 -18 -160 -248q0 -66 16.5 -137.5t48 -137t85.5 -107.5t121 -42zM598 1163q-56 0 -89.5 36.5t-33.5 107.5q0 97 71 185.5t152 117.5l11 -23
q-65 -36 -102 -95t-42 -128q28 8 43 8q41 0 69 -27.5t28 -68.5q0 -50 -29 -81.5t-78 -31.5zM201 -219q0 -115 84.5 -170t216.5 -55q208 0 346.5 87t138.5 199q0 53 -44.5 80t-160.5 33l-329 16q-50 2 -134 15q-118 -85 -118 -205z" />
    <glyph glyph-name="Hbar" unicode="&#x126;" horiz-adv-x="1503" 
d="M96 0v29q49 17 65.5 66.5t16.5 164.5v914q0 115 -16.5 164.5t-65.5 66.5v29h381v-29q-49 -17 -65.5 -66.5t-16.5 -164.5v-396h713v396q0 115 -16.5 164.5t-65.5 66.5v29h381v-29q-49 -17 -65.5 -66.5t-16.5 -164.5v-914q0 -115 16.5 -164.5t65.5 -66.5v-29h-381v29
q49 17 65.5 66.5t16.5 164.5v481h-713v-481q0 -115 16.5 -164.5t65.5 -66.5v-29h-381zM74 1098h1337h-1337z" />
    <glyph glyph-name="hbar" unicode="&#x127;" horiz-adv-x="1189" 
d="M41 0v29q49 17 65.5 66.5t16.5 164.5v1086q0 58 -11 91.5t-26 45.5t-45 26v29l270 119l21 -17v-786q226 184 420 184q148 0 231.5 -82.5t83.5 -255.5v-440q0 -115 16.5 -164.5t65.5 -66.5v-29h-373v29q49 17 65.5 66.5t16.5 164.5v404q0 140 -59 216t-172 76
q-70 0 -139 -33.5t-156 -103.5v-559q0 -115 16.5 -164.5t65.5 -66.5v-29h-373zM51 1188h559h-559z" />
    <glyph glyph-name="Imacron" unicode="&#x12a;" horiz-adv-x="573" 
d="M96 0v29q49 17 65.5 66.5t16.5 164.5v914q0 115 -16.5 164.5t-65.5 66.5v29h381v-29q-49 -17 -65.5 -66.5t-16.5 -164.5v-914q0 -115 16.5 -164.5t65.5 -66.5v-29h-381zM4 1604l-6 8l49 63q21 29 62 29h464l7 -8l-50 -64q-20 -28 -61 -28h-465z" />
    <glyph glyph-name="imacron" unicode="&#x12b;" horiz-adv-x="491" 
d="M57 0v29q49 17 65.5 66.5t16.5 164.5v471q0 83 -18.5 113.5t-63.5 50.5v29l271 118l20 -16v-766q0 -115 16.5 -164.5t65.5 -66.5v-29h-373zM-51 1194l-6 8l49 64q20 28 61 28h465l6 -8l-49 -63q-21 -29 -61 -29h-465z" />
    <glyph glyph-name="Iogonek" unicode="&#x12e;" horiz-adv-x="573" 
d="M283 0q-68 -64 -94.5 -107.5t-26.5 -85.5q0 -45 33.5 -69.5t85.5 -24.5q53 0 104 33l10 -8l-73 -129q-36 -25 -95 -25q-67 0 -114 40t-47 104q0 65 45.5 129.5t136.5 142.5h-152v29q49 17 65.5 66.5t16.5 164.5v914q0 115 -16.5 164.5t-65.5 66.5v29h381v-29
q-49 -17 -65.5 -66.5t-16.5 -164.5v-914q0 -115 16.5 -164.5t65.5 -66.5v-29h-194z" />
    <glyph glyph-name="iogonek" unicode="&#x12f;" horiz-adv-x="491" 
d="M57 0v29q49 17 65.5 66.5t16.5 164.5v471q0 83 -18.5 113.5t-63.5 50.5v29l271 118l20 -16v-766q0 -115 16.5 -164.5t65.5 -66.5v-29h-43q-56 -55 -78 -94t-22 -78q0 -45 33.5 -69.5t85.5 -24.5q53 0 104 33l10 -9l-74 -129q-34 -24 -94 -24q-67 0 -114.5 39.5
t-47.5 103.5q0 60 40.5 119.5t119.5 132.5h-293zM231 1112q-59 0 -99 40t-40 99q0 60 40 101t99 41q61 0 100.5 -40.5t39.5 -101.5q0 -58 -40.5 -98.5t-99.5 -40.5z" />
    <glyph glyph-name="Idotaccent" unicode="&#x130;" horiz-adv-x="573" 
d="M96 0v29q49 17 65.5 66.5t16.5 164.5v914q0 115 -16.5 164.5t-65.5 66.5v29h381v-29q-49 -17 -65.5 -66.5t-16.5 -164.5v-914q0 -115 16.5 -164.5t65.5 -66.5v-29h-381zM287 1522q-59 0 -99.5 40.5t-40.5 98.5q0 60 40.5 100.5t99.5 40.5q61 0 100 -40t39 -101
q0 -59 -40 -99t-99 -40z" />
    <glyph glyph-name="dotlessi" unicode="&#x131;" horiz-adv-x="491" 
d="M57 0v29q49 17 65.5 66.5t16.5 164.5v471q0 83 -18.5 113.5t-63.5 50.5v29l271 118l20 -16v-766q0 -115 16.5 -164.5t65.5 -66.5v-29h-373z" />
    <glyph glyph-name="IJ" unicode="&#x132;" horiz-adv-x="1155" 
d="M96 0v29q49 17 65.5 66.5t16.5 164.5v914q0 115 -16.5 164.5t-65.5 66.5v29h381v-29q-49 -17 -65.5 -66.5t-16.5 -164.5v-914q0 -115 16.5 -164.5t65.5 -66.5v-29h-381zM412 -246q-52 0 -75.5 11t-23.5 45q0 41 35.5 75.5t93.5 34.5q14 0 28.5 -1.5t25.5 -2.5t34 -5.5
t36 -7t49 -10.5t57 -12q19 13 31.5 27t27.5 42.5t23 79t8 120.5v1024q0 115 -16.5 164.5t-65.5 66.5v29h379v-29q-49 -17 -65.5 -66.5t-16.5 -164.5v-676q0 -157 -47 -297t-125 -237t-180.5 -153.5t-212.5 -56.5z" />
    <glyph glyph-name="ij" unicode="&#x133;" horiz-adv-x="989" 
d="M57 0v29q49 17 65.5 66.5t16.5 164.5v471q0 83 -18.5 113.5t-63.5 50.5v29l271 118l20 -16v-766q0 -115 16.5 -164.5t65.5 -66.5v-29h-373zM231 1112q-59 0 -99 40t-40 99q0 60 40 101t99 41q61 0 100.5 -40.5t39.5 -101.5q0 -58 -40.5 -98.5t-99.5 -40.5zM293 -569
q-57 0 -93 14t-36 43q0 36 39 80.5t90 44.5q25 0 61 -4.5t58.5 -8.5t77 -15.5t71.5 -14.5q17 13 30.5 26.5t23 31.5t16.5 30t11 38t6.5 39.5t3.5 48.5t1 51.5v62.5v32v801q0 83 -18.5 113.5t-63.5 50.5v29l271 118l20 -16v-938q0 -138 -82 -291.5t-216.5 -259.5t-270.5 -106
zM737 1112q-59 0 -99 40t-40 99q0 60 40 101t99 41q61 0 100.5 -40.5t39.5 -101.5q0 -58 -40.5 -98.5t-99.5 -40.5z" />
    <glyph glyph-name="uni0136" unicode="&#x136;" horiz-adv-x="1320" 
d="M96 0v29q49 17 65.5 66.5t16.5 164.5v914q0 115 -16.5 164.5t-65.5 66.5v29h381v-29q-49 -17 -65.5 -66.5t-16.5 -164.5v-482l498 510q186 189 49 211v21h322v-29q-54 -15 -88.5 -28t-89.5 -47t-103 -83l-436 -446l51 2q116 6 188 -9.5t127.5 -72.5t90 -125t88.5 -207
q64 -164 96.5 -234.5t58.5 -98t60 -27.5q18 0 30 2v-31q-55 -14 -139 -14q-27 0 -47 1t-39.5 7t-33 10t-29.5 19t-26 24.5t-25 35.5t-24.5 44t-27 57.5t-29 68t-34.5 83.5q-14 35 -35.5 88t-31.5 79t-27 65t-27 57t-25.5 44.5t-28 37.5t-30.5 25.5t-36.5 20t-41.5 9.5t-51 4
h-37l-117 -121v-385q0 -115 16.5 -164.5t65.5 -66.5v-29h-381zM489 -522q65 36 102 95t42 128q-28 -8 -43 -8q-41 0 -68.5 27.5t-27.5 68.5q0 50 28.5 81.5t77.5 31.5q56 0 89.5 -36.5t33.5 -107.5q0 -97 -71 -185.5t-152 -117.5z" />
    <glyph glyph-name="uni0137" unicode="&#x137;" horiz-adv-x="1105" 
d="M61 0v29q49 17 65.5 66.5t16.5 164.5v1086q0 58 -11 91.5t-26 45.5t-45 26v29l271 119l20 -17v-1177l322 319q61 61 89 112t24.5 77.5t-25.5 34.5v18h260v-29q-63 -19 -121.5 -52t-128.5 -103l-131 -131l244 -441q70 -125 122 -182t119 -57v-29h-163q-79 0 -151 57
t-142 189l-170 323l-148 -147v-162q0 -115 16.5 -164.5t65.5 -66.5v-29h-373zM440 -522q65 36 102 95t42 128q-28 -8 -43 -8q-41 0 -69 27.5t-28 68.5q0 50 29 81.5t78 31.5q56 0 89.5 -36.5t33.5 -107.5q0 -97 -71 -185.5t-152 -117.5z" />
    <glyph glyph-name="Lacute" unicode="&#x139;" horiz-adv-x="1124" 
d="M1071 0h-975v29q49 17 65.5 66.5t16.5 164.5v914q0 115 -16.5 164.5t-65.5 66.5v29h381v-29q-49 -17 -65.5 -66.5t-16.5 -164.5v-1035q0 -49 26.5 -75.5t76.5 -26.5h168q159 0 247 48t148 177l26 -4zM377 1640l-352 -106l-9 14l207 178q41 36 60.5 47t42.5 11
q38 0 83.5 -26t45.5 -48q0 -23 -15 -39.5t-63 -30.5z" />
    <glyph glyph-name="lacute" unicode="&#x13a;" horiz-adv-x="503" 
d="M61 0v29q49 17 65.5 66.5t16.5 164.5v1086q0 58 -11 91.5t-26 45.5t-45 26v29l271 119l20 -17v-1380q0 -115 16.5 -164.5t65.5 -66.5v-29h-373zM432 1948l-352 -148l-8 15l207 219q35 37 55.5 47t46.5 10q38 0 83.5 -26t45.5 -48q0 -20 -15 -34t-63 -35z" />
    <glyph glyph-name="uni013B" unicode="&#x13b;" horiz-adv-x="1124" 
d="M1071 0h-975v29q49 17 65.5 66.5t16.5 164.5v914q0 115 -16.5 164.5t-65.5 66.5v29h381v-29q-49 -17 -65.5 -66.5t-16.5 -164.5v-1035q0 -49 26.5 -75.5t76.5 -26.5h168q159 0 247 48t148 177l26 -4zM436 -522q65 36 102 95t42 128q-28 -8 -43 -8q-41 0 -69 27.5
t-28 68.5q0 50 29 81.5t78 31.5q56 0 89.5 -36.5t33.5 -107.5q0 -97 -71 -185.5t-153 -117.5z" />
    <glyph glyph-name="uni013C" unicode="&#x13c;" horiz-adv-x="503" 
d="M61 0v29q49 17 65.5 66.5t16.5 164.5v1086q0 58 -11 91.5t-26 45.5t-45 26v29l271 119l20 -17v-1380q0 -115 16.5 -164.5t65.5 -66.5v-29h-373zM137 -522q65 36 102 95t42 128q-28 -8 -43 -8q-41 0 -69 27.5t-28 68.5q0 50 29 81.5t78 31.5q56 0 89.5 -36.5t33.5 -107.5
q0 -97 -71 -185.5t-153 -117.5z" />
    <glyph glyph-name="Lcaron" unicode="&#x13d;" horiz-adv-x="1124" 
d="M1071 0h-975v29q49 17 65.5 66.5t16.5 164.5v914q0 115 -16.5 164.5t-65.5 66.5v29h381v-29q-49 -17 -65.5 -66.5t-16.5 -164.5v-1035q0 -49 26.5 -75.5t76.5 -26.5h168q159 0 247 48t148 177l26 -4zM721 985q18 54 18 96q0 58 -43 138t-43 124q0 43 24 74t71 31
q38 0 61 -23t29 -48.5t6 -55.5q0 -101 -94 -344z" />
    <glyph glyph-name="lcaron" unicode="&#x13e;" horiz-adv-x="503" 
d="M61 0v29q49 17 65.5 66.5t16.5 164.5v1086q0 58 -11 91.5t-26 45.5t-45 26v29l271 119l20 -17v-1380q0 -115 16.5 -164.5t65.5 -66.5v-29h-373zM549 1190q18 54 18 96q0 58 -43 138t-43 124q0 43 23.5 74t70.5 31q29 0 49.5 -12.5t30 -33t13.5 -40.5t4 -41
q0 -101 -94 -344z" />
    <glyph glyph-name="Lslash" unicode="&#x141;" horiz-adv-x="1124" 
d="M1071 0h-975v29q49 17 65.5 66.5t16.5 164.5v914q0 115 -16.5 164.5t-65.5 66.5v29h381v-29q-49 -17 -65.5 -66.5t-16.5 -164.5v-1035q0 -49 26.5 -75.5t76.5 -26.5h168q159 0 247 48t148 177l26 -4zM68 623l516 231z" />
    <glyph glyph-name="lslash" unicode="&#x142;" horiz-adv-x="503" 
d="M61 0v29q49 17 65.5 66.5t16.5 164.5v1086q0 58 -11 91.5t-26 45.5t-45 26v29l271 119l20 -17v-1380q0 -115 16.5 -164.5t65.5 -66.5v-29h-373zM-16 643l516 231z" />
    <glyph glyph-name="Nacute" unicode="&#x143;" horiz-adv-x="1355" 
d="M1176 -16l-961 1212v-813q0 -123 17.5 -196t50 -106.5t88.5 -51.5v-29h-275v29q49 17 65.5 66.5t16.5 164.5v914q0 115 -21 164.5t-85 66.5v29h231l860 -1078v695q0 123 -17.5 196t-49.5 106.5t-88 51.5v29h276v-29q-49 -17 -65.5 -66.5t-16.5 -164.5v-1190h-26z
M791 1640l-353 -106l-8 14l207 178q41 37 60 47.5t42 10.5q38 0 83.5 -26t45.5 -48q0 -15 -4 -25.5t-22 -23t-51 -21.5z" />
    <glyph glyph-name="nacute" unicode="&#x144;" horiz-adv-x="1206" 
d="M57 0v29q49 17 65.5 66.5t16.5 164.5v471q0 83 -18.5 113.5t-63.5 50.5v29l271 118l20 -16v-172q226 184 420 184q148 0 231.5 -82.5t83.5 -255.5v-440q0 -115 16.5 -164.5t65.5 -66.5v-29h-372v29q49 17 65 66.5t16 164.5v404q0 140 -59 216t-172 76q-70 0 -139 -33.5
t-156 -103.5v-559q0 -115 16.5 -164.5t65.5 -66.5v-29h-373zM770 1333l-352 -147l-8 14l206 219q36 37 56.5 47.5t46.5 10.5q38 0 83.5 -26t45.5 -48q0 -20 -15.5 -34.5t-62.5 -35.5z" />
    <glyph glyph-name="uni0145" unicode="&#x145;" horiz-adv-x="1355" 
d="M1176 -16l-961 1212v-813q0 -123 17.5 -196t50 -106.5t88.5 -51.5v-29h-275v29q49 17 65.5 66.5t16.5 164.5v914q0 115 -21 164.5t-85 66.5v29h231l860 -1078v695q0 123 -17.5 196t-49.5 106.5t-88 51.5v29h276v-29q-49 -17 -65.5 -66.5t-16.5 -164.5v-1190h-26z
M520 -522q65 36 102 95t42 128q-28 -8 -43 -8q-41 0 -69 27.5t-28 68.5q0 50 29 81.5t78 31.5q56 0 89.5 -36.5t33.5 -107.5q0 -97 -71 -185.5t-153 -117.5z" />
    <glyph glyph-name="uni0146" unicode="&#x146;" horiz-adv-x="1206" 
d="M57 0v29q49 17 65.5 66.5t16.5 164.5v471q0 83 -18.5 113.5t-63.5 50.5v29l271 118l20 -16v-172q226 184 420 184q148 0 231.5 -82.5t83.5 -255.5v-440q0 -115 16.5 -164.5t65.5 -66.5v-29h-372v29q49 17 65 66.5t16 164.5v404q0 140 -59 216t-172 76q-70 0 -139 -33.5
t-156 -103.5v-559q0 -115 16.5 -164.5t65.5 -66.5v-29h-373zM475 -522q65 36 101.5 95t41.5 128q-28 -8 -43 -8q-41 0 -68.5 27.5t-27.5 68.5q0 50 29 81.5t78 31.5q56 0 89.5 -36.5t33.5 -107.5q0 -97 -71 -185.5t-153 -117.5z" />
    <glyph glyph-name="Ncaron" unicode="&#x147;" horiz-adv-x="1355" 
d="M1176 -16l-961 1212v-813q0 -123 17.5 -196t50 -106.5t88.5 -51.5v-29h-275v29q49 17 65.5 66.5t16.5 164.5v914q0 115 -21 164.5t-85 66.5v29h231l860 -1078v695q0 123 -17.5 196t-49.5 106.5t-88 51.5v29h276v-29q-49 -17 -65.5 -66.5t-16.5 -164.5v-1190h-26z
M471 1792l213 -94l225 94l19 -18l-238 -240h-12l-223 244z" />
    <glyph glyph-name="ncaron" unicode="&#x148;" horiz-adv-x="1206" 
d="M57 0v29q49 17 65.5 66.5t16.5 164.5v471q0 83 -18.5 113.5t-63.5 50.5v29l271 118l20 -16v-172q226 184 420 184q148 0 231.5 -82.5t83.5 -255.5v-440q0 -115 16.5 -164.5t65.5 -66.5v-29h-372v29q49 17 65 66.5t16 164.5v404q0 140 -59 216t-172 76q-70 0 -139 -33.5
t-156 -103.5v-559q0 -115 16.5 -164.5t65.5 -66.5v-29h-373zM324 1475l258 -136l266 136l18 -19l-278 -280h-13l-268 284z" />
    <glyph glyph-name="Omacron" unicode="&#x14c;" horiz-adv-x="1679" 
d="M844 -20q-107 0 -210 27.5t-198 87t-167 144.5t-115 210t-43 274q0 151 54 284.5t149 231.5t232.5 154.5t297.5 56.5q106 0 209 -28t197.5 -88t166.5 -145.5t115 -208.5t43 -269q0 -145 -43 -267.5t-115 -206.5t-167 -143t-198 -86.5t-208 -27.5zM961 43q91 0 164 27
t120 73.5t77 111t41 138t5 156.5q-16 221 -97 412.5t-222 313.5t-312 122q-208 0 -319 -149.5t-94 -399.5q9 -122 43.5 -240.5t93 -220t133.5 -179t170 -121.5t197 -44zM539 1604l-7 8l50 63q21 29 61 29h465l6 -8l-49 -64q-20 -28 -61 -28h-465z" />
    <glyph glyph-name="omacron" unicode="&#x14d;" horiz-adv-x="1239" 
d="M610 -20q-103 0 -198.5 31t-174.5 90.5t-126.5 159t-47.5 224.5q0 121 46 226t122 175.5t175 111t204 40.5q78 0 154 -18t147.5 -58t125 -98.5t86 -145t32.5 -190.5q0 -126 -51 -232.5t-131.5 -173.5t-175 -104.5t-187.5 -37.5zM682 25q72 0 125.5 29.5t83 80t43.5 110
t14 128.5q0 79 -20 167.5t-60 172.5t-92 150.5t-123 104t-147 29.5q-64 -7 -111.5 -38.5t-74.5 -82t-39.5 -109.5t-12.5 -128q0 -94 27.5 -198.5t77.5 -198.5t131.5 -155.5t177.5 -61.5zM332 1194l-6 8l49 64q20 28 61 28h465l6 -8l-49 -63q-21 -29 -61 -29h-465z" />
    <glyph glyph-name="Ohungarumlaut" unicode="&#x150;" horiz-adv-x="1679" 
d="M844 -20q-107 0 -210 27.5t-198 87t-167 144.5t-115 210t-43 274q0 151 54 284.5t149 231.5t232.5 154.5t297.5 56.5q106 0 209 -28t197.5 -88t166.5 -145.5t115 -208.5t43 -269q0 -145 -43 -267.5t-115 -206.5t-167 -143t-198 -86.5t-208 -27.5zM961 43q91 0 164 27
t120 73.5t77 111t41 138t5 156.5q-16 221 -97 412.5t-222 313.5t-312 122q-208 0 -319 -149.5t-94 -399.5q9 -122 43.5 -240.5t93 -220t133.5 -179t170 -121.5t197 -44zM899 1528l-10 10l168 182q33 36 51.5 47t50.5 11q39 0 63.5 -10t24.5 -27t-15.5 -33.5t-62.5 -40.5z
M612 1528l-10 10l168 182q33 36 53.5 47t55.5 11t58.5 -10t23.5 -27t-15.5 -33.5t-62.5 -40.5z" />
    <glyph glyph-name="ohungarumlaut" unicode="&#x151;" horiz-adv-x="1239" 
d="M610 -20q-103 0 -198.5 31t-174.5 90.5t-126.5 159t-47.5 224.5q0 121 46 226t122 175.5t175 111t204 40.5q78 0 154 -18t147.5 -58t125 -98.5t86 -145t32.5 -190.5q0 -126 -51 -232.5t-131.5 -173.5t-175 -104.5t-187.5 -37.5zM682 25q72 0 125.5 29.5t83 80t43.5 110
t14 128.5q0 79 -20 167.5t-60 172.5t-92 150.5t-123 104t-147 29.5q-64 -7 -111.5 -38.5t-74.5 -82t-39.5 -109.5t-12.5 -128q0 -94 27.5 -198.5t77.5 -198.5t131.5 -155.5t177.5 -61.5zM829 1419q25 38 44 48t59 10q39 0 63.5 -10t24.5 -27q0 -15 -16 -31.5t-62 -48.5
l-250 -174h-18zM543 1419q25 38 43.5 48t58.5 10q39 0 63.5 -10t24.5 -27q0 -15 -16 -31.5t-62 -48.5l-249 -174h-19z" />
    <glyph glyph-name="OE" unicode="&#x152;" horiz-adv-x="2109" 
d="M842 -20q-139 0 -267.5 45.5t-233 132t-167.5 227.5t-63 317q0 144 44 267.5t119.5 210t175.5 148t211.5 91t227.5 29.5q165 0 297 -14h809l24 -230l-26 -6q-48 107 -140 153t-262 46h-284v-596h192q123 0 196 17.5t106.5 49.5t51.5 88h29v-348h-29q-18 56 -51.5 88.5
t-106.5 50t-196 17.5h-192v-625q0 -49 26.5 -75.5t75.5 -26.5h207q159 0 247 48t148 177h27l-15 -262h-925q-114 -20 -256 -20zM913 20q78 0 131.5 43t53.5 103v1034q0 63 -44 109t-107.5 66t-135.5 20q-122 0 -217.5 -41.5t-154.5 -114.5t-89.5 -167.5t-30.5 -205.5
q0 -91 16 -187t47 -191.5t81.5 -179t114 -148.5t150 -102.5t185.5 -37.5z" />
    <glyph glyph-name="oe" unicode="&#x153;" horiz-adv-x="1986" 
d="M598 -20q-76 0 -151.5 19t-145 60t-122.5 98.5t-84.5 141t-31.5 180.5q0 105 33.5 196.5t90.5 157t131.5 112.5t156.5 70t166 23q137 0 255.5 -62t184.5 -175q75 112 194 174.5t247 62.5q100 0 182 -32.5t134 -85t80 -117.5t28 -133h-777q-4 -46 -4 -66
q0 -203 115.5 -331t308.5 -128q210 0 355 162l18 -20q-39 -59 -84.5 -109t-107 -97t-139.5 -74t-163 -27q-124 0 -238 59.5t-179 171.5q-78 -114 -200.5 -172.5t-252.5 -58.5zM698 39q132 0 207.5 92.5t75.5 253.5q0 152 -56.5 290.5t-157.5 226t-218 87.5
q-125 0 -212 -90.5t-87 -241.5q0 -125 37 -239.5t98 -197.5t143.5 -132t169.5 -49zM1171 698h568q-21 128 -99 215t-182 88q-122 1 -194 -85t-93 -218z" />
    <glyph glyph-name="Racute" unicode="&#x154;" horiz-adv-x="1265" 
d="M1139 -14q-50 0 -88 15.5t-63 34t-55 72t-46 90t-53 126.5q-3 8 -5 12q-16 39 -37 92t-31.5 80t-27 64t-27 54.5t-26.5 40t-30.5 32t-35.5 20t-44.5 13.5t-53.5 3h-121v-475q0 -115 16.5 -164.5t65.5 -66.5v-29h-381v29q49 17 65.5 66.5t16.5 164.5v914
q0 115 -16.5 164.5t-65.5 66.5v29h430q129 0 226.5 -18.5t156 -48.5t94.5 -74t49 -88.5t13 -98.5q0 -146 -101.5 -242.5t-299.5 -120.5q44 -5 78.5 -13t64 -22.5t51.5 -29t44.5 -42t37.5 -50.5t35.5 -66t35 -77.5t38.5 -94.5q86 -215 118.5 -268t87.5 -53q21 0 31 2v-29
q-55 -14 -147 -14zM526 768q165 0 243.5 80t78.5 209q0 65 -21.5 124.5t-63.5 109.5t-114 80t-164 30q-43 0 -90 -6v-627h131zM631 1640l-352 -106l-9 14l207 178q41 36 60.5 47t42.5 11q38 0 83.5 -26t45.5 -48q0 -23 -15 -39.5t-63 -30.5z" />
    <glyph glyph-name="racute" unicode="&#x155;" horiz-adv-x="923" 
d="M57 0v29q49 17 65.5 66.5t16.5 164.5v471q0 83 -18.5 113.5t-63.5 50.5v29l271 118l20 -16v-248q47 110 150 180q115 80 252 80q57 0 94 -15.5t37 -45.5q0 -42 -38.5 -87.5t-101.5 -45.5q-71 0 -266 61q-46 -39 -84.5 -103t-42.5 -134v-408q0 -115 16.5 -164.5
t65.5 -66.5v-29h-373zM578 1333l-353 -147l-8 14l207 219q36 37 56 47.5t46 10.5q38 0 83.5 -26t45.5 -48q0 -20 -15 -34.5t-62 -35.5z" />
    <glyph glyph-name="uni0156" unicode="&#x156;" horiz-adv-x="1265" 
d="M1139 -14q-50 0 -88 15.5t-63 34t-55 72t-46 90t-53 126.5q-3 8 -5 12q-16 39 -37 92t-31.5 80t-27 64t-27 54.5t-26.5 40t-30.5 32t-35.5 20t-44.5 13.5t-53.5 3h-121v-475q0 -115 16.5 -164.5t65.5 -66.5v-29h-381v29q49 17 65.5 66.5t16.5 164.5v914
q0 115 -16.5 164.5t-65.5 66.5v29h430q129 0 226.5 -18.5t156 -48.5t94.5 -74t49 -88.5t13 -98.5q0 -146 -101.5 -242.5t-299.5 -120.5q44 -5 78.5 -13t64 -22.5t51.5 -29t44.5 -42t37.5 -50.5t35.5 -66t35 -77.5t38.5 -94.5q86 -215 118.5 -268t87.5 -53q21 0 31 2v-29
q-55 -14 -147 -14zM526 768q165 0 243.5 80t78.5 209q0 65 -21.5 124.5t-63.5 109.5t-114 80t-164 30q-43 0 -90 -6v-627h131zM459 -522q65 36 101.5 95t41.5 128q-28 -8 -43 -8q-41 0 -68.5 27.5t-27.5 68.5q0 50 28.5 81.5t77.5 31.5q56 0 89.5 -36.5t33.5 -107.5
q0 -97 -71 -185.5t-152 -117.5z" />
    <glyph glyph-name="uni0157" unicode="&#x157;" horiz-adv-x="923" 
d="M57 0v29q49 17 65.5 66.5t16.5 164.5v471q0 83 -18.5 113.5t-63.5 50.5v29l271 118l20 -16v-248q47 110 150 180q115 80 252 80q57 0 94 -15.5t37 -45.5q0 -42 -38.5 -87.5t-101.5 -45.5q-71 0 -266 61q-46 -39 -84.5 -103t-42.5 -134v-408q0 -115 16.5 -164.5
t65.5 -66.5v-29h-373zM119 -522q65 36 101.5 95t41.5 128q-28 -8 -43 -8q-41 0 -68.5 27.5t-27.5 68.5q0 50 28.5 81.5t77.5 31.5q56 0 89.5 -36.5t33.5 -107.5q0 -97 -71 -185.5t-152 -117.5z" />
    <glyph glyph-name="Rcaron" unicode="&#x158;" horiz-adv-x="1265" 
d="M1139 -14q-50 0 -88 15.5t-63 34t-55 72t-46 90t-53 126.5q-3 8 -5 12q-16 39 -37 92t-31.5 80t-27 64t-27 54.5t-26.5 40t-30.5 32t-35.5 20t-44.5 13.5t-53.5 3h-121v-475q0 -115 16.5 -164.5t65.5 -66.5v-29h-381v29q49 17 65.5 66.5t16.5 164.5v914
q0 115 -16.5 164.5t-65.5 66.5v29h430q129 0 226.5 -18.5t156 -48.5t94.5 -74t49 -88.5t13 -98.5q0 -146 -101.5 -242.5t-299.5 -120.5q44 -5 78.5 -13t64 -22.5t51.5 -29t44.5 -42t37.5 -50.5t35.5 -66t35 -77.5t38.5 -94.5q86 -215 118.5 -268t87.5 -53q21 0 31 2v-29
q-55 -14 -147 -14zM526 768q165 0 243.5 80t78.5 209q0 65 -21.5 124.5t-63.5 109.5t-114 80t-164 30q-43 0 -90 -6v-627h131zM311 1792l213 -94l226 94l18 -18l-238 -240h-12l-223 244z" />
    <glyph glyph-name="rcaron" unicode="&#x159;" horiz-adv-x="923" 
d="M57 0v29q49 17 65.5 66.5t16.5 164.5v471q0 83 -18.5 113.5t-63.5 50.5v29l271 118l20 -16v-248q47 110 150 180q115 80 252 80q57 0 94 -15.5t37 -45.5q0 -42 -38.5 -87.5t-101.5 -45.5q-71 0 -266 61q-46 -39 -84.5 -103t-42.5 -134v-408q0 -115 16.5 -164.5
t65.5 -66.5v-29h-373zM131 1475l258 -136l266 136l19 -19l-279 -280h-12l-268 284z" />
    <glyph glyph-name="Sacute" unicode="&#x15a;" horiz-adv-x="1132" 
d="M586 -20q-151 0 -287 41.5t-219 103.5l-8 307l26 4q68 -186 207 -299.5t334 -113.5q112 0 192 69t80 189q0 54 -26.5 102.5t-66.5 83.5t-95.5 66.5t-106 53t-104.5 43.5q-20 7 -29 11q-165 69 -226 108q-128 81 -154 209q-7 36 -7 78q0 190 142.5 301t384.5 111
q221 0 393 -86l8 -266l-23 -9q-62 156 -183.5 241t-272.5 85q-127 0 -210 -70t-83 -188q0 -36 11.5 -68.5t28 -57t47.5 -49.5t55 -41t66.5 -36t67 -30.5t70.5 -28.5q17 -7 25 -10q185 -71 263 -118q189 -123 193 -300q0 -82 -28.5 -153t-77 -122t-112 -88t-134 -55
t-141.5 -18zM737 1620l-352 -107l-8 15l207 178q41 36 59.5 46.5t42.5 10.5q38 0 83.5 -25.5t45.5 -47.5q0 -23 -15 -39.5t-63 -30.5z" />
    <glyph glyph-name="sacute" unicode="&#x15b;" horiz-adv-x="917" 
d="M453 -16q-107 0 -207 27.5t-162 68.5l-21 268l21 4q68 -153 177 -244t241 -92q92 -1 150.5 51.5t58.5 125.5q0 92 -67 141.5t-216 95.5q-92 28 -147 51t-105.5 58.5t-73 84t-22.5 115.5q0 127 101 213t298 86q86 0 172 -14.5t140 -36.5l10 -225l-25 -4
q-55 113 -146 182.5t-200 69.5q-95 0 -154 -44.5t-59 -111.5q0 -80 66.5 -127t220.5 -98q142 -48 191 -74q133 -70 150 -197q3 -21 3 -43q0 -49 -12 -94.5t-41.5 -89t-73.5 -76t-113 -52t-155 -19.5zM555 1333l-352 -147l-8 14l206 219q36 37 56.5 47.5t46.5 10.5
q38 0 83.5 -26t45.5 -48q0 -20 -15.5 -34.5t-62.5 -35.5z" />
    <glyph glyph-name="Scedilla" unicode="&#x15e;" horiz-adv-x="1132" 
d="M586 -20h-11l-63 -86q120 23 182 -17t62 -110q0 -92 -92.5 -170t-210.5 -78q-68 0 -111 26t-43 56q0 22 28.5 41.5t57.5 19.5q27 0 55 -20.5t60.5 -41t70.5 -20.5q48 0 78.5 31.5t30.5 73.5q0 46 -47.5 80t-138.5 34q-13 0 -21.5 -1t-14 -2t-18.5 -4.5t-26 -6.5l-11 12
l140 183q-138 6 -261 46.5t-202 98.5l-8 307l26 4q68 -186 207 -299.5t334 -113.5q112 0 192 69t80 189q0 54 -26.5 102.5t-66.5 83.5t-95.5 66.5t-106 53t-104.5 43.5q-20 7 -29 11q-165 69 -226 108q-128 81 -154 209q-7 36 -7 78q0 190 142.5 301t384.5 111
q221 0 393 -86l8 -266l-23 -9q-62 156 -183.5 241t-272.5 85q-127 0 -210 -70t-83 -188q0 -36 11.5 -68.5t28 -57t47.5 -49.5t55 -41t66.5 -36t67 -30.5t70.5 -28.5q17 -7 25 -10q185 -71 263 -118q189 -123 193 -300q0 -82 -28.5 -153t-77 -122t-112 -88t-134 -55
t-141.5 -18z" />
    <glyph glyph-name="scedilla" unicode="&#x15f;" horiz-adv-x="917" 
d="M453 -16q-24 0 -70 4l-70 -94q120 23 182 -17t62 -110q0 -92 -92.5 -170t-210.5 -78q-68 0 -111 26t-43 56q0 22 28.5 41.5t57.5 19.5q27 0 55 -20.5t61 -41t71 -20.5q48 0 78 31.5t30 73.5q0 46 -47.5 80t-138.5 34q-13 0 -21.5 -1t-14 -2t-18.5 -4.5t-26 -6.5l-10 12
l147 193q-163 21 -268 90l-21 268l21 4q68 -153 177 -244t241 -92q92 -1 150.5 51.5t58.5 125.5q0 92 -67 141.5t-216 95.5q-92 28 -147 51t-105.5 58.5t-73 84t-22.5 115.5q0 127 101 213t298 86q86 0 172 -14.5t140 -36.5l10 -225l-25 -4q-55 113 -146 182.5t-200 69.5
q-95 0 -154 -44.5t-59 -111.5q0 -80 66.5 -127t220.5 -98q142 -48 191 -74q133 -70 150 -197q3 -21 3 -43q0 -49 -12 -94.5t-41.5 -89t-73.5 -76t-113 -52t-155 -19.5z" />
    <glyph glyph-name="Scaron" unicode="&#x160;" horiz-adv-x="1132" 
d="M586 -20q-151 0 -287 41.5t-219 103.5l-8 307l26 4q68 -186 207 -299.5t334 -113.5q112 0 192 69t80 189q0 54 -26.5 102.5t-66.5 83.5t-95.5 66.5t-106 53t-104.5 43.5q-20 7 -29 11q-165 69 -226 108q-128 81 -154 209q-7 36 -7 78q0 190 142.5 301t384.5 111
q221 0 393 -86l8 -266l-23 -9q-62 156 -183.5 241t-272.5 85q-127 0 -210 -70t-83 -188q0 -36 11.5 -68.5t28 -57t47.5 -49.5t55 -41t66.5 -36t67 -30.5t70.5 -28.5q17 -7 25 -10q185 -71 263 -118q189 -123 193 -300q0 -82 -28.5 -153t-77 -122t-112 -88t-134 -55
t-141.5 -18zM336 1772l213 -95l225 95l19 -19l-238 -240h-12l-224 244z" />
    <glyph glyph-name="scaron" unicode="&#x161;" horiz-adv-x="917" 
d="M453 -16q-107 0 -207 27.5t-162 68.5l-21 268l21 4q68 -153 177 -244t241 -92q92 -1 150.5 51.5t58.5 125.5q0 92 -67 141.5t-216 95.5q-92 28 -147 51t-105.5 58.5t-73 84t-22.5 115.5q0 127 101 213t298 86q86 0 172 -14.5t140 -36.5l10 -225l-25 -4
q-55 113 -146 182.5t-200 69.5q-95 0 -154 -44.5t-59 -111.5q0 -80 66.5 -127t220.5 -98q142 -48 191 -74q133 -70 150 -197q3 -21 3 -43q0 -49 -12 -94.5t-41.5 -89t-73.5 -76t-113 -52t-155 -19.5zM109 1475l258 -136l266 136l18 -19l-278 -280h-13l-268 284z" />
    <glyph glyph-name="uni0162" unicode="&#x162;" horiz-adv-x="1146" 
d="M598 0l-80 -106q120 23 182 -17t62 -110q0 -92 -92.5 -170t-210.5 -78q-68 0 -111 26t-43 56q0 22 28.5 41.5t57.5 19.5q27 0 55 -20.5t61 -41t71 -20.5q48 0 78 31.5t30 73.5q0 46 -47.5 80t-138.5 34q-13 0 -21.5 -1t-14 -2t-18.5 -4.5t-26 -6.5l-10 12l155 203h-180
v29q49 17 65.5 66.5t16.5 164.5v1137h-64q-138 0 -216 -47t-134 -168l-24 4l12 248h1067l12 -248l-24 -4q-56 121 -134.5 168t-216.5 47h-59v-1137q0 -115 16.5 -164.5t65.5 -66.5v-29h-170z" />
    <glyph glyph-name="uni0163" unicode="&#x163;" horiz-adv-x="729" 
d="M385 -20q-19 0 -43 4l-68 -90q120 23 182 -17t62 -110q0 -92 -92.5 -170t-210.5 -78q-68 0 -111 26t-43 56q0 22 28.5 41.5t57.5 19.5q27 0 55 -20.5t61 -41t71 -20.5q48 0 78 31.5t30 73.5q0 46 -47.5 80t-138.5 34q-13 0 -21.5 -1t-14 -2t-18.5 -4.5t-26 -6.5l-10 12
l147 193q-141 44 -141 299v702h-131v33l307 270h33v-270h317l-8 -33h-309v-704q0 -183 137 -183q99 0 182 103l21 -21q-88 -101 -168.5 -153.5t-167.5 -52.5z" />
    <glyph glyph-name="Tcaron" unicode="&#x164;" horiz-adv-x="1146" 
d="M385 0v29q49 17 65.5 66.5t16.5 164.5v1137h-64q-138 0 -216 -47t-134 -168l-24 4l12 248h1067l12 -248l-24 -4q-56 121 -134.5 168t-216.5 47h-59v-1137q0 -115 16.5 -164.5t65.5 -66.5v-29h-383zM358 1792l213 -94l226 94l18 -18l-237 -240h-13l-223 244z" />
    <glyph glyph-name="tcaron" unicode="&#x165;" horiz-adv-x="729" 
d="M385 -20q-107 0 -160 73.5t-53 235.5v702h-131v33l307 270h33v-270h317l-8 -33h-309v-704q0 -183 137 -183q99 0 182 103l21 -21q-88 -101 -168.5 -153.5t-167.5 -52.5zM840 1190q18 54 18 96q0 58 -43 138t-43 124q0 43 23.5 74t70.5 31q29 0 49.5 -12.5t30 -33
t13.5 -40.5t4 -41q0 -45 -17 -111.5t-33 -111.5t-45 -121z" />
    <glyph glyph-name="Umacron" unicode="&#x16a;" horiz-adv-x="1406" 
d="M756 -20q-93 0 -176 17.5t-161.5 59.5t-135 106.5t-91 165t-34.5 228.5v617q0 115 -16.5 164.5t-65.5 66.5v29h381v-29q-49 -17 -65.5 -66.5t-16.5 -164.5v-633q0 -512 463 -512q45 0 89 11.5t89.5 35.5t83.5 66t68.5 98t47.5 136.5t17 176.5v498q0 123 -17.5 196
t-50 106.5t-88.5 51.5v29h275v-29q-49 -17 -65.5 -66.5t-16.5 -164.5v-617q0 -151 -38 -263.5t-107.5 -180t-161.5 -100.5t-207 -33zM477 1604l-6 8l49 63q21 29 62 29h465l6 -8l-49 -64q-20 -28 -62 -28h-465z" />
    <glyph glyph-name="umacron" unicode="&#x16b;" horiz-adv-x="1169" 
d="M430 -20q-160 0 -233.5 95.5t-73.5 286.5v369q0 83 -18.5 113.5t-63.5 50.5v29l270 118l21 -16v-637q0 -175 39.5 -251.5t152.5 -76.5q137 0 293 156v514q0 83 -18.5 113.5t-63.5 50.5v29l271 118l20 -16v-766q0 -115 16.5 -164.5t65.5 -66.5v-29h-209q-82 0 -82 82v92
q-92 -89 -193 -141.5t-194 -52.5zM346 1194l-6 8l49 64q20 28 62 28h464l7 -8l-50 -63q-21 -29 -61 -29h-465z" />
    <glyph glyph-name="Uring" unicode="&#x16e;" horiz-adv-x="1406" 
d="M756 -20q-93 0 -176 17.5t-161.5 59.5t-135 106.5t-91 165t-34.5 228.5v617q0 115 -16.5 164.5t-65.5 66.5v29h381v-29q-49 -17 -65.5 -66.5t-16.5 -164.5v-633q0 -512 463 -512q45 0 89 11.5t89.5 35.5t83.5 66t68.5 98t47.5 136.5t17 176.5v498q0 123 -17.5 196
t-50 106.5t-88.5 51.5v29h275v-29q-49 -17 -65.5 -66.5t-16.5 -164.5v-617q0 -151 -38 -263.5t-107.5 -180t-161.5 -100.5t-207 -33zM758 1532q-61 0 -100.5 39.5t-39.5 97.5q0 61 39.5 102t100.5 41q67 0 105 -39t38 -100q0 -59 -40.5 -100t-102.5 -41zM758 1552
q51 0 85 34.5t34 86.5q0 53 -33.5 86t-85.5 33q-50 0 -82.5 -34t-32.5 -89q0 -51 32.5 -84t82.5 -33z" />
    <glyph glyph-name="uring" unicode="&#x16f;" horiz-adv-x="1169" 
d="M430 -20q-160 0 -233.5 95.5t-73.5 286.5v369q0 83 -18.5 113.5t-63.5 50.5v29l270 118l21 -16v-637q0 -175 39.5 -251.5t152.5 -76.5q137 0 293 156v514q0 83 -18.5 113.5t-63.5 50.5v29l271 118l20 -16v-766q0 -115 16.5 -164.5t65.5 -66.5v-29h-209q-82 0 -82 82v92
q-92 -89 -193 -141.5t-194 -52.5zM627 1122q-61 0 -100.5 40t-39.5 98q0 61 39.5 102t100.5 41q67 0 105 -39t38 -100q0 -59 -40.5 -100.5t-102.5 -41.5zM627 1143q51 0 84.5 34.5t33.5 86.5t-32.5 85t-85.5 33q-50 0 -82.5 -33.5t-32.5 -88.5q0 -51 32.5 -84t82.5 -33z" />
    <glyph glyph-name="Uhungarumlaut" unicode="&#x170;" horiz-adv-x="1406" 
d="M756 -20q-93 0 -176 17.5t-161.5 59.5t-135 106.5t-91 165t-34.5 228.5v617q0 115 -16.5 164.5t-65.5 66.5v29h381v-29q-49 -17 -65.5 -66.5t-16.5 -164.5v-633q0 -512 463 -512q45 0 89 11.5t89.5 35.5t83.5 66t68.5 98t47.5 136.5t17 176.5v498q0 123 -17.5 196
t-50 106.5t-88.5 51.5v29h275v-29q-49 -17 -65.5 -66.5t-16.5 -164.5v-617q0 -151 -38 -263.5t-107.5 -180t-161.5 -100.5t-207 -33zM838 1528l-11 10l168 182q33 36 52 47t51 11q39 0 63.5 -10t24.5 -27t-15.5 -33.5t-62.5 -40.5zM551 1528l-10 10l168 182q33 36 53 47
t55 11t58.5 -10t23.5 -27t-15.5 -33.5t-62.5 -40.5z" />
    <glyph glyph-name="uhungarumlaut" unicode="&#x171;" horiz-adv-x="1169" 
d="M430 -20q-160 0 -233.5 95.5t-73.5 286.5v369q0 83 -18.5 113.5t-63.5 50.5v29l270 118l21 -16v-637q0 -175 39.5 -251.5t152.5 -76.5q137 0 293 156v514q0 83 -18.5 113.5t-63.5 50.5v29l271 118l20 -16v-766q0 -115 16.5 -164.5t65.5 -66.5v-29h-209q-82 0 -82 82v92
q-92 -89 -193 -141.5t-194 -52.5zM844 1419q25 38 43.5 48t58.5 10q39 0 63.5 -10t24.5 -27q0 -15 -16 -31.5t-62 -48.5l-249 -174h-19zM557 1419q25 38 43.5 48t58.5 10q39 0 64 -10t25 -27q0 -15 -16 -31.5t-62 -48.5l-250 -174h-19z" />
    <glyph glyph-name="Uogonek" unicode="&#x172;" horiz-adv-x="1406" 
d="M756 -20q-93 0 -176 17.5t-161.5 59.5t-135 106.5t-91 165t-34.5 228.5v617q0 115 -16.5 164.5t-65.5 66.5v29h381v-29q-49 -17 -65.5 -66.5t-16.5 -164.5v-633q0 -512 463 -512q45 0 89 11.5t89.5 35.5t83.5 66t68.5 98t47.5 136.5t17 176.5v498q0 123 -17.5 196
t-50 106.5t-88.5 51.5v29h275v-29q-49 -17 -65.5 -66.5t-16.5 -164.5v-617q0 -258 -107.5 -398t-296.5 -171q-49 -51 -68.5 -87t-19.5 -73q0 -45 33.5 -69.5t85.5 -24.5q53 0 104 33l11 -9l-74 -129q-34 -24 -94 -24q-67 0 -114.5 39.5t-47.5 103.5q0 103 141 234
q-23 -2 -67 -2z" />
    <glyph glyph-name="uogonek" unicode="&#x173;" horiz-adv-x="1169" 
d="M430 -20q-160 0 -233.5 95.5t-73.5 286.5v369q0 83 -18.5 113.5t-63.5 50.5v29l270 118l21 -16v-637q0 -175 39.5 -251.5t152.5 -76.5q137 0 293 156v514q0 83 -18.5 113.5t-63.5 50.5v29l271 118l20 -16v-766q0 -115 16.5 -164.5t65.5 -66.5v-29h-66q-56 -55 -78 -94
t-22 -78q0 -45 33.5 -69.5t85.5 -24.5q53 0 104 33l11 -9l-74 -129q-34 -24 -94 -24q-67 0 -114.5 39.5t-47.5 103.5q0 60 40.5 119.5t119.5 132.5h-107q-82 0 -82 82v92q-92 -89 -193 -141.5t-194 -52.5z" />
    <glyph glyph-name="Wcircumflex" unicode="&#x174;" horiz-adv-x="1910" 
d="M748 1192q-68 170 -156 213v29h371v-29q-23 -8 -32.5 -20t-6.5 -36t12.5 -49.5t28.5 -73.5q9 -22 14 -34l100 -244l90 242q37 103 28.5 153t-62.5 62v29h237v-29q-48 -18 -88 -67.5t-78 -147.5l-108 -291l262 -637l338 928q37 103 28 153t-63 62v29h238v-29
q-49 -18 -88 -67.5t-74 -147.5l-432 -1190h-74l-270 662l-269 -662h-78l-454 1190q-63 173 -150 215v29h371v-29q-19 -6 -28 -16.5t-12 -23t3 -36.5t13.5 -45.5t23.5 -62.5q8 -20 12 -31l359 -932l188 457zM670 1534l-17 14l224 244h12l237 -240l-18 -18l-225 94z" />
    <glyph glyph-name="wcircumflex" unicode="&#x175;" horiz-adv-x="1449" 
d="M92 774q-31 106 -57 156t-60 65v29h351v-29q-46 -16 -47 -63q0 -35 34 -158l156 -549l274 799h125l271 -791l161 541q29 106 16 157.5t-67 63.5v29h219v-29q-43 -15 -72.5 -64t-60.5 -157l-233 -774h-105l-284 838l-291 -838h-105zM457 1176l-17 14l269 285h12l278 -281
l-18 -18l-266 135z" />
    <glyph glyph-name="Ycircumflex" unicode="&#x176;" horiz-adv-x="1153" 
d="M377 0v29q49 17 65.5 66.5t16.5 164.5l-2 397l-303 549q-81 149 -183 199v29h383v-29q-22 -7 -30.5 -17t-2.5 -31.5t15 -39t34 -60.5q18 -32 29 -51l271 -487l276 487q53 97 47.5 142t-69.5 57v29h264v-29q-114 -43 -201 -199l-309 -551v-395q0 -115 16.5 -164.5
t65.5 -66.5v-29h-383zM356 1534l-16 14l223 244h12l238 -240l-18 -18l-226 94z" />
    <glyph glyph-name="ycircumflex" unicode="&#x177;" horiz-adv-x="1034" 
d="M74 -395q-64 -2 -107 16.5t-43 48.5q0 37 43.5 83t108.5 46q60 0 278 -37q72 78 144 228l-344 794q-69 167 -160 211v29h362v-29q-23 -8 -32 -20t-5.5 -33.5t13.5 -46.5t29 -69q12 -26 18 -40l233 -532l230 530q42 103 36 151t-59 60v29h234v-29q-50 -19 -94 -66.5
t-85 -142.5l-313 -725q-58 -132 -115 -221.5t-117.5 -140t-120.5 -71.5t-134 -23zM221 1176l-16 14l268 285h12l279 -281l-19 -18l-266 135z" />
    <glyph glyph-name="Ydieresis" unicode="&#x178;" horiz-adv-x="1153" 
d="M377 0v29q49 17 65.5 66.5t16.5 164.5l-2 397l-303 549q-81 149 -183 199v29h383v-29q-22 -7 -30.5 -17t-2.5 -31.5t15 -39t34 -60.5q18 -32 29 -51l271 -487l276 487q53 97 47.5 142t-69.5 57v29h264v-29q-114 -43 -201 -199l-309 -551v-395q0 -115 16.5 -164.5
t65.5 -66.5v-29h-383zM752 1559q-48 0 -80.5 31.5t-32.5 80.5q0 44 33 75.5t80 31.5q44 0 76 -32.5t32 -78.5t-31 -77t-77 -31zM399 1559q-46 0 -77 31.5t-31 80.5q0 45 31.5 76t76.5 31q49 0 81 -31.5t32 -79.5q0 -46 -33 -77t-80 -31z" />
    <glyph glyph-name="Zacute" unicode="&#x179;" horiz-adv-x="1073" 
d="M33 0v31l725 1366h-271q-159 0 -248 -60t-149 -219h-27l39 316h914v-31l-735 -1366h325q160 0 249 59.5t149 218.5h26l-39 -315h-958zM637 1640l-352 -106l-9 14l207 178q41 36 60.5 47t42.5 11q38 0 83.5 -26t45.5 -48q0 -23 -15 -39.5t-63 -30.5z" />
    <glyph glyph-name="zacute" unicode="&#x17a;" horiz-adv-x="868" 
d="M45 0v23l514 968h-188q-102 0 -168 -52t-117 -185l-25 4l39 266h697v-23l-510 -968h223q114 0 190 68t95 221h22l-8 -322h-764zM614 1333l-352 -147l-8 14l207 219q36 37 56 47.5t46 10.5q38 0 83.5 -26t45.5 -48q0 -20 -15.5 -34.5t-62.5 -35.5z" />
    <glyph glyph-name="Zdotaccent" unicode="&#x17b;" horiz-adv-x="1073" 
d="M33 0v31l725 1366h-271q-159 0 -248 -60t-149 -219h-27l39 316h914v-31l-735 -1366h325q160 0 249 59.5t149 218.5h26l-39 -315h-958zM537 1522q-59 0 -99.5 40.5t-40.5 98.5q0 60 40.5 100.5t99.5 40.5q61 0 100 -40t39 -101q0 -59 -40 -99t-99 -40z" />
    <glyph glyph-name="zdotaccent" unicode="&#x17c;" horiz-adv-x="868" 
d="M45 0v23l514 968h-188q-102 0 -168 -52t-117 -185l-25 4l39 266h697v-23l-510 -968h223q114 0 190 68t95 221h22l-8 -322h-764zM432 1112q-58 0 -98.5 40t-40.5 99q0 60 40 101t99 41q61 0 100 -40.5t39 -101.5q0 -59 -40.5 -99t-98.5 -40z" />
    <glyph glyph-name="Zcaron" unicode="&#x17d;" horiz-adv-x="1073" 
d="M33 0v31l725 1366h-271q-159 0 -248 -60t-149 -219h-27l39 316h914v-31l-735 -1366h325q160 0 249 59.5t149 218.5h26l-39 -315h-958zM317 1792l213 -94l226 94l18 -18l-237 -240h-13l-223 244z" />
    <glyph glyph-name="zcaron" unicode="&#x17e;" horiz-adv-x="868" 
d="M45 0v23l514 968h-188q-102 0 -168 -52t-117 -185l-25 4l39 266h697v-23l-510 -968h223q114 0 190 68t95 221h22l-8 -322h-764zM168 1475l258 -136l266 136l19 -19l-279 -280h-12l-268 284z" />
    <glyph glyph-name="uni018F" unicode="&#x18f;" horiz-adv-x="1579" 
d="M676 -14q-125 0 -224.5 34t-160 86.5t-100 122t-55 135.5t-15.5 132h1128q13 70 13 133q1 96 -19.5 187.5t-68 176.5t-117 149t-174 102t-230.5 38q-43 0 -87.5 -5t-107 -22.5t-117 -45.5t-110.5 -79t-94 -118l-26 12q96 200 270 313t393 113q139 0 266 -49t223.5 -137
t154 -220.5t57.5 -289.5q0 -137 -45 -260t-122.5 -214.5t-178.5 -158.5t-217.5 -101t-235.5 -34zM348 465q37 -436 414 -436q99 0 181.5 33.5t141.5 93.5t98.5 138t59.5 171h-895z" />
    <glyph glyph-name="uni0218" unicode="&#x218;" horiz-adv-x="1132" 
d="M586 -20q-151 0 -287 41.5t-219 103.5l-8 307l26 4q68 -186 207 -299.5t334 -113.5q112 0 192 69t80 189q0 54 -26.5 102.5t-66.5 83.5t-95.5 66.5t-106 53t-104.5 43.5q-20 7 -29 11q-165 69 -226 108q-128 81 -154 209q-7 36 -7 78q0 190 142.5 301t384.5 111
q221 0 393 -86l8 -266l-23 -9q-62 156 -183.5 241t-272.5 85q-127 0 -210 -70t-83 -188q0 -36 11.5 -68.5t28 -57t47.5 -49.5t55 -41t66.5 -36t67 -30.5t70.5 -28.5q17 -7 25 -10q185 -71 263 -118q189 -123 193 -300q0 -82 -28.5 -153t-77 -122t-112 -88t-134 -55
t-141.5 -18zM459 -522q65 36 101.5 95t41.5 128q-28 -8 -43 -8q-41 0 -68.5 27.5t-27.5 68.5q0 50 28.5 81.5t77.5 31.5q56 0 89.5 -36.5t33.5 -107.5q0 -97 -71 -185.5t-152 -117.5z" />
    <glyph glyph-name="uni0219" unicode="&#x219;" horiz-adv-x="917" 
d="M453 -16q-107 0 -207 27.5t-162 68.5l-21 268l21 4q68 -153 177 -244t241 -92q92 -1 150.5 51.5t58.5 125.5q0 92 -67 141.5t-216 95.5q-92 28 -147 51t-105.5 58.5t-73 84t-22.5 115.5q0 127 101 213t298 86q86 0 172 -14.5t140 -36.5l10 -225l-25 -4
q-55 113 -146 182.5t-200 69.5q-95 0 -154 -44.5t-59 -111.5q0 -80 66.5 -127t220.5 -98q142 -48 191 -74q133 -70 150 -197q3 -21 3 -43q0 -49 -12 -94.5t-41.5 -89t-73.5 -76t-113 -52t-155 -19.5zM260 -522q65 36 101.5 95t41.5 128q-28 -8 -43 -8q-41 0 -68.5 27.5
t-27.5 68.5q0 50 29 81.5t78 31.5q56 0 89.5 -36.5t33.5 -107.5q0 -97 -71 -185.5t-153 -117.5z" />
    <glyph glyph-name="uni021A" unicode="&#x21a;" horiz-adv-x="1146" 
d="M385 0v29q49 17 65.5 66.5t16.5 164.5v1137h-64q-138 0 -216 -47t-134 -168l-24 4l12 248h1067l12 -248l-24 -4q-56 121 -134.5 168t-216.5 47h-59v-1137q0 -115 16.5 -164.5t65.5 -66.5v-29h-383zM465 -522q65 36 101.5 95t41.5 128q-28 -8 -43 -8q-41 0 -68.5 27.5
t-27.5 68.5q0 50 28.5 81.5t77.5 31.5q56 0 89.5 -36.5t33.5 -107.5q0 -97 -71 -185.5t-152 -117.5z" />
    <glyph glyph-name="uni021B" unicode="&#x21b;" horiz-adv-x="729" 
d="M385 -20q-107 0 -160 73.5t-53 235.5v702h-131v33l307 270h33v-270h317l-8 -33h-309v-704q0 -183 137 -183q99 0 182 103l21 -21q-88 -101 -168.5 -153.5t-167.5 -52.5zM221 -522q65 36 102 95t42 128q-28 -8 -43 -8q-41 0 -69 27.5t-28 68.5q0 50 29 81.5t78 31.5
q56 0 89.5 -36.5t33.5 -107.5q0 -97 -71 -185.5t-153 -117.5z" />
    <glyph glyph-name="uni0237" unicode="&#x237;" horiz-adv-x="497" 
d="M-199 -569q-57 0 -93 14t-36 43q0 36 39 80.5t90 44.5q25 0 61.5 -4.5t58.5 -8.5t78 -15.5t71 -14.5q17 13 30.5 26.5t23 31.5t16.5 30t11 38t6.5 39.5t3.5 48.5t1 51.5v62.5v32v801q0 83 -18.5 113.5t-63.5 50.5v29l270 118l21 -16v-938q0 -103 -50 -220t-128.5 -213.5
t-184 -160t-207.5 -63.5z" />
    <glyph glyph-name="uni0259" unicode="&#x259;" horiz-adv-x="1134" 
d="M512 -18q-100 0 -182 32.5t-134 85t-80 117.5t-28 133h780q6 44 6 84q0 203 -111 327t-298 124q-221 0 -375 -172l-18 20q38 57 87.5 108.5t114 98t146 73.5t166.5 27q89 0 171 -31t148.5 -90t106 -155.5t39.5 -216.5q0 -101 -30.5 -192t-83 -158t-121 -116t-146.5 -74
t-158 -25zM295 322q21 -129 98.5 -216t181.5 -88q118 -1 191.5 86t97.5 218h-569z" />
    <glyph glyph-name="gravecomb" unicode="&#x300;" 
d="M16 1333q-47 21 -62 35.5t-15 34.5q0 22 45.5 48t83.5 26q26 0 46 -10.5t56 -47.5l207 -219l-8 -14z" />
    <glyph glyph-name="acutecomb" unicode="&#x301;" 
d="M381 1333l-352 -147l-9 14l207 219q36 37 56.5 47.5t46.5 10.5q38 0 83.5 -26t45.5 -48q0 -20 -15.5 -34.5t-62.5 -35.5z" />
    <glyph glyph-name="uni0302" unicode="&#x302;" 
d="M-23 1176l-16 14l268 285h13l278 -281l-18 -18l-266 135z" />
    <glyph glyph-name="tildecomb" unicode="&#x303;" 
d="M53 1137q85 223 207 223q42 0 156 -41t153 -41t63 24t48 89l20 -7q-38 -121 -92.5 -183t-118.5 -62q-54 0 -108 21t-105 42t-98 21q-38 0 -61.5 -22t-42.5 -73z" />
    <glyph glyph-name="uni0304" unicode="&#x304;" 
d="M20 1194l-6 8l49 64q20 28 62 28h465l6 -8l-49 -63q-21 -29 -62 -29h-465z" />
    <glyph glyph-name="uni0306" unicode="&#x306;" 
d="M287 1165q-75 0 -124.5 51.5t-121.5 188.5l25 10q39 -43 61.5 -63t63.5 -36t96 -16q79 0 123 26.5t98 88.5l22 -10q-72 -138 -120.5 -189t-122.5 -51z" />
    <glyph glyph-name="uni0307" unicode="&#x307;" 
d="M166 1112q-58 0 -98.5 40t-40.5 99q0 60 40 101t99 41q61 0 100 -40.5t39 -101.5q0 -59 -40.5 -99t-98.5 -40z" />
    <glyph glyph-name="uni0308" unicode="&#x308;" 
d="M481 1149q-48 0 -80 32t-32 81q0 44 32.5 75t79.5 31q44 0 76.5 -32.5t32.5 -78.5t-31.5 -77t-77.5 -31zM129 1149q-46 0 -77.5 32t-31.5 81q0 44 31.5 75t77.5 31q49 0 81 -31.5t32 -79.5q0 -46 -33 -77t-80 -31z" />
    <glyph glyph-name="uni030A" unicode="&#x30a;" 
d="M180 1122q-61 0 -100 40t-39 98q0 61 39 102t100 41q67 0 105.5 -39.5t38.5 -99.5q0 -59 -41 -100.5t-103 -41.5zM180 1143q51 0 85 34.5t34 86.5t-33 85t-86 33q-50 0 -82 -33.5t-32 -88.5q0 -51 32 -84t82 -33z" />
    <glyph glyph-name="uni030B" unicode="&#x30b;" 
d="M446 1419q25 38 44 48t59 10q39 0 63.5 -10t24.5 -27q0 -15 -16 -31.5t-62 -48.5l-250 -174h-18zM160 1419q25 38 43.5 48t58.5 10q39 0 63.5 -10t24.5 -27q0 -15 -16 -31.5t-62 -48.5l-249 -174h-19z" />
    <glyph glyph-name="uni030C" unicode="&#x30c;" 
d="M-23 1475l259 -136l266 136l18 -19l-278 -280h-13l-268 284z" />
    <glyph glyph-name="uni0312" unicode="&#x312;" 
d="M166 1163q-56 0 -89.5 36.5t-33.5 107.5q0 97 71 185.5t152 117.5l10 -23q-65 -36 -101.5 -95t-41.5 -128q28 8 43 8q41 0 68.5 -27.5t27.5 -68.5q0 -50 -28.5 -81.5t-77.5 -31.5z" />
    <glyph glyph-name="uni0326" unicode="&#x326;" 
d="M12 -522q65 36 102 95t42 128q-28 -8 -43 -8q-41 0 -69 27.5t-28 68.5q0 50 29 81.5t78 31.5q56 0 89.5 -36.5t33.5 -107.5q0 -97 -71 -185.5t-152 -117.5z" />
    <glyph glyph-name="uni0327" unicode="&#x327;" 
d="M104 -481q-68 0 -110.5 26t-42.5 56q0 22 28.5 41.5t57.5 19.5q27 0 55 -20.5t60.5 -41t70.5 -20.5q48 0 78.5 31.5t30.5 73.5q0 46 -47.5 80t-139.5 34q-13 0 -21.5 -1t-13.5 -2t-18 -4.5t-26 -6.5l-11 12l166 217l29 -6l-86 -114q120 23 182 -17t62 -110
q0 -92 -93 -170t-211 -78z" />
    <glyph glyph-name="uni0328" unicode="&#x328;" 
d="M207 -410q-67 0 -114.5 40t-47.5 104q0 67 49 133t146 149l22 -10q-68 -64 -94.5 -107.5t-26.5 -84.5q0 -45 33.5 -70t85.5 -25q54 0 105 33l10 -8l-74 -129q-36 -25 -94 -25z" />
    <glyph glyph-name="uni0335" unicode="&#x335;" 
d="M666 1188h559h-559z" />
    <glyph glyph-name="uni0337" unicode="&#x337;" 
d="M43 690l516 232z" />
    <glyph glyph-name="uni0338" unicode="&#x338;" 
d="M145 -219l904 1427z" />
    <glyph glyph-name="Wgrave" unicode="&#x1e80;" horiz-adv-x="1910" 
d="M748 1192q-68 170 -156 213v29h371v-29q-23 -8 -32.5 -20t-6.5 -36t12.5 -49.5t28.5 -73.5q9 -22 14 -34l100 -244l90 242q37 103 28.5 153t-62.5 62v29h237v-29q-48 -18 -88 -67.5t-78 -147.5l-108 -291l262 -637l338 928q37 103 28 153t-63 62v29h238v-29
q-49 -18 -88 -67.5t-74 -147.5l-432 -1190h-74l-270 662l-269 -662h-78l-454 1190q-63 173 -150 215v29h371v-29q-19 -6 -28 -16.5t-12 -23t3 -36.5t13.5 -45.5t23.5 -62.5q8 -20 12 -31l359 -932l188 457zM707 1640q-48 14 -63 30.5t-15 39.5q0 22 45.5 48t83.5 26
q23 0 42 -10.5t60 -47.5l207 -178l-8 -14z" />
    <glyph glyph-name="wgrave" unicode="&#x1e81;" horiz-adv-x="1449" 
d="M92 774q-31 106 -57 156t-60 65v29h351v-29q-46 -16 -47 -63q0 -35 34 -158l156 -549l274 799h125l271 -791l161 541q29 106 16 157.5t-67 63.5v29h219v-29q-43 -15 -72.5 -64t-60.5 -157l-233 -774h-105l-284 838l-291 -838h-105zM539 1333q-47 21 -62.5 35.5
t-15.5 34.5q0 22 45.5 48t83.5 26q26 0 46 -10.5t56 -47.5l207 -219l-8 -14z" />
    <glyph glyph-name="Wacute" unicode="&#x1e82;" horiz-adv-x="1910" 
d="M748 1192q-68 170 -156 213v29h371v-29q-23 -8 -32.5 -20t-6.5 -36t12.5 -49.5t28.5 -73.5q9 -22 14 -34l100 -244l90 242q37 103 28.5 153t-62.5 62v29h237v-29q-48 -18 -88 -67.5t-78 -147.5l-108 -291l262 -637l338 928q37 103 28 153t-63 62v29h238v-29
q-49 -18 -88 -67.5t-74 -147.5l-432 -1190h-74l-270 662l-269 -662h-78l-454 1190q-63 173 -150 215v29h371v-29q-19 -6 -28 -16.5t-12 -23t3 -36.5t13.5 -45.5t23.5 -62.5q8 -20 12 -31l359 -932l188 457zM989 1640l-352 -106l-8 14l207 178q41 37 60 47.5t42 10.5
q38 0 83.5 -26t45.5 -48q0 -23 -15 -39.5t-63 -30.5z" />
    <glyph glyph-name="wacute" unicode="&#x1e83;" horiz-adv-x="1449" 
d="M92 774q-31 106 -57 156t-60 65v29h351v-29q-46 -16 -47 -63q0 -35 34 -158l156 -549l274 799h125l271 -791l161 541q29 106 16 157.5t-67 63.5v29h219v-29q-43 -15 -72.5 -64t-60.5 -157l-233 -774h-105l-284 838l-291 -838h-105zM903 1333l-352 -147l-8 14l207 219
q36 37 56 47.5t46 10.5q38 0 83.5 -26t45.5 -48q0 -20 -15.5 -34.5t-62.5 -35.5z" />
    <glyph glyph-name="Wdieresis" unicode="&#x1e84;" horiz-adv-x="1910" 
d="M748 1192q-68 170 -156 213v29h371v-29q-23 -8 -32.5 -20t-6.5 -36t12.5 -49.5t28.5 -73.5q9 -22 14 -34l100 -244l90 242q37 103 28.5 153t-62.5 62v29h237v-29q-48 -18 -88 -67.5t-78 -147.5l-108 -291l262 -637l338 928q37 103 28 153t-63 62v29h238v-29
q-49 -18 -88 -67.5t-74 -147.5l-432 -1190h-74l-270 662l-269 -662h-78l-454 1190q-63 173 -150 215v29h371v-29q-19 -6 -28 -16.5t-12 -23t3 -36.5t13.5 -45.5t23.5 -62.5q8 -20 12 -31l359 -932l188 457zM1065 1559q-48 0 -80.5 31.5t-32.5 80.5q0 44 33 75.5t80 31.5
q44 0 76.5 -32.5t32.5 -78.5t-31.5 -77t-77.5 -31zM713 1559q-46 0 -77.5 31.5t-31.5 80.5q0 44 31.5 75.5t77.5 31.5q49 0 80.5 -31.5t31.5 -79.5q0 -46 -32.5 -77t-79.5 -31z" />
    <glyph glyph-name="wdieresis" unicode="&#x1e85;" horiz-adv-x="1449" 
d="M92 774q-31 106 -57 156t-60 65v29h351v-29q-46 -16 -47 -63q0 -35 34 -158l156 -549l274 799h125l271 -791l161 541q29 106 16 157.5t-67 63.5v29h219v-29q-43 -15 -72.5 -64t-60.5 -157l-233 -774h-105l-284 838l-291 -838h-105zM954 1149q-48 0 -80 32t-32 81
q0 44 32.5 75t79.5 31q44 0 76.5 -32.5t32.5 -78.5t-31.5 -77t-77.5 -31zM602 1149q-46 0 -77 32t-31 81q0 44 31 75t77 31q49 0 81 -31.5t32 -79.5q0 -46 -33 -77t-80 -31z" />
    <glyph glyph-name="uni1E9E" unicode="&#x1e9e;" horiz-adv-x="1411" 
d="M903 -16q-122 0 -226.5 22t-168.5 57l-14 316l26 4q133 -360 416 -360q108 0 173 71t65 180q0 297 -562 470q-17 6 -24 8l-8 18l383 463q-50 58 -135.5 109t-180.5 51q-129 0 -194.5 -89t-65.5 -280v-764q0 -115 16.5 -164.5t65.5 -66.5v-29h-373v29q49 17 65.5 66.5
t16.5 164.5v633q0 154 78 281.5t213 200.5t297 73q119 0 214.5 -29.5t133.5 -62.5l-362 -432q60 -21 102 -36.5t109.5 -45t115 -57.5t102.5 -69.5t89 -85t57 -101t23 -119.5q0 -118 -69.5 -218.5t-171.5 -154t-206 -53.5z" />
    <glyph glyph-name="Ygrave" unicode="&#x1ef2;" horiz-adv-x="1153" 
d="M377 0v29q49 17 65.5 66.5t16.5 164.5l-2 397l-303 549q-81 149 -183 199v29h383v-29q-22 -7 -30.5 -17t-2.5 -31.5t15 -39t34 -60.5q18 -32 29 -51l271 -487l276 487q53 97 47.5 142t-69.5 57v29h264v-29q-114 -43 -201 -199l-309 -551v-395q0 -115 16.5 -164.5
t65.5 -66.5v-29h-383zM393 1640q-48 14 -63 30.5t-15 39.5q0 22 45.5 48t83.5 26q23 0 42.5 -11t60.5 -47l207 -178l-9 -14z" />
    <glyph glyph-name="ygrave" unicode="&#x1ef3;" horiz-adv-x="1034" 
d="M74 -395q-64 -2 -107 16.5t-43 48.5q0 37 43.5 83t108.5 46q60 0 278 -37q72 78 144 228l-344 794q-69 167 -160 211v29h362v-29q-23 -8 -32 -20t-5.5 -33.5t13.5 -46.5t29 -69q12 -26 18 -40l233 -532l230 530q42 103 36 151t-59 60v29h234v-29q-50 -19 -94 -66.5
t-85 -142.5l-313 -725q-58 -132 -115 -221.5t-117.5 -140t-120.5 -71.5t-134 -23zM303 1333q-47 21 -62.5 35.5t-15.5 34.5q0 22 45.5 48t83.5 26q26 0 46.5 -10.5t56.5 -47.5l207 -219l-9 -14z" />
    <glyph glyph-name="endash" unicode="&#x2013;" horiz-adv-x="1157" 
d="M106 494v32h945v-32h-945z" />
    <glyph glyph-name="emdash" unicode="&#x2014;" horiz-adv-x="1976" 
d="M106 494v32h1764v-32h-1764z" />
    <glyph glyph-name="quoteleft" unicode="&#x2018;" horiz-adv-x="442" 
d="M381 1468q-75 -36 -119.5 -112.5t-50.5 -161.5q32 8 51 8q50 0 82.5 -33t32.5 -82q0 -59 -34.5 -97t-92.5 -38q-68 0 -108 43t-40 129q0 117 85 223.5t184 141.5z" />
    <glyph glyph-name="quoteright" unicode="&#x2019;" horiz-adv-x="442" 
d="M61 932q75 36 119.5 112.5t50.5 161.5q-32 -8 -51 -8q-49 0 -81.5 32.5t-32.5 82.5q0 59 34.5 97t92.5 38q68 0 107.5 -43t39.5 -129q0 -117 -84.5 -223.5t-183.5 -141.5z" />
    <glyph glyph-name="quotesinglbase" unicode="&#x201a;" horiz-adv-x="493" 
d="M102 -283q75 36 119.5 113t50.5 162q-32 -8 -51 -8q-50 0 -82.5 32.5t-32.5 81.5q0 59 34.5 97t92.5 38q68 0 108 -43t40 -129q0 -117 -84.5 -223t-183.5 -141z" />
    <glyph glyph-name="quotedblleft" unicode="&#x201c;" horiz-adv-x="786" 
d="M684 1468q-75 -36 -119.5 -112.5t-50.5 -161.5q32 8 51 8q49 0 82 -33t33 -82q0 -59 -34.5 -97t-92.5 -38q-68 0 -107.5 43t-39.5 129q0 117 84.5 223.5t183.5 141.5zM340 1468q-75 -36 -119.5 -112.5t-50.5 -161.5q32 8 51 8q49 0 82 -33t33 -82q0 -59 -34.5 -97
t-92.5 -38q-68 0 -108 43t-40 129q0 117 85 223.5t184 141.5z" />
    <glyph glyph-name="quotedblright" unicode="&#x201d;" horiz-adv-x="786" 
d="M61 946q75 36 119.5 113t50.5 162q-36 -9 -51 -9q-49 0 -81.5 32.5t-32.5 82.5q0 59 34.5 97t92.5 38q68 0 107.5 -43t39.5 -129q0 -117 -84.5 -223t-183.5 -141zM406 946q75 36 119 112.5t50 162.5q-36 -9 -51 -9q-49 0 -81.5 32.5t-32.5 82.5q0 59 34.5 97t92.5 38
q68 0 107.5 -43t39.5 -129q0 -117 -84.5 -223t-183.5 -141z" />
    <glyph glyph-name="quotedblbase" unicode="&#x201e;" horiz-adv-x="786" 
d="M102 -283q75 36 119.5 113t50.5 162q-32 -8 -51 -8q-50 0 -82.5 32.5t-32.5 81.5q0 59 34.5 97t92.5 38q68 0 108 -43t40 -129q0 -117 -84.5 -223t-183.5 -141zM446 -283q75 36 119.5 113t50.5 162q-32 -8 -51 -8q-49 0 -81.5 32t-32.5 82q0 59 34.5 97t92.5 38
q68 0 107.5 -43t39.5 -129q0 -117 -84.5 -223t-183.5 -141z" />
    <glyph glyph-name="dagger" unicode="&#x2020;" horiz-adv-x="862" 
d="M229 797q-17 0 -31.5 3.5t-29.5 14t-25 18t-26 27t-23.5 29.5t-27 37.5t-27.5 38.5l20 18q38 -41 123 -41q62 0 215 43l-94 303l236 160l12 -8l-96 -439q137 37 188 37q53 0 95 -46t83 -132l-20 -14q-34 47 -105 47q-76 0 -245 -49l100 -686l-236 -160l-12 8l103 825
q-128 -34 -177 -34z" />
    <glyph glyph-name="bullet" unicode="&#x2022;" horiz-adv-x="579" 
d="M291 401q-76 0 -132.5 58.5t-56.5 136.5q0 79 56 135.5t133 56.5t131.5 -56.5t54.5 -135.5t-55 -137t-131 -58z" />
    <glyph glyph-name="ellipsis" unicode="&#x2026;" horiz-adv-x="1173" 
d="M233 -14q-49 0 -84.5 37t-35.5 88t35 86.5t85 35.5t84.5 -35.5t34.5 -86.5t-35 -88t-84 -37zM643 -14q-49 0 -85 37t-36 88t35.5 86.5t85.5 35.5t84.5 -35.5t34.5 -86.5t-35 -88t-84 -37zM1053 -14q-49 0 -85 37t-36 88t35.5 86.5t85.5 35.5q49 0 83.5 -35.5t34.5 -86.5
t-34.5 -88t-83.5 -37z" />
    <glyph glyph-name="perthousand" unicode="&#x2030;" horiz-adv-x="2437" 
d="M186 -10l-20 20l1218 1434l21 -21zM397 723q-65 0 -128.5 22t-116 62.5t-85 107t-32.5 148.5q0 89 34.5 162.5t91.5 120t125.5 71.5t139.5 25q91 0 170.5 -37t132.5 -113.5t53 -177.5q0 -78 -24 -144.5t-63 -111t-90 -76t-103.5 -45.5t-104.5 -14zM465 770q90 0 137 60.5
t47 177.5q0 99 -36 189t-102.5 148t-145.5 58q-84 0 -141.5 -59.5t-57.5 -165.5q0 -168 89 -288t210 -120zM1176 -20q-66 0 -129 21.5t-116 62t-85.5 107t-32.5 148.5q0 89 34.5 162.5t91.5 120t125.5 71.5t139.5 25q67 0 130 -22t114 -62t82 -103.5t31 -139.5
q0 -78 -24 -144.5t-63 -111t-90 -76t-103.5 -45.5t-104.5 -14zM1243 27q90 0 137 60.5t47 176.5q0 99 -36 189t-102.5 148t-145.5 58q-84 0 -141.5 -59.5t-57.5 -165.5q0 -168 89 -287.5t210 -119.5zM1995 -20q-66 0 -129 21.5t-116 62t-85.5 107t-32.5 148.5
q0 89 34.5 162.5t91.5 120t125.5 71.5t139.5 25q67 0 130 -22t114 -62t82 -103.5t31 -139.5q0 -79 -24 -145t-63 -110.5t-90 -76t-103.5 -45.5t-104.5 -14zM2062 27q90 0 137.5 60.5t47.5 176.5q0 99 -36.5 189.5t-103 148t-145.5 57.5q-84 0 -141.5 -59.5t-57.5 -165.5
q0 -168 89 -287.5t210 -119.5z" />
    <glyph glyph-name="guilsinglleft" unicode="&#x2039;" horiz-adv-x="825" 
d="M655 49l-542 463l542 463l21 -25l-514 -438l514 -438z" />
    <glyph glyph-name="guilsinglright" unicode="&#x203a;" horiz-adv-x="825" 
d="M135 49l-20 25l514 438l-514 438l20 25l543 -463z" />
    <glyph glyph-name="fraction" unicode="&#x2044;" horiz-adv-x="800" 
d="M-43 -559l-31 12l918 2192l30 -13z" />
    <glyph glyph-name="Euro" unicode="&#x20ac;" horiz-adv-x="1419" 
d="M752 -16q-164 0 -307 64t-245 189.5t-134 292.5h-113l14 35h92q-8 49 -8 115q0 104 25 199h-123l14 34h119q53 163 174 286t279.5 186t332.5 63q134 0 248 -26.5t170 -61.5l23 -268l-25 -9q-147 322 -479 322q-117 0 -213.5 -39t-162 -107.5t-106.5 -156t-57 -189.5h758
l-14 -34h-748q-6 -43 -6 -84q0 -124 33 -230h612l-14 -35h-588q63 -170 206 -274t363 -104q42 0 85 5t101.5 22.5t109.5 45.5t104 79t92 118l27 -12q-98 -203 -260 -314.5t-379 -111.5z" />
    <glyph glyph-name="trademark" unicode="&#x2122;" horiz-adv-x="1724" 
d="M725 571v17q30 10 39.5 40t9.5 99v551q0 69 -9.5 99t-39.5 40v17h205l260 -580l258 580h199v-17q-30 -10 -40 -40t-10 -99v-551q0 -69 10 -99t40 -40v-17h-246v17q30 10 39.5 40t9.5 99v643l-313 -704h-21l-315 700v-565q0 -109 21 -153t73 -60v-17h-170zM213 571v17
q30 10 39.5 40t9.5 99v682h-20q-62 0 -116.5 -33t-84.5 -106h-16l18 164h590l16 -164h-16q-29 73 -82.5 106t-116.5 33h-20v-682q0 -69 9.5 -99t39.5 -40v-17h-250z" />
    <glyph glyph-name="minus" unicode="&#x2212;" horiz-adv-x="1142" 
d="M207 662l10 32h713l-10 -32h-713z" />
    <glyph glyph-name="approxequal" unicode="&#x2248;" horiz-adv-x="1142" 
d="M748 723q-45 0 -99 17.5t-95.5 39t-92.5 39t-90 17.5q-80 0 -146 -88l-22 18q76 102 168 102q59 0 188.5 -56t188.5 -56q100 0 163 90l25 -17q-71 -106 -188 -106zM748 518q-57 0 -126 28t-135.5 56.5t-115.5 28.5q-80 0 -146 -88l-22 18q77 103 168 103q50 0 119 -28
t138.5 -56.5t119.5 -28.5q100 0 163 90l25 -16q-72 -107 -188 -107z" />
    <glyph glyph-name="notequal" unicode="&#x2260;" horiz-adv-x="1142" 
d="M236 143l200 355h-233l14 32h238l166 295h-418l14 33h424l209 371h39l-209 -371h250l-15 -33h-256l-165 -295h436l-15 -32h-440l-201 -355h-38z" />
    <glyph glyph-name="uni004A0301" horiz-adv-x="581" 
d="M-162 -246q-52 0 -75 11t-23 45q0 41 35.5 75.5t93.5 34.5q14 0 28.5 -1t26 -2.5t33.5 -6t35.5 -7.5t48.5 -10t57 -12q19 13 31.5 27t27.5 42.5t23 79t8 120.5v1024q0 115 -16.5 164.5t-65.5 66.5v29h379v-29q-49 -17 -65.5 -66.5t-16.5 -164.5v-676q0 -157 -47 -297
t-125 -237t-180.5 -153.5t-212.5 -56.5zM371 1640l-353 -106l-8 14l207 178q41 37 60 47.5t42 10.5q38 0 84 -26t46 -48q0 -23 -15 -39.5t-63 -30.5z" />
    <glyph glyph-name="K.ss01" horiz-adv-x="1320" 
d="M96 0v29q49 17 65.5 66.5t16.5 164.5v914q0 115 -16.5 164.5t-65.5 66.5v29h381v-29q-49 -17 -65.5 -66.5t-16.5 -164.5v-482l498 510q186 189 49 211v21h322v-29q-54 -15 -88.5 -28t-89.5 -47t-103 -83l-262 -268l315 -590q91 -169 136 -241.5t72 -95.5t63 -23
q18 0 30 2v-31q-55 -14 -139 -14q-46 0 -76 3.5t-61.5 18t-54.5 35.5t-53.5 63.5t-60.5 94.5t-73 135l-254 485l-170 -176v-385q0 -115 16.5 -164.5t65.5 -66.5v-29h-381z" />
    <glyph glyph-name="C.ss02" horiz-adv-x="1480" 
d="M836 -20q-105 0 -207 27t-196 84.5t-165.5 139t-114 199.5t-42.5 256q0 219 91.5 393t258.5 272.5t381 98.5q131 0 265.5 -33.5t213.5 -87.5l6 -258l-24 -8q-37 71 -84 130t-110.5 109.5t-148.5 79t-182 27.5q-155 -1 -262 -77.5t-155 -214t-35 -322.5
q21 -286 188.5 -464t433.5 -177q298 0 463 206l25 -20q-232 -360 -600 -360z" />
    <glyph glyph-name="Cacute.ss02" horiz-adv-x="1480" 
d="M836 -20q-105 0 -207 27t-196 84.5t-165.5 139t-114 199.5t-42.5 256q0 219 91.5 393t258.5 272.5t381 98.5q131 0 265.5 -33.5t213.5 -87.5l6 -258l-24 -8q-37 71 -84 130t-110.5 109.5t-148.5 79t-182 27.5q-155 -1 -262 -77.5t-155 -214t-35 -322.5
q21 -286 188.5 -464t433.5 -177q298 0 463 206l25 -20q-232 -360 -600 -360zM899 1640l-352 -106l-8 14l206 178q41 36 60.5 47t42.5 11q38 0 83.5 -26t45.5 -48q0 -23 -15 -39.5t-63 -30.5z" />
    <glyph glyph-name="Ccaron.ss02" horiz-adv-x="1480" 
d="M836 -20q-105 0 -207 27t-196 84.5t-165.5 139t-114 199.5t-42.5 256q0 219 91.5 393t258.5 272.5t381 98.5q131 0 265.5 -33.5t213.5 -87.5l6 -258l-24 -8q-37 71 -84 130t-110.5 109.5t-148.5 79t-182 27.5q-155 -1 -262 -77.5t-155 -214t-35 -322.5
q21 -286 188.5 -464t433.5 -177q298 0 463 206l25 -20q-232 -360 -600 -360zM580 1792l213 -94l225 94l18 -18l-237 -240h-13l-223 244z" />
    <glyph glyph-name="Ccedilla.ss02" horiz-adv-x="1480" 
d="M836 -20h-31l-66 -86q120 23 182 -17t62 -110q0 -92 -92.5 -170t-210.5 -78q-68 0 -111 26t-43 56q0 22 28.5 41.5t57.5 19.5q27 0 55 -20.5t61 -41t71 -20.5q48 0 78 31.5t30 73.5q0 46 -47.5 80t-138.5 34q-13 0 -21.5 -1t-14 -2t-18.5 -4.5t-26 -6.5l-10 12l141 185
q-99 8 -193 40t-179.5 91t-149.5 138.5t-101.5 192t-37.5 242.5q0 219 91.5 393t258.5 272.5t381 98.5q131 0 265.5 -33.5t213.5 -87.5l6 -258l-24 -8q-37 71 -84 130t-110.5 109.5t-148.5 79t-182 27.5q-155 -1 -262 -77.5t-155 -214t-35 -322.5q21 -286 188.5 -464
t433.5 -177q298 0 463 206l25 -20q-232 -360 -600 -360z" />
    <glyph glyph-name="Cdotaccent.ss02" horiz-adv-x="1480" 
d="M836 -20q-105 0 -207 27t-196 84.5t-165.5 139t-114 199.5t-42.5 256q0 219 91.5 393t258.5 272.5t381 98.5q131 0 265.5 -33.5t213.5 -87.5l6 -258l-24 -8q-37 71 -84 130t-110.5 109.5t-148.5 79t-182 27.5q-155 -1 -262 -77.5t-155 -214t-35 -322.5
q21 -286 188.5 -464t433.5 -177q298 0 463 206l25 -20q-232 -360 -600 -360zM799 1522q-59 0 -99.5 40.5t-40.5 98.5q0 60 40.5 100.5t99.5 40.5q61 0 100 -40t39 -101q0 -59 -40 -99t-99 -40z" />
    <glyph glyph-name="E.ss02" horiz-adv-x="1529" 
d="M840 -16q-147 0 -279 49t-232 137t-159 220.5t-59 289.5q0 171 64.5 317.5t171.5 244t246 152t288 54.5q121 0 222 -35.5t165 -90t108.5 -122.5t63 -129.5t18.5 -114.5h-1120q-14 -86 -14 -151q-1 -97 19.5 -190t69.5 -181.5t120.5 -155t180.5 -107t242 -40.5
q298 0 476 229l22 -18q-101 -163 -254 -260.5t-360 -97.5zM346 989h885q-2 42 -16 92.5t-46.5 108.5t-79 104.5t-120 77.5t-162.5 31q-182 0 -300.5 -114.5t-160.5 -299.5z" />
    <glyph glyph-name="Eacute.ss02" horiz-adv-x="1529" 
d="M840 -16q-147 0 -279 49t-232 137t-159 220.5t-59 289.5q0 171 64.5 317.5t171.5 244t246 152t288 54.5q121 0 222 -35.5t165 -90t108.5 -122.5t63 -129.5t18.5 -114.5h-1120q-14 -86 -14 -151q-1 -97 19.5 -190t69.5 -181.5t120.5 -155t180.5 -107t242 -40.5
q298 0 476 229l22 -18q-101 -163 -254 -260.5t-360 -97.5zM889 1640l-352 -106l-9 14l207 178q41 36 60.5 47t42.5 11q38 0 83.5 -26t45.5 -48q0 -23 -15 -39.5t-63 -30.5zM346 989h885q-2 42 -16 92.5t-46.5 108.5t-79 104.5t-120 77.5t-162.5 31q-182 0 -300.5 -114.5
t-160.5 -299.5z" />
    <glyph glyph-name="Ecaron.ss02" horiz-adv-x="1529" 
d="M840 -16q-147 0 -279 49t-232 137t-159 220.5t-59 289.5q0 171 64.5 317.5t171.5 244t246 152t288 54.5q121 0 222 -35.5t165 -90t108.5 -122.5t63 -129.5t18.5 -114.5h-1120q-14 -86 -14 -151q-1 -97 19.5 -190t69.5 -181.5t120.5 -155t180.5 -107t242 -40.5
q298 0 476 229l22 -18q-101 -163 -254 -260.5t-360 -97.5zM569 1792l213 -94l226 94l18 -18l-238 -240h-12l-223 244zM346 989h885q-2 42 -16 92.5t-46.5 108.5t-79 104.5t-120 77.5t-162.5 31q-182 0 -300.5 -114.5t-160.5 -299.5z" />
    <glyph glyph-name="Ecircumflex.ss02" horiz-adv-x="1529" 
d="M840 -16q-147 0 -279 49t-232 137t-159 220.5t-59 289.5q0 171 64.5 317.5t171.5 244t246 152t288 54.5q121 0 222 -35.5t165 -90t108.5 -122.5t63 -129.5t18.5 -114.5h-1120q-14 -86 -14 -151q-1 -97 19.5 -190t69.5 -181.5t120.5 -155t180.5 -107t242 -40.5
q298 0 476 229l22 -18q-101 -163 -254 -260.5t-360 -97.5zM569 1534l-16 14l223 244h12l238 -240l-18 -18l-226 94zM346 989h885q-2 42 -16 92.5t-46.5 108.5t-79 104.5t-120 77.5t-162.5 31q-182 0 -300.5 -114.5t-160.5 -299.5z" />
    <glyph glyph-name="Edieresis.ss02" horiz-adv-x="1529" 
d="M840 -16q-147 0 -279 49t-232 137t-159 220.5t-59 289.5q0 171 64.5 317.5t171.5 244t246 152t288 54.5q121 0 222 -35.5t165 -90t108.5 -122.5t63 -129.5t18.5 -114.5h-1120q-14 -86 -14 -151q-1 -97 19.5 -190t69.5 -181.5t120.5 -155t180.5 -107t242 -40.5
q298 0 476 229l22 -18q-101 -163 -254 -260.5t-360 -97.5zM965 1559q-48 0 -80.5 31.5t-32.5 80.5q0 44 33 75.5t80 31.5q44 0 76 -32.5t32 -78.5t-31 -77t-77 -31zM612 1559q-46 0 -77 31.5t-31 80.5q0 45 31 76t77 31q49 0 81 -31.5t32 -79.5q0 -46 -33 -77t-80 -31z
M346 989h885q-2 42 -16 92.5t-46.5 108.5t-79 104.5t-120 77.5t-162.5 31q-182 0 -300.5 -114.5t-160.5 -299.5z" />
    <glyph glyph-name="Edotaccent.ss02" horiz-adv-x="1529" 
d="M840 -16q-147 0 -279 49t-232 137t-159 220.5t-59 289.5q0 171 64.5 317.5t171.5 244t246 152t288 54.5q121 0 222 -35.5t165 -90t108.5 -122.5t63 -129.5t18.5 -114.5h-1120q-14 -86 -14 -151q-1 -97 19.5 -190t69.5 -181.5t120.5 -155t180.5 -107t242 -40.5
q298 0 476 229l22 -18q-101 -163 -254 -260.5t-360 -97.5zM788 1522q-58 0 -98.5 40t-40.5 99q0 60 40 100.5t99 40.5q61 0 100.5 -40.5t39.5 -100.5q0 -58 -40.5 -98.5t-99.5 -40.5zM346 989h885q-2 42 -16 92.5t-46.5 108.5t-79 104.5t-120 77.5t-162.5 31
q-182 0 -300.5 -114.5t-160.5 -299.5z" />
    <glyph glyph-name="Egrave.ss02" horiz-adv-x="1529" 
d="M840 -16q-147 0 -279 49t-232 137t-159 220.5t-59 289.5q0 171 64.5 317.5t171.5 244t246 152t288 54.5q121 0 222 -35.5t165 -90t108.5 -122.5t63 -129.5t18.5 -114.5h-1120q-14 -86 -14 -151q-1 -97 19.5 -190t69.5 -181.5t120.5 -155t180.5 -107t242 -40.5
q298 0 476 229l22 -18q-101 -163 -254 -260.5t-360 -97.5zM606 1640q-48 14 -63 30.5t-15 39.5q0 22 45.5 48t83.5 26q23 0 42.5 -11t60.5 -47l207 -178l-9 -14zM346 989h885q-2 42 -16 92.5t-46.5 108.5t-79 104.5t-120 77.5t-162.5 31q-182 0 -300.5 -114.5t-160.5 -299.5
z" />
    <glyph glyph-name="Emacron.ss02" horiz-adv-x="1529" 
d="M840 -16q-147 0 -279 49t-232 137t-159 220.5t-59 289.5q0 171 64.5 317.5t171.5 244t246 152t288 54.5q121 0 222 -35.5t165 -90t108.5 -122.5t63 -129.5t18.5 -114.5h-1120q-14 -86 -14 -151q-1 -97 19.5 -190t69.5 -181.5t120.5 -155t180.5 -107t242 -40.5
q298 0 476 229l22 -18q-101 -163 -254 -260.5t-360 -97.5zM506 1604l-6 8l49 63q21 29 61 29h465l6 -8l-49 -64q-20 -28 -61 -28h-465zM346 989h885q-2 42 -16 92.5t-46.5 108.5t-79 104.5t-120 77.5t-162.5 31q-182 0 -300.5 -114.5t-160.5 -299.5z" />
    <glyph glyph-name="Eogonek.ss02" horiz-adv-x="1529" 
d="M840 -16q-147 0 -279 49t-232 137t-159 220.5t-59 289.5q0 171 64.5 317.5t171.5 244t246 152t288 54.5q121 0 222 -35.5t165 -90t108.5 -122.5t63 -129.5t18.5 -114.5h-1120q-14 -86 -14 -151q-1 -97 19.5 -190t69.5 -181.5t120.5 -155t180.5 -107t242 -40.5
q298 0 476 229l22 -18q-123 -198 -307 -289q-37 -53 -37 -102q0 -45 33.5 -69.5t85.5 -24.5q54 0 104 32l10 -8l-73 -129q-34 -24 -94 -24q-67 0 -114.5 39.5t-47.5 103.5q0 77 63 152q-112 -39 -237 -39zM346 989h885q-2 42 -16 92.5t-46.5 108.5t-79 104.5t-120 77.5
t-162.5 31q-182 0 -300.5 -114.5t-160.5 -299.5z" />
    <glyph glyph-name="A.ss04" horiz-adv-x="1316" 
d="M-43 0v29q102 38 172 213l383 950q22 57 -4 111l-27 57l201 90l508 -1210q71 -168 158 -211v-29h-373v29q23 8 33 19.5t5 37.5t-13 47.5t-30 73.5q-9 21 -14 33l-401 960l-387 -958q-40 -103 -33 -152t60 -61v-29h-238zM555 375q0 66 -38.5 111.5t-113.5 45.5v25
q74 0 113 50t39 114h25q0 -64 38.5 -114t106.5 -50v-25q-69 0 -107 -46t-38 -111h-25z" />
    <glyph glyph-name="Aacute.ss04" horiz-adv-x="1316" 
d="M-43 0v29q102 38 172 213l383 950q22 57 -4 111l-27 57l201 90l508 -1210q71 -168 158 -211v-29h-373v29q23 8 33 19.5t5 37.5t-13 47.5t-30 73.5q-9 21 -14 33l-401 960l-387 -958q-40 -103 -33 -152t60 -61v-29h-238zM555 375q0 66 -38.5 111.5t-113.5 45.5v25
q74 0 113 50t39 114h25q0 -64 38.5 -114t106.5 -50v-25q-69 0 -107 -46t-38 -111h-25zM709 1640l-353 -106l-8 14l207 178q41 37 60 47.5t42 10.5q38 0 83.5 -26t45.5 -48q0 -15 -4 -25.5t-22 -23t-51 -21.5z" />
    <glyph glyph-name="Abreve.ss04" horiz-adv-x="1316" 
d="M-43 0v29q102 38 172 213l383 950q22 57 -4 111l-27 57l201 90l508 -1210q71 -168 158 -211v-29h-373v29q23 8 33 19.5t5 37.5t-13 47.5t-30 73.5q-9 21 -14 33l-401 960l-387 -958q-40 -103 -33 -152t60 -61v-29h-238zM555 375q0 66 -38.5 111.5t-113.5 45.5v25
q74 0 113 50t39 114h25q0 -64 38.5 -114t106.5 -50v-25q-69 0 -107 -46t-38 -111h-25zM608 1538q-75 0 -122 49t-103 170l25 10q28 -31 46.5 -47.5t59 -31.5t94.5 -15t94.5 14.5t61 32t45.5 47.5l22 -10q-56 -122 -102.5 -170.5t-120.5 -48.5z" />
    <glyph glyph-name="Acircumflex.ss04" horiz-adv-x="1316" 
d="M-43 0v29q102 38 172 213l383 950q22 57 -4 111l-27 57l201 90l508 -1210q71 -168 158 -211v-29h-373v29q23 8 33 19.5t5 37.5t-13 47.5t-30 73.5q-9 21 -14 33l-401 960l-387 -958q-40 -103 -33 -152t60 -61v-29h-238zM555 375q0 66 -38.5 111.5t-113.5 45.5v25
q74 0 113 50t39 114h25q0 -64 38.5 -114t106.5 -50v-25q-69 0 -107 -46t-38 -111h-25zM389 1534l-16 14l223 244h12l238 -240l-19 -18l-225 94z" />
    <glyph glyph-name="Adieresis.ss04" horiz-adv-x="1316" 
d="M-43 0v29q102 38 172 213l383 950q22 57 -4 111l-27 57l201 90l508 -1210q71 -168 158 -211v-29h-373v29q23 8 33 19.5t5 37.5t-13 47.5t-30 73.5q-9 21 -14 33l-401 960l-387 -958q-40 -103 -33 -152t60 -61v-29h-238zM555 375q0 66 -38.5 111.5t-113.5 45.5v25
q74 0 113 50t39 114h25q0 -64 38.5 -114t106.5 -50v-25q-69 0 -107 -46t-38 -111h-25zM784 1559q-48 0 -80 31.5t-32 80.5q0 44 32.5 75.5t79.5 31.5q44 0 76.5 -32.5t32.5 -78.5t-31.5 -77t-77.5 -31zM432 1559q-46 0 -77 31.5t-31 80.5q0 45 31 76t77 31q49 0 81 -31.5
t32 -79.5q0 -46 -33 -77t-80 -31z" />
    <glyph glyph-name="Agrave.ss04" horiz-adv-x="1316" 
d="M-43 0v29q102 38 172 213l383 950q22 57 -4 111l-27 57l201 90l508 -1210q71 -168 158 -211v-29h-373v29q23 8 33 19.5t5 37.5t-13 47.5t-30 73.5q-9 21 -14 33l-401 960l-387 -958q-40 -103 -33 -152t60 -61v-29h-238zM555 375q0 66 -38.5 111.5t-113.5 45.5v25
q74 0 113 50t39 114h25q0 -64 38.5 -114t106.5 -50v-25q-69 0 -107 -46t-38 -111h-25zM426 1640q-48 14 -63 30.5t-15 39.5q0 22 45.5 48t83.5 26q23 0 42.5 -11t60.5 -47l206 -178l-8 -14z" />
    <glyph glyph-name="Amacron.ss04" horiz-adv-x="1316" 
d="M-43 0v29q102 38 172 213l383 950q22 57 -4 111l-27 57l201 90l508 -1210q71 -168 158 -211v-29h-373v29q23 8 33 19.5t5 37.5t-13 47.5t-30 73.5q-9 21 -14 33l-401 960l-387 -958q-40 -103 -33 -152t60 -61v-29h-238zM555 375q0 66 -38.5 111.5t-113.5 45.5v25
q74 0 113 50t39 114h25q0 -64 38.5 -114t106.5 -50v-25q-69 0 -107 -46t-38 -111h-25zM326 1604l-7 8l50 63q21 29 61 29h465l6 -8l-49 -64q-20 -28 -61 -28h-465z" />
    <glyph glyph-name="Aogonek.ss04" horiz-adv-x="1316" 
d="M-43 0v29q102 38 172 213l383 950q22 57 -4 111l-27 57l201 90l508 -1210q71 -168 158 -211v-29h-310q-56 -55 -78 -94t-22 -78q0 -45 33.5 -69.5t85.5 -24.5q53 0 104 33l10 -9l-73 -129q-34 -24 -94 -24q-67 0 -114.5 39.5t-47.5 103.5q0 61 40 120.5t119 131.5h-26v29
q23 8 33 19.5t5 37.5t-13 47.5t-30 73.5q-9 21 -14 33l-401 960l-387 -958q-40 -103 -33 -152t60 -61v-29h-238zM555 375q0 66 -38.5 111.5t-113.5 45.5v25q74 0 113 50t39 114h25q0 -64 38.5 -114t106.5 -50v-25q-69 0 -107 -46t-38 -111h-25z" />
    <glyph glyph-name="Aring.ss04" horiz-adv-x="1316" 
d="M-43 0v29q102 38 172 213l383 950q22 57 -4 111l-27 57l201 90l508 -1210q71 -168 158 -211v-29h-373v29q23 8 33 19.5t5 37.5t-13 47.5t-30 73.5q-9 21 -14 33l-401 960l-387 -958q-40 -103 -33 -152t60 -61v-29h-238zM555 375q0 66 -38.5 111.5t-113.5 45.5v25
q74 0 113 50t39 114h25q0 -64 38.5 -114t106.5 -50v-25q-69 0 -107 -46t-38 -111h-25zM606 1532q-61 0 -100 39.5t-39 97.5q0 61 39 102t100 41q67 0 105.5 -39.5t38.5 -99.5q0 -59 -41 -100t-103 -41zM606 1552q51 0 85 34.5t34 86.5q0 53 -33.5 86t-85.5 33q-50 0 -82 -34
t-32 -89q0 -51 32 -84t82 -33z" />
    <glyph glyph-name="Atilde.ss04" horiz-adv-x="1316" 
d="M-43 0v29q102 38 172 213l383 950q22 57 -4 111l-27 57l201 90l508 -1210q71 -168 158 -211v-29h-373v29q23 8 33 19.5t5 37.5t-13 47.5t-30 73.5q-9 21 -14 33l-401 960l-387 -958q-40 -103 -33 -152t60 -61v-29h-238zM555 375q0 66 -38.5 111.5t-113.5 45.5v25
q74 0 113 50t39 114h25q0 -64 38.5 -114t106.5 -50v-25q-69 0 -107 -46t-38 -111h-25zM297 1546q85 223 207 223q42 0 156 -40.5t153 -40.5t63 23.5t48 88.5l20 -6q-38 -121 -92.5 -183.5t-118.5 -62.5q-54 0 -108 21t-105 42t-98 21q-38 0 -62 -22t-43 -72z" />
    <glyph glyph-name="AE.ss04" horiz-adv-x="1667" 
d="M-43 0v29q49 19 91.5 67t82.5 144l494 1194h774l24 -230l-26 -6q-48 107 -140 153t-262 46h-229l174 -606h53q123 0 196 17.5t107.5 49.5t51.5 88h28v-348h-28q-18 56 -52 88.5t-107 50t-196 17.5h-43l183 -631q24 -86 110 -86q122 0 194 48t132 177h26l-14 -262h-645
l-348 1253l-418 -1013q-42 -101 -35 -150t60 -61v-29h-238zM524 330q0 66 -38 111.5t-113 45.5v25q74 0 112.5 49.5t38.5 114.5h25q0 -64 38.5 -114t106.5 -50v-25q-69 0 -107 -46t-38 -111h-25z" />
    <glyph glyph-name="E.ss04" horiz-adv-x="1198" 
d="M1112 0h-1016v29q49 17 65.5 66.5t16.5 164.5v914q0 115 -16.5 164.5t-65.5 66.5v29h983l23 -248l-27 -6q-46 121 -136.5 171t-262.5 50h-281v-1266q0 -49 26.5 -75.5t76.5 -26.5h207q158 0 246.5 49.5t148.5 179.5l26 -4zM786 596q0 66 -38 112t-113 46v24
q74 0 112.5 49.5t38.5 114.5h25q0 -64 38.5 -114t106.5 -50v-24q-69 0 -107 -46.5t-38 -111.5h-25z" />
    <glyph glyph-name="Eacute.ss04" horiz-adv-x="1198" 
d="M1112 0h-1016v29q49 17 65.5 66.5t16.5 164.5v914q0 115 -16.5 164.5t-65.5 66.5v29h983l23 -248l-27 -6q-46 121 -136.5 171t-262.5 50h-281v-1266q0 -49 26.5 -75.5t76.5 -26.5h207q158 0 246.5 49.5t148.5 179.5l26 -4zM786 596q0 66 -38 112t-113 46v24
q74 0 112.5 49.5t38.5 114.5h25q0 -64 38.5 -114t106.5 -50v-24q-69 0 -107 -46.5t-38 -111.5h-25zM678 1640l-352 -106l-9 14l207 178q41 36 60.5 47t42.5 11q38 0 83.5 -26t45.5 -48q0 -23 -15 -39.5t-63 -30.5z" />
    <glyph glyph-name="Ecaron.ss04" horiz-adv-x="1198" 
d="M1112 0h-1016v29q49 17 65.5 66.5t16.5 164.5v914q0 115 -16.5 164.5t-65.5 66.5v29h983l23 -248l-27 -6q-46 121 -136.5 171t-262.5 50h-281v-1266q0 -49 26.5 -75.5t76.5 -26.5h207q158 0 246.5 49.5t148.5 179.5l26 -4zM786 596q0 66 -38 112t-113 46v24
q74 0 112.5 49.5t38.5 114.5h25q0 -64 38.5 -114t106.5 -50v-24q-69 0 -107 -46.5t-38 -111.5h-25zM358 1792l213 -94l226 94l18 -18l-237 -240h-13l-223 244z" />
    <glyph glyph-name="Ecircumflex.ss04" horiz-adv-x="1198" 
d="M1112 0h-1016v29q49 17 65.5 66.5t16.5 164.5v914q0 115 -16.5 164.5t-65.5 66.5v29h983l23 -248l-27 -6q-46 121 -136.5 171t-262.5 50h-281v-1266q0 -49 26.5 -75.5t76.5 -26.5h207q158 0 246.5 49.5t148.5 179.5l26 -4zM786 596q0 66 -38 112t-113 46v24
q74 0 112.5 49.5t38.5 114.5h25q0 -64 38.5 -114t106.5 -50v-24q-69 0 -107 -46.5t-38 -111.5h-25zM358 1534l-16 14l223 244h13l237 -240l-18 -18l-226 94z" />
    <glyph glyph-name="Edieresis.ss04" horiz-adv-x="1198" 
d="M1112 0h-1016v29q49 17 65.5 66.5t16.5 164.5v914q0 115 -16.5 164.5t-65.5 66.5v29h983l23 -248l-27 -6q-46 121 -136.5 171t-262.5 50h-281v-1266q0 -49 26.5 -75.5t76.5 -26.5h207q158 0 246.5 49.5t148.5 179.5l26 -4zM786 596q0 66 -38 112t-113 46v24
q74 0 112.5 49.5t38.5 114.5h25q0 -64 38.5 -114t106.5 -50v-24q-69 0 -107 -46.5t-38 -111.5h-25zM754 1559q-48 0 -80.5 31.5t-32.5 80.5q0 44 33 75.5t80 31.5q44 0 76 -32.5t32 -78.5t-31 -77t-77 -31zM401 1559q-46 0 -77 31.5t-31 80.5q0 45 31.5 76t76.5 31
q49 0 81 -31.5t32 -79.5q0 -46 -33 -77t-80 -31z" />
    <glyph glyph-name="Edotaccent.ss04" horiz-adv-x="1198" 
d="M1112 0h-1016v29q49 17 65.5 66.5t16.5 164.5v914q0 115 -16.5 164.5t-65.5 66.5v29h983l23 -248l-27 -6q-46 121 -136.5 171t-262.5 50h-281v-1266q0 -49 26.5 -75.5t76.5 -26.5h207q158 0 246.5 49.5t148.5 179.5l26 -4zM786 596q0 66 -38 112t-113 46v24
q74 0 112.5 49.5t38.5 114.5h25q0 -64 38.5 -114t106.5 -50v-24q-69 0 -107 -46.5t-38 -111.5h-25zM578 1522q-59 0 -99.5 40.5t-40.5 98.5q0 60 40.5 100.5t99.5 40.5q61 0 100 -40t39 -101q0 -59 -40.5 -99t-98.5 -40z" />
    <glyph glyph-name="Egrave.ss04" horiz-adv-x="1198" 
d="M1112 0h-1016v29q49 17 65.5 66.5t16.5 164.5v914q0 115 -16.5 164.5t-65.5 66.5v29h983l23 -248l-27 -6q-46 121 -136.5 171t-262.5 50h-281v-1266q0 -49 26.5 -75.5t76.5 -26.5h207q158 0 246.5 49.5t148.5 179.5l26 -4zM786 596q0 66 -38 112t-113 46v24
q74 0 112.5 49.5t38.5 114.5h25q0 -64 38.5 -114t106.5 -50v-24q-69 0 -107 -46.5t-38 -111.5h-25zM395 1640q-48 14 -63 30.5t-15 39.5q0 22 45.5 48t83.5 26q23 0 42.5 -11t60.5 -47l207 -178l-8 -14z" />
    <glyph glyph-name="Emacron.ss04" horiz-adv-x="1198" 
d="M1112 0h-1016v29q49 17 65.5 66.5t16.5 164.5v914q0 115 -16.5 164.5t-65.5 66.5v29h983l23 -248l-27 -6q-46 121 -136.5 171t-262.5 50h-281v-1266q0 -49 26.5 -75.5t76.5 -26.5h207q158 0 246.5 49.5t148.5 179.5l26 -4zM786 596q0 66 -38 112t-113 46v24
q74 0 112.5 49.5t38.5 114.5h25q0 -64 38.5 -114t106.5 -50v-24q-69 0 -107 -46.5t-38 -111.5h-25zM295 1604l-6 8l49 63q21 29 61 29h465l6 -8l-49 -64q-20 -28 -61 -28h-465z" />
    <glyph glyph-name="Eogonek.ss04" horiz-adv-x="1198" 
d="M1112 0h-108q-56 -55 -78.5 -94.5t-22.5 -77.5q0 -45 33.5 -69.5t85.5 -24.5q53 0 104 33l11 -9l-74 -129q-34 -24 -94 -24q-67 0 -114.5 39.5t-47.5 103.5q0 60 40.5 119.5t119.5 132.5h-871v29q49 17 65.5 66.5t16.5 164.5v914q0 115 -16.5 164.5t-65.5 66.5v29h983
l23 -248l-27 -6q-46 121 -136.5 171t-262.5 50h-281v-1266q0 -49 26.5 -75.5t76.5 -26.5h207q158 0 246.5 49.5t148.5 179.5l26 -4zM786 596q0 66 -38 112t-113 46v24q74 0 112.5 49.5t38.5 114.5h25q0 -64 38.5 -114t106.5 -50v-24q-69 0 -107 -46.5t-38 -111.5h-25z" />
    <glyph glyph-name="F.ss04" horiz-adv-x="1087" 
d="M96 0v29q49 17 65.5 66.5t16.5 164.5v914q0 115 -16.5 164.5t-65.5 66.5v29h928l14 -228l-26 -6q-58 109 -139.5 153t-231.5 44h-246v-1137q0 -115 16.5 -164.5t65.5 -66.5v-29h-381zM709 662q0 66 -38.5 111.5t-113.5 45.5v25q74 0 113 50t39 114h24q0 -63 38.5 -113.5
t107.5 -50.5v-25q-70 0 -108 -46t-38 -111h-24z" />
    <glyph glyph-name="H.ss04" horiz-adv-x="1503" 
d="M96 0v29q49 17 65.5 66.5t16.5 164.5v914q0 115 -16.5 164.5t-65.5 66.5v29h381v-29q-49 -17 -65.5 -66.5t-16.5 -164.5v-914q0 -115 16.5 -164.5t65.5 -66.5v-29h-381zM743 580q0 66 -38 111.5t-113 45.5v25q74 0 112.5 49.5t38.5 114.5h25q0 -64 38.5 -114t106.5 -50
v-25q-69 0 -107 -46t-38 -111h-25zM1026 0v29q49 17 65.5 66.5t16.5 164.5v914q0 115 -16.5 164.5t-65.5 66.5v29h381v-29q-49 -17 -65.5 -66.5t-16.5 -164.5v-914q0 -115 16.5 -164.5t65.5 -66.5v-29h-381z" />
    <glyph glyph-name="O.ss04" horiz-adv-x="1679" 
d="M844 -20q-107 0 -210 27.5t-198 87t-167 144.5t-115 210t-43 274q0 151 54 284.5t149 231.5t232.5 154.5t297.5 56.5q106 0 209 -28t197.5 -88t166.5 -145.5t115 -208.5t43 -269q0 -145 -43 -267.5t-115 -206.5t-167 -143t-198 -86.5t-208 -27.5zM961 43q91 0 164 27
t120 73.5t77 111t41 138t5 156.5q-16 221 -97 412.5t-222 313.5t-312 122q-208 0 -319 -149.5t-94 -399.5q9 -122 43.5 -240.5t93 -220t133.5 -179t170 -121.5t197 -44zM838 567q0 66 -38.5 112t-113.5 46v25q74 0 113 49.5t39 113.5h24q0 -63 38.5 -113t107.5 -50v-25
q-69 0 -107.5 -46.5t-38.5 -111.5h-24z" />
    <glyph glyph-name="Oacute.ss04" horiz-adv-x="1679" 
d="M844 -20q-107 0 -210 27.5t-198 87t-167 144.5t-115 210t-43 274q0 151 54 284.5t149 231.5t232.5 154.5t297.5 56.5q106 0 209 -28t197.5 -88t166.5 -145.5t115 -208.5t43 -269q0 -145 -43 -267.5t-115 -206.5t-167 -143t-198 -86.5t-208 -27.5zM961 43q91 0 164 27
t120 73.5t77 111t41 138t5 156.5q-16 221 -97 412.5t-222 313.5t-312 122q-208 0 -319 -149.5t-94 -399.5q9 -122 43.5 -240.5t93 -220t133.5 -179t170 -121.5t197 -44zM838 567q0 66 -38.5 112t-113.5 46v25q74 0 113 49.5t39 113.5h24q0 -63 38.5 -113t107.5 -50v-25
q-69 0 -107.5 -46.5t-38.5 -111.5h-24zM922 1640l-353 -106l-8 14l207 178q41 37 60 47.5t42 10.5q38 0 83.5 -26t45.5 -48q0 -15 -4 -25.5t-22 -23t-51 -21.5z" />
    <glyph glyph-name="Ocircumflex.ss04" horiz-adv-x="1679" 
d="M844 -20q-107 0 -210 27.5t-198 87t-167 144.5t-115 210t-43 274q0 151 54 284.5t149 231.5t232.5 154.5t297.5 56.5q106 0 209 -28t197.5 -88t166.5 -145.5t115 -208.5t43 -269q0 -145 -43 -267.5t-115 -206.5t-167 -143t-198 -86.5t-208 -27.5zM961 43q91 0 164 27
t120 73.5t77 111t41 138t5 156.5q-16 221 -97 412.5t-222 313.5t-312 122q-208 0 -319 -149.5t-94 -399.5q9 -122 43.5 -240.5t93 -220t133.5 -179t170 -121.5t197 -44zM838 567q0 66 -38.5 112t-113.5 46v25q74 0 113 49.5t39 113.5h24q0 -63 38.5 -113t107.5 -50v-25
q-69 0 -107.5 -46.5t-38.5 -111.5h-24zM602 1534l-16 14l223 244h12l238 -240l-19 -18l-225 94z" />
    <glyph glyph-name="Odieresis.ss04" horiz-adv-x="1679" 
d="M844 -20q-107 0 -210 27.5t-198 87t-167 144.5t-115 210t-43 274q0 151 54 284.5t149 231.5t232.5 154.5t297.5 56.5q106 0 209 -28t197.5 -88t166.5 -145.5t115 -208.5t43 -269q0 -145 -43 -267.5t-115 -206.5t-167 -143t-198 -86.5t-208 -27.5zM961 43q91 0 164 27
t120 73.5t77 111t41 138t5 156.5q-16 221 -97 412.5t-222 313.5t-312 122q-208 0 -319 -149.5t-94 -399.5q9 -122 43.5 -240.5t93 -220t133.5 -179t170 -121.5t197 -44zM838 567q0 66 -38.5 112t-113.5 46v25q74 0 113 49.5t39 113.5h24q0 -63 38.5 -113t107.5 -50v-25
q-69 0 -107.5 -46.5t-38.5 -111.5h-24zM997 1559q-48 0 -80 31.5t-32 80.5q0 44 32.5 75.5t79.5 31.5q44 0 76.5 -32.5t32.5 -78.5t-31.5 -77t-77.5 -31zM645 1559q-46 0 -77 31.5t-31 80.5q0 45 31.5 76t76.5 31q49 0 81 -31.5t32 -79.5q0 -46 -33 -77t-80 -31z" />
    <glyph glyph-name="Ograve.ss04" horiz-adv-x="1679" 
d="M844 -20q-107 0 -210 27.5t-198 87t-167 144.5t-115 210t-43 274q0 151 54 284.5t149 231.5t232.5 154.5t297.5 56.5q106 0 209 -28t197.5 -88t166.5 -145.5t115 -208.5t43 -269q0 -145 -43 -267.5t-115 -206.5t-167 -143t-198 -86.5t-208 -27.5zM961 43q91 0 164 27
t120 73.5t77 111t41 138t5 156.5q-16 221 -97 412.5t-222 313.5t-312 122q-208 0 -319 -149.5t-94 -399.5q9 -122 43.5 -240.5t93 -220t133.5 -179t170 -121.5t197 -44zM838 567q0 66 -38.5 112t-113.5 46v25q74 0 113 49.5t39 113.5h24q0 -63 38.5 -113t107.5 -50v-25
q-69 0 -107.5 -46.5t-38.5 -111.5h-24zM639 1640q-48 14 -63 30.5t-15 39.5q0 22 45.5 48t83.5 26q23 0 42.5 -11t60.5 -47l206 -178l-8 -14z" />
    <glyph glyph-name="Ohungarumlaut.ss04" horiz-adv-x="1679" 
d="M844 -20q-107 0 -210 27.5t-198 87t-167 144.5t-115 210t-43 274q0 151 54 284.5t149 231.5t232.5 154.5t297.5 56.5q106 0 209 -28t197.5 -88t166.5 -145.5t115 -208.5t43 -269q0 -145 -43 -267.5t-115 -206.5t-167 -143t-198 -86.5t-208 -27.5zM961 43q91 0 164 27
t120 73.5t77 111t41 138t5 156.5q-16 221 -97 412.5t-222 313.5t-312 122q-208 0 -319 -149.5t-94 -399.5q9 -122 43.5 -240.5t93 -220t133.5 -179t170 -121.5t197 -44zM838 567q0 66 -38.5 112t-113.5 46v25q74 0 113 49.5t39 113.5h24q0 -63 38.5 -113t107.5 -50v-25
q-69 0 -107.5 -46.5t-38.5 -111.5h-24zM899 1528l-10 10l168 182q33 36 51.5 47t50.5 11q39 0 63.5 -10t24.5 -27t-15.5 -33.5t-62.5 -40.5zM612 1528l-10 10l168 182q33 36 53.5 47t55.5 11t58.5 -10t23.5 -27t-15.5 -33.5t-62.5 -40.5z" />
    <glyph glyph-name="Omacron.ss04" horiz-adv-x="1679" 
d="M844 -20q-107 0 -210 27.5t-198 87t-167 144.5t-115 210t-43 274q0 151 54 284.5t149 231.5t232.5 154.5t297.5 56.5q106 0 209 -28t197.5 -88t166.5 -145.5t115 -208.5t43 -269q0 -145 -43 -267.5t-115 -206.5t-167 -143t-198 -86.5t-208 -27.5zM961 43q91 0 164 27
t120 73.5t77 111t41 138t5 156.5q-16 221 -97 412.5t-222 313.5t-312 122q-208 0 -319 -149.5t-94 -399.5q9 -122 43.5 -240.5t93 -220t133.5 -179t170 -121.5t197 -44zM838 567q0 66 -38.5 112t-113.5 46v25q74 0 113 49.5t39 113.5h24q0 -63 38.5 -113t107.5 -50v-25
q-69 0 -107.5 -46.5t-38.5 -111.5h-24zM539 1604l-7 8l50 63q21 29 61 29h465l6 -8l-49 -64q-20 -28 -61 -28h-465z" />
    <glyph glyph-name="Otilde.ss04" horiz-adv-x="1679" 
d="M844 -20q-107 0 -210 27.5t-198 87t-167 144.5t-115 210t-43 274q0 151 54 284.5t149 231.5t232.5 154.5t297.5 56.5q106 0 209 -28t197.5 -88t166.5 -145.5t115 -208.5t43 -269q0 -145 -43 -267.5t-115 -206.5t-167 -143t-198 -86.5t-208 -27.5zM961 43q91 0 164 27
t120 73.5t77 111t41 138t5 156.5q-16 221 -97 412.5t-222 313.5t-312 122q-208 0 -319 -149.5t-94 -399.5q9 -122 43.5 -240.5t93 -220t133.5 -179t170 -121.5t197 -44zM838 567q0 66 -38.5 112t-113.5 46v25q74 0 113 49.5t39 113.5h24q0 -63 38.5 -113t107.5 -50v-25
q-69 0 -107.5 -46.5t-38.5 -111.5h-24zM510 1546q85 223 207 223q43 0 156 -40.5t153 -40.5q39 0 63 23.5t48 88.5l20 -6q-38 -121 -92.5 -183.5t-118.5 -62.5q-66 0 -161 42t-150 42q-38 0 -62 -22t-43 -72z" />
    <glyph glyph-name="OE.ss04" horiz-adv-x="2109" 
d="M842 -20q-139 0 -267.5 45.5t-233 132t-167.5 227.5t-63 317q0 144 44 267.5t119.5 210t175.5 148t211.5 91t227.5 29.5q165 0 297 -14h774l25 -230l-27 -6q-48 107 -140 153t-262 46h-249v-1258q0 -49 26.5 -75.5t75.5 -26.5h207q159 0 247 48t148 177h27l-15 -262h-925
q-114 -20 -256 -20zM913 20q185 0 185 146v1034q0 102 -66.5 148.5t-220.5 46.5q-122 0 -217.5 -41.5t-154.5 -114.5t-89.5 -167.5t-30.5 -205.5q0 -91 16 -187t47 -191.5t81.5 -179t114 -148.5t150 -102.5t185.5 -37.5zM1645 657q0 66 -38.5 112t-113.5 46v25q74 0 113 50
t39 114h24q0 -63 38.5 -113.5t107.5 -50.5v-25q-69 0 -107.5 -46.5t-38.5 -111.5h-24z" />
    <glyph glyph-name="K_E" horiz-adv-x="2295" 
d="M1485 -20q-91 0 -168.5 27t-133.5 72.5t-104.5 104.5t-86.5 124t-74.5 130t-74 124t-79 104.5t-96.5 72.5t-119 27h-37l-117 -121v-385q0 -115 16.5 -164.5t65.5 -66.5v-29h-381v29q49 17 65.5 66.5t16.5 164.5v914q0 115 -16.5 164.5t-65.5 66.5v29h381v-29
q-49 -17 -65.5 -66.5t-16.5 -164.5v-482l498 510q186 189 49 211v21h322v-29q-54 -15 -88.5 -28t-89.5 -47t-103 -83l-438 -448l53 4q102 8 187.5 -12.5t146.5 -62.5t112.5 -99t92 -121.5t78.5 -129.5t79 -125t86.5 -106.5t107.5 -74t136 -27.5q76 0 143.5 41.5t106.5 108.5
l20 -17q-59 -91 -162 -144.5t-247 -53.5zM2208 389h-815v29q49 17 65.5 66.5t16.5 164.5v525q0 115 -16.5 164.5t-65.5 66.5v29h788l19 -201l-27 -4q-46 102 -111 138t-204 36h-166v-430h45q110 0 176 16t96 44.5t45 78.5h27v-309h-27q-15 50 -45 78.5t-96 44.5t-176 16h-45
v-420q0 -50 26 -76t76 -26h98q117 0 184 40.5t122 141.5l26 -4z" />
    <glyph glyph-name="K_Eacute" horiz-adv-x="2295" 
d="M1485 -20q-91 0 -168.5 27t-133.5 72.5t-104.5 104.5t-86.5 124t-74.5 130t-74 124t-79 104.5t-96.5 72.5t-119 27h-37l-117 -121v-385q0 -115 16.5 -164.5t65.5 -66.5v-29h-381v29q49 17 65.5 66.5t16.5 164.5v914q0 115 -16.5 164.5t-65.5 66.5v29h381v-29
q-49 -17 -65.5 -66.5t-16.5 -164.5v-482l498 510q186 189 49 211v21h322v-29q-54 -15 -88.5 -28t-89.5 -47t-103 -83l-438 -448l53 4q102 8 187.5 -12.5t146.5 -62.5t112.5 -99t92 -121.5t78.5 -129.5t79 -125t86.5 -106.5t107.5 -74t136 -27.5q76 0 143.5 41.5t106.5 108.5
l20 -17q-59 -91 -162 -144.5t-247 -53.5zM2208 389h-815v29q49 17 65.5 66.5t16.5 164.5v525q0 115 -16.5 164.5t-65.5 66.5v29h788l19 -201l-27 -4q-46 102 -111 138t-204 36h-166v-430h45q110 0 176 16t96 44.5t45 78.5h27v-309h-27q-15 50 -45 78.5t-96 44.5t-176 16h-45
v-420q0 -50 26 -76t76 -26h98q117 0 184 40.5t122 141.5l26 -4zM1815 1632l-353 -106l-8 14l207 178q41 37 60 47.5t42 10.5q38 0 83.5 -26t45.5 -48q0 -15 -4 -25.5t-22 -23t-51 -21.5z" />
    <glyph glyph-name="K_Ecaron" horiz-adv-x="2295" 
d="M1485 -20q-91 0 -168.5 27t-133.5 72.5t-104.5 104.5t-86.5 124t-74.5 130t-74 124t-79 104.5t-96.5 72.5t-119 27h-37l-117 -121v-385q0 -115 16.5 -164.5t65.5 -66.5v-29h-381v29q49 17 65.5 66.5t16.5 164.5v914q0 115 -16.5 164.5t-65.5 66.5v29h381v-29
q-49 -17 -65.5 -66.5t-16.5 -164.5v-482l498 510q186 189 49 211v21h322v-29q-54 -15 -88.5 -28t-89.5 -47t-103 -83l-438 -448l53 4q102 8 187.5 -12.5t146.5 -62.5t112.5 -99t92 -121.5t78.5 -129.5t79 -125t86.5 -106.5t107.5 -74t136 -27.5q76 0 143.5 41.5t106.5 108.5
l20 -17q-59 -91 -162 -144.5t-247 -53.5zM2208 389h-815v29q49 17 65.5 66.5t16.5 164.5v525q0 115 -16.5 164.5t-65.5 66.5v29h788l19 -201l-27 -4q-46 102 -111 138t-204 36h-166v-430h45q110 0 176 16t96 44.5t45 78.5h27v-309h-27q-15 50 -45 78.5t-96 44.5t-176 16h-45
v-420q0 -50 26 -76t76 -26h98q117 0 184 40.5t122 141.5l26 -4zM1415 1774l213 -95l225 95l19 -19l-238 -239h-12l-223 243z" />
    <glyph glyph-name="K_Edieresis" horiz-adv-x="2295" 
d="M1485 -20q-91 0 -168.5 27t-133.5 72.5t-104.5 104.5t-86.5 124t-74.5 130t-74 124t-79 104.5t-96.5 72.5t-119 27h-37l-117 -121v-385q0 -115 16.5 -164.5t65.5 -66.5v-29h-381v29q49 17 65.5 66.5t16.5 164.5v914q0 115 -16.5 164.5t-65.5 66.5v29h381v-29
q-49 -17 -65.5 -66.5t-16.5 -164.5v-482l498 510q186 189 49 211v21h322v-29q-54 -15 -88.5 -28t-89.5 -47t-103 -83l-438 -448l53 4q102 8 187.5 -12.5t146.5 -62.5t112.5 -99t92 -121.5t78.5 -129.5t79 -125t86.5 -106.5t107.5 -74t136 -27.5q76 0 143.5 41.5t106.5 108.5
l20 -17q-59 -91 -162 -144.5t-247 -53.5zM2208 389h-815v29q49 17 65.5 66.5t16.5 164.5v525q0 115 -16.5 164.5t-65.5 66.5v29h788l19 -201l-27 -4q-46 102 -111 138t-204 36h-166v-430h45q110 0 176 16t96 44.5t45 78.5h27v-309h-27q-15 50 -45 78.5t-96 44.5t-176 16h-45
v-420q0 -50 26 -76t76 -26h98q117 0 184 40.5t122 141.5l26 -4zM1894 1556q-48 0 -80 32t-32 81q0 44 32.5 75.5t79.5 31.5q44 0 76.5 -32.5t32.5 -78.5t-31.5 -77.5t-77.5 -31.5zM1542 1556q-46 0 -77 32t-31 81q0 45 31 76t77 31q49 0 81 -31.5t32 -79.5q0 -46 -33 -77.5
t-80 -31.5z" />
    <glyph glyph-name="K_Edotaccent" horiz-adv-x="2295" 
d="M1485 -20q-91 0 -168.5 27t-133.5 72.5t-104.5 104.5t-86.5 124t-74.5 130t-74 124t-79 104.5t-96.5 72.5t-119 27h-37l-117 -121v-385q0 -115 16.5 -164.5t65.5 -66.5v-29h-381v29q49 17 65.5 66.5t16.5 164.5v914q0 115 -16.5 164.5t-65.5 66.5v29h381v-29
q-49 -17 -65.5 -66.5t-16.5 -164.5v-482l498 510q186 189 49 211v21h322v-29q-54 -15 -88.5 -28t-89.5 -47t-103 -83l-438 -448l53 4q102 8 187.5 -12.5t146.5 -62.5t112.5 -99t92 -121.5t78.5 -129.5t79 -125t86.5 -106.5t107.5 -74t136 -27.5q76 0 143.5 41.5t106.5 108.5
l20 -17q-59 -91 -162 -144.5t-247 -53.5zM2208 389h-815v29q49 17 65.5 66.5t16.5 164.5v525q0 115 -16.5 164.5t-65.5 66.5v29h788l19 -201l-27 -4q-46 102 -111 138t-204 36h-166v-430h45q110 0 176 16t96 44.5t45 78.5h27v-309h-27q-15 50 -45 78.5t-96 44.5t-176 16h-45
v-420q0 -50 26 -76t76 -26h98q117 0 184 40.5t122 141.5l26 -4zM1782 1505q-58 0 -99 40.5t-41 99.5q0 60 40.5 100.5t99.5 40.5q61 0 100 -40t39 -101q0 -59 -40.5 -99.5t-98.5 -40.5z" />
    <glyph glyph-name="K_Egrave" horiz-adv-x="2295" 
d="M1485 -20q-91 0 -168.5 27t-133.5 72.5t-104.5 104.5t-86.5 124t-74.5 130t-74 124t-79 104.5t-96.5 72.5t-119 27h-37l-117 -121v-385q0 -115 16.5 -164.5t65.5 -66.5v-29h-381v29q49 17 65.5 66.5t16.5 164.5v914q0 115 -16.5 164.5t-65.5 66.5v29h381v-29
q-49 -17 -65.5 -66.5t-16.5 -164.5v-482l498 510q186 189 49 211v21h322v-29q-54 -15 -88.5 -28t-89.5 -47t-103 -83l-438 -448l53 4q102 8 187.5 -12.5t146.5 -62.5t112.5 -99t92 -121.5t78.5 -129.5t79 -125t86.5 -106.5t107.5 -74t136 -27.5q76 0 143.5 41.5t106.5 108.5
l20 -17q-59 -91 -162 -144.5t-247 -53.5zM2208 389h-815v29q49 17 65.5 66.5t16.5 164.5v525q0 115 -16.5 164.5t-65.5 66.5v29h788l19 -201l-27 -4q-46 102 -111 138t-204 36h-166v-430h45q110 0 176 16t96 44.5t45 78.5h27v-309h-27q-15 50 -45 78.5t-96 44.5t-176 16h-45
v-420q0 -50 26 -76t76 -26h98q117 0 184 40.5t122 141.5l26 -4zM1552 1636q-47 14 -62 30.5t-15 39.5q0 22 45.5 48t83.5 26q23 0 42 -10.5t60 -47.5l207 -178l-8 -14z" />
    <glyph glyph-name="K_O" horiz-adv-x="2484" 
d="M1485 -20q-91 0 -168.5 27t-133.5 72.5t-104.5 104.5t-86.5 124t-74.5 130t-74 124t-79 104.5t-96.5 72.5t-119 27h-37l-117 -121v-385q0 -115 16.5 -164.5t65.5 -66.5v-29h-381v29q49 17 65.5 66.5t16.5 164.5v914q0 115 -16.5 164.5t-65.5 66.5v29h381v-29
q-49 -17 -65.5 -66.5t-16.5 -164.5v-482l498 510q186 189 49 211v21h322v-29q-54 -15 -88.5 -28t-89.5 -47t-103 -83l-438 -448l53 4q102 8 187.5 -12.5t146.5 -62.5t112.5 -99t92 -121.5t78.5 -129.5t79 -125t86.5 -106.5t107.5 -74t136 -27.5q76 0 143.5 41.5t106.5 108.5
l20 -17q-59 -91 -162 -144.5t-247 -53.5zM1835 389q-82 0 -159.5 19t-148 59.5t-123.5 98.5t-84.5 143t-31.5 186q0 121 46 226t122 175.5t175 111t204 40.5q78 0 154 -18t147.5 -58t125 -98.5t86 -145t32.5 -190.5q0 -126 -51 -232.5t-131 -174t-175 -105t-188 -37.5z
M1907 434q72 0 125.5 29.5t83 80t43.5 110t14 128.5q0 99 -32.5 211t-88.5 208.5t-141.5 156t-179.5 49.5q-64 -7 -111.5 -38.5t-74.5 -82t-39.5 -109.5t-12.5 -128q0 -94 27.5 -198.5t77.5 -199t131.5 -156t177.5 -61.5z" />
    <glyph glyph-name="K_Oacute" horiz-adv-x="2484" 
d="M1485 -20q-91 0 -168.5 27t-133.5 72.5t-104.5 104.5t-86.5 124t-74.5 130t-74 124t-79 104.5t-96.5 72.5t-119 27h-37l-117 -121v-385q0 -115 16.5 -164.5t65.5 -66.5v-29h-381v29q49 17 65.5 66.5t16.5 164.5v914q0 115 -16.5 164.5t-65.5 66.5v29h381v-29
q-49 -17 -65.5 -66.5t-16.5 -164.5v-482l498 510q186 189 49 211v21h322v-29q-54 -15 -88.5 -28t-89.5 -47t-103 -83l-438 -448l53 4q102 8 187.5 -12.5t146.5 -62.5t112.5 -99t92 -121.5t78.5 -129.5t79 -125t86.5 -106.5t107.5 -74t136 -27.5q76 0 143.5 41.5t106.5 108.5
l20 -17q-59 -91 -162 -144.5t-247 -53.5zM1835 389q-82 0 -159.5 19t-148 59.5t-123.5 98.5t-84.5 143t-31.5 186q0 121 46 226t122 175.5t175 111t204 40.5q78 0 154 -18t147.5 -58t125 -98.5t86 -145t32.5 -190.5q0 -126 -51 -232.5t-131 -174t-175 -105t-188 -37.5z
M1907 434q72 0 125.5 29.5t83 80t43.5 110t14 128.5q0 99 -32.5 211t-88.5 208.5t-141.5 156t-179.5 49.5q-64 -7 -111.5 -38.5t-74.5 -82t-39.5 -109.5t-12.5 -128q0 -94 27.5 -198.5t77.5 -199t131.5 -156t177.5 -61.5zM2101 1636l-352 -106l-8 14l207 178q41 37 60 47.5
t42 10.5q38 0 83.5 -26t45.5 -48q0 -23 -15 -39.5t-63 -30.5z" />
    <glyph glyph-name="K_Ocircumflex" horiz-adv-x="2484" 
d="M1485 -20q-91 0 -168.5 27t-133.5 72.5t-104.5 104.5t-86.5 124t-74.5 130t-74 124t-79 104.5t-96.5 72.5t-119 27h-37l-117 -121v-385q0 -115 16.5 -164.5t65.5 -66.5v-29h-381v29q49 17 65.5 66.5t16.5 164.5v914q0 115 -16.5 164.5t-65.5 66.5v29h381v-29
q-49 -17 -65.5 -66.5t-16.5 -164.5v-482l498 510q186 189 49 211v21h322v-29q-54 -15 -88.5 -28t-89.5 -47t-103 -83l-438 -448l53 4q102 8 187.5 -12.5t146.5 -62.5t112.5 -99t92 -121.5t78.5 -129.5t79 -125t86.5 -106.5t107.5 -74t136 -27.5q76 0 143.5 41.5t106.5 108.5
l20 -17q-59 -91 -162 -144.5t-247 -53.5zM1835 389q-82 0 -159.5 19t-148 59.5t-123.5 98.5t-84.5 143t-31.5 186q0 121 46 226t122 175.5t175 111t204 40.5q78 0 154 -18t147.5 -58t125 -98.5t86 -145t32.5 -190.5q0 -126 -51 -232.5t-131 -174t-175 -105t-188 -37.5z
M1907 434q72 0 125.5 29.5t83 80t43.5 110t14 128.5q0 99 -32.5 211t-88.5 208.5t-141.5 156t-179.5 49.5q-64 -7 -111.5 -38.5t-74.5 -82t-39.5 -109.5t-12.5 -128q0 -94 27.5 -198.5t77.5 -199t131.5 -156t177.5 -61.5zM1681 1550l-16 15l223 243h13l237 -239l-18 -19
l-226 95z" />
    <glyph glyph-name="K_Odieresis" horiz-adv-x="2484" 
d="M1485 -20q-91 0 -168.5 27t-133.5 72.5t-104.5 104.5t-86.5 124t-74.5 130t-74 124t-79 104.5t-96.5 72.5t-119 27h-37l-117 -121v-385q0 -115 16.5 -164.5t65.5 -66.5v-29h-381v29q49 17 65.5 66.5t16.5 164.5v914q0 115 -16.5 164.5t-65.5 66.5v29h381v-29
q-49 -17 -65.5 -66.5t-16.5 -164.5v-482l498 510q186 189 49 211v21h322v-29q-54 -15 -88.5 -28t-89.5 -47t-103 -83l-438 -448l53 4q102 8 187.5 -12.5t146.5 -62.5t112.5 -99t92 -121.5t78.5 -129.5t79 -125t86.5 -106.5t107.5 -74t136 -27.5q76 0 143.5 41.5t106.5 108.5
l20 -17q-59 -91 -162 -144.5t-247 -53.5zM1835 389q-82 0 -159.5 19t-148 59.5t-123.5 98.5t-84.5 143t-31.5 186q0 121 46 226t122 175.5t175 111t204 40.5q78 0 154 -18t147.5 -58t125 -98.5t86 -145t32.5 -190.5q0 -126 -51 -232.5t-131 -174t-175 -105t-188 -37.5z
M1907 434q72 0 125.5 29.5t83 80t43.5 110t14 128.5q0 99 -32.5 211t-88.5 208.5t-141.5 156t-179.5 49.5q-64 -7 -111.5 -38.5t-74.5 -82t-39.5 -109.5t-12.5 -128q0 -94 27.5 -198.5t77.5 -199t131.5 -156t177.5 -61.5zM2120 1534q-48 0 -80.5 32t-32.5 81q0 44 33 75
t80 31q44 0 76 -32.5t32 -78.5t-31 -77t-77 -31zM1767 1534q-46 0 -77 32t-31 81q0 44 31 75t77 31q49 0 81 -31.5t32 -79.5q0 -46 -33 -77t-80 -31z" />
    <glyph glyph-name="K_Ohungarumlaut" horiz-adv-x="2484" 
d="M1485 -20q-91 0 -168.5 27t-133.5 72.5t-104.5 104.5t-86.5 124t-74.5 130t-74 124t-79 104.5t-96.5 72.5t-119 27h-37l-117 -121v-385q0 -115 16.5 -164.5t65.5 -66.5v-29h-381v29q49 17 65.5 66.5t16.5 164.5v914q0 115 -16.5 164.5t-65.5 66.5v29h381v-29
q-49 -17 -65.5 -66.5t-16.5 -164.5v-482l498 510q186 189 49 211v21h322v-29q-54 -15 -88.5 -28t-89.5 -47t-103 -83l-438 -448l53 4q102 8 187.5 -12.5t146.5 -62.5t112.5 -99t92 -121.5t78.5 -129.5t79 -125t86.5 -106.5t107.5 -74t136 -27.5q76 0 143.5 41.5t106.5 108.5
l20 -17q-59 -91 -162 -144.5t-247 -53.5zM1835 389q-82 0 -159.5 19t-148 59.5t-123.5 98.5t-84.5 143t-31.5 186q0 121 46 226t122 175.5t175 111t204 40.5q78 0 154 -18t147.5 -58t125 -98.5t86 -145t32.5 -190.5q0 -126 -51 -232.5t-131 -174t-175 -105t-188 -37.5z
M1907 434q72 0 125.5 29.5t83 80t43.5 110t14 128.5q0 99 -32.5 211t-88.5 208.5t-141.5 156t-179.5 49.5q-64 -7 -111.5 -38.5t-74.5 -82t-39.5 -109.5t-12.5 -128q0 -94 27.5 -198.5t77.5 -199t131.5 -156t177.5 -61.5zM1948 1518l-11 10l168 182q32 36 51.5 46.5
t51.5 10.5q39 0 63.5 -9.5t24.5 -26.5t-15.5 -33.5t-62.5 -40.5zM1661 1518l-10 10l168 182q32 35 52.5 46t55.5 11t58.5 -9.5t23.5 -26.5t-15.5 -33.5t-62.5 -40.5z" />
    <glyph glyph-name="K_Omacron" horiz-adv-x="2484" 
d="M1485 -20q-91 0 -168.5 27t-133.5 72.5t-104.5 104.5t-86.5 124t-74.5 130t-74 124t-79 104.5t-96.5 72.5t-119 27h-37l-117 -121v-385q0 -115 16.5 -164.5t65.5 -66.5v-29h-381v29q49 17 65.5 66.5t16.5 164.5v914q0 115 -16.5 164.5t-65.5 66.5v29h381v-29
q-49 -17 -65.5 -66.5t-16.5 -164.5v-482l498 510q186 189 49 211v21h322v-29q-54 -15 -88.5 -28t-89.5 -47t-103 -83l-438 -448l53 4q102 8 187.5 -12.5t146.5 -62.5t112.5 -99t92 -121.5t78.5 -129.5t79 -125t86.5 -106.5t107.5 -74t136 -27.5q76 0 143.5 41.5t106.5 108.5
l20 -17q-59 -91 -162 -144.5t-247 -53.5zM1835 389q-82 0 -159.5 19t-148 59.5t-123.5 98.5t-84.5 143t-31.5 186q0 121 46 226t122 175.5t175 111t204 40.5q78 0 154 -18t147.5 -58t125 -98.5t86 -145t32.5 -190.5q0 -126 -51 -232.5t-131 -174t-175 -105t-188 -37.5z
M1907 434q72 0 125.5 29.5t83 80t43.5 110t14 128.5q0 99 -32.5 211t-88.5 208.5t-141.5 156t-179.5 49.5q-64 -7 -111.5 -38.5t-74.5 -82t-39.5 -109.5t-12.5 -128q0 -94 27.5 -198.5t77.5 -199t131.5 -156t177.5 -61.5zM1618 1552l-6 9l49 63q21 29 61 29h465l6 -8
l-49 -64q-21 -29 -61 -29h-465z" />
    <glyph glyph-name="K_Otilde" horiz-adv-x="2484" 
d="M1485 -20q-91 0 -168.5 27t-133.5 72.5t-104.5 104.5t-86.5 124t-74.5 130t-74 124t-79 104.5t-96.5 72.5t-119 27h-37l-117 -121v-385q0 -115 16.5 -164.5t65.5 -66.5v-29h-381v29q49 17 65.5 66.5t16.5 164.5v914q0 115 -16.5 164.5t-65.5 66.5v29h381v-29
q-49 -17 -65.5 -66.5t-16.5 -164.5v-482l498 510q186 189 49 211v21h322v-29q-54 -15 -88.5 -28t-89.5 -47t-103 -83l-438 -448l53 4q102 8 187.5 -12.5t146.5 -62.5t112.5 -99t92 -121.5t78.5 -129.5t79 -125t86.5 -106.5t107.5 -74t136 -27.5q76 0 143.5 41.5t106.5 108.5
l20 -17q-59 -91 -162 -144.5t-247 -53.5zM1835 389q-82 0 -159.5 19t-148 59.5t-123.5 98.5t-84.5 143t-31.5 186q0 121 46 226t122 175.5t175 111t204 40.5q78 0 154 -18t147.5 -58t125 -98.5t86 -145t32.5 -190.5q0 -126 -51 -232.5t-131 -174t-175 -105t-188 -37.5z
M1907 434q72 0 125.5 29.5t83 80t43.5 110t14 128.5q0 99 -32.5 211t-88.5 208.5t-141.5 156t-179.5 49.5q-64 -7 -111.5 -38.5t-74.5 -82t-39.5 -109.5t-12.5 -128q0 -94 27.5 -198.5t77.5 -199t131.5 -156t177.5 -61.5zM1630 1516q85 223 207 223q43 0 156 -41t153 -41
q39 0 63 23.5t48 88.5l20 -6q-38 -121 -92.5 -183t-118.5 -62q-66 0 -161 42t-150 42q-38 0 -61.5 -22t-42.5 -73z" />
    <glyph glyph-name="uni004B018F" horiz-adv-x="2340" 
d="M1757 371q-100 0 -182 32.5t-134 85t-80 117.5t-28 133h781q6 43 6 84q0 203 -111 327t-299 124q-221 0 -375 -172l-18 20q38 57 87.5 109t114 98t146 73.5t166.5 27.5q89 0 171 -31t148.5 -90.5t106 -156t39.5 -216.5q0 -101 -30.5 -192t-83 -158t-121 -116t-146.5 -74
t-158 -25zM1485 -20q-91 0 -168.5 27t-133.5 72.5t-104.5 104.5t-86.5 124t-74.5 130t-74 124t-79 104.5t-96.5 72.5t-119 27h-37l-117 -121v-385q0 -115 16.5 -164.5t65.5 -66.5v-29h-381v29q49 17 65.5 66.5t16.5 164.5v914q0 115 -16.5 164.5t-65.5 66.5v29h381v-29
q-49 -17 -65.5 -66.5t-16.5 -164.5v-482l498 510q186 189 49 211v21h322v-29q-54 -15 -88.5 -28t-89.5 -47t-103 -83l-438 -448l53 4q102 8 187.5 -12.5t146.5 -62.5t112.5 -99t92 -121.5t78.5 -129.5t79 -125t86.5 -106.5t107.5 -74t136 -27.5q76 0 143.5 41.5t106.5 108.5
l20 -17q-59 -91 -162 -144.5t-247 -53.5zM1540 711q21 -128 99 -215t182 -88q118 -1 191 85.5t97 217.5h-569z" />
    <glyph glyph-name="K_U" horiz-adv-x="2471" 
d="M1919 389q-75 0 -142 14t-130.5 48t-109.5 86t-73.5 133t-27.5 184v320q0 115 -16.5 164.5t-65.5 66.5v29h344v-29q-49 -17 -65.5 -66.5t-16.5 -164.5v-330q0 -414 360 -414q46 0 90.5 13t88 44t76.5 77.5t53 120.5t20 165v201q0 123 -17.5 196t-50 106.5t-88.5 51.5v29
h269v-29q-49 -17 -65.5 -66.5t-16.5 -164.5v-320q0 -238 -112 -351.5t-304 -113.5zM1485 -20q-91 0 -168.5 27t-133.5 72.5t-104.5 104.5t-86.5 124t-74.5 130t-74 124t-79 104.5t-96.5 72.5t-119 27h-37l-117 -121v-385q0 -115 16.5 -164.5t65.5 -66.5v-29h-381v29
q49 17 65.5 66.5t16.5 164.5v914q0 115 -16.5 164.5t-65.5 66.5v29h381v-29q-49 -17 -65.5 -66.5t-16.5 -164.5v-482l498 510q186 189 49 211v21h322v-29q-54 -15 -88.5 -28t-89.5 -47t-103 -83l-438 -448l53 4q102 8 187.5 -12.5t146.5 -62.5t112.5 -99t92 -121.5
t78.5 -129.5t79 -125t86.5 -106.5t107.5 -74t136 -27.5q76 0 143.5 41.5t106.5 108.5l20 -17q-59 -91 -162 -144.5t-247 -53.5z" />
    <glyph glyph-name="L_A" horiz-adv-x="1685" 
d="M1337 0h-1241v29q49 17 65.5 66.5t16.5 164.5v914q0 115 -16.5 164.5t-65.5 66.5v29h381v-29q-49 -17 -65.5 -66.5t-16.5 -164.5v-1035q0 -49 26.5 -75.5t76.5 -26.5h434q159 0 247 48t148 177l27 -4zM596 387v29q49 19 90 67.5t80 145.5l244 610q16 41 0 82l-25 57
l166 66l330 -815q66 -170 153 -213v-29h-338v29q24 8 33 21.5t6.5 36t-13.5 53.5t-29 76q-7 17 -11 26l-47 121h-385l-47 -121q-40 -103 -33 -152t61 -61v-29h-235zM862 780h361l-181 455z" />
    <glyph glyph-name="L_E" horiz-adv-x="1646" 
d="M1174 0h-1078v29q49 17 65.5 66.5t16.5 164.5v914q0 115 -16.5 164.5t-65.5 66.5v29h381v-29q-49 -17 -65.5 -66.5t-16.5 -164.5v-1035q0 -49 26.5 -75.5t76.5 -26.5h270q159 0 247 48t148 177l27 -4zM1559 387h-816v29q49 17 65.5 66.5t16.5 164.5v524q0 115 -16.5 165
t-65.5 67v29h789l18 -201l-26 -4q-46 102 -111.5 138t-204.5 36h-166v-430h45q110 0 176 16t96.5 44.5t45.5 78.5h27v-309h-27q-15 50 -45.5 78.5t-96.5 44.5t-176 16h-45v-420q0 -49 26.5 -75.5t76.5 -26.5h98q117 0 183.5 40.5t121.5 141.5l27 -4z" />
    <glyph glyph-name="L_Eacute" horiz-adv-x="1646" 
d="M1174 0h-1078v29q49 17 65.5 66.5t16.5 164.5v914q0 115 -16.5 164.5t-65.5 66.5v29h381v-29q-49 -17 -65.5 -66.5t-16.5 -164.5v-1035q0 -49 26.5 -75.5t76.5 -26.5h270q159 0 247 48t148 177l27 -4zM1559 387h-816v29q49 17 65.5 66.5t16.5 164.5v524q0 115 -16.5 165
t-65.5 67v29h789l18 -201l-26 -4q-46 102 -111.5 138t-204.5 36h-166v-430h45q110 0 176 16t96.5 44.5t45.5 78.5h27v-309h-27q-15 50 -45.5 78.5t-96.5 44.5t-176 16h-45v-420q0 -49 26.5 -75.5t76.5 -26.5h98q117 0 183.5 40.5t121.5 141.5l27 -4zM1317 1632l-352 -106
l-9 14l207 178q41 36 60.5 47t42.5 11q38 0 83.5 -26t45.5 -48q0 -23 -15 -39.5t-63 -30.5z" />
    <glyph glyph-name="L_Ecaron" horiz-adv-x="1646" 
d="M1174 0h-1078v29q49 17 65.5 66.5t16.5 164.5v914q0 115 -16.5 164.5t-65.5 66.5v29h381v-29q-49 -17 -65.5 -66.5t-16.5 -164.5v-1035q0 -49 26.5 -75.5t76.5 -26.5h270q159 0 247 48t148 177l27 -4zM1559 387h-816v29q49 17 65.5 66.5t16.5 164.5v524q0 115 -16.5 165
t-65.5 67v29h789l18 -201l-26 -4q-46 102 -111.5 138t-204.5 36h-166v-430h45q110 0 176 16t96.5 44.5t45.5 78.5h27v-309h-27q-15 50 -45.5 78.5t-96.5 44.5t-176 16h-45v-420q0 -49 26.5 -75.5t76.5 -26.5h98q117 0 183.5 40.5t121.5 141.5l27 -4zM897 1784l213 -94
l225 94l19 -19l-238 -239h-12l-223 243z" />
    <glyph glyph-name="L_Edieresis" horiz-adv-x="1646" 
d="M1174 0h-1078v29q49 17 65.5 66.5t16.5 164.5v914q0 115 -16.5 164.5t-65.5 66.5v29h381v-29q-49 -17 -65.5 -66.5t-16.5 -164.5v-1035q0 -49 26.5 -75.5t76.5 -26.5h270q159 0 247 48t148 177l27 -4zM1559 387h-816v29q49 17 65.5 66.5t16.5 164.5v524q0 115 -16.5 165
t-65.5 67v29h789l18 -201l-26 -4q-46 102 -111.5 138t-204.5 36h-166v-430h45q110 0 176 16t96.5 44.5t45.5 78.5h27v-309h-27q-15 50 -45.5 78.5t-96.5 44.5t-176 16h-45v-420q0 -49 26.5 -75.5t76.5 -26.5h98q117 0 183.5 40.5t121.5 141.5l27 -4zM1356 1550
q-48 0 -80.5 32t-32.5 81q0 44 33 75t80 31q44 0 76 -32t32 -78t-31 -77.5t-77 -31.5zM1004 1550q-46 0 -77.5 32t-31.5 81q0 44 31.5 75t77.5 31q49 0 80.5 -31t31.5 -79q0 -46 -32.5 -77.5t-79.5 -31.5z" />
    <glyph glyph-name="L_Edotaccent" horiz-adv-x="1646" 
d="M1174 0h-1078v29q49 17 65.5 66.5t16.5 164.5v914q0 115 -16.5 164.5t-65.5 66.5v29h381v-29q-49 -17 -65.5 -66.5t-16.5 -164.5v-1035q0 -49 26.5 -75.5t76.5 -26.5h270q159 0 247 48t148 177l27 -4zM1559 387h-816v29q49 17 65.5 66.5t16.5 164.5v524q0 115 -16.5 165
t-65.5 67v29h789l18 -201l-26 -4q-46 102 -111.5 138t-204.5 36h-166v-430h45q110 0 176 16t96.5 44.5t45.5 78.5h27v-309h-27q-15 50 -45.5 78.5t-96.5 44.5t-176 16h-45v-420q0 -49 26.5 -75.5t76.5 -26.5h98q117 0 183.5 40.5t121.5 141.5l27 -4zM1102 1513
q-58 0 -98.5 40.5t-40.5 99.5q0 60 40 100.5t99 40.5q61 0 100 -40t39 -101q0 -59 -40.5 -99.5t-98.5 -40.5z" />
    <glyph glyph-name="L_Egrave" horiz-adv-x="1646" 
d="M1174 0h-1078v29q49 17 65.5 66.5t16.5 164.5v914q0 115 -16.5 164.5t-65.5 66.5v29h381v-29q-49 -17 -65.5 -66.5t-16.5 -164.5v-1035q0 -49 26.5 -75.5t76.5 -26.5h270q159 0 247 48t148 177l27 -4zM1559 387h-816v29q49 17 65.5 66.5t16.5 164.5v524q0 115 -16.5 165
t-65.5 67v29h789l18 -201l-26 -4q-46 102 -111.5 138t-204.5 36h-166v-430h45q110 0 176 16t96.5 44.5t45.5 78.5h27v-309h-27q-15 50 -45.5 78.5t-96.5 44.5t-176 16h-45v-420q0 -49 26.5 -75.5t76.5 -26.5h98q117 0 183.5 40.5t121.5 141.5l27 -4zM991 1638
q-48 14 -63 30.5t-15 39.5q0 22 45.5 48t83.5 26q23 0 42.5 -11t60.5 -47l207 -178l-9 -14z" />
    <glyph glyph-name="L_I" horiz-adv-x="1275" 
d="M1071 0h-975v29q49 17 65.5 66.5t16.5 164.5v914q0 115 -16.5 164.5t-65.5 66.5v29h381v-29q-49 -17 -65.5 -66.5t-16.5 -164.5v-1035q0 -49 26.5 -75.5t76.5 -26.5h168q159 0 247 48t148 177l26 -4zM788 389v29q49 17 65.5 66.5t16.5 164.5v525q0 115 -16.5 164.5
t-65.5 66.5v29h367v-29q-49 -17 -65.5 -66.5t-16.5 -164.5v-525q0 -115 16.5 -164.5t65.5 -66.5v-29h-367z" />
    <glyph glyph-name="L_L" horiz-adv-x="1511" 
d="M1337 0h-1241v29q49 17 65.5 66.5t16.5 164.5v914q0 115 -16.5 164.5t-65.5 66.5v29h381v-29q-49 -17 -65.5 -66.5t-16.5 -164.5v-1035q0 -49 26.5 -75.5t76.5 -26.5h434q159 0 249 48t162 177l27 -4zM1450 389h-780v29q49 17 65.5 66.5t16.5 164.5v525
q0 115 -16.5 164.5t-65.5 66.5v29h370v-29q-49 -17 -65.5 -66.5t-16.5 -164.5v-666q0 -42 22 -62t71 -20h34q146 0 230 45.5t129 163.5h31z" />
    <glyph glyph-name="L_O" horiz-adv-x="1837" 
d="M1337 0h-1241v29q49 17 65.5 66.5t16.5 164.5v914q0 115 -16.5 164.5t-65.5 66.5v29h381v-29q-49 -17 -65.5 -66.5t-16.5 -164.5v-1035q0 -49 26.5 -75.5t76.5 -26.5h434q159 0 247 48t148 177l27 -4zM1188 387q-82 0 -159.5 19t-148 59.5t-123.5 98.5t-84.5 143
t-31.5 186q0 121 46 226t122 175.5t175 111t204 40.5q78 0 154 -18t147.5 -58t125 -98.5t86 -145t32.5 -190.5q0 -126 -51 -232.5t-131 -174t-175 -105t-188 -37.5zM1260 432q72 0 125.5 29.5t83 80t43.5 110t14 128.5q0 99 -33 211t-89 208.5t-141.5 156t-179.5 49.5
q-124 -13 -180.5 -112t-56.5 -246q0 -94 27.5 -198.5t77.5 -199t131.5 -156t177.5 -61.5z" />
    <glyph glyph-name="L_Oacute" horiz-adv-x="1837" 
d="M1337 0h-1241v29q49 17 65.5 66.5t16.5 164.5v914q0 115 -16.5 164.5t-65.5 66.5v29h381v-29q-49 -17 -65.5 -66.5t-16.5 -164.5v-1035q0 -49 26.5 -75.5t76.5 -26.5h434q159 0 247 48t148 177l27 -4zM1188 387q-82 0 -159.5 19t-148 59.5t-123.5 98.5t-84.5 143
t-31.5 186q0 121 46 226t122 175.5t175 111t204 40.5q78 0 154 -18t147.5 -58t125 -98.5t86 -145t32.5 -190.5q0 -126 -51 -232.5t-131 -174t-175 -105t-188 -37.5zM1260 432q72 0 125.5 29.5t83 80t43.5 110t14 128.5q0 99 -33 211t-89 208.5t-141.5 156t-179.5 49.5
q-124 -13 -180.5 -112t-56.5 -246q0 -94 27.5 -198.5t77.5 -199t131.5 -156t177.5 -61.5zM1425 1632l-352 -106l-8 14l207 178q41 37 60 47.5t42 10.5q38 0 83.5 -26t45.5 -48q0 -23 -15 -39.5t-63 -30.5z" />
    <glyph glyph-name="L_Ocircumflex" horiz-adv-x="1837" 
d="M1337 0h-1241v29q49 17 65.5 66.5t16.5 164.5v914q0 115 -16.5 164.5t-65.5 66.5v29h381v-29q-49 -17 -65.5 -66.5t-16.5 -164.5v-1035q0 -49 26.5 -75.5t76.5 -26.5h434q159 0 247 48t148 177l27 -4zM1188 387q-82 0 -159.5 19t-148 59.5t-123.5 98.5t-84.5 143
t-31.5 186q0 121 46 226t122 175.5t175 111t204 40.5q78 0 154 -18t147.5 -58t125 -98.5t86 -145t32.5 -190.5q0 -126 -51 -232.5t-131 -174t-175 -105t-188 -37.5zM1260 432q72 0 125.5 29.5t83 80t43.5 110t14 128.5q0 99 -33 211t-89 208.5t-141.5 156t-179.5 49.5
q-124 -13 -180.5 -112t-56.5 -246q0 -94 27.5 -198.5t77.5 -199t131.5 -156t177.5 -61.5zM995 1546l-16 15l223 243h12l238 -239l-18 -19l-226 94z" />
    <glyph glyph-name="L_Odieresis" horiz-adv-x="1837" 
d="M1337 0h-1241v29q49 17 65.5 66.5t16.5 164.5v914q0 115 -16.5 164.5t-65.5 66.5v29h381v-29q-49 -17 -65.5 -66.5t-16.5 -164.5v-1035q0 -49 26.5 -75.5t76.5 -26.5h434q159 0 247 48t148 177l27 -4zM1188 387q-82 0 -159.5 19t-148 59.5t-123.5 98.5t-84.5 143
t-31.5 186q0 121 46 226t122 175.5t175 111t204 40.5q78 0 154 -18t147.5 -58t125 -98.5t86 -145t32.5 -190.5q0 -126 -51 -232.5t-131 -174t-175 -105t-188 -37.5zM1260 432q72 0 125.5 29.5t83 80t43.5 110t14 128.5q0 99 -33 211t-89 208.5t-141.5 156t-179.5 49.5
q-124 -13 -180.5 -112t-56.5 -246q0 -94 27.5 -198.5t77.5 -199t131.5 -156t177.5 -61.5zM1376 1561q-48 0 -80 31.5t-32 80.5q0 44 32.5 75.5t79.5 31.5q44 0 76.5 -32.5t32.5 -78.5t-31.5 -77t-77.5 -31zM1024 1561q-46 0 -77.5 31.5t-31.5 80.5q0 44 31.5 75.5t77.5 31.5
q49 0 81 -31.5t32 -79.5q0 -46 -33 -77t-80 -31z" />
    <glyph glyph-name="L_Ohungarumlaut" horiz-adv-x="1837" 
d="M1337 0h-1241v29q49 17 65.5 66.5t16.5 164.5v914q0 115 -16.5 164.5t-65.5 66.5v29h381v-29q-49 -17 -65.5 -66.5t-16.5 -164.5v-1035q0 -49 26.5 -75.5t76.5 -26.5h434q159 0 247 48t148 177l27 -4zM1188 387q-82 0 -159.5 19t-148 59.5t-123.5 98.5t-84.5 143
t-31.5 186q0 121 46 226t122 175.5t175 111t204 40.5q78 0 154 -18t147.5 -58t125 -98.5t86 -145t32.5 -190.5q0 -126 -51 -232.5t-131 -174t-175 -105t-188 -37.5zM1260 432q72 0 125.5 29.5t83 80t43.5 110t14 128.5q0 99 -33 211t-89 208.5t-141.5 156t-179.5 49.5
q-124 -13 -180.5 -112t-56.5 -246q0 -94 27.5 -198.5t77.5 -199t131.5 -156t177.5 -61.5zM1272 1518l-10 10l168 182q33 36 51.5 46.5t50.5 10.5q39 0 63.5 -9.5t24.5 -26.5t-15.5 -33.5t-62.5 -40.5zM985 1518l-10 10l168 182q32 35 52.5 46t55.5 11t58.5 -9.5t23.5 -26.5
t-15.5 -33.5t-62.5 -40.5z" />
    <glyph glyph-name="L_Omacron" horiz-adv-x="1837" 
d="M1337 0h-1241v29q49 17 65.5 66.5t16.5 164.5v914q0 115 -16.5 164.5t-65.5 66.5v29h381v-29q-49 -17 -65.5 -66.5t-16.5 -164.5v-1035q0 -49 26.5 -75.5t76.5 -26.5h434q159 0 247 48t148 177l27 -4zM1188 387q-82 0 -159.5 19t-148 59.5t-123.5 98.5t-84.5 143
t-31.5 186q0 121 46 226t122 175.5t175 111t204 40.5q78 0 154 -18t147.5 -58t125 -98.5t86 -145t32.5 -190.5q0 -126 -51 -232.5t-131 -174t-175 -105t-188 -37.5zM1260 432q72 0 125.5 29.5t83 80t43.5 110t14 128.5q0 99 -33 211t-89 208.5t-141.5 156t-179.5 49.5
q-124 -13 -180.5 -112t-56.5 -246q0 -94 27.5 -198.5t77.5 -199t131.5 -156t177.5 -61.5zM942 1552l-6 9l49 63q21 29 62 29h464l7 -8l-50 -64q-21 -29 -61 -29h-465z" />
    <glyph glyph-name="L_Otilde" horiz-adv-x="1837" 
d="M1337 0h-1241v29q49 17 65.5 66.5t16.5 164.5v914q0 115 -16.5 164.5t-65.5 66.5v29h381v-29q-49 -17 -65.5 -66.5t-16.5 -164.5v-1035q0 -49 26.5 -75.5t76.5 -26.5h434q159 0 247 48t148 177l27 -4zM1188 387q-82 0 -159.5 19t-148 59.5t-123.5 98.5t-84.5 143
t-31.5 186q0 121 46 226t122 175.5t175 111t204 40.5q78 0 154 -18t147.5 -58t125 -98.5t86 -145t32.5 -190.5q0 -126 -51 -232.5t-131 -174t-175 -105t-188 -37.5zM1260 432q72 0 125.5 29.5t83 80t43.5 110t14 128.5q0 99 -33 211t-89 208.5t-141.5 156t-179.5 49.5
q-124 -13 -180.5 -112t-56.5 -246q0 -94 27.5 -198.5t77.5 -199t131.5 -156t177.5 -61.5zM846 1507q41 109 94 166.5t113 57.5q43 0 156 -41t153 -41q39 0 63 23.5t48 88.5l20 -6q-38 -121 -92.5 -183.5t-118.5 -62.5q-66 0 -161 42t-150 42q-38 0 -62 -22t-43 -72z" />
    <glyph glyph-name="L_S" horiz-adv-x="1513" 
d="M1337 0h-1241v29q49 17 65.5 66.5t16.5 164.5v914q0 115 -16.5 164.5t-65.5 66.5v29h381v-29q-49 -17 -65.5 -66.5t-16.5 -164.5v-1035q0 -49 26.5 -75.5t76.5 -26.5h434q159 0 247 48t148 177l27 -8zM1067 389q-107 0 -207 27.5t-162 68.5l-20 269l20 4
q68 -153 177 -244t241 -92q92 -1 150.5 51t58.5 125q0 92 -67 142t-216 96q-92 28 -147 51t-105.5 58.5t-73 84t-22.5 115.5q0 127 101.5 213t298.5 86q86 0 171.5 -14.5t139.5 -36.5l10 -226l-24 -4q-55 113 -146.5 182.5t-200.5 69.5q-95 0 -154 -44t-59 -111
q0 -81 67 -128t220 -98q8 -3 24 -8q35 -12 53 -18t50.5 -18.5t50 -22t44 -25t41.5 -30t32.5 -35.5t26.5 -43.5t15.5 -51.5t6.5 -61q0 -49 -12 -94.5t-41.5 -89.5t-73.5 -76.5t-113 -52t-155 -19.5z" />
    <glyph glyph-name="uni004C018F" horiz-adv-x="1794" 
d="M1337 0h-1241v29q49 17 65.5 66.5t16.5 164.5v914q0 115 -16.5 164.5t-65.5 66.5v29h381v-29q-49 -17 -65.5 -66.5t-16.5 -164.5v-1035q0 -49 26.5 -75.5t76.5 -26.5h434q159 0 247 48t148 177l27 -6zM1151 389q-100 0 -182 32.5t-134 85.5t-80 118t-28 133h780
q6 44 6 84q0 203 -110.5 326.5t-298.5 123.5q-221 0 -375 -172l-18 21q38 57 87.5 108.5t114 98t146 73.5t166.5 27q89 0 171 -31t148.5 -90.5t106 -156t39.5 -216.5q0 -101 -30.5 -192t-83 -158t-121 -116t-146.5 -74t-158 -25zM934 729q21 -129 98.5 -215.5t181.5 -87.5
q118 -1 191.5 85.5t97.5 217.5h-569z" />
    <glyph glyph-name="L_U" horiz-adv-x="1753" 
d="M1296 0h-1200v29q49 17 65.5 66.5t16.5 164.5v914q0 115 -16.5 164.5t-65.5 66.5v29h381v-29q-49 -17 -65.5 -66.5t-16.5 -164.5v-1035q0 -49 26.5 -75.5t76.5 -26.5h393q159 0 247 48t148 177l27 -6zM1200 389q-75 0 -142 14t-130.5 48t-109.5 86t-73.5 133t-27.5 184
v320q0 115 -16.5 164.5t-65.5 66.5v29h344v-29q-49 -17 -65.5 -66.5t-16.5 -164.5v-330q0 -414 360 -414q46 0 90.5 13t88 44t76.5 77.5t53 120.5t20 165v201q0 123 -17.5 196t-49.5 106.5t-88 51.5v29h268v-29q-49 -17 -65.5 -66.5t-16.5 -164.5v-320q0 -238 -112 -351.5
t-304 -113.5z" />
    <glyph glyph-name="O_C" horiz-adv-x="2172" 
d="M844 -20q-107 0 -210 27.5t-198 87t-167 144.5t-115 210t-43 274q0 151 54 284.5t149 231.5t232.5 154.5t297.5 56.5q187 0 354 -86q182 84 399 84q130 0 262.5 -25t206.5 -75l9 -271l-25 -6q-62 155 -203 246.5t-303 91.5q-168 0 -295 -74q149 -94 237.5 -251.5
t88.5 -372.5q0 -198 -76 -346.5t-207 -243.5q145 -98 326 -98q167 0 285.5 94t175.5 258l26 -4l-32 -293q-218 -98 -514 -98q-222 0 -392 69q-153 -69 -323 -69zM961 43q91 0 161 27q-171 84 -262.5 242t-91.5 380q0 174 74.5 325.5t208.5 256.5q-142 123 -314 123
q-208 0 -319 -149.5t-94 -399.5q9 -122 43.5 -240.5t93 -220t133.5 -179t170 -121.5t197 -44zM985 784q0 -192 70 -360t198 -272q132 134 115 397q-14 194 -81 370t-175 295q-127 -165 -127 -430z" />
    <glyph glyph-name="O_G" horiz-adv-x="2222" 
d="M844 -20q-107 0 -210 27.5t-198 87t-167 144.5t-115 210t-43 274q0 151 54 284.5t149 231.5t232.5 154.5t297.5 56.5q176 0 338 -78q161 76 356 76q112 0 241.5 -25.5t202.5 -74.5l9 -271l-25 -6q-61 154 -203.5 246t-300.5 92q-138 0 -239 -59q161 -90 256.5 -252
t95.5 -387q0 -194 -72.5 -340t-197.5 -240q139 -102 303 -102q100 0 180 40t117 115v187q0 123 -21 173t-86 68v29h318v-377q-73 -95 -179.5 -161.5t-206 -94.5t-190.5 -28q-209 0 -366 71q-157 -71 -330 -71zM961 43q93 0 169 29q-172 92 -267 260.5t-95 390.5
q0 167 71 314t199 247q-135 113 -301 113q-208 0 -319 -149.5t-94 -399.5q9 -122 43.5 -240.5t93 -220t133.5 -179t170 -121.5t197 -44zM983 858q-2 -197 73 -387t208 -307q120 135 104 385q-14 203 -86.5 385t-189.5 301q-106 -145 -109 -377z" />
    <glyph glyph-name="O_O" horiz-adv-x="2336" 
d="M844 -20q-107 0 -210 27.5t-198 87t-167 144.5t-115 210t-43 274q0 151 54 284.5t149 231.5t232.5 154.5t297.5 56.5q166 0 325 -72q157 72 332 72q106 0 209 -28t197.5 -88t166.5 -145.5t115 -208.5t43 -269q0 -145 -43 -267.5t-115 -206.5t-167 -143t-198 -86.5
t-208 -27.5q-179 0 -330 71q-151 -71 -327 -71zM961 43q90 0 169 29q-165 89 -263.5 252.5t-98.5 398.5q0 172 69 320t193 249q-137 105 -293 105q-208 0 -319 -149.5t-94 -399.5q9 -122 43.5 -240.5t93 -220t133.5 -179t170 -121.5t197 -44zM1618 43q91 0 164 27t120 73.5
t77 111t41 138t5 156.5q-9 131 -43 255.5t-90.5 231.5t-130 188t-168.5 127t-198 46q-102 0 -185 -39q165 -89 265 -252.5t100 -394.5q0 -185 -67.5 -327.5t-184.5 -238.5q142 -102 295 -102zM981 848q14 -196 93 -374.5t206 -291.5q104 136 88 367q-15 210 -91.5 396.5
t-199.5 303.5q-114 -145 -96 -401z" />
    <glyph glyph-name="R_A" horiz-adv-x="2146" 
d="M1393 -20q-91 0 -169.5 23.5t-135.5 64t-105.5 93.5t-84.5 112.5t-67.5 119.5t-60 117t-56 103t-61.5 79t-71 43h-45h-142v-475q0 -115 16.5 -164.5t65.5 -66.5v-29h-381v29q49 17 65.5 66.5t16.5 164.5v914q0 115 -16.5 164.5t-65.5 66.5v29h430q129 0 226.5 -18.5
t156 -48.5t94.5 -74t49 -88.5t13 -98.5q0 -141 -95 -237t-282 -124q74 -24 141 -75t118.5 -112.5t102 -130.5t101 -133t105.5 -116t126 -83.5t152 -31.5q75 0 142.5 34.5t107.5 86.5l20 -16q-62 -78 -170.5 -133t-240.5 -55zM526 768q165 0 243.5 80t78.5 209
q0 65 -21.5 124.5t-63.5 109.5t-114 80t-164 30q-43 0 -90 -6v-627h131zM1155 389v29q49 19 90 67.5t80 145.5l244 610q16 41 0 82l-25 57l166 66l330 -815q66 -170 153 -213v-29h-338v29q24 8 33 21.5t6.5 36t-13.5 53.5t-29 76q-7 17 -11 26l-47 121h-385l-47 -121
q-40 -103 -32.5 -152t61.5 -61v-29h-236zM1421 782h361l-180 455z" />
    </font>
</defs>
</svg>
