<?xml version="1.0" standalone="no"?>
<!DOCTYPE svg PUBLIC "-//W3C//DTD SVG 1.1//EN" "http://www.w3.org/Graphics/SVG/1.1/DTD/svg11.dtd" >
<svg xmlns="http://www.w3.org/2000/svg" xmlns:xlink="http://www.w3.org/1999/xlink" version="1.1">
<metadata>
Created by FontForge 20201107 at Wed Nov  5 09:27:28 2025
 By 
Elena Genova
</metadata>
<defs>
<font id="TheSeasons-BoldItalic" horiz-adv-x="0" >
  <font-face 
    font-family="The Seasons"
    font-weight="700"
    font-style="italic"
    font-stretch="normal"
    units-per-em="2048"
    panose-1="0 0 0 0 0 0 0 0 0 0"
    ascent="1638"
    descent="-410"
    x-height="1038"
    cap-height="1638"
    bbox="-1135 -793 3398 2191"
    underline-thickness="102"
    underline-position="-255"
    slope="-25"
    unicode-range="U+0020-2260"
  />
<missing-glyph horiz-adv-x="1372" 
d="M1124 2191v-2744h-868v2744h868zM913 319h-454v-309h454v309zM823 229v-129h-274v129h274zM913 795h-274v-154h94v64h90v-130h-274v220h-90v-310h454v310zM913 1128h-90v-180h-364v-94h454v274zM913 1294h-454v-90h180v-102h-180v-90h274v192h180v90zM639 1561v-99h-90
v99h90zM733 1653h-274v-285h454v94h-180v191zM913 2007h-452v-90h178v-102h-180v-91h454v91h-180v102h180v90zM913 -53h-454v-90h192l-192 -129v-93h454v93h-278l190 129h88v90z" />
    <glyph glyph-name="f_f" unicode="ff" horiz-adv-x="1323" 
d="M-588 -426q-20 0 -32.5 1.5t-24.5 11t-12 26.5q0 47 57.5 101.5t116.5 54.5q40 0 117.5 -11.5t121.5 -15.5q46 23 83 60t104 148.5t155 301.5l336 723h-155l14 29h156q73 144 191.5 268.5t249.5 206.5t266 128t249 46q199 0 367 -58q171 58 305 58q168 0 168 -45
q0 -50 -63 -105t-150 -55q-40 0 -96 11t-100 23.5t-155 45.5q-81 -31 -176.5 -129t-171.5 -271l-55 -124h221l-14 -29h-219l-250 -563q-64 -144 -180 -295t-248.5 -270.5t-276.5 -196t-256 -76.5q-20 0 -32.5 1.5t-24.5 11t-12 26.5q0 47 57.5 101.5t116.5 54.5
q40 0 117.5 -11.5t121.5 -15.5q28 14 49 29t53.5 50.5t65 86.5t77.5 138.5t97 205.5l320 723h-424l-264 -563q-90 -192 -257 -385.5t-361.5 -323t-342.5 -129.5zM649 1004h424q130 270 436 464l-374 101q-132 -40 -234.5 -145.5t-191.5 -295.5z" />
    <glyph glyph-name="f_f_i" unicode="ffi" horiz-adv-x="1908" 
d="M-588 -426q-20 0 -32.5 1.5t-24.5 11t-12 26.5q0 47 57.5 101.5t116.5 54.5q40 0 117.5 -11.5t121.5 -15.5q46 23 83 60t104 148.5t155 301.5l336 723h-155l14 29h156q73 144 191.5 268.5t249.5 206.5t266 128t249 46q195 0 354 -54q154 54 273 54q165 0 284 -56
q14 -6 15 -18.5t-13 -24.5l-481 -374l-14 16l282 274l-354 91q-122 -31 -232.5 -139t-191.5 -294l-55 -124h203l-15 -29h-200l-248 -563q-64 -144 -180 -295t-248.5 -270.5t-276.5 -196t-256 -76.5q-20 0 -32.5 1.5t-24.5 11t-12 26.5q0 47 57.5 101.5t116.5 54.5
q40 0 117.5 -11.5t121.5 -15.5q35 18 63 41t70 75t94 150.5t115 243.5l316 723h-416l-264 -563q-90 -192 -257 -385.5t-361.5 -323t-342.5 -129.5zM1438 -16q-59 0 -90 42t-31 95q0 69 58.5 188t128 224t128 205t58.5 136q0 46 -45 46q-65 0 -195 -121l-18 20
q238 221 364 221q57 0 84 -31.5t27 -74.5q0 -63 -55 -173.5t-120.5 -210t-120.5 -197.5t-55 -140q0 -68 68 -68q67 0 152 80l18 -20q-238 -221 -356 -221zM649 1004h416q67 141 180.5 259.5t253.5 206.5l-364 99q-132 -40 -234.5 -145.5t-191.5 -295.5z" />
    <glyph glyph-name="f_i" unicode="fi" horiz-adv-x="1269" 
d="M-588 -426q-20 0 -32.5 1.5t-24.5 11t-12 26.5q0 47 57.5 101.5t116.5 54.5q40 0 117.5 -11.5t121.5 -15.5q35 17 63 41t69.5 76.5t94 150.5t115.5 242l316 723h-156l14 29h154q69 143 191 268.5t258 206.5t272.5 127.5t245.5 46.5q56 0 83 -1t81 -12t102 -34
q14 -6 15 -18.5t-13 -24.5l-483 -383l-15 16l277 266l-350 86q-109 -32 -216 -136.5t-186 -283.5l-55 -124h186l-14 -29h-184l-248 -563q-63 -142 -179 -293t-249 -271t-277 -197t-256 -77zM799 -16q-59 0 -90 42t-31 95q0 69 58.5 188t128 224t128 205t58.5 136
q0 46 -45 46q-65 0 -195 -121l-18 20q238 221 364 221q57 0 84 -31.5t27 -74.5q0 -63 -54.5 -173.5t-120.5 -210t-120.5 -197.5t-54.5 -140q0 -68 67 -68t152 80l18 -20q-238 -221 -356 -221z" />
    <glyph glyph-name="f_l" unicode="fl" horiz-adv-x="1271" 
d="M-588 -426q-20 0 -32.5 1.5t-24.5 11t-12 26.5q0 47 57.5 101.5t116.5 54.5q40 0 117.5 -11.5t121.5 -15.5q35 18 63 41t70 75t94 150.5t115 243.5l316 723h-156l14 29h154q69 145 191.5 270.5t259.5 206t276.5 126.5t253.5 46q224 0 385 -68q179 68 346 68
q168 0 168 -45q0 -50 -63 -105t-150 -55q-18 0 -35.5 1.5t-42.5 6t-41 7.5t-53 12.5t-54 14t-68.5 18.5t-74.5 20q-115 -50 -196 -143.5t-189 -294.5l-344 -633q-40 -72 -76 -160t-36 -123q0 -59 61 -59q55 0 172 110l19 -20q-238 -221 -347 -221q-66 0 -95 41.5t-29 95.5
q0 126 124 346l285 504q72 134 196 262t277 227l-409 109q-295 -89 -449 -441l-55 -124h309l-14 -29h-307l-248 -563q-64 -144 -180 -295t-248.5 -270.5t-276.5 -196t-256 -76.5z" />
    <glyph glyph-name=".notdef" horiz-adv-x="1372" 
d="M1124 2191v-2744h-868v2744h868zM913 319h-454v-309h454v309zM823 229v-129h-274v129h274zM913 795h-274v-154h94v64h90v-130h-274v220h-90v-310h454v310zM913 1128h-90v-180h-364v-94h454v274zM913 1294h-454v-90h180v-102h-180v-90h274v192h180v90zM639 1561v-99h-90
v99h90zM733 1653h-274v-285h454v94h-180v191zM913 2007h-452v-90h178v-102h-180v-91h454v91h-180v102h180v90zM913 -53h-454v-90h192l-192 -129v-93h454v93h-278l190 129h88v90z" />
    <glyph glyph-name=".null" 
 />
    <glyph glyph-name="nonmarkingreturn" horiz-adv-x="682" 
 />
    <glyph glyph-name="space" unicode=" " horiz-adv-x="409" 
 />
    <glyph glyph-name="space" unicode="&#xa0;" horiz-adv-x="409" 
 />
    <glyph glyph-name="exclam" unicode="!" horiz-adv-x="475" 
d="M135 350q119 259 197 478t119 365t55 181q43 103 141 103q68 0 98 -30t13 -81q-16 -50 -75 -141.5t-131.5 -195.5t-179.5 -290.5t-202 -394.5zM31 -25q-31 0 -64 28.5t-33 68.5q0 50 45.5 105.5t94.5 55.5q33 0 62.5 -33t29.5 -75q0 -45 -43 -97.5t-92 -52.5z" />
    <glyph glyph-name="quotedbl" unicode="&#x22;" horiz-adv-x="423" 
d="M266 1022l133 301q23 55 74 55q63 0 31 -59q-8 -16 -49.5 -73.5t-97.5 -133t-70 -94.5zM471 1022l133 301q23 55 74 55q63 0 31 -59q-8 -16 -49.5 -73.5t-97.5 -133t-70 -94.5z" />
    <glyph glyph-name="numbersign" unicode="#" horiz-adv-x="1402" 
d="M600 -2l246 442h-406l-245 -442h-37l245 442h-436l17 29h436l278 500h-436l14 28h437l243 437h37l-243 -437h405l244 437h37l-244 -437h438l-14 -28h-438l-279 -500h438l-16 -29h-438l-246 -442h-37zM457 469h405l279 500h-406z" />
    <glyph glyph-name="dollar" unicode="$" horiz-adv-x="837" 
d="M150 -10q-61 0 -109 9t-78.5 25t-51.5 36t-30.5 45t-12.5 47.5t-1 48.5q15 166 285 295l6 -7q-76 -104 -76 -194q0 -78 43 -136t135 -77l258 582q-6 13 -30.5 63t-33 67.5t-26 59t-24 65t-13 56t-6.5 59.5q0 164 140 285t347 154l50 110l28 -2l-45 -104q46 6 99 6
q68 0 126 -14.5t58 -43.5q0 -47 -53 -97t-115 -50q-60 0 -184 45l-187 -428q83 -173 107 -241q36 -106 32 -189q-6 -112 -87 -213t-200 -165.5t-247 -86.5l-61 -141l-29 2l59 133q-50 -4 -73 -4zM289 76q7 0 21.5 -1t21.5 -1q121 -2 201.5 76t80.5 200q0 110 -82 281z
M557 1184q0 -89 76 -256l178 403q-69 27 -135 55q-61 -23 -90 -78t-29 -124z" />
    <glyph glyph-name="percent" unicode="%" horiz-adv-x="1193" 
d="M408 811q-68 0 -104 41t-36 104q0 78 49 168t121.5 161t158.5 118t155 47q74 0 103.5 -39.5t29.5 -91.5q0 -73 -37.5 -150.5t-95 -139.5t-122.5 -112.5t-124.5 -78t-97.5 -27.5zM502 887q66 0 125.5 66.5t91 150.5t31.5 151q0 131 -97 131q-62 0 -121.5 -59t-94 -146.5
t-31.5 -168.5q2 -53 25.5 -89t70.5 -36zM629 -49q-68 0 -104 41t-36 104q0 78 49 168t121.5 161t158.5 118t155 47q74 0 103.5 -39.5t29.5 -91.5q0 -73 -37.5 -150.5t-95 -139.5t-122.5 -112.5t-124.5 -78t-97.5 -27.5zM723 27q66 0 125.5 66.5t91 150.5t31.5 151
q0 131 -97 131q-62 0 -121.5 -59t-94 -146.5t-31.5 -168.5q2 -53 25.5 -89t70.5 -36zM1313 1458l20 -16l-1272 -1469l-20 17z" />
    <glyph glyph-name="ampersand" unicode="&#x26;" horiz-adv-x="1988" 
d="M1290 0q-153 0 -342 256q-122 -131 -269.5 -200.5t-268.5 -69.5q-163 0 -272 94t-109 246q0 130 85.5 257.5t221.5 220t291 134.5q-27 102 -27 180q0 107 37.5 197t99 151.5t141.5 105t165 63.5t169 20q73 0 141 -17.5t68 -42.5q0 -44 -37.5 -78t-83.5 -34
q-50 0 -122.5 25t-190.5 75q-106 -34 -156.5 -111.5t-50.5 -214.5q0 -119 39.5 -271t109 -299.5t154 -273t184 -203t189.5 -77.5q49 0 85 44t55.5 117t28.5 153t9 167q0 52 -3.5 90t-15.5 77.5t-32.5 65.5t-55.5 44.5t-83 23.5l-53 3h-15q-22 0 -32.5 13.5t-0.5 31.5
q50 78 84 96q31 18 56 18h592q21 0 29.5 -3t2.5 -11q-15 -21 -79 -79t-89 -71q-28 -16 -51 -16l-311 12q235 -66 235 -260q0 -54 -28.5 -135.5t-80.5 -170t-115.5 -166t-143 -127.5t-154.5 -50zM219 426q0 -159 88.5 -245.5t241.5 -86.5q136 0 231 66q48 32 76 64.5t57 80.5
q-91 133 -165 293.5t-113 304.5q-180 -26 -298 -162.5t-118 -314.5z" />
    <glyph glyph-name="quotesingle" unicode="'" horiz-adv-x="321" 
d="M266 1022l133 301q23 55 74 55q63 0 31 -59q-8 -16 -49.5 -73.5t-97.5 -133t-70 -94.5z" />
    <glyph glyph-name="parenleft" unicode="(" horiz-adv-x="585" 
d="M203 -555q-79 116 -128.5 276.5t-49.5 333.5q0 249 74 482t216.5 436t362.5 369.5t500 273.5l8 -21q-194 -79 -363.5 -210.5t-296.5 -294.5t-219.5 -352.5t-142 -390t-55.5 -400.5q-3 -65 2 -135t32.5 -174.5t77.5 -180.5z" />
    <glyph glyph-name="parenright" unicode=")" horiz-adv-x="544" 
d="M354 1610q205 -282 215 -584q9 -246 -64.5 -490t-215.5 -456.5t-356.5 -388.5t-475.5 -285l-10 21q191 85 356 222.5t286 305t207 359.5t129 394t42 402q0 66 -7.5 135.5t-38.5 172.5t-83 177z" />
    <glyph glyph-name="asterisk" unicode="*" horiz-adv-x="788" 
d="M764 958q-39 0 -59 34t-7 85l58 215l-158 -157q-39 -37 -77.5 -37t-59.5 35q-20 32 0 66.5t71 47.5l216 60l-216 59q-51 13 -71 48t0 67q21 35 59.5 35t77.5 -37l158 -158l-58 215q-13 51 7 85t59 34t58.5 -34t6.5 -85l-57 -215l158 158q39 37 77.5 37t59.5 -35
q19 -33 -1 -67.5t-71 -47.5l-215 -59l215 -60q51 -13 71 -47t1 -67q-21 -35 -59.5 -35t-77.5 37l-158 157l57 -215q13 -51 -6.5 -85t-58.5 -34z" />
    <glyph glyph-name="plus" unicode="+" horiz-adv-x="831" 
d="M809 657l-10 -24h-318l-110 -301h-27l111 301h-324l10 24h322l110 301l27 3l-111 -304h320z" />
    <glyph glyph-name="comma" unicode="," horiz-adv-x="428" 
d="M-231 -256q107 69 148.5 112t41.5 74q0 25 -34 66.5t-34 60.5q0 51 53 115t99 64q43 0 69.5 -46.5t26.5 -95.5q0 -45 -29.5 -94.5t-86 -100t-109.5 -90.5t-129 -90z" />
    <glyph glyph-name="hyphen" unicode="-" horiz-adv-x="645" 
d="M217 483h-24q-67 0 -92.5 -5.5t-53.5 -31.5l-16 17l22 22l23 23t21 20t24 20t23 16t26.5 15t27.5 9.5t32 7.5t34 2h203q69 0 95 7t61 36l16 -14q-6 -6 -26.5 -27t-26 -26t-23 -21.5t-24.5 -21t-23 -15.5t-27 -14.5t-27 -9.5t-31.5 -7.5t-33.5 -1.5h-180z" />
    <glyph glyph-name="period" unicode="." horiz-adv-x="333" 
d="M-35 -25q-31 0 -63.5 28.5t-32.5 68.5q0 50 45 105.5t94 55.5q33 0 62.5 -33t29.5 -75q0 -45 -43 -97.5t-92 -52.5z" />
    <glyph glyph-name="slash" unicode="/" horiz-adv-x="579" 
d="M-520 -553l1591 2191h37l-1591 -2191h-37z" />
    <glyph glyph-name="zero" unicode="0" horiz-adv-x="1085" 
d="M213 -16q-111 0 -164 67.5t-53 173.5q0 88 42 217.5t112.5 268t168 277.5t201.5 248.5t221 178t220 68.5q64 0 109.5 -22.5t67 -59.5t30 -72.5t8.5 -73.5q0 -103 -47 -241t-123 -277t-177.5 -276t-206.5 -242t-213.5 -170t-195.5 -65zM367 100q82 0 172 78.5t164.5 202
t135.5 265.5t95.5 279.5t34.5 233.5q0 227 -168 227q-96 0 -206.5 -117t-195.5 -283t-141.5 -352t-56.5 -319q0 -92 41 -153.5t125 -61.5z" />
    <glyph glyph-name="one" unicode="1" horiz-adv-x="620" 
d="M4 0q-23 0 -31.5 13.5t0.5 35.5l588 1251l-221 -92l-8 25q31 15 154 69t214 99t134 80q24 16 39 14t12 -18t-25 -31q-63 -38 -88 -92l-596 -1323q-13 -31 -49 -31h-123z" />
    <glyph glyph-name="two" unicode="2" horiz-adv-x="1210" 
d="M-119 0l-10 23l109 69q485 312 758.5 592t273.5 481q0 90 -53.5 140.5t-149.5 50.5q-91 0 -182.5 -44.5t-165.5 -127.5l-17 14q41 53 87 98t108 90.5t138 71.5t155 25q122 -2 202 -67.5t80 -182.5q0 -76 -36.5 -159.5t-89 -156t-147.5 -162t-173 -154.5t-208 -157.5
t-210.5 -146.5t-218.5 -145h590q102 0 159.5 10.5t88 28t75.5 59.5l17 -12q-14 -15 -70 -91t-78 -100q-36 -47 -100 -47h-932z" />
    <glyph glyph-name="three" unicode="3" horiz-adv-x="980" 
d="M59 -16q-75 0 -130.5 13t-55.5 36q0 47 47.5 94t110.5 47q11 0 27.5 -3t39.5 -10t44 -13.5t52 -17.5t52 -18t55.5 -19.5t50.5 -18.5q67 20 130.5 60t119.5 99t90.5 143.5t34.5 180.5q0 111 -51 164t-135 53q-64 0 -146 -43q-12 -6 -24 -3.5t-13 11.5q-4 21 25 31
q90 32 173 76t154.5 100.5t114.5 127.5t43 145q0 69 -45.5 112t-138.5 43q-68 0 -144.5 -32.5t-146.5 -102.5l-18 18q195 226 440 226q97 0 167.5 -54.5t70.5 -150.5q0 -64 -24 -121.5t-60.5 -99.5t-88 -78.5t-99 -60.5t-101.5 -44h12q42 0 81.5 -12t76 -38t58.5 -73
t22 -110q0 -94 -55.5 -192.5t-148 -180t-205 -146.5t-234.5 -101.5t-228 -36.5z" />
    <glyph glyph-name="four" unicode="4" horiz-adv-x="1253" 
d="M477 0q-23 0 -32 13.5t1 35.5l166 344q-351 41 -440 41q-20 0 -37.5 -1.5t-32.5 -4.5t-24.5 -5.5t-21.5 -8t-15.5 -7.5t-14.5 -9t-12 -7l-16 21q26 22 49 43l1186 1018q12 12 37 12q63 0 63 -17q0 -4 -8 -24l-457 -948q16 -2 47 -2q70 0 120.5 16t85 43t77.5 76l19 -19
q-103 -115 -195 -176t-197 -61h-16l-164 -342q-13 -31 -47 -31h-121zM170 520q101 23 215 23q97 0 289 -25l350 727z" />
    <glyph glyph-name="five" unicode="5" horiz-adv-x="933" 
d="M6 -16q-75 0 -130.5 13t-55.5 36q0 47 47 94t110 47q49 0 322 -102q58 18 112 47t104.5 71.5t88 93t60 117t22.5 138.5q0 131 -99.5 207t-342.5 128l-6 15l391 596q197 -33 364 -33q146 0 226 80l16 -16q-17 -16 -52 -53.5t-61.5 -62t-65.5 -53t-85.5 -43t-98.5 -14.5
q-143 0 -307 37l-198 -307q246 -37 379 -140t133 -237q0 -118 -83.5 -240t-210 -212.5t-283 -148.5t-296.5 -58z" />
    <glyph glyph-name="six" unicode="6" horiz-adv-x="1120" 
d="M375 -14q-132 0 -213.5 86.5t-81.5 240.5q0 139 48 279.5t131.5 263.5t201 233t253.5 191.5t292 134.5t313 68l2 -31q-183 -19 -340.5 -85t-266 -155.5t-193.5 -203.5t-133 -220.5t-75 -214.5q147 188 312.5 305t292.5 117q89 0 142.5 -59t53.5 -162q0 -86 -37 -192
t-107 -210t-159 -191t-204 -141t-232 -54zM287 375q0 -172 42.5 -254t145.5 -82q77 0 149 47.5t124 122t91.5 165t59 179t19.5 160.5q0 174 -132 174q-95 0 -229 -102.5t-256 -270.5q-14 -71 -14 -139z" />
    <glyph glyph-name="seven" unicode="7" horiz-adv-x="978" 
d="M84 0q-26 0 -33 15.5t10 35.5l1069 1235q-72 -20 -141 -20q-66 1 -238 27t-235 26q-70 0 -121.5 -19t-93.5 -73l-20 14q103 119 191.5 183t176.5 65q80 1 228 -23t249 -24q86 0 174 35l9 -17l-1010 -1433q-20 -27 -49 -27h-166z" />
    <glyph glyph-name="eight" unicode="8" horiz-adv-x="1210" 
d="M389 -14q-159 0 -246.5 72t-87.5 186q0 76 38 146.5t108 131.5t152 111.5t188 101.5q-71 61 -110.5 128.5t-39.5 154.5q0 116 80.5 223.5t216.5 173.5t289 66q83 0 145 -20.5t95.5 -55t49 -72.5t15.5 -80q0 -127 -123 -248.5t-362 -195.5q14 -10 46 -33t47 -34
t41.5 -32.5t40 -36t32 -37.5t27.5 -43.5t15.5 -46.5t6.5 -54q0 -132 -95.5 -250t-249 -187t-319.5 -69zM256 276q0 -110 62 -179.5t180 -69.5q41 0 86.5 12t93 39.5t85 67t61.5 100.5t24 133q0 44 -15.5 82.5t-50 74.5t-63 60.5t-80.5 63t-78 59.5q-305 -185 -305 -443z
M592 1120q0 -66 27 -122.5t62.5 -93t92.5 -79.5q135 57 227.5 179.5t92.5 242.5q0 90 -46 145.5t-145 55.5q-96 0 -168.5 -50.5t-107 -123.5t-35.5 -154z" />
    <glyph glyph-name="nine" unicode="9" horiz-adv-x="1120" 
d="M961 1481q132 0 213 -87t81 -241q0 -139 -48 -279.5t-131.5 -263.5t-201 -232.5t-253.5 -191t-292 -134.5t-313 -68l-2 30q183 19 340.5 85t266 155.5t193.5 203.5t133 220.5t75 214.5q-148 -188 -312.5 -305t-291.5 -117q-89 0 -143 59t-54 162q0 86 37 192t107 210
t159.5 191.5t204.5 141.5t232 54zM418 754q0 -174 131 -174q95 0 229.5 102t255.5 270q15 76 15 140q0 171 -42.5 253t-146.5 82q-96 0 -182 -71.5t-141 -177t-87 -219.5t-32 -205z" />
    <glyph glyph-name="colon" unicode=":" horiz-adv-x="428" 
d="M18 -25q-31 0 -63.5 28.5t-32.5 68.5q0 50 45 105.5t94 55.5q33 0 63 -33t30 -75q0 -45 -43.5 -97.5t-92.5 -52.5zM385 780q-31 0 -63.5 28.5t-32.5 68.5q0 50 45 105.5t94 55.5q33 0 62.5 -33t29.5 -75q0 -45 -43 -97.5t-92 -52.5z" />
    <glyph glyph-name="semicolon" unicode=";" horiz-adv-x="499" 
d="M-178 -256q107 69 148.5 112t41.5 74q0 26 -33.5 67t-33.5 60q0 51 52.5 115t98.5 64q43 0 70 -46.5t27 -95.5q0 -45 -29.5 -94.5t-86.5 -100t-110 -90.5t-129 -90zM385 780q-31 0 -63.5 28.5t-32.5 68.5q0 50 45 105.5t94 55.5q33 0 62.5 -33t29.5 -75q0 -45 -43 -97.5
t-92 -52.5z" />
    <glyph glyph-name="less" unicode="&#x3c;" horiz-adv-x="929" 
d="M963 854l4 -25l-787 -200l633 -201l-8 -25l-674 213l2 25z" />
    <glyph glyph-name="equal" unicode="=" horiz-adv-x="847" 
d="M858 780l-10 -24h-668l10 24h668zM774 535l-10 -25h-668l10 25h668z" />
    <glyph glyph-name="greater" unicode="&#x3e;" horiz-adv-x="929" 
d="M61 403l-4 25l787 201l-633 200l8 25l674 -213l-2 -25z" />
    <glyph glyph-name="question" unicode="?" horiz-adv-x="798" 
d="M143 330q39 142 230 317q34 31 91.5 77.5t102.5 81.5t96 83.5t85 92t56.5 98t22.5 108.5q0 74 -54 121t-148 47q-91 0 -183 -44.5t-166 -127.5l-16 14q41 53 87 98t108 90.5t138 71.5t155 25q122 -2 202 -67.5t80 -182.5q0 -65 -33.5 -126.5t-85 -108.5t-122.5 -97
t-137.5 -90t-139.5 -90t-119 -94q-30 -28 -52 -58.5t-33.5 -52.5t-19 -54t-9 -46t-3.5 -47t-2 -39h-131zM147 -25q-31 0 -63.5 28.5t-32.5 68.5q0 50 45 105.5t94 55.5q33 0 63 -33t30 -75q0 -45 -43.5 -97.5t-92.5 -52.5z" />
    <glyph glyph-name="at" unicode="@" horiz-adv-x="1972" 
d="M748 -346q-207 -4 -366.5 64t-253 209t-93.5 337q0 162 63 321t168.5 289t245.5 242t292.5 188t310.5 119t298 43q179 0 322 -59.5t229 -177t86 -275.5q0 -108 -35 -210.5t-93 -182.5t-132 -151t-153 -121.5t-156 -87t-140.5 -54.5t-105.5 -18q-78 0 -115 41t-37 102
q0 93 86 258q-325 -403 -510 -403q-75 0 -110 55.5t-35 132.5q0 81 35.5 173t95 178t141.5 166t170.5 139.5t186.5 95t186 35.5q94 0 295 -60l35 -10q-103 -148 -237 -396.5t-134 -330.5q0 -94 88 -94q24 0 59 10.5t79.5 35t89.5 60.5t89 92t77.5 123.5t54 161.5t20.5 201
q0 109 -37.5 197t-96.5 142.5t-136.5 91.5t-152 52t-148.5 15q-122 0 -248 -35.5t-240 -99t-214 -156.5t-173.5 -203t-116 -243.5t-42.5 -272.5q0 -136 40.5 -243t106 -173.5t155.5 -109t181.5 -58.5t191.5 -14q404 8 682 303l17 -14q-44 -55 -100 -107.5t-138.5 -109.5
t-173.5 -100t-210 -72t-244 -31zM711 389q3 -119 86 -119t216 131.5t302 374.5q67 101 94 139q-56 36 -133 57t-148 21q-62 0 -120.5 -30t-103.5 -80t-83 -113.5t-62.5 -131t-37 -132.5t-10.5 -117z" />
    <glyph glyph-name="A" unicode="A" horiz-adv-x="2267" 
d="M346 -37q-174 0 -283.5 92t-109.5 252q0 154 112 296.5t295.5 229.5t380.5 87q82 0 182 -30.5t241.5 -88.5t205.5 -80q180 196 346.5 403t268.5 353l-500 -7q-50 0 -78.5 -17.5t-67.5 -63.5l-18 10q10 14 33.5 46.5t32 44.5t26 34.5t27 34t22.5 25.5t25 24q37 30 102 30
h588q26 0 33.5 -10.5t1.5 -36.5q-110 -498 -179 -885t-69 -470q0 -62 20.5 -87.5t61.5 -25.5q31 0 67.5 21.5t96.5 80.5l18 -18q-123 -121 -202.5 -172t-149.5 -51q-59 0 -96 43.5t-37 124.5q0 130 82 548q-170 -137 -346 -137q-96 0 -189 19q-591 -619 -944 -619zM117 412
q0 -163 94.5 -251.5t232.5 -86.5q93 1 193 40t204 114.5t199 161t207 202.5q-91 22 -198 65t-182 79.5t-167.5 64.5t-171.5 28q-122 0 -218 -60.5t-144.5 -154.5t-48.5 -202zM1409 709q127 -43 231 -43q108 0 191 71l147 674q-284 -390 -569 -702z" />
    <glyph glyph-name="B" unicode="B" horiz-adv-x="1564" 
d="M485 -14q-273 0 -467 24q-22 2 -22 15t56 63.5t89 71.5q11 9 22 19.5t22.5 26t18.5 24t19.5 29.5t16 26.5t17.5 30.5t15 26q89 155 215 421.5t218 426.5q42 75 89.5 122t131.5 91l129 67h-504q-50 0 -77.5 -17.5t-67.5 -63.5l-19 10q10 14 33.5 46.5t32 44.5t26 34.5
t27 34t22.5 25.5t25 24q37 30 102 30h645q103 0 179.5 -21t119 -57.5t62.5 -79t20 -91.5q0 -128 -101.5 -236t-250.5 -170q95 -17 152 -80.5t55 -148.5q-1 -135 -104.5 -276.5t-257.5 -248t-341 -175t-348 -68.5zM227 170q81 -9 243.5 -18.5t285.5 -10.5q262 -3 410.5 133
t160.5 371q6 124 -50.5 204.5t-162.5 80.5h-233l18 37h199q89 0 159.5 22t112.5 56t70 78.5t38 85.5t9 81q0 41 -13.5 71.5t-40 50t-56 31.5t-72.5 17.5t-78 7.5t-84 2h-33q-20 -14 -39 -32.5t-30.5 -31t-29.5 -40t-23 -35.5t-24.5 -42.5t-21.5 -37.5q-92 -159 -211.5 -418
t-204.5 -409q-41 -73 -86.5 -119.5t-115.5 -83.5z" />
    <glyph glyph-name="C" unicode="C" horiz-adv-x="1437" 
d="M717 -16q-115 0 -218 35.5t-184 102.5t-128.5 173.5t-47.5 239.5q0 147 52.5 292t141.5 266.5t210.5 227t257 178.5t283 114.5t286.5 41.5q130 0 243.5 -18t172.5 -42t59 -45q0 -46 -56 -98.5t-126 -52.5q-75 0 -238 60.5t-305 133.5q-223 -64 -397 -200.5t-272.5 -322
t-106.5 -390.5q-9 -246 138.5 -394.5t394.5 -148.5q117 0 229.5 43.5t202.5 138.5l22 -18q-298 -317 -614 -317z" />
    <glyph glyph-name="D" unicode="D" horiz-adv-x="1878" 
d="M637 -14q-302 0 -496 24q-22 2 -22 15q0 18 102 102l41 33q25 19 46 44.5t32 43t29 50t26 44.5q88 155 224 435t229 440q46 82 93.5 133.5t127.5 89.5l154 71q-102 27 -211 27q-282 0 -494 -147l-18 24q168 117 334.5 178.5t369.5 61.5q143 0 275 -54t224.5 -141.5
t148 -201t55.5 -230.5q0 -130 -39.5 -253.5t-109.5 -226t-165.5 -192t-209 -157t-237.5 -116t-253.5 -73t-255.5 -24.5zM350 170q254 -27 611 -27q184 -1 328.5 53.5t237 153t140 232.5t47.5 295q0 235 -126 397t-331 227q-13 -9 -24.5 -19.5t-23.5 -23.5t-21 -22.5
t-20.5 -26.5t-17.5 -25t-18 -27.5t-15.5 -25.5t-16.5 -28t-15 -25q-93 -159 -222 -432t-214 -422q-41 -72 -87 -119t-116 -84z" />
    <glyph glyph-name="E" unicode="E" horiz-adv-x="1515" 
d="M0 0q-19 0 -24 4t-5 16t56.5 64.5t89.5 75.5q52 44 131 182q26 45 51.5 93.5t42.5 81t43.5 88t35.5 75t39.5 85.5t35.5 77h-168v32h184q89 190 166 322q46 81 93 130t128 83l117 49h-506q-50 0 -77.5 -17.5t-67.5 -64.5l-19 10q24 33 61.5 88.5t60 85t44.5 48.5
q37 30 102 30h1112q115 0 115 -71q3 -100 -250 -289l-16 25q104 71 104 114q0 28 -23.5 34.5t-86.5 6.5h-494q-27 -20 -49 -41.5t-44.5 -54t-31.5 -47t-35 -58.5q-98 -169 -192 -383h672v-32h-688q-104 -239 -205 -418q-41 -72 -87 -119t-116 -84l-78 -41h936q50 0 78 17.5
t68 64.5l18 -10q-23 -32 -61 -88t-60.5 -85t-44.5 -48q-38 -31 -102 -31h-1053z" />
    <glyph glyph-name="F" unicode="F" horiz-adv-x="1605" 
d="M111 0q-23 0 -23 18q0 10 41 50.5t80 72.5l22 19q52 44 131 182q36 64 73.5 135.5t61 120t61.5 127.5t56 117h-204v32h219q91 189 176 336q44 79 91.5 127.5t129.5 85.5l76 35h-592q-50 0 -77.5 -17.5t-67.5 -64.5l-19 10q24 33 61.5 88.5t60 85t44.5 48.5q37 30 102 30
h1235q115 0 115 -71q3 -100 -250 -289l-16 25q104 71 104 114q0 28 -23 34.5t-87 6.5h-508q-31 -25 -59 -60t-40.5 -55.5t-42.5 -70.5q-76 -132 -202 -398h596v-32h-611q-118 -257 -209 -418q-41 -73 -86.5 -119.5t-115.5 -83.5l-101 -53l312 16q14 0 18 -2.5t4 -9.5
q0 -15 -39.5 -77.5t-62.5 -80.5q-16 -14 -60 -14h-374z" />
    <glyph glyph-name="G" unicode="G" horiz-adv-x="1687" 
d="M700 -16q-115 0 -218 35.5t-183.5 102.5t-128 173.5t-47.5 239.5q0 147 52.5 292t141.5 266.5t210.5 227t257 178.5t283 114.5t286.5 41.5q130 0 243.5 -18t172.5 -42t59 -45q0 -46 -56 -98.5t-126 -52.5q-78 0 -229 54.5t-314 139.5q-223 -64 -397 -200.5t-272.5 -322
t-106.5 -390.5q-9 -246 138 -394.5t394 -148.5q114 0 213 50.5t184 179.5l113 278l-500 -20q-22 0 -22 14t40 78.5t60 83.5q12 10 60 10l583 -2h31q19 0 8 -27q-157 -405 -256 -621.5t-184 -359.5q-62 -107 -164 -188q-37 -28 -101.5 -54.5t-164 -58t-115.5 -37.5l-12 25
q112 38 179.5 98t145.5 178q116 178 248 486q-63 -77 -133.5 -132t-137.5 -83t-123.5 -39.5t-111.5 -11.5z" />
    <glyph glyph-name="H" unicode="H" horiz-adv-x="1937" 
d="M1438 -16q-57 0 -92 40t-35 107q0 49 18.5 105.5t77.5 173.5l219 432h-694q-120 -263 -195 -398q-51 -93 -152 -180t-215.5 -147t-232.5 -96.5t-207 -36.5q-149 0 -149 39q0 44 45.5 85.5t91.5 41.5q42 0 159.5 -23t170.5 -31q62 21 110.5 73t106.5 157q37 68 75 143
t61.5 123.5t63 131t56.5 118.5h-189v32h205q91 189 176 336q47 83 99 134t159 96l101 43l-584 -13q-50 0 -77.5 -17.5t-67.5 -63.5l-19 10q10 14 33.5 46.5t32 44.5t26 34.5t27 34t22.5 25.5t25 24q37 30 103 30h673q23 0 23 -18q0 -13 -60.5 -67.5t-95.5 -73.5
q-15 -7 -29 -15.5t-27 -20t-22.5 -20t-21 -23.5t-18 -23t-17.5 -26t-15.5 -25t-16.5 -27.5t-15 -26.5q-101 -174 -203 -398h694l220 435q60 119 167.5 222.5t225.5 169t235.5 103t208.5 37.5q150 0 150 -39q0 -45 -47 -87t-99 -42q-11 0 -23 1t-27.5 3.5t-28 4.5t-33 7
t-32.5 7.5t-37 9t-36 9.5t-40 11t-40 11q-75 -28 -130 -81t-111 -163l-508 -1008q-7 -13 -30 -58.5t-36.5 -72.5t-30.5 -65.5t-25.5 -67.5t-8.5 -49q0 -66 61 -66q37 0 79.5 29t109.5 94l18 -18q-123 -122 -204.5 -174.5t-151.5 -52.5z" />
    <glyph glyph-name="I" unicode="I" horiz-adv-x="874" 
d="M-201 0q-22 0 -22 18q0 13 40 58t72 69q25 17 45 17h213q24 18 45 39.5t33.5 35.5t29 40t21 33.5t20 35.5t15.5 29q69 124 196.5 394.5t225.5 440.5q47 83 99 134t159 96l88 37h-356q-51 0 -89.5 -22t-76.5 -66l-18 10q10 14 33.5 46.5t32 44.5t26 34.5t27 34t22.5 25.5
t25 24q37 30 124 30h592q23 0 23 -18q0 -14 -38 -59.5t-67 -67.5q-22 -16 -49 -16h-141q-22 -11 -42.5 -27t-33.5 -27.5t-31 -37t-24 -34.5t-25 -41.5t-22 -37.5q-98 -168 -223.5 -440.5t-198.5 -407.5q-31 -55 -56 -86t-82 -70.5t-151 -81.5l-53 -24h315q51 0 89.5 22
t76.5 66l19 -10q-10 -14 -33.5 -46.5t-32 -44.5t-26 -34.5t-27 -34t-22.5 -25.5t-25 -24q-38 -31 -125 -31h-617z" />
    <glyph glyph-name="J" unicode="J" horiz-adv-x="1210" 
d="M-92 -365q-111 0 -164 68t-53 174q0 130 75.5 273t226.5 283.5t353 240.5l16 -29q-122 -65 -215 -149t-147.5 -174.5t-80.5 -182t-23 -180.5q2 -60 17.5 -106t53 -77.5t94.5 -31.5q51 0 102 26.5t99 73t103 122t106 160t115 200.5q83 152 217 434.5t231 449.5
q46 82 98.5 132.5t159.5 97.5l94 41l-835 6q-50 0 -77.5 -17.5t-67.5 -64.5l-19 10q10 14 33.5 46.5t32 44.5t26 34.5t27 34t22.5 25.5t25 24q38 31 102 31l942 -4q23 0 23 -19q0 -12 -56.5 -65t-88.5 -76q-17 -8 -32.5 -18t-28 -18.5t-25.5 -21.5t-21.5 -20.5t-20 -23
t-16.5 -22t-16 -24t-14.5 -23t-15 -25t-13.5 -23.5q-92 -159 -212 -422.5t-200 -400.5q-110 -190 -249 -350t-268 -258t-243 -152t-192 -54z" />
    <glyph glyph-name="K" unicode="K" horiz-adv-x="1712" 
d="M-276 -16q-150 0 -150 39q0 44 45.5 85.5t91.5 41.5q42 0 159.5 -23t170.5 -31q62 21 110.5 73t106.5 157q83 152 217.5 434.5t231.5 449.5q47 83 99 134t159 96l100 43l-584 -13q-50 0 -77.5 -17.5t-67.5 -63.5l-19 10q10 14 33.5 46.5t32 44.5t26 34.5t27 34t22.5 25.5
t25 24q37 30 103 30h674q22 0 22 -18q0 -13 -60.5 -67.5t-95.5 -73.5q-15 -7 -29 -15.5t-27 -20t-22.5 -20t-21 -23.5t-18 -23t-17.5 -26t-15.5 -25t-16.5 -27.5t-15 -26.5q-36 -63 -69 -123.5t-65 -126.5t-51.5 -108.5t-55 -120t-50.5 -109.5q221 197 459 391.5t377 298.5
q397 281 635 281q125 0 125 -39q0 -45 -51.5 -90t-108.5 -45q-88 0 -264 53q-64 -26 -156 -81.5t-160 -106.5q-120 -87 -399 -318q46 -415 123.5 -671.5t169.5 -256.5q67 0 194 142l19 -19q-115 -122 -201 -180.5t-135 -58.5q-222 0 -322 917q-156 -133 -350 -305
q-40 -85 -78 -152q-51 -93 -151.5 -180t-215 -147t-232.5 -96.5t-207 -36.5z" />
    <glyph glyph-name="L" unicode="L" horiz-adv-x="1486" 
d="M864 -23q-180 0 -354 5l-588 18q-19 0 -23.5 4t-4.5 16q0 20 151 138q18 16 51 16l107 -4q81 60 138 169t86.5 219t82.5 294.5t108 327.5q40 102 108.5 184.5t148.5 135.5t175 88t185 50t180 15q105 0 191.5 -15.5t129 -36.5t42.5 -40q0 -44 -50.5 -90t-97.5 -46
q-35 0 -71 7t-84.5 27t-79 33.5t-101.5 48t-104 50.5q-36 -7 -62.5 -18t-64 -42t-71.5 -81t-77.5 -139.5t-89.5 -212.5q-57 -153 -92.5 -244.5t-94.5 -221t-103 -192.5q-65 -93 -125 -151t-156 -119l317 -10l355 -6q64 0 116.5 6.5t83.5 14.5t63 25.5t44.5 26.5t39.5 32
q7 6 11 9l16 -16q-30 -37 -73 -91.5t-67 -82.5t-46 -47q-20 -16 -39 -25.5t-74.5 -19t-136.5 -9.5z" />
    <glyph glyph-name="M" unicode="M" horiz-adv-x="2467" 
d="M1968 -16q-57 0 -92 40t-35 107q0 161 131 554t350 814l-1151 -1311q-9 -13 -15.5 -51.5t-6.5 -56.5q0 -28 -72 -60q-75 -34 -114 -28q-17 3 -15 16q114 867 166 1426q-274 -517 -530 -859q-437 -591 -834 -591q-79 0 -148 13t-69 38q0 43 49 83t96 40q46 0 105.5 -4.5
t154 -14.5t144.5 -14q206 118 477 477q285 382 539 881l-637 -13q-51 -1 -79 -18.5t-67 -62.5l-18 10q10 14 33.5 46.5t32 44.5t26 34.5t27 34t22.5 25.5t25 24q37 30 102 30h699q26 0 34.5 -9.5t6.5 -37.5q-10 -178 -28 -378.5t-31 -320.5t-40 -349.5t-35 -304.5l1205 1378
q19 22 51 22h110q23 0 31 -14t-2 -37q-247 -499 -378.5 -890t-131.5 -525q0 -66 62 -66q36 0 78.5 28.5t109.5 94.5l18 -18q-123 -122 -204.5 -174.5t-151.5 -52.5z" />
    <glyph glyph-name="N" unicode="N" horiz-adv-x="1945" 
d="M1417 -16q-23 0 -28 49l-164 1411q-169 -394 -408 -780q-59 -94 -103 -159t-101 -141.5t-106 -127.5t-110.5 -102.5t-122 -81t-133.5 -48.5t-151 -20q-79 0 -148 13t-69 38q0 43 49 83t96 40q54 0 187 -14t214 -19q199 129 465 555q248 396 416 803l-594 -13
q-50 0 -77.5 -17.5t-67.5 -63.5l-19 10q10 14 33.5 46.5t32 44.5t26 34.5t27 34t22.5 25.5t25 24q37 30 103 30h641q25 0 31.5 -8.5t9.5 -38.5l159 -1288l381 787q47 93 80 153.5t75 126t79.5 105.5t86.5 78t103 58t121.5 32t149.5 12q159 0 159 -39q0 -44 -45.5 -88.5
t-91.5 -44.5q-16 0 -33 1t-31.5 2.5t-38 5t-37.5 5.5t-45.5 8t-47 9.5t-57.5 11.5t-62 12q-67 -37 -136.5 -127t-158.5 -268q-293 -590 -461 -955q-71 -154 -86 -176q-19 -28 -39 -28z" />
    <glyph glyph-name="O" unicode="O" horiz-adv-x="1808" 
d="M848 -16q-158 0 -285 55t-208.5 149.5t-125 219t-43.5 266.5q0 149 58.5 298t159 269.5t226.5 215t270 146.5t280 52q150 0 272 -53t200.5 -146.5t120 -219.5t39.5 -273q-2 -150 -58.5 -298.5t-152.5 -269t-217 -214t-261 -145.5t-275 -52zM1024 102q143 0 261.5 60
t193.5 158.5t116 221t41 251.5q1 179 -49 325t-136 239t-197 143t-234 50q-143 0 -268.5 -63.5t-209.5 -166.5t-132 -234t-48 -267q0 -331 179.5 -524t482.5 -193z" />
    <glyph glyph-name="P" unicode="P" horiz-adv-x="1531" 
d="M80 0q-23 0 -23 18q0 12 57 65.5t89 76.5q56 54 131 182q89 156 215.5 455t218.5 458q44 79 91.5 127.5t129.5 85.5l4 2h-411q-50 0 -78.5 -17.5t-67.5 -63.5l-18 10q10 14 33.5 46.5t32 44.5t26 34.5t27 34t22.5 25.5t25 24q37 30 102 30h535q137 0 243 -25t171 -65.5
t106.5 -97.5t57.5 -114.5t16 -123.5q0 -93 -49.5 -194t-134.5 -187.5t-215.5 -143t-276.5 -56.5h-447q-61 -133 -104 -207q-41 -72 -87 -119t-116 -84l-113 -59l322 22q22 2 22 -12q0 -15 -39.5 -77.5t-62.5 -80.5q-16 -14 -59 -14h-375zM709 664h426q124 0 220.5 42
t152.5 112.5t84 153.5t28 173q0 165 -123.5 245t-384.5 80q-13 -13 -24.5 -26.5t-24 -32.5t-18 -28t-21 -35t-18.5 -31q-60 -102 -108.5 -208t-104.5 -244t-84 -201z" />
    <glyph glyph-name="Q" unicode="Q" horiz-adv-x="1890" 
d="M2077 -537q-72 0 -139 17.5t-120 43.5t-108 71t-94.5 85.5t-88.5 103.5t-80.5 108t-79.5 115t-77 110q-220 -133 -442 -133q-158 0 -285 55t-208.5 149.5t-125 219t-43.5 266.5q0 149 58.5 298t159 269.5t226.5 215t270 146.5t280 52q150 0 272 -53t200.5 -146.5
t120 -219.5t39.5 -273q-3 -203 -100 -393.5t-258 -331.5q50 -57 124.5 -149.5t126 -157.5t123.5 -140.5t133.5 -122.5t139.5 -78.5t156 -31.5t151.5 37.5t118.5 82.5l17 -16q-42 -39 -78 -66.5t-95 -61.5t-134 -52.5t-160 -18.5zM1024 102q126 0 242 50q-112 151 -226 233
t-260 82q-125 0 -297 -98q87 -129 225 -198t316 -69zM362 819q0 -248 105 -426q118 70 241.5 113t217.5 43q137 0 258.5 -75t245.5 -210q99 99 152.5 239.5t53.5 289.5q1 179 -49 325t-136 239t-197 143t-234 50q-143 0 -268.5 -63.5t-209.5 -166.5t-132 -234t-48 -267z" />
    <glyph glyph-name="R" unicode="R" horiz-adv-x="1576" 
d="M-4 0q-23 0 -23 18q0 12 57 65.5t89 76.5q56 54 131 182q89 156 215.5 455t218.5 458q44 79 91.5 127.5t129.5 85.5l4 2h-327q-50 0 -78.5 -17.5t-67.5 -63.5l-18 10q10 14 33.5 46.5t32 44.5t26 34.5t27 34t22.5 25.5t25 24q37 30 102 30h535q107 0 193 -18t140.5 -47.5
t91 -69.5t51.5 -81.5t15 -86.5q0 -91 -40.5 -177t-115.5 -157t-194 -116t-264 -49q71 -368 138.5 -552t137.5 -184q64 0 164 103l18 -19q-200 -200 -299 -200q-121 0 -195.5 182.5t-162.5 669.5h-203q-111 -273 -192 -412q-41 -72 -87 -119t-116 -84l-100 -51l309 14
q14 0 18 -2.5t4 -9.5q0 -15 -39.5 -77.5t-62.5 -80.5q-16 -14 -59 -14h-375zM711 868h383q100 0 177 23t123 59.5t75 86.5t39.5 98.5t9.5 101.5q-1 68 -31.5 115t-88 72t-126.5 35.5t-160 10.5h-84q-13 -13 -24.5 -26.5t-24 -32.5t-18 -28t-21 -35t-18.5 -31
q-101 -175 -211 -449z" />
    <glyph glyph-name="S" unicode="S" horiz-adv-x="1310" 
d="M399 -12q-182 0 -334.5 45t-152.5 92q0 42 65 90.5t127 48.5q38 0 125 -33t165.5 -69.5t226.5 -108.5q60 13 121.5 37t121.5 61t106 81.5t74.5 103t28.5 121.5q0 28 -9.5 55t-22 49t-37.5 44.5t-44 38.5t-55 35.5t-56 30t-61.5 28t-58 24t-57.5 22.5q-43 16 -70.5 27
t-71 32t-71.5 39t-61.5 45.5t-52.5 56.5t-32.5 66.5t-13.5 79.5q0 99 74 195.5t196.5 168.5t291 116.5t345.5 44.5q346 0 346 -101q0 -55 -63 -125.5t-186 -162.5l-17 24q105 72 105 115q0 17 -10.5 35t-39.5 38.5t-74 36.5t-122.5 26.5t-175.5 10.5q-142 0 -261 -37
t-190.5 -105.5t-71.5 -154.5q0 -95 83.5 -161t304.5 -152q52 -21 88.5 -36.5t87 -41t85 -51.5t67 -59t49 -72.5t16.5 -83.5q0 -111 -70 -222t-183.5 -196t-266 -138.5t-308.5 -53.5z" />
    <glyph glyph-name="T" unicode="T" horiz-adv-x="1202" 
d="M254 0q-23 0 -23 18q0 12 57 65.5t89 76.5q17 19 32 37.5t25 31.5t22.5 32t18 27t18 28.5t15.5 25.5q95 165 221 436.5t203 409.5q42 78 89.5 127t129.5 86l121 55h-676q-50 0 -77.5 -17.5t-67.5 -64.5l-19 10q19 26 50 70l46.5 66t37 47.5t38.5 40.5q37 30 103 30h1265
q25 0 25 -14q0 -12 -52.5 -68t-84.5 -86q-16 -14 -60 -14h-465q-55 -38 -90.5 -86t-75.5 -123q-78 -139 -197.5 -401.5t-209.5 -421.5q-41 -72 -87 -119t-116 -84l-113 -59l322 22q23 0 23 -12q0 -15 -40 -77.5t-63 -80.5q-16 -14 -59 -14h-375z" />
    <glyph glyph-name="U" unicode="U" horiz-adv-x="1738" 
d="M463 -16q-120 0 -196.5 86t-76.5 209q0 95 43.5 212.5t109 224.5t141.5 222.5t141.5 210.5t109 185.5t43.5 148.5q0 33 -20 52t-53 19q-42 0 -111.5 -42t-140.5 -111l-25 31q250 223 414 223q85 0 129.5 -46.5t44.5 -103.5q0 -80 -61.5 -202.5t-149 -252t-175 -260.5
t-149 -262t-61.5 -223q0 -57 16.5 -98t44 -62t56.5 -30t61 -9q265 0 803 693l461 809q16 30 49 30h137q25 0 32.5 -15t-5.5 -38q-433 -746 -590 -1067q-99 -198 -99 -278q0 -51 25.5 -73t63.5 -22q66 0 151 80l19 -20q-238 -221 -365 -221q-63 0 -105 51.5t-42 122.5
q0 128 104 336q35 68 78 147q-184 -230 -347.5 -380t-285 -213.5t-219.5 -63.5z" />
    <glyph glyph-name="V" unicode="V" horiz-adv-x="1681" 
d="M825 0q-21 0 -31 12t-6 33l209 1143q51 272 -82 289l-333 -7q-51 -1 -79 -18.5t-67 -62.5l-18 10q10 14 33.5 46.5t32 44.5t26 34.5t27 34t22.5 25.5t25 24q37 30 102 30h627q32 0 12 -28l-70 -101q-5 -7 -11 -12.5t-10 -8t-12 -4t-11 -1.5h-13h-12l-185 -4
q124 -57 164 -143.5t11 -237.5l-170 -883l929 1096q19 49 45 122t39.5 110.5t33 80t38.5 70.5q39 57 82.5 83.5t103.5 26.5q39 0 62.5 -13.5t23.5 -31.5q0 -30 -69 -104q-217 -231 -332 -367l-1077 -1265q-17 -23 -51 -23h-9z" />
    <glyph glyph-name="W" unicode="W" horiz-adv-x="2535" 
d="M856 0q-43 0 -37 45l205 1143q55 294 -109 289l-333 -7q-51 -1 -79 -18.5t-67 -62.5l-18 10q10 14 33.5 46.5t32 44.5t26 34.5t27 34t22.5 25.5t25 24q37 30 102 30h653q32 0 19 -20l-80 -115q-14 -20 -66 -20l-196 -4q67 -35 106 -68.5t62.5 -78t23.5 -100t-12 -134.5
l-147 -836l976 1352q16 24 50 24h10q45 0 39 -43l-150 -1374l854 1090q19 49 45 122t39.5 110.5t33 80t38.5 70.5q39 57 82.5 83.5t103.5 26.5q39 0 62.5 -13.5t23.5 -31.5q0 -30 -69 -104q-21 -22 -72 -75t-85 -89t-83.5 -92.5t-91.5 -110.5l-995 -1265q-23 -23 -52 -23h-8
q-43 0 -37 45l166 1378l-1014 -1400q-23 -23 -51 -23h-8z" />
    <glyph glyph-name="X" unicode="X" horiz-adv-x="1746" 
d="M1294 -16q-59 0 -84.5 35t-35.5 104l-82 557l-666 -723q-9 -11 -23 -26.5t-20.5 -23t-16.5 -18t-15.5 -15t-13 -9.5t-13.5 -6.5t-13 -1.5q-28 1 -45.5 31t-17.5 69q0 43 7 72.5t32 48.5l800 633l-88 602q-15 111 -34.5 155.5t-67.5 44.5q-44 0 -106 -40t-132 -117l-28 20
q124 131 208 194q114 87 187 87q78 0 112.5 -66.5t59.5 -234.5l70 -486l719 850q63 76 80 88q18 14 34 13q28 -1 46 -31.5t18 -69.5q0 -84 -39 -121l-852 -765l92 -641q6 -47 17.5 -67t31.5 -20q55 0 191 136l18 -19q-239 -239 -330 -239z" />
    <glyph glyph-name="Y" unicode="Y" horiz-adv-x="1511" 
d="M578 0q-23 0 -23 18q0 12 56.5 65.5t88.5 76.5q15 16 27 31t23 30.5t17.5 25t16 26t12.5 22t13 24.5t12 23q51 104 93 221t51 187q15 143 -72 479q-12 49 -21.5 80.5t-24.5 66t-32 54t-41.5 32.5t-54.5 13l-189 -5q-51 -1 -78.5 -18.5t-66.5 -62.5l-18 10q13 17 40 55
t37.5 52t28.5 37.5t31.5 38t27.5 26.5q37 30 103 30h553q32 0 12 -28l-70 -101q-5 -7 -11 -12.5t-10 -8t-12 -4t-11 -1.5h-13h-12l-221 -6q81 -20 145 -67t88 -126q26 -80 55.5 -230.5t34.5 -297.5l660 944q38 55 64.5 78.5t49.5 21.5q28 -1 46 -31t18 -69q0 -80 -39 -121
l-797 -870q-16 -45 -34 -102.5t-33 -99.5t-33 -83q-35 -78 -73.5 -122t-108.5 -81l-86 -45q275 0 356 4q23 2 23 -12t-39.5 -75t-63.5 -79q-16 -14 -59 -14h-436z" />
    <glyph glyph-name="Z" unicode="Z" horiz-adv-x="1456" 
d="M-39 0q-19 0 -24 4t-5 16q0 5 10 17t29 30t35 32.5t38.5 34t29.5 26.5l878 706q409 316 707 592h-903q-50 0 -78 -17.5t-68 -64.5l-18 10q24 33 61.5 88.5t60 85t44.5 48.5q37 30 102 30h1084q14 -1 18 -5.5t4 -14.5q0 -19 -36 -51.5t-109 -87.5q-451 -326 -854 -648
q-479 -381 -744 -649l953 -2q50 0 77.5 17.5t67.5 64.5l18 -10q-24 -33 -61 -88t-59.5 -84.5t-44.5 -48.5q-38 -31 -103 -31h-1110z" />
    <glyph glyph-name="bracketleft" unicode="[" horiz-adv-x="516" 
d="M696 1579q6 16 25 16h541l-13 -22h-413q-11 0 -19 -19l-1016 -2086q-3 -8 1 -12.5t18 -4.5l401 2l-10 -22h-533q-16 0 -10 16z" />
    <glyph glyph-name="backslash" unicode="\" horiz-adv-x="579" 
d="M414 -553h-31l-215 2191h31z" />
    <glyph glyph-name="bracketright" unicode="]" horiz-adv-x="557" 
d="M-682 -569l12 22h414q10 0 18 19l1016 2087q3 8 -0.5 12t-17.5 4l-402 -2l11 22h532q16 0 10 -16l-1028 -2132q-6 -16 -24 -16h-541z" />
    <glyph glyph-name="asciicircum" unicode="^" horiz-adv-x="741" 
d="M788 1018q-45 148 -77 344l-379 -326l-17 23l449 381q20 17 27 -10q38 -200 88 -375z" />
    <glyph glyph-name="underscore" unicode="_" horiz-adv-x="706" 
d="M-182 -313l20 43h723l-16 -43h-727z" />
    <glyph glyph-name="a" unicode="a" horiz-adv-x="1239" 
d="M797 -16q-66 0 -95.5 40t-29.5 89q0 171 194 505q-529 -642 -708 -634q-66 3 -99.5 53.5t-31.5 134.5q2 143 78 298.5t194.5 281t276 207t311.5 81.5q63 0 155.5 -12t161.5 -33l35 -10q46 -13 21 -51q-141 -208 -250 -418q-61 -124 -90 -200.5t-29 -141.5q0 -59 53 -59
q63 0 180 110l19 -20q-238 -221 -346 -221zM231 229q0 -114 60 -114q70 0 256.5 188t453.5 531l27 40q-82 33 -176.5 57.5t-151.5 24.5q-82 0 -159 -56t-131.5 -141t-96 -185t-62 -190.5t-20.5 -154.5z" />
    <glyph glyph-name="b" unicode="b" horiz-adv-x="1161" 
d="M317 -14q-127 0 -200 63t-74.5 170t70.5 250l266 502q68 128 184 250.5t256 218.5t305 154.5t320 58.5q168 0 168 -45q0 -50 -63 -105t-150 -55q-18 0 -35.5 1.5t-42.5 6t-41 7.5t-53 12.5t-54 14t-68.5 18.5t-74.5 20q-116 -51 -198 -144.5t-187 -293.5l-332 -629
q150 174 322 340q247 240 385 237q57 0 94 -50.5t37 -119.5q0 -136 -80 -294.5t-200.5 -287t-271.5 -214.5t-282 -86zM483 80q97 0 187 75t149.5 184.5t95 229t35.5 213.5q0 136 -71 136q-76 0 -228 -142q-154 -144 -397 -430q-13 -68 3.5 -121t53 -83.5t80.5 -46t92 -15.5z
" />
    <glyph glyph-name="c" unicode="c" horiz-adv-x="903" 
d="M276 -14q-65 -1 -115.5 22.5t-77.5 61t-40.5 77.5t-13.5 80q0 109 47 226.5t129.5 220t186 185.5t225 131t237.5 48q67 0 128.5 -13.5t61.5 -39.5q0 -56 -47.5 -101.5t-97.5 -45.5q-47 0 -121.5 24t-206.5 76q-80 -27 -157.5 -127t-125 -237.5t-42.5 -262.5
q3 -90 53 -140t137 -50q67 0 133.5 28t151.5 101l18 -19q-127 -112 -254.5 -178.5t-208.5 -66.5z" />
    <glyph glyph-name="d" unicode="d" horiz-adv-x="1021" 
d="M254 -16q-100 0 -163.5 73t-63.5 181q0 83 35.5 177.5t95 182t140.5 169t168.5 141.5t182.5 96t180 36q83 0 156 -16q47 193 47 346q0 168 -117 168q-94 0 -256 -162l-18 19q260 260 422 260q54 0 93 -19.5t58.5 -53.5t28 -70t8.5 -78q0 -107 -47 -259.5t-124 -311.5
t-181 -318t-212.5 -283t-223.5 -201t-209 -77zM240 285q1 -48 14.5 -89.5t47 -72.5t83.5 -31q64 0 130 43t125 115.5t115 170.5t101.5 207t81.5 226q-163 80 -299 80q-89 0 -167 -58.5t-129 -151.5t-79 -209t-24 -230z" />
    <glyph glyph-name="e" unicode="e" horiz-adv-x="901" 
d="M270 -14q-65 -1 -115.5 22.5t-77.5 61t-40.5 77.5t-13.5 80q0 87 36.5 184t97 186t142 170.5t169 141t181.5 94.5t176 35q77 0 117.5 -34.5t40.5 -92.5q0 -54 -31 -105.5t-120 -127t-224.5 -167.5t-369.5 -239q13 -72 64 -111.5t128 -39.5q67 0 133.5 28t151.5 101
l18 -19q-127 -112 -254.5 -178.5t-208.5 -66.5zM233 311v-8q164 103 270.5 181t166.5 141t83 112t23 101q0 50 -31.5 82t-89.5 32q-78 0 -158 -62.5t-138.5 -156.5t-94 -208.5t-31.5 -213.5z" />
    <glyph glyph-name="f" unicode="f" horiz-adv-x="679" 
d="M-588 -426q-20 0 -32.5 1.5t-24.5 11t-12 26.5q0 47 57.5 101.5t116.5 54.5q40 0 117.5 -11.5t121.5 -15.5q28 14 49 29t53.5 50.5t65 86.5t77.5 138.5t97 205.5l320 723h-164l14 29h162q70 145 193.5 270.5t263 206.5t283 126.5t264.5 45.5q168 0 168 -45
q0 -50 -63 -105t-150 -55q-40 0 -96 11t-100 23.5t-155 45.5q-81 -31 -176.5 -129t-171.5 -271l-55 -124h221l-14 -29h-219l-250 -563q-64 -144 -180 -295t-248.5 -270.5t-276.5 -196t-256 -76.5z" />
    <glyph glyph-name="g" unicode="g" horiz-adv-x="1165" 
d="M-57 -569q-69 1 -117 15.5t-70 38.5t-30 48t-5 51q5 59 66 124.5t160 111.5l14 -13q-51 -70 -51 -137t48 -111t161 -44q60 0 124.5 26.5t102.5 57.5q62 50 122.5 151t109 212t136 300.5t175.5 351.5l37 68q-273 -337 -460.5 -519.5t-285.5 -178.5q-66 3 -99.5 53.5
t-31.5 134.5q2 143 78 298.5t194.5 281t276 207t311.5 81.5q65 0 165.5 -12t168.5 -33l-2 -2l4 2l8 -2q40 -9 19 -53l-287 -547q-170 -325 -316 -509.5t-304 -307.5q-86 -67 -198.5 -106t-223.5 -39zM254 229q0 -114 59 -114q136 0 691 712l32 60q-80 29 -170 49t-143 20
q-82 0 -159 -56t-131.5 -141t-96 -185t-62 -190.5t-20.5 -154.5z" />
    <glyph glyph-name="h" unicode="h" horiz-adv-x="1210" 
d="M-39 0q-23 0 -31.5 14.5t2.5 34.5l500 922q69 128 185 250t256 218.5t304.5 155t319.5 58.5q168 0 168 -45q0 -50 -63 -105t-150 -55q-18 0 -35.5 1.5t-42.5 6t-41 7.5t-53 12.5t-54 14t-68.5 18.5t-74.5 20q-117 -51 -199.5 -145t-185.5 -293l-350 -670q149 194 303 342
q135 131 252.5 204.5t192.5 73.5q49 0 78.5 -33.5t29.5 -84.5q1 -53 -34 -139t-85 -174.5t-100.5 -174t-85.5 -157t-35 -103.5q0 -59 58 -59q59 0 176 110l18 -20q-238 -221 -346 -221q-66 0 -95.5 40t-29.5 89q0 63 35.5 151.5t86 174t101 167t86 151t35.5 105.5
q0 58 -51 58q-44 0 -107.5 -44.5t-160.5 -134.5q-102 -98 -210 -225.5t-196 -257.5l-119 -227q-15 -31 -47 -31h-137z" />
    <glyph glyph-name="i" unicode="i" horiz-adv-x="612" 
d="M141 -16q-59 0 -90 42t-31 95q0 69 58.5 188t128 224t128 205t58.5 136q0 46 -45 46q-64 0 -194 -121l-19 20q238 221 365 221q56 0 83 -31.5t27 -74.5q0 -63 -54.5 -173.5t-120.5 -210t-120.5 -197.5t-54.5 -140q0 -68 68 -68q66 0 151 80l19 -20q-238 -221 -357 -221z
M926 1513q4 3 12.5 11t12.5 12t11 10t11.5 9.5t10 7t9.5 5t8 1.5q19 0 19 -33t-11 -49.5t-51 -46.5l-368 -277l-12 17z" />
    <glyph glyph-name="j" unicode="j" horiz-adv-x="532" 
d="M-590 -426q-20 0 -32.5 1.5t-24.5 11t-12 26.5q0 47 57.5 101.5t116.5 54.5q40 0 117.5 -11.5t123.5 -15.5q44 23 81 60.5t103.5 148t155.5 301.5q56 118 112.5 237t81.5 171t47.5 101.5t29 70t6.5 36.5q0 52 -51 52q-65 0 -195 -121l-18 20q238 221 364 221
q56 0 82.5 -31.5t28.5 -74.5q1 -53 -40.5 -152.5t-172.5 -369.5q-69 -143 -185.5 -293t-248 -270.5t-273.5 -197.5t-254 -77zM862 1513q60 56 76 56q18 0 18 -33t-11 -49.5t-50 -46.5l-369 -277l-12 17z" />
    <glyph glyph-name="k" unicode="k" horiz-adv-x="1144" 
d="M-39 0q-23 0 -31.5 14.5t2.5 34.5l500 922q69 128 185 250t256 218.5t304.5 155t319.5 58.5q168 0 168 -45q0 -50 -63 -105t-150 -55q-18 0 -35.5 1.5t-42.5 6t-41 7.5t-53 12.5t-54 14t-68.5 18.5t-74.5 20q-117 -51 -199.5 -145t-185.5 -293l-256 -492
q174 200 364.5 320.5t297.5 123.5q77 1 119.5 -31.5t42.5 -88.5q0 -32 -15.5 -68t-59 -84.5t-110 -96t-179 -101t-255.5 -101.5q10 -36 15 -53t17 -55.5t20.5 -60t22 -54t26 -51t28 -38t33 -28t35.5 -8.5q66 0 157 102l19 -18q-116 -123 -187 -173t-120 -50q-33 0 -65 29.5
t-55.5 70t-49 106.5t-40 113t-34.5 115l-43 -12l-6 28q151 39 269 84.5t190 88t118.5 87.5t64 82.5t17.5 73.5q0 38 -26.5 62t-65.5 24q-73 0 -195.5 -76.5t-243 -192.5t-188.5 -225l-215 -411q-15 -31 -47 -31h-137z" />
    <glyph glyph-name="l" unicode="l" horiz-adv-x="600" 
d="M117 -16q-66 0 -95.5 41.5t-29.5 95.5q0 124 125 346l284 504q69 128 185 250t256 218.5t304.5 155t319.5 58.5q168 0 168 -45q0 -50 -63 -105t-150 -55q-18 0 -35.5 1.5t-42 6t-41.5 7.5t-52.5 12.5t-54 14t-68 18t-74.5 20.5q-115 -50 -196 -143.5t-189 -294.5
l-344 -633q-40 -73 -76.5 -161t-36.5 -122q0 -59 61 -59q55 0 172 110l19 -20q-238 -221 -346 -221z" />
    <glyph glyph-name="m" unicode="m" horiz-adv-x="1814" 
d="M610 0q-23 0 -31 13.5t3 35.5q150 267 292 539q117 225 117 278q0 24 -12 39t-37 15q-44 0 -107.5 -44.5t-160.5 -134.5q-195 -186 -387 -473q-91 -163 -142 -239q-17 -29 -49 -29h-116q-24 0 -31 14t6 37q135 230 270 491t135 326q0 52 -51 52q-64 0 -194 -121l-19 20
q238 221 365 221q56 0 83 -31.5t27 -74.5q0 -117 -194 -492q145 190 278 320q135 131 252.5 204.5t192.5 73.5q49 0 78.5 -33.5t29.5 -84.5q0 -47 -28.5 -121t-114.5 -240q-11 -22 -55 -104q203 267 390 425t300 158q49 0 78.5 -33.5t29.5 -84.5q1 -53 -34 -139t-85 -174.5
t-100.5 -174t-85.5 -157t-35 -103.5q0 -59 62 -59q55 0 172 110l18 -20q-238 -221 -346 -221q-66 0 -95.5 40t-29.5 89q0 63 35.5 151.5t86 174t101 167t86 151t35.5 105.5q0 58 -51 58q-82 0 -273.5 -198.5t-363.5 -455.5q-66 -119 -123 -235q-13 -31 -47 -31h-125z" />
    <glyph glyph-name="n" unicode="n" horiz-adv-x="1226" 
d="M-20 0q-24 0 -31 14t6 37q135 230 270 491t135 326q0 52 -51 52q-64 0 -194 -121l-19 20q238 221 365 221q56 0 83 -31.5t27 -74.5q0 -114 -202 -508q139 179 299 336q136 131 252.5 204.5t191.5 73.5q49 0 79 -34t30 -84q1 -53 -34 -139t-85 -174.5t-100.5 -174
t-85.5 -157t-35 -103.5q0 -59 57 -59q59 0 176 110l19 -20q-238 -221 -347 -221q-66 0 -95 40t-29 89q0 77 54 194.5t118 216.5t118 197t54 141q0 58 -52 58q-44 0 -107.5 -44.5t-160.5 -134.5q-222 -212 -410 -487q-78 -144 -131 -225q-17 -29 -49 -29h-116z" />
    <glyph glyph-name="o" unicode="o" horiz-adv-x="1019" 
d="M262 -16q-109 0 -172 72t-63 182q0 87 36.5 184t97 184t140 167.5t162.5 139t167.5 93t153.5 34.5q51 0 90.5 -16.5t62 -41t36.5 -57.5t19 -61.5t5 -58.5q0 -108 -40.5 -217.5t-105.5 -197.5t-146 -165t-163 -129t-155.5 -82t-124.5 -30zM410 84q68 0 130.5 45.5
t107.5 117.5t78.5 158.5t50 171t16.5 152.5q0 104 -45 155.5t-127 51.5q-83 0 -158 -59t-124.5 -149.5t-78.5 -197t-29 -204.5q0 -44 7.5 -82t25.5 -76.5t55.5 -61t90.5 -22.5z" />
    <glyph glyph-name="p" unicode="p" horiz-adv-x="1214" 
d="M-281 -553q-23 0 -31.5 13.5t1.5 35.5l530 1010q137 263 137 360q0 52 -43 52q-66 0 -188 -136l-19 19q120 127 200 183t138 56q55 0 86 -35t31 -87q0 -120 -164 -443l-32 -63q76 89 116 135t111 124.5t114 121t104 97t105 82t92.5 47t88.5 19.5q57 0 94 -50.5t37 -119.5
q0 -109 -51.5 -234.5t-138.5 -238t-193 -206t-225 -148.5t-224 -55q-121 0 -188 116l-318 -626q-15 -29 -47 -29h-123zM305 295q36 -93 106.5 -154t147.5 -61q97 0 187 75t149.5 184.5t95 229t35.5 213.5q0 136 -72 136q-78 0 -257.5 -178.5t-385.5 -436.5z" />
    <glyph glyph-name="q" unicode="q" horiz-adv-x="1208" 
d="M473 -569q-59 0 -89 42t-30 95q0 201 514 1044q-526 -636 -704 -628q-66 3 -99.5 53.5t-31.5 134.5q2 143 78 298.5t194.5 281t276 207t311.5 81.5q63 0 155.5 -12t161.5 -33l41 -14q44 -13 19 -53q-32 -48 -72 -115t-91.5 -156.5t-82.5 -140.5q-3 -4 -72.5 -120
t-117.5 -200t-112 -203t-99 -208.5t-35 -136.5q0 -60 51 -60q60 0 149 84l19 -20q-131 -122 -204.5 -171.5t-129.5 -49.5zM238 229q0 -114 59 -114q69 0 251.5 182t442.5 514l39 66q-81 32 -173 55.5t-150 23.5q-82 0 -159 -56t-131.5 -141t-96 -185t-62 -190.5
t-20.5 -154.5z" />
    <glyph glyph-name="r" unicode="r" horiz-adv-x="980" 
d="M-20 0q-24 0 -31 14t6 37q135 230 270 491t135 326q0 52 -51 52q-64 0 -194 -121l-19 20q238 221 365 221q56 0 83 -31.5t27 -74.5q0 -69 -77 -250q119 170 242 263t263 93q48 0 95 -11.5t47 -37.5q0 -42 -48.5 -95.5t-105.5 -53.5q-95 0 -270 51q-72 -54 -158.5 -166.5
t-169.5 -261.5q-144 -285 -244 -436q-17 -29 -49 -29h-116z" />
    <glyph glyph-name="s" unicode="s" horiz-adv-x="755" 
d="M113 -14q-67 0 -113 14t-67 38t-28.5 48t-4.5 51q5 57 60.5 112.5t156.5 102.5l14 -12q-51 -70 -51 -137q0 -65 39.5 -108t122.5 -44q78 -2 131 52t53 139q0 52 -26.5 117.5t-58.5 118t-58.5 116t-26.5 111.5q0 88 68.5 166t178.5 122.5t230 44.5q65 0 128 -15t63 -42
q0 -48 -40.5 -95.5t-105.5 -47.5q-32 0 -85.5 20t-88 37.5t-117.5 60.5q-59 -33 -59 -112q0 -45 18.5 -98.5t45 -102.5t52 -98.5t42.5 -104t14 -102.5q-4 -67 -52.5 -133t-119.5 -113t-155.5 -76.5t-159.5 -29.5z" />
    <glyph glyph-name="t" unicode="t" horiz-adv-x="710" 
d="M156 -16q-62 0 -101 50t-39 118q0 134 189 458l213 367h-154v24l500 293l20 -14l-151 -276h256l-15 -29h-256l-241 -443q-38 -70 -60.5 -113.5t-46.5 -107.5t-24 -104q0 -44 19 -66t50 -22q32 0 84 29t103 77l18 -20q-238 -221 -364 -221z" />
    <glyph glyph-name="u" unicode="u" horiz-adv-x="1284" 
d="M805 -16q-66 0 -95.5 40t-29.5 89q0 164 164 467q-132 -170 -244 -291q-278 -305 -430 -305q-54 0 -100.5 39t-46.5 98q-1 48 37 129.5t92.5 169.5t109 174.5t93 163t38.5 116.5q0 46 -45 46q-64 0 -194 -121l-19 20q238 221 365 221q56 0 83 -31.5t27 -74.5
q0 -66 -55.5 -179.5t-121.5 -215.5t-121.5 -206.5t-55.5 -154.5q0 -26 16 -43.5t47 -17.5q83 0 259 188q170 178 401 506l98 166q16 29 47 29l131 -2q25 0 32 -14t-7 -36q-191 -311 -258 -438q-62 -125 -92.5 -203.5t-30.5 -138.5q0 -59 53 -59q64 0 181 110l18 -20
q-238 -221 -346 -221z" />
    <glyph glyph-name="v" unicode="v" horiz-adv-x="1081" 
d="M371 -16q-114 -1 -175 68t-61 173q0 155 120.5 330.5t293.5 310.5q-20 0 -81 3t-104.5 3.5t-105.5 -2.5q-51 -4 -85 -18t-67 -59l-20 14q21 29 40.5 53t42 46t31.5 31t35.5 31.5t28.5 24.5q38 31 105 31h356l6 -18q-397 -323 -397 -691q0 -102 44 -164t134 -63
q52 -1 113.5 40.5t118.5 108t105.5 138t86.5 143.5q-23 307 -8 391q9 55 59.5 93t112.5 38q51 0 51 -41q0 -86 -152 -415q-50 -112 -120.5 -217t-152 -191t-175 -138.5t-180.5 -53.5z" />
    <glyph glyph-name="w" unicode="w" horiz-adv-x="1554" 
d="M879 -16q-101 -1 -150 64t-49 159q0 42 10 100q-91 -157 -199 -239t-206 -84q-106 -1 -164 61t-58 162q0 82 41.5 174.5t112.5 179t150 162.5t168 143q-8 0 -120.5 3t-170.5 1q-50 -3 -76.5 -19.5t-65.5 -62.5l-18 11q10 14 33.5 46.5t32 44.5t26 34.5t27 34t22.5 25.5
t25 24q37 30 104 30q25 0 155 -7t202 -7l6 -18q-214 -174 -331.5 -377.5t-117.5 -368.5q0 -74 34.5 -123.5t105.5 -50.5q76 -2 154 79t161 261q58 165 174 338q22 30 127 69q97 35 104 19q2 -3 -2 -8q-108 -162 -174 -328t-63 -268q5 -158 129 -160q63 -1 140.5 68.5
t141 163.5t111.5 196q-13 178 -15.5 252.5t5.5 140.5q9 55 60.5 93t113.5 38q51 0 51 -41q0 -88 -151 -415q-52 -115 -116 -217.5t-140 -190t-165 -139.5t-175 -53z" />
    <glyph glyph-name="x" unicode="x" horiz-adv-x="1003" 
d="M535 -16q-43 0 -67 31t-26 67l-22 317l-414 -450q-39 -44 -56 -59t-30 -15q-45 0 -45 72q0 36 14.5 66t55.5 61l473 354l-29 403q-6 87 -51 87q-55 0 -191 -136l-18 19q239 239 330 239q43 0 66.5 -30.5t25.5 -67.5l27 -354l321 383q60 73 86 73q45 0 45 -71
q0 -37 -14 -66.5t-55 -60.5l-381 -293l26 -360q6 -87 49 -87q55 0 191 136l18 -19q-239 -239 -329 -239z" />
    <glyph glyph-name="y" unicode="y" horiz-adv-x="1081" 
d="M-324 -426q-57 0 -107 16t-50 50q0 41 46 91t93 50q18 0 44 -4.5t49 -10t62.5 -17t62 -18.5t70 -22.5t66.5 -21.5q49 20 81.5 41.5t55.5 44.5t42 66t32 86t35 124q48 179 82.5 402.5t28.5 347.5q-3 56 -17.5 79t-42.5 23q-60 0 -170 -102l-18 20q128 119 203.5 170
t124.5 51q109 0 112 -149q4 -126 -38.5 -404t-121.5 -538q288 269 492 600l-6 99t-5 91t-2 65t0.5 63t4.5 42q9 55 61.5 93t114.5 38q51 0 51 -41q0 -50 -26 -128t-75 -173t-116 -202t-153 -215.5t-180.5 -211.5t-204 -192.5t-219.5 -157t-230 -106.5t-232 -39z" />
    <glyph glyph-name="z" unicode="z" horiz-adv-x="993" 
d="M522 -14q-36 0 -80 16t-81.5 36t-96.5 36t-121 16q-39 0 -61.5 -2t-62.5 -15t-82 -40q-22 -14 -40 -30t-27 -23t-20 -7q-10 0 -18 7t-8 16q0 13 6.5 22t29.5 24.5t53.5 33.5t94.5 60.5t135 94.5q116 84 367 295q233 194 332 297q-87 29 -190.5 45.5t-176.5 16.5
q-152 0 -282 -148l-19 17q58 64 102.5 107.5t102 88t116 67t117.5 21.5q116 -2 215 -23t215 -71l105 82l18 -18q-92 -76 -310 -243t-325 -257q-50 -42 -100.5 -87t-124 -112t-94.5 -86q57 23 102 23q43 0 90.5 -16.5t83.5 -36t80.5 -36t81.5 -16.5q47 0 91.5 20.5t97.5 82.5
l20 -17q-210 -241 -336 -241z" />
    <glyph glyph-name="braceleft" unicode="{" horiz-adv-x="634" 
d="M-133 -332q4 68 42 149.5t90 156t103.5 148.5t89 149.5t41.5 136.5q11 138 -88 141l5 29q89 0 143.5 52t99.5 158q45 99 91 297t87 293q54 121 227.5 191.5t389.5 70.5q9 0 13 -3.5t3 -10.5q-7 -20 -24 -20q-223 0 -332 -41q-102 -42 -148 -144q-33 -77 -85.5 -300.5
t-92.5 -305.5q-40 -86 -124 -156.5t-181 -99.5q57 -26 84.5 -91.5t22.5 -131.5q-4 -53 -41.5 -126.5t-89.5 -148.5t-103.5 -152.5t-90 -159.5t-42.5 -148q-6 -81 55.5 -122.5t200.5 -41.5q10 0 13 -5.5t-5 -19.5q-7 -12 -41 -12q-59 0 -115.5 18t-102.5 51t-72.5 85
t-22.5 114z" />
    <glyph glyph-name="bar" unicode="|" horiz-adv-x="413" 
d="M606 1642l25 -8l-783 -2048l-24 8z" />
    <glyph glyph-name="braceright" unicode="}" horiz-adv-x="634" 
d="M-561 -586q7 21 24 21q223 0 332 41q102 42 148 143q33 77 85.5 300.5t92.5 305.5q40 86 124 156.5t181 99.5q-57 26 -84.5 92t-22.5 132q4 53 41.5 126.5t89.5 148.5t103.5 152.5t90 159.5t42.5 148q6 81 -55.5 122.5t-200.5 41.5q-24 0 -8 24q7 12 41 12
q59 0 115.5 -18t102.5 -51t72.5 -85t22.5 -114q-4 -68 -42 -149t-90 -156t-103.5 -148.5t-89 -149t-41.5 -136.5q-5 -70 3 -94q15 -45 74 -45l-2 -29q-83 -1 -138 -54.5t-99 -158.5q-45 -99 -90 -297t-86 -293q-54 -121 -227.5 -191.5t-389.5 -70.5q-9 0 -13 3.5t-3 10.5z
" />
    <glyph glyph-name="exclamdown" unicode="&#xa1;" horiz-adv-x="475" 
d="M311 674q-92 -201 -162.5 -386.5t-102.5 -293t-61 -207t-44 -137.5q-43 -103 -142 -103q-68 0 -97.5 30t-12.5 81q16 50 75 141.5t131 195.5t179 290.5t202 394.5zM416 1049q31 0 63.5 -28.5t32.5 -68.5q0 -50 -45 -105.5t-94 -55.5q-33 0 -62.5 33t-29.5 75
q0 45 43 97.5t92 52.5z" />
    <glyph glyph-name="cent" unicode="&#xa2;" horiz-adv-x="864" 
d="M299 334q-102 0 -151.5 61t-49.5 154q0 94 50.5 203t133.5 206t201 172.5t242 100.5l94 211l27 -2l-90 -203q44 6 88 6q49 0 101 -13.5t52 -37.5q0 -44 -41 -83.5t-88 -39.5q-38 0 -170 37l-282 -641q28 -4 45 -4q117 0 260 123l18 -19q-214 -190 -379 -225l-86 -195
l-28 2l84 189q-10 -2 -31 -2zM293 633q7 -130 96 -162l285 643l-103 31q-79 -28 -146.5 -117.5t-102 -196.5t-29.5 -198z" />
    <glyph glyph-name="sterling" unicode="&#xa3;" horiz-adv-x="1024" 
d="M496 -23q-268 0 -355 5l-342 18q-19 1 -23.5 5t-4.5 15q0 20 151 138q22 19 51 16l62 -4q86 60 137 133q75 107 139 412h-200l10 24h196q50 239 82 322q35 90 96 164t129.5 121t146.5 79t147 45t131 13q129 0 208.5 -19t79.5 -45q0 -40 -44 -80.5t-87 -40.5
q-57 0 -133.5 32t-193.5 97q-23 -7 -41 -16t-48.5 -37.5t-59 -71.5t-67.5 -123.5t-79 -189.5q-71 -187 -97 -250h301l-10 -24h-299q-95 -229 -153 -312q-59 -82 -110 -132t-132 -103l119 -8q104 -6 354 -6q64 0 116.5 6.5t83.5 14.5t63 25.5t44.5 26.5t39.5 32q7 6 11 9
l17 -16q-26 -32 -59 -73t-51 -63.5t-39 -46t-38 -38.5q-20 -16 -38.5 -25.5t-74 -19t-136.5 -9.5z" />
    <glyph glyph-name="yen" unicode="&#xa5;" horiz-adv-x="1153" 
d="M373 0q-23 0 -31 13.5t2 35.5q156 306 213 461h-276l10 25h276q22 64 29 98h-264l10 24h260q0 3 1 8.5t1 8.5q10 88 -22 256.5t-83.5 304t-90.5 135.5q-37 0 -113 -80l-19 19q110 108 158 146t90 38q26 0 56.5 -30t64 -96t63.5 -158t54.5 -229t36.5 -296l475 727
q62 93 92 90q19 -1 28 -23.5t9 -47.5q0 -8 -1 -15.5t-2 -12.5t-4.5 -12l-5 -10t-7 -10.5t-7 -10t-9 -11t-9.5 -11.5l-541 -680h275l-11 -24h-282l-39 -98h280l-10 -25h-280q-95 -244 -215 -479q-16 -31 -50 -31h-112z" />
    <glyph glyph-name="brokenbar" unicode="&#xa6;" horiz-adv-x="407" 
d="M313 874l291 764h29l-293 -764h-27zM150 373l-302 -787l-28 -2l301 789h29z" />
    <glyph glyph-name="section" unicode="&#xa7;" horiz-adv-x="798" 
d="M57 -14q-68 0 -110.5 31.5t-42.5 76.5q0 12 1.5 24t5.5 25t7 22.5t11 23.5t11.5 21t14 22.5t14 20.5t16 22.5t15.5 21.5l16 -10q-22 -43 -22 -94q0 -58 54 -98t134 -40q83 0 133 54t50 131q0 93 -78 219q-65 101 -81 141q-25 60 -20 117q11 123 273 272q-31 77 -31 133
q0 68 44.5 130.5t112 104t144.5 66.5t145 25q119 0 119 -43q0 -28 -37 -63t-79 -35q-47 0 -199 69q-107 -34 -107 -145q0 -92 99 -260q9 -16 29.5 -49t29.5 -50t21 -43t16.5 -49t3.5 -47q-3 -82 -78.5 -155.5t-183.5 -126.5q23 -56 20 -113q-5 -88 -86 -172t-188.5 -132
t-196.5 -48zM352 811q0 -22 3 -43.5t10.5 -44t13.5 -38.5t18.5 -39.5t18 -33.5t20 -34t17.5 -29q6 -10 15 -25.5t15.5 -27t10.5 -21.5q106 70 106 174q0 93 -74 213q-43 71 -55 101q-119 -51 -119 -152z" />
    <glyph glyph-name="copyright" unicode="&#xa9;" horiz-adv-x="823" 
d="M731 954q-141 0 -241.5 100.5t-100.5 241.5t100.5 241.5t241.5 100.5t241.5 -100.5t100.5 -241.5t-100.5 -241.5t-241.5 -100.5zM731 983q130 0 219.5 91t89.5 222t-89.5 222.5t-219.5 91.5t-219.5 -91.5t-89.5 -222.5t89.5 -222t219.5 -91zM614 1118q-38 0 -57.5 25
t-19.5 57q0 98 91.5 191.5t194.5 93.5q80 0 80 -19q0 -16 -18.5 -29.5t-36.5 -13.5q-12 0 -40 14.5t-50 14.5q-54 0 -104.5 -78.5t-47.5 -152.5q3 -62 60 -62q43 0 102 51l8 -10q-94 -82 -162 -82z" />
    <glyph glyph-name="guillemotleft" unicode="&#xab;" horiz-adv-x="1239" 
d="M784 -23q-5 2 -9 6.5t-9 13t-8 14t-9.5 20t-9.5 20.5l-229 475l655 478q57 43 74 43q21 0 21 -33q0 -101 -9 -129.5t-53 -50.5l-659 -318l313 -332q14 -14 19.5 -27t7.5 -23.5t-7 -32t-16.5 -35.5t-28.5 -52q-6 -12 -10 -18q-18 -29 -33 -19zM354 -23q-5 2 -9 6.5t-9 13
t-8 14t-9.5 20t-9.5 20.5l-229 475l655 478q57 43 74 43q20 0 20 -33q0 -102 -8.5 -130t-52.5 -50l-659 -318l313 -332q14 -14 19.5 -27t7.5 -23.5t-7 -32t-16.5 -35.5t-28.5 -52q-6 -12 -10 -18q-18 -29 -33 -19z" />
    <glyph glyph-name="registered" unicode="&#xae;" horiz-adv-x="821" 
d="M731 954q-141 0 -241.5 100.5t-100.5 241.5t100.5 241.5t241.5 100.5t240.5 -99.5t99.5 -240.5t-99.5 -242.5t-240.5 -101.5zM731 983q130 0 219.5 91t89.5 222t-89.5 222.5t-219.5 91.5t-219.5 -91.5t-89.5 -222.5t89.5 -222t219.5 -91zM545 1139l143 356h64q23 3 50 1
t50 -7t37.5 -20.5t13.5 -38.5q-5 -68 -149 -134q31 -50 71 -94.5t60 -44.5q11 0 20 12l10 -8q-34 -39 -71 -39q-22 0 -44.5 14t-43 41t-33 47t-29.5 50l-4 10q61 25 95.5 63t37.5 78q1 17 -2.5 28t-21 20.5t-51.5 9.5l-138 -344h-65z" />
    <glyph glyph-name="degree" unicode="&#xb0;" horiz-adv-x="507" 
d="M528 1016q-88 0 -149.5 61.5t-61.5 149.5t61.5 149.5t149.5 61.5t149.5 -61.5t61.5 -149.5t-61.5 -149.5t-149.5 -61.5zM528 1038q78 0 132.5 55.5t54.5 133.5t-54.5 133t-132.5 55t-132 -55t-54 -133t54 -133.5t132 -55.5z" />
    <glyph glyph-name="paragraph" unicode="&#xb6;" horiz-adv-x="819" 
d="M-344 -508q-20 0 -33 1.5t-25 11t-12 26.5q0 45 55 96t107 51q11 0 80 -6t123 -4q45 2 79 17.5t67.5 46t70.5 91t76.5 140t97.5 207.5l299 659q-38 2 -79 11t-86.5 30t-81 50.5t-58.5 77t-23 104.5q0 175 146 278t422 103h239l6 -13l-510 -1140q-64 -144 -180.5 -295
t-248.5 -270.5t-275.5 -196t-255.5 -76.5z" />
    <glyph glyph-name="periodcentered" unicode="&#xb7;" horiz-adv-x="333" 
d="M242 569q-31 0 -64 28.5t-33 68.5q0 50 45.5 105.5t94.5 55.5q33 0 62.5 -33t29.5 -75q0 -45 -43 -97.5t-92 -52.5z" />
    <glyph glyph-name="guillemotright" unicode="&#xbb;" horiz-adv-x="1234" 
d="M446 1026q3 -2 6.5 -4.5t7 -7.5t6 -8.5t6 -11.5t6 -12.5t7.5 -14.5t7 -15l229 -475l-655 -477q-57 -43 -74 -43q-21 0 -21 33q0 101 9 129.5t53 50.5l659 317l-313 332q-22 23 -24.5 45.5t8 46t42.5 81.5q6 10 9 16q17 28 32 18zM877 1026q5 -2 9 -6.5t9 -13t8 -14
t9.5 -20t9.5 -20.5l229 -475l-655 -477q-57 -43 -74 -43q-21 0 -21 33q0 101 9 129.5t53 50.5l659 317l-313 332q-22 23 -24.5 45.5t8 46t42.5 81.5q6 10 9 16q18 28 33 18z" />
    <glyph glyph-name="questiondown" unicode="&#xbf;" horiz-adv-x="817" 
d="M655 694q-39 -143 -229 -317q-34 -31 -92 -77.5t-102.5 -81.5t-96 -83.5t-85.5 -92t-56.5 -98t-22.5 -108.5q0 -74 54.5 -121t148.5 -47q91 0 182.5 44.5t165.5 127.5l17 -14q-41 -53 -87 -98t-108 -90.5t-138 -71.5t-155 -25q-122 2 -202 67.5t-80 182.5
q0 65 33.5 126.5t85 108.5t122.5 97t137.5 90t139.5 90t119 94q30 28 51.5 58.5t33 52.5t19 53.5t9 46.5t3 47t2.5 39h131zM651 1049q31 0 64 -28.5t33 -68.5q0 -50 -45.5 -105.5t-94.5 -55.5q-33 0 -62.5 33t-29.5 75q0 45 43 97.5t92 52.5z" />
    <glyph glyph-name="Agrave" unicode="&#xc0;" horiz-adv-x="2267" 
d="M346 -37q-174 0 -283.5 92t-109.5 252q0 154 112 296.5t295.5 229.5t380.5 87q82 0 182 -30.5t241.5 -88.5t205.5 -80q180 196 346.5 403t268.5 353l-500 -7q-50 0 -78.5 -17.5t-67.5 -63.5l-18 10q10 14 33.5 46.5t32 44.5t26 34.5t27 34t22.5 25.5t25 24q37 30 102 30
h588q26 0 33.5 -10.5t1.5 -36.5q-110 -498 -179 -885t-69 -470q0 -62 20.5 -87.5t61.5 -25.5q31 0 67.5 21.5t96.5 80.5l18 -18q-123 -121 -202.5 -172t-149.5 -51q-59 0 -96 43.5t-37 124.5q0 130 82 548q-170 -137 -346 -137q-96 0 -189 19q-591 -619 -944 -619z
M2064 1835q-44 15 -52.5 41t-8.5 114v25q0 33 18 33q21 0 74 -43l350 -279l-12 -16zM117 412q0 -163 94.5 -251.5t232.5 -86.5q93 1 193 40t204 114.5t199 161t207 202.5q-91 22 -198 65t-182 79.5t-167.5 64.5t-171.5 28q-122 0 -218 -60.5t-144.5 -154.5t-48.5 -202z
M1409 709q127 -43 231 -43q108 0 191 71l147 674q-284 -390 -569 -702z" />
    <glyph glyph-name="Aacute" unicode="&#xc1;" horiz-adv-x="2267" 
d="M346 -37q-174 0 -283.5 92t-109.5 252q0 154 112 296.5t295.5 229.5t380.5 87q82 0 182 -30.5t241.5 -88.5t205.5 -80q180 196 346.5 403t268.5 353l-500 -7q-50 0 -78.5 -17.5t-67.5 -63.5l-18 10q10 14 33.5 46.5t32 44.5t26 34.5t27 34t22.5 25.5t25 24q37 30 102 30
h588q26 0 33.5 -10.5t1.5 -36.5q-110 -498 -179 -885t-69 -470q0 -62 20.5 -87.5t61.5 -25.5q31 0 67.5 21.5t96.5 80.5l18 -18q-123 -121 -202.5 -172t-149.5 -51q-59 0 -96 43.5t-37 124.5q0 130 82 548q-170 -137 -346 -137q-96 0 -189 19q-591 -619 -944 -619z
M2425 1835l-369 -125l-12 16l350 279q53 43 74 43q18 0 18 -33v-25q0 -87 -8.5 -113.5t-52.5 -41.5zM117 412q0 -163 94.5 -251.5t232.5 -86.5q93 1 193 40t204 114.5t199 161t207 202.5q-91 22 -198 65t-182 79.5t-167.5 64.5t-171.5 28q-122 0 -218 -60.5t-144.5 -154.5
t-48.5 -202zM1409 709q127 -43 231 -43q108 0 191 71l147 674q-284 -390 -569 -702z" />
    <glyph glyph-name="Acircumflex" unicode="&#xc2;" horiz-adv-x="2267" 
d="M346 -37q-174 0 -283.5 92t-109.5 252q0 154 112 296.5t295.5 229.5t380.5 87q82 0 182 -30.5t241.5 -88.5t205.5 -80q180 196 346.5 403t268.5 353l-500 -7q-50 0 -78.5 -17.5t-67.5 -63.5l-18 10q10 14 33.5 46.5t32 44.5t26 34.5t27 34t22.5 25.5t25 24q37 30 102 30
h588q26 0 33.5 -10.5t1.5 -36.5q-110 -498 -179 -885t-69 -470q0 -62 20.5 -87.5t61.5 -25.5q31 0 67.5 21.5t96.5 80.5l18 -18q-123 -121 -202.5 -172t-149.5 -51q-59 0 -96 43.5t-37 124.5q0 130 82 548q-170 -137 -346 -137q-96 0 -189 19q-591 -619 -944 -619z
M2310 1696q-33 0 -49 24q-62 85 -104 127q-115 -54 -236 -157l-20 20q262 205 360 205q22 0 87 -69.5t110 -137.5l-11 -12h-137zM117 412q0 -163 94.5 -251.5t232.5 -86.5q93 1 193 40t204 114.5t199 161t207 202.5q-91 22 -198 65t-182 79.5t-167.5 64.5t-171.5 28
q-122 0 -218 -60.5t-144.5 -154.5t-48.5 -202zM1409 709q127 -43 231 -43q108 0 191 71l147 674q-284 -390 -569 -702z" />
    <glyph glyph-name="Atilde" unicode="&#xc3;" horiz-adv-x="2267" 
d="M346 -37q-174 0 -283.5 92t-109.5 252q0 154 112 296.5t295.5 229.5t380.5 87q82 0 182 -30.5t241.5 -88.5t205.5 -80q180 196 346.5 403t268.5 353l-500 -7q-50 0 -78.5 -17.5t-67.5 -63.5l-18 10q10 14 33.5 46.5t32 44.5t26 34.5t27 34t22.5 25.5t25 24q37 30 102 30
h588q26 0 33.5 -10.5t1.5 -36.5q-110 -498 -179 -885t-69 -470q0 -62 20.5 -87.5t61.5 -25.5q31 0 67.5 21.5t96.5 80.5l18 -18q-123 -121 -202.5 -172t-149.5 -51q-59 0 -96 43.5t-37 124.5q0 130 82 548q-170 -137 -346 -137q-96 0 -189 19q-591 -619 -944 -619z
M1868 1790q64 108 119 152.5t129 44.5q38 0 153 -30t156 -30q49 0 83.5 24t65.5 74l15 -10q-45 -91 -108.5 -144.5t-139.5 -53.5q-47 0 -159.5 27.5t-160.5 27.5q-45 0 -77 -22t-62 -70zM117 412q0 -163 94.5 -251.5t232.5 -86.5q93 1 193 40t204 114.5t199 161t207 202.5
q-91 22 -198 65t-182 79.5t-167.5 64.5t-171.5 28q-122 0 -218 -60.5t-144.5 -154.5t-48.5 -202zM1409 709q127 -43 231 -43q108 0 191 71l147 674q-284 -390 -569 -702z" />
    <glyph glyph-name="Adieresis" unicode="&#xc4;" horiz-adv-x="2267" 
d="M346 -37q-174 0 -283.5 92t-109.5 252q0 154 112 296.5t295.5 229.5t380.5 87q82 0 182 -30.5t241.5 -88.5t205.5 -80q180 196 346.5 403t268.5 353l-500 -7q-50 0 -78.5 -17.5t-67.5 -63.5l-18 10q10 14 33.5 46.5t32 44.5t26 34.5t27 34t22.5 25.5t25 24q37 30 102 30
h588q26 0 33.5 -10.5t1.5 -36.5q-110 -498 -179 -885t-69 -470q0 -62 20.5 -87.5t61.5 -25.5q31 0 67.5 21.5t96.5 80.5l18 -18q-123 -121 -202.5 -172t-149.5 -51q-59 0 -96 43.5t-37 124.5q0 130 82 548q-170 -137 -346 -137q-96 0 -189 19q-591 -619 -944 -619z
M2339 1747q-26 0 -52 24.5t-26 55.5q0 30 27 76q25 39 58 65.5t62 26.5q22 0 47 -24t25 -54q0 -32 -26 -76q-21 -34 -54 -64t-61 -30zM1997 1747q-26 0 -53 24.5t-27 55.5q0 27 29 76q23 38 56.5 65t63.5 27q22 0 46 -24t24 -54q0 -35 -27 -76q-18 -33 -51 -63.5t-61 -30.5z
M117 412q0 -163 94.5 -251.5t232.5 -86.5q93 1 193 40t204 114.5t199 161t207 202.5q-91 22 -198 65t-182 79.5t-167.5 64.5t-171.5 28q-122 0 -218 -60.5t-144.5 -154.5t-48.5 -202zM1409 709q127 -43 231 -43q108 0 191 71l147 674q-284 -390 -569 -702z" />
    <glyph glyph-name="Aring" unicode="&#xc5;" horiz-adv-x="2267" 
d="M346 -37q-174 0 -283.5 92t-109.5 252q0 154 112 296.5t295.5 229.5t380.5 87q82 0 182 -30.5t241.5 -88.5t205.5 -80q180 196 346.5 403t268.5 353l-500 -7q-50 0 -78.5 -17.5t-67.5 -63.5l-18 10q10 14 33.5 46.5t32 44.5t26 34.5t27 34t22.5 25.5t25 24q37 30 102 30
h588q26 0 33.5 -10.5t1.5 -36.5q-110 -498 -179 -885t-69 -470q0 -62 20.5 -87.5t61.5 -25.5q31 0 67.5 21.5t96.5 80.5l18 -18q-123 -121 -202.5 -172t-149.5 -51q-59 0 -96 43.5t-37 124.5q0 130 82 548q-170 -137 -346 -137q-96 0 -189 19q-591 -619 -944 -619z
M2206 1753q-90 0 -144.5 57t-54.5 142q0 83 58 140.5t141 57.5q94 0 146 -55.5t52 -142.5q0 -83 -57.5 -141t-140.5 -58zM2206 1782q72 0 119 47.5t47 122.5t-47 122.5t-119 47.5t-119 -47.5t-47 -122.5t47 -122.5t119 -47.5zM117 412q0 -163 94.5 -251.5t232.5 -86.5
q93 1 193 40t204 114.5t199 161t207 202.5q-91 22 -198 65t-182 79.5t-167.5 64.5t-171.5 28q-122 0 -218 -60.5t-144.5 -154.5t-48.5 -202zM1409 709q127 -43 231 -43q108 0 191 71l147 674q-284 -390 -569 -702z" />
    <glyph glyph-name="AE" unicode="&#xc6;" horiz-adv-x="2674" 
d="M133 -37q-174 0 -283.5 92t-109.5 252q0 154 112 296.5t295.5 229.5t380.5 87q82 0 179 -30.5t230 -88.5t196 -80l133 151q63 69 103 112t102 106t108 103.5t107 89t114 79.5t114.5 57t121.5 39h-367q-50 0 -77.5 -17.5t-67.5 -64.5l-19 10q24 33 61.5 88.5t60 85
t44.5 48.5q37 30 103 30h1112q114 0 114 -71q3 -100 -250 -289l-16 25q105 72 105 114q0 28 -23.5 34.5t-87.5 6.5h-494q-11 -8 -22 -17.5t-19 -16.5t-18.5 -19.5t-16 -18.5t-16 -21t-13.5 -19.5t-14.5 -22.5t-13 -20.5t-13.5 -23.5t-13 -22q-102 -176 -193 -383h672v-32
h-688q-104 -239 -205 -418q-41 -72 -87 -119t-116 -84l-78 -41h936q50 0 78 17.5t68 64.5l18 -10q-23 -32 -61 -88t-60.5 -85t-44.5 -48q-38 -31 -102 -31h-1053q-19 0 -24 4t-5 16t56.5 64.5t89.5 75.5q52 44 131 182q89 156 190 375q-173 -154 -364 -154q-68 0 -170 25
q-72 -82 -125.5 -140t-124.5 -128t-128.5 -118t-128.5 -96.5t-136 -77.5t-139 -47t-148 -18zM-96 412q0 -165 99.5 -251.5t260.5 -86.5q80 0 161 28t151 71.5t151.5 116.5t146.5 141.5t152 168.5q-72 22 -177.5 65.5t-184.5 77t-175.5 60t-173.5 26.5q-122 0 -218 -60.5
t-144.5 -154.5t-48.5 -202zM1167 709q124 -43 228 -43q42 0 77 9t64 27.5t46.5 33t41.5 38.5q118 258 213 422q102 181 248 234l24 8q-75 -10 -149.5 -37.5t-146.5 -73t-135 -94t-135.5 -119.5t-126.5 -128t-128 -140z" />
    <glyph glyph-name="Ccedilla" unicode="&#xc7;" horiz-adv-x="1437" 
d="M717 -16q-115 0 -218 35.5t-184 102.5t-128.5 173.5t-47.5 239.5q0 147 52.5 292t141.5 266.5t210.5 227t257 178.5t283 114.5t286.5 41.5q130 0 243.5 -18t172.5 -42t59 -45q0 -46 -56 -98.5t-126 -52.5q-75 0 -238 60.5t-305 133.5q-223 -64 -397 -200.5t-272.5 -322
t-106.5 -390.5q-9 -246 138.5 -394.5t394.5 -148.5q117 0 229.5 43.5t202.5 138.5l22 -18q-298 -317 -614 -317zM639 -227q0 -101 -96.5 -181.5t-216.5 -80.5q-68 0 -111 25.5t-43 55.5q0 23 27.5 47.5t54.5 24.5t56 -23t62.5 -46t71.5 -23q48 0 78.5 31t30.5 73
q0 46 -47.5 80.5t-138.5 34.5q-58 0 -121 -14l-10 12l247 217l29 -6l-119 -100q63 9 109.5 1.5t76.5 -28.5t45 -47t15 -53z" />
    <glyph glyph-name="Egrave" unicode="&#xc8;" horiz-adv-x="1515" 
d="M0 0q-19 0 -24 4t-5 16t56.5 64.5t89.5 75.5q52 44 131 182q26 45 51.5 93.5t42.5 81t43.5 88t35.5 75t39.5 85.5t35.5 77h-168v32h184q89 190 166 322q46 81 93 130t128 83l117 49h-506q-50 0 -77.5 -17.5t-67.5 -64.5l-19 10q24 33 61.5 88.5t60 85t44.5 48.5
q37 30 102 30h1112q115 0 115 -71q3 -100 -250 -289l-16 25q104 71 104 114q0 28 -23.5 34.5t-86.5 6.5h-494q-27 -20 -49 -41.5t-44.5 -54t-31.5 -47t-35 -58.5q-98 -169 -192 -383h672v-32h-688q-104 -239 -205 -418q-41 -72 -87 -119t-116 -84l-78 -41h936q50 0 78 17.5
t68 64.5l18 -10q-23 -32 -61 -88t-60.5 -85t-44.5 -48q-38 -31 -102 -31h-1053zM1118 1835q-44 15 -52.5 41t-8.5 114v25q0 33 18 33q21 0 74 -43l350 -279l-12 -16z" />
    <glyph glyph-name="Eacute" unicode="&#xc9;" horiz-adv-x="1515" 
d="M0 0q-19 0 -24 4t-5 16t56.5 64.5t89.5 75.5q52 44 131 182q26 45 51.5 93.5t42.5 81t43.5 88t35.5 75t39.5 85.5t35.5 77h-168v32h184q89 190 166 322q46 81 93 130t128 83l117 49h-506q-50 0 -77.5 -17.5t-67.5 -64.5l-19 10q24 33 61.5 88.5t60 85t44.5 48.5
q37 30 102 30h1112q115 0 115 -71q3 -100 -250 -289l-16 25q104 71 104 114q0 28 -23.5 34.5t-86.5 6.5h-494q-27 -20 -49 -41.5t-44.5 -54t-31.5 -47t-35 -58.5q-98 -169 -192 -383h672v-32h-688q-104 -239 -205 -418q-41 -72 -87 -119t-116 -84l-78 -41h936q50 0 78 17.5
t68 64.5l18 -10q-23 -32 -61 -88t-60.5 -85t-44.5 -48q-38 -31 -102 -31h-1053zM1479 1835l-369 -125l-12 16l350 279q53 43 74 43q18 0 18 -33v-25q0 -87 -8.5 -113.5t-52.5 -41.5z" />
    <glyph glyph-name="Ecircumflex" unicode="&#xca;" horiz-adv-x="1515" 
d="M0 0q-19 0 -24 4t-5 16t56.5 64.5t89.5 75.5q52 44 131 182q26 45 51.5 93.5t42.5 81t43.5 88t35.5 75t39.5 85.5t35.5 77h-168v32h184q89 190 166 322q46 81 93 130t128 83l117 49h-506q-50 0 -77.5 -17.5t-67.5 -64.5l-19 10q24 33 61.5 88.5t60 85t44.5 48.5
q37 30 102 30h1112q115 0 115 -71q3 -100 -250 -289l-16 25q104 71 104 114q0 28 -23.5 34.5t-86.5 6.5h-494q-27 -20 -49 -41.5t-44.5 -54t-31.5 -47t-35 -58.5q-98 -169 -192 -383h672v-32h-688q-104 -239 -205 -418q-41 -72 -87 -119t-116 -84l-78 -41h936q50 0 78 17.5
t68 64.5l18 -10q-23 -32 -61 -88t-60.5 -85t-44.5 -48q-38 -31 -102 -31h-1053zM1364 1696q-33 0 -49 24q-59 81 -105 127q-112 -53 -235 -157l-21 20q262 205 361 205q22 0 86.5 -69.5t109.5 -137.5l-10 -12h-137z" />
    <glyph glyph-name="Edieresis" unicode="&#xcb;" horiz-adv-x="1515" 
d="M0 0q-19 0 -24 4t-5 16t56.5 64.5t89.5 75.5q52 44 131 182q26 45 51.5 93.5t42.5 81t43.5 88t35.5 75t39.5 85.5t35.5 77h-168v32h184q89 190 166 322q46 81 93 130t128 83l117 49h-506q-50 0 -77.5 -17.5t-67.5 -64.5l-19 10q24 33 61.5 88.5t60 85t44.5 48.5
q37 30 102 30h1112q115 0 115 -71q3 -100 -250 -289l-16 25q104 71 104 114q0 28 -23.5 34.5t-86.5 6.5h-494q-27 -20 -49 -41.5t-44.5 -54t-31.5 -47t-35 -58.5q-98 -169 -192 -383h672v-32h-688q-104 -239 -205 -418q-41 -72 -87 -119t-116 -84l-78 -41h936q50 0 78 17.5
t68 64.5l18 -10q-23 -32 -61 -88t-60.5 -85t-44.5 -48q-38 -31 -102 -31h-1053zM1393 1747q-26 0 -52 24.5t-26 55.5q0 32 26 76q25 39 58.5 65.5t62.5 26.5q22 0 47 -24t25 -54t-27 -76q-21 -34 -53.5 -64t-60.5 -30zM1051 1747q-26 0 -53 24.5t-27 55.5q0 29 28 76
q23 38 57 65t64 27q22 0 46 -24t24 -54q0 -35 -27 -76q-18 -33 -51 -63.5t-61 -30.5z" />
    <glyph glyph-name="Igrave" unicode="&#xcc;" horiz-adv-x="874" 
d="M-201 0q-22 0 -22 18q0 13 40 58t72 69q25 17 45 17h213q24 18 45 39.5t33.5 35.5t29 40t21 33.5t20 35.5t15.5 29q69 124 196.5 394.5t225.5 440.5q47 83 99 134t159 96l88 37h-356q-51 0 -89.5 -22t-76.5 -66l-18 10q10 14 33.5 46.5t32 44.5t26 34.5t27 34t22.5 25.5
t25 24q37 30 124 30h592q23 0 23 -18q0 -14 -38 -59.5t-67 -67.5q-22 -16 -49 -16h-141q-22 -11 -42.5 -27t-33.5 -27.5t-31 -37t-24 -34.5t-25 -41.5t-22 -37.5q-98 -168 -223.5 -440.5t-198.5 -407.5q-31 -55 -56 -86t-82 -70.5t-151 -81.5l-53 -24h315q51 0 89.5 22
t76.5 66l19 -10q-10 -14 -33.5 -46.5t-32 -44.5t-26 -34.5t-27 -34t-22.5 -25.5t-25 -24q-38 -31 -125 -31h-617zM672 1835q-44 15 -53 42t-9 117v21q0 33 19 33q20 0 73 -43l351 -279l-13 -16z" />
    <glyph glyph-name="Iacute" unicode="&#xcd;" horiz-adv-x="874" 
d="M-201 0q-22 0 -22 18q0 13 40 58t72 69q25 17 45 17h213q24 18 45 39.5t33.5 35.5t29 40t21 33.5t20 35.5t15.5 29q69 124 196.5 394.5t225.5 440.5q47 83 99 134t159 96l88 37h-356q-51 0 -89.5 -22t-76.5 -66l-18 10q10 14 33.5 46.5t32 44.5t26 34.5t27 34t22.5 25.5
t25 24q37 30 124 30h592q23 0 23 -18q0 -14 -38 -59.5t-67 -67.5q-22 -16 -49 -16h-141q-22 -11 -42.5 -27t-33.5 -27.5t-31 -37t-24 -34.5t-25 -41.5t-22 -37.5q-98 -168 -223.5 -440.5t-198.5 -407.5q-31 -55 -56 -86t-82 -70.5t-151 -81.5l-53 -24h315q51 0 89.5 22
t76.5 66l19 -10q-10 -14 -33.5 -46.5t-32 -44.5t-26 -34.5t-27 -34t-22.5 -25.5t-25 -24q-38 -31 -125 -31h-617zM1032 1835l-368 -125l-13 16l350 279q53 43 74 43q19 0 19 -33q0 -109 -7 -131q-9 -31 -47 -46q-4 -1 -8 -3z" />
    <glyph glyph-name="Icircumflex" unicode="&#xce;" horiz-adv-x="874" 
d="M-201 0q-22 0 -22 18q0 13 40 58t72 69q25 17 45 17h213q24 18 45 39.5t33.5 35.5t29 40t21 33.5t20 35.5t15.5 29q69 124 196.5 394.5t225.5 440.5q47 83 99 134t159 96l88 37h-356q-51 0 -89.5 -22t-76.5 -66l-18 10q10 14 33.5 46.5t32 44.5t26 34.5t27 34t22.5 25.5
t25 24q37 30 124 30h592q23 0 23 -18q0 -14 -38 -59.5t-67 -67.5q-22 -16 -49 -16h-141q-22 -11 -42.5 -27t-33.5 -27.5t-31 -37t-24 -34.5t-25 -41.5t-22 -37.5q-98 -168 -223.5 -440.5t-198.5 -407.5q-31 -55 -56 -86t-82 -70.5t-151 -81.5l-53 -24h315q51 0 89.5 22
t76.5 66l19 -10q-10 -14 -33.5 -46.5t-32 -44.5t-26 -34.5t-27 -34t-22.5 -25.5t-25 -24q-38 -31 -125 -31h-617zM918 1696q-34 0 -50 24q-62 85 -104 127q-115 -54 -236 -157l-20 20q262 205 360 205q22 0 87 -69.5t110 -137.5l-10 -12h-137z" />
    <glyph glyph-name="Idieresis" unicode="&#xcf;" horiz-adv-x="874" 
d="M-201 0q-22 0 -22 18q0 13 40 58t72 69q25 17 45 17h213q24 18 45 39.5t33.5 35.5t29 40t21 33.5t20 35.5t15.5 29q69 124 196.5 394.5t225.5 440.5q47 83 99 134t159 96l88 37h-356q-51 0 -89.5 -22t-76.5 -66l-18 10q10 14 33.5 46.5t32 44.5t26 34.5t27 34t22.5 25.5
t25 24q37 30 124 30h592q23 0 23 -18q0 -14 -38 -59.5t-67 -67.5q-22 -16 -49 -16h-141q-22 -11 -42.5 -27t-33.5 -27.5t-31 -37t-24 -34.5t-25 -41.5t-22 -37.5q-98 -168 -223.5 -440.5t-198.5 -407.5q-31 -55 -56 -86t-82 -70.5t-151 -81.5l-53 -24h315q51 0 89.5 22
t76.5 66l19 -10q-10 -14 -33.5 -46.5t-32 -44.5t-26 -34.5t-27 -34t-22.5 -25.5t-25 -24q-38 -31 -125 -31h-617zM946 1747q-26 0 -52 24.5t-26 55.5q0 30 27 76q25 39 58.5 65.5t62.5 26.5q22 0 46.5 -24t24.5 -54q0 -32 -26 -76q-21 -34 -54 -64t-61 -30zM604 1747
q-26 0 -53 24.5t-27 55.5q0 27 29 76q23 38 57 65t64 27q22 0 45.5 -24t23.5 -54q0 -37 -26 -76q-18 -32 -51.5 -63t-61.5 -31z" />
    <glyph glyph-name="Eth" unicode="&#xd0;" horiz-adv-x="1878" 
d="M637 -14q-302 0 -496 24q-22 2 -22 15q0 18 102 102l41 33q25 19 46 44.5t32 43t29 50t26 44.5q88 155 224 435t229 440q46 82 93.5 133.5t127.5 89.5l154 71q-102 27 -211 27q-282 0 -494 -147l-18 24q168 117 334.5 178.5t369.5 61.5q143 0 275 -54t224.5 -141.5
t148 -201t55.5 -230.5q0 -130 -39.5 -253.5t-109.5 -226t-165.5 -192t-209 -157t-237.5 -116t-253.5 -73t-255.5 -24.5zM1311 829v-28h-469q-120 -251 -193 -377q-41 -72 -87 -119t-116 -84l-96 -51q254 -27 611 -27q184 -1 328.5 53.5t237 153t140 232.5t47.5 295
q0 235 -126 397t-331 227q-13 -9 -24.5 -19.5t-23.5 -23.5t-21 -22.5t-20.5 -26.5t-17.5 -25t-18 -27.5t-15.5 -25.5t-16.5 -28t-15 -25q-86 -148 -229 -449h455z" />
    <glyph glyph-name="Ntilde" unicode="&#xd1;" horiz-adv-x="1945" 
d="M1417 -16q-23 0 -28 49l-164 1411q-169 -394 -408 -780q-59 -94 -103 -159t-101 -141.5t-106 -127.5t-110.5 -102.5t-122 -81t-133.5 -48.5t-151 -20q-79 0 -148 13t-69 38q0 43 49 83t96 40q54 0 187 -14t214 -19q199 129 465 555q248 396 416 803l-594 -13
q-50 0 -77.5 -17.5t-67.5 -63.5l-19 10q10 14 33.5 46.5t32 44.5t26 34.5t27 34t22.5 25.5t25 24q37 30 103 30h641q25 0 31.5 -8.5t9.5 -38.5l159 -1288l381 787q47 93 80 153.5t75 126t79.5 105.5t86.5 78t103 58t121.5 32t149.5 12q159 0 159 -39q0 -44 -45.5 -88.5
t-91.5 -44.5q-16 0 -33 1t-31.5 2.5t-38 5t-37.5 5.5t-45.5 8t-47 9.5t-57.5 11.5t-62 12q-67 -37 -136.5 -127t-158.5 -268q-293 -590 -461 -955q-71 -154 -86 -176q-19 -28 -39 -28zM1589 1790q64 108 119 152.5t129 44.5q38 0 152.5 -30t156.5 -30q49 0 84 24t66 74
l14 -10q-45 -91 -108.5 -144.5t-139.5 -53.5q-47 0 -159 27.5t-160 27.5q-45 0 -77 -22t-62 -70z" />
    <glyph glyph-name="Ograve" unicode="&#xd2;" horiz-adv-x="1808" 
d="M848 -16q-158 0 -285 55t-208.5 149.5t-125 219t-43.5 266.5q0 149 58.5 298t159 269.5t226.5 215t270 146.5t280 52q150 0 272 -53t200.5 -146.5t120 -219.5t39.5 -273q-2 -150 -58.5 -298.5t-152.5 -269t-217 -214t-261 -145.5t-275 -52zM1024 102q143 0 261.5 60
t193.5 158.5t116 221t41 251.5q1 179 -49 325t-136 239t-197 143t-234 50q-143 0 -268.5 -63.5t-209.5 -166.5t-132 -234t-48 -267q0 -331 179.5 -524t482.5 -193zM1374 1835q-44 15 -52.5 41t-8.5 114v25q0 33 18 33q21 0 74 -43l350 -279l-12 -16z" />
    <glyph glyph-name="Oacute" unicode="&#xd3;" horiz-adv-x="1808" 
d="M848 -16q-158 0 -285 55t-208.5 149.5t-125 219t-43.5 266.5q0 149 58.5 298t159 269.5t226.5 215t270 146.5t280 52q150 0 272 -53t200.5 -146.5t120 -219.5t39.5 -273q-2 -150 -58.5 -298.5t-152.5 -269t-217 -214t-261 -145.5t-275 -52zM1024 102q143 0 261.5 60
t193.5 158.5t116 221t41 251.5q1 179 -49 325t-136 239t-197 143t-234 50q-143 0 -268.5 -63.5t-209.5 -166.5t-132 -234t-48 -267q0 -331 179.5 -524t482.5 -193zM1735 1835l-369 -125l-12 16l350 279q53 43 74 43q18 0 18 -33v-25q0 -87 -8.5 -113.5t-52.5 -41.5z" />
    <glyph glyph-name="Ocircumflex" unicode="&#xd4;" horiz-adv-x="1808" 
d="M848 -16q-158 0 -285 55t-208.5 149.5t-125 219t-43.5 266.5q0 149 58.5 298t159 269.5t226.5 215t270 146.5t280 52q150 0 272 -53t200.5 -146.5t120 -219.5t39.5 -273q-2 -150 -58.5 -298.5t-152.5 -269t-217 -214t-261 -145.5t-275 -52zM1024 102q143 0 261.5 60
t193.5 158.5t116 221t41 251.5q1 179 -49 325t-136 239t-197 143t-234 50q-143 0 -268.5 -63.5t-209.5 -166.5t-132 -234t-48 -267q0 -331 179.5 -524t482.5 -193zM1620 1696q-33 0 -49 24q-59 81 -105 127q-112 -53 -235 -157l-21 20q262 205 361 205q22 0 86.5 -69.5
t109.5 -137.5l-10 -12h-137z" />
    <glyph glyph-name="Otilde" unicode="&#xd5;" horiz-adv-x="1808" 
d="M848 -16q-158 0 -285 55t-208.5 149.5t-125 219t-43.5 266.5q0 149 58.5 298t159 269.5t226.5 215t270 146.5t280 52q150 0 272 -53t200.5 -146.5t120 -219.5t39.5 -273q-2 -150 -58.5 -298.5t-152.5 -269t-217 -214t-261 -145.5t-275 -52zM1024 102q143 0 261.5 60
t193.5 158.5t116 221t41 251.5q1 179 -49 325t-136 239t-197 143t-234 50q-143 0 -268.5 -63.5t-209.5 -166.5t-132 -234t-48 -267q0 -331 179.5 -524t482.5 -193zM1178 1790q64 108 118.5 152.5t128.5 44.5q39 0 154 -30t156 -30q49 0 83.5 24t65.5 74l14 -10
q-45 -91 -108 -144.5t-139 -53.5q-47 0 -159.5 27.5t-160.5 27.5q-45 0 -77 -22t-62 -70z" />
    <glyph glyph-name="Odieresis" unicode="&#xd6;" horiz-adv-x="1808" 
d="M848 -16q-158 0 -285 55t-208.5 149.5t-125 219t-43.5 266.5q0 149 58.5 298t159 269.5t226.5 215t270 146.5t280 52q150 0 272 -53t200.5 -146.5t120 -219.5t39.5 -273q-2 -150 -58.5 -298.5t-152.5 -269t-217 -214t-261 -145.5t-275 -52zM1024 102q143 0 261.5 60
t193.5 158.5t116 221t41 251.5q1 179 -49 325t-136 239t-197 143t-234 50q-143 0 -268.5 -63.5t-209.5 -166.5t-132 -234t-48 -267q0 -331 179.5 -524t482.5 -193zM1649 1747q-26 0 -52 24.5t-26 55.5q0 32 26 76q25 39 58.5 65.5t62.5 26.5q22 0 47 -24t25 -54t-27 -76
q-21 -34 -53.5 -64t-60.5 -30zM1307 1747q-26 0 -53 24.5t-27 55.5q0 29 28 76q23 38 57 65t64 27q22 0 46 -24t24 -54q0 -35 -27 -76q-18 -33 -51 -63.5t-61 -30.5z" />
    <glyph glyph-name="multiply" unicode="&#xd7;" horiz-adv-x="669" 
d="M549 416l-19 -13l-145 230l-311 -230l-15 17l314 231l-144 226l21 12l141 -225l305 225l15 -17l-308 -227z" />
    <glyph glyph-name="Oslash" unicode="&#xd8;" horiz-adv-x="1808" 
d="M848 -16q-256 0 -426 141l-221 -254l-29 25l221 254q-101 94 -154 230t-53 294q0 149 58.5 298t159 269.5t226.5 215t270 146.5t280 52q247 0 407 -135l297 340l29 -25l-297 -342q98 -94 148.5 -230.5t47.5 -299.5q-2 -150 -58.5 -298.5t-152.5 -269t-217 -214
t-261 -145.5t-275 -52zM1024 102q143 0 261.5 60t193.5 158.5t116 221t41 251.5q3 329 -163 536l-916 -1050q180 -177 467 -177zM362 819q0 -322 168 -512l918 1053q-85 93 -196 141.5t-232 48.5q-143 0 -268.5 -63.5t-209.5 -166.5t-132 -234t-48 -267z" />
    <glyph glyph-name="Ugrave" unicode="&#xd9;" horiz-adv-x="1738" 
d="M463 -16q-120 0 -196.5 86t-76.5 209q0 95 43.5 212.5t109 224.5t141.5 222.5t141.5 210.5t109 185.5t43.5 148.5q0 33 -20 52t-53 19q-42 0 -111.5 -42t-140.5 -111l-25 31q250 223 414 223q85 0 129.5 -46.5t44.5 -103.5q0 -80 -61.5 -202.5t-149 -252t-175 -260.5
t-149 -262t-61.5 -223q0 -57 16.5 -98t44 -62t56.5 -30t61 -9q265 0 803 693l461 809q16 30 49 30h137q25 0 32.5 -15t-5.5 -38q-433 -746 -590 -1067q-99 -198 -99 -278q0 -51 25.5 -73t63.5 -22q66 0 151 80l19 -20q-238 -221 -365 -221q-63 0 -105 51.5t-42 122.5
q0 128 104 336q35 68 78 147q-184 -230 -347.5 -380t-285 -213.5t-219.5 -63.5zM1298 1835q-44 15 -52.5 41t-8.5 114v25q0 33 18 33q21 0 74 -43l350 -279l-12 -16z" />
    <glyph glyph-name="Uacute" unicode="&#xda;" horiz-adv-x="1738" 
d="M463 -16q-120 0 -196.5 86t-76.5 209q0 95 43.5 212.5t109 224.5t141.5 222.5t141.5 210.5t109 185.5t43.5 148.5q0 33 -20 52t-53 19q-42 0 -111.5 -42t-140.5 -111l-25 31q250 223 414 223q85 0 129.5 -46.5t44.5 -103.5q0 -80 -61.5 -202.5t-149 -252t-175 -260.5
t-149 -262t-61.5 -223q0 -57 16.5 -98t44 -62t56.5 -30t61 -9q265 0 803 693l461 809q16 30 49 30h137q25 0 32.5 -15t-5.5 -38q-433 -746 -590 -1067q-99 -198 -99 -278q0 -51 25.5 -73t63.5 -22q66 0 151 80l19 -20q-238 -221 -365 -221q-63 0 -105 51.5t-42 122.5
q0 128 104 336q35 68 78 147q-184 -230 -347.5 -380t-285 -213.5t-219.5 -63.5zM1659 1835l-369 -125l-12 16l350 279q53 43 74 43q18 0 18 -33v-25q0 -87 -8.5 -113.5t-52.5 -41.5z" />
    <glyph glyph-name="Ucircumflex" unicode="&#xdb;" horiz-adv-x="1738" 
d="M463 -16q-120 0 -196.5 86t-76.5 209q0 95 43.5 212.5t109 224.5t141.5 222.5t141.5 210.5t109 185.5t43.5 148.5q0 33 -20 52t-53 19q-42 0 -111.5 -42t-140.5 -111l-25 31q250 223 414 223q85 0 129.5 -46.5t44.5 -103.5q0 -80 -61.5 -202.5t-149 -252t-175 -260.5
t-149 -262t-61.5 -223q0 -57 16.5 -98t44 -62t56.5 -30t61 -9q265 0 803 693l461 809q16 30 49 30h137q25 0 32.5 -15t-5.5 -38q-433 -746 -590 -1067q-99 -198 -99 -278q0 -51 25.5 -73t63.5 -22q66 0 151 80l19 -20q-238 -221 -365 -221q-63 0 -105 51.5t-42 122.5
q0 128 104 336q35 68 78 147q-184 -230 -347.5 -380t-285 -213.5t-219.5 -63.5zM1544 1696q-33 0 -49 24q-62 85 -104 127q-115 -54 -236 -157l-20 20q262 205 360 205q22 0 87 -69.5t110 -137.5l-11 -12h-137z" />
    <glyph glyph-name="Udieresis" unicode="&#xdc;" horiz-adv-x="1738" 
d="M463 -16q-120 0 -196.5 86t-76.5 209q0 95 43.5 212.5t109 224.5t141.5 222.5t141.5 210.5t109 185.5t43.5 148.5q0 33 -20 52t-53 19q-42 0 -111.5 -42t-140.5 -111l-25 31q250 223 414 223q85 0 129.5 -46.5t44.5 -103.5q0 -80 -61.5 -202.5t-149 -252t-175 -260.5
t-149 -262t-61.5 -223q0 -57 16.5 -98t44 -62t56.5 -30t61 -9q265 0 803 693l461 809q16 30 49 30h137q25 0 32.5 -15t-5.5 -38q-433 -746 -590 -1067q-99 -198 -99 -278q0 -51 25.5 -73t63.5 -22q66 0 151 80l19 -20q-238 -221 -365 -221q-63 0 -105 51.5t-42 122.5
q0 128 104 336q35 68 78 147q-184 -230 -347.5 -380t-285 -213.5t-219.5 -63.5zM1573 1747q-26 0 -52 24.5t-26 55.5q0 30 27 76q25 39 58 65.5t62 26.5q22 0 47 -24t25 -54q0 -32 -26 -76q-21 -34 -54 -64t-61 -30zM1231 1747q-26 0 -53 24.5t-27 55.5q0 27 29 76
q23 38 56.5 65t63.5 27q22 0 46 -24t24 -54q0 -35 -27 -76q-18 -33 -51 -63.5t-61 -30.5z" />
    <glyph glyph-name="Yacute" unicode="&#xdd;" horiz-adv-x="1511" 
d="M578 0q-23 0 -23 18q0 12 56.5 65.5t88.5 76.5q15 16 27 31t23 30.5t17.5 25t16 26t12.5 22t13 24.5t12 23q51 104 93 221t51 187q15 143 -72 479q-12 49 -21.5 80.5t-24.5 66t-32 54t-41.5 32.5t-54.5 13l-189 -5q-51 -1 -78.5 -18.5t-66.5 -62.5l-18 10q13 17 40 55
t37.5 52t28.5 37.5t31.5 38t27.5 26.5q37 30 103 30h553q32 0 12 -28l-70 -101q-5 -7 -11 -12.5t-10 -8t-12 -4t-11 -1.5h-13h-12l-221 -6q81 -20 145 -67t88 -126q26 -80 55.5 -230.5t34.5 -297.5l660 944q38 55 64.5 78.5t49.5 21.5q28 -1 46 -31t18 -69q0 -80 -39 -121
l-797 -870q-16 -45 -34 -102.5t-33 -99.5t-33 -83q-35 -78 -73.5 -122t-108.5 -81l-86 -45q275 0 356 4q23 2 23 -12t-39.5 -75t-63.5 -79q-16 -14 -59 -14h-436zM1604 1835l-369 -125l-12 16l350 279q53 43 74 43q18 0 18 -33v-25q0 -87 -8.5 -113.5t-52.5 -41.5z" />
    <glyph glyph-name="Thorn" unicode="&#xde;" horiz-adv-x="1490" 
d="M80 0q-23 0 -23 18q0 12 57 65.5t89 76.5q56 54 131 182q87 152 230.5 471.5t217.5 456.5q-253 -17 -442 -140l-18 25q136 92 257 146.5t263 76.5q40 69 87 114.5t124 80.5l180 82l10 -23q-40 -27 -75 -66t-50.5 -63.5t-48.5 -81.5l-18 -35q124 -6 225 -46.5t164 -103
t97 -138t34 -154.5q0 -102 -34.5 -196.5t-92 -166.5t-131.5 -131.5t-154 -98t-158.5 -59t-146.5 -20.5q-194 0 -319 70q-57 -72 -150 -121l-113 -59l322 22q22 2 22 -12q0 -15 -39.5 -77.5t-62.5 -80.5q-16 -14 -59 -14h-375zM616 475q75 -57 173 -92t194 -35q177 0 290 128
t113 317q0 100 -34 183t-92 139.5t-128 92.5t-149 52q-56 -111 -175.5 -381t-191.5 -404z" />
    <glyph glyph-name="germandbls" unicode="&#xdf;" horiz-adv-x="1259" 
d="M-627 -508q-20 0 -32.5 1.5t-24.5 11t-12 26.5q0 45 56 96t108 51q11 0 78.5 -6t121.5 -4q27 2 49 7t45 20t40.5 30t41.5 49t42.5 64t49.5 88t56 108t67 136l394 805h-199l14 29h199l18 38q144 295 362.5 453t455.5 158q54 0 108 -12t103.5 -36.5t80.5 -68.5t31 -100
q0 -65 -34.5 -117t-90 -87.5t-122.5 -66t-134.5 -59t-123 -59.5t-90 -75t-34.5 -98q0 -44 22 -95t53.5 -100t62 -99t51 -108t18.5 -112q-3 -73 -58 -143.5t-135 -120t-170.5 -80t-164.5 -30.5q-82 0 -128 31t-46 77q0 88 96 223l16 -10q-22 -43 -22 -94q0 -60 62 -103.5
t155 -43.5q97 0 164 43.5t67 132.5q0 49 -22.5 101.5t-54 101t-63.5 99t-54.5 113.5t-22.5 127q0 53 32.5 100t84.5 84.5t115 74.5t126 77.5t115 85t84.5 106t32.5 132.5q0 84 -51 129t-129 45q-75 0 -147 -39.5t-135 -112t-114.5 -153.5t-103.5 -185l-399 -798
q-71 -143 -187.5 -292t-247.5 -270t-272.5 -198.5t-253.5 -77.5z" />
    <glyph glyph-name="agrave" unicode="&#xe0;" horiz-adv-x="1239" 
d="M797 -16q-66 0 -95.5 40t-29.5 89q0 171 194 505q-529 -642 -708 -634q-66 3 -99.5 53.5t-31.5 134.5q2 143 78 298.5t194.5 281t276 207t311.5 81.5q63 0 155.5 -12t161.5 -33l35 -10q46 -13 21 -51q-141 -208 -250 -418q-61 -124 -90 -200.5t-29 -141.5q0 -59 53 -59
q63 0 180 110l19 -20q-238 -221 -346 -221zM973 1282q-35 12 -57.5 49t-22.5 84q0 39 13.5 73t39.5 34q20 0 47 -27l314 -305l-11 -21zM231 229q0 -114 60 -114q70 0 256.5 188t453.5 531l27 40q-82 33 -176.5 57.5t-151.5 24.5q-82 0 -159 -56t-131.5 -141t-96 -185
t-62 -190.5t-20.5 -154.5z" />
    <glyph glyph-name="aacute" unicode="&#xe1;" horiz-adv-x="1239" 
d="M797 -16q-66 0 -95.5 40t-29.5 89q0 171 194 505q-529 -642 -708 -634q-66 3 -99.5 53.5t-31.5 134.5q2 143 78 298.5t194.5 281t276 207t311.5 81.5q63 0 155.5 -12t161.5 -33l35 -10q46 -13 21 -51q-141 -208 -250 -418q-61 -124 -90 -200.5t-29 -141.5q0 -59 53 -59
q63 0 180 110l19 -20q-238 -221 -346 -221zM1288 1282l-323 -113l-11 21l314 305q27 27 47 27q26 0 39.5 -34t13.5 -73q0 -47 -22.5 -84t-57.5 -49zM231 229q0 -114 60 -114q70 0 256.5 188t453.5 531l27 40q-82 33 -176.5 57.5t-151.5 24.5q-82 0 -159 -56t-131.5 -141
t-96 -185t-62 -190.5t-20.5 -154.5z" />
    <glyph glyph-name="acircumflex" unicode="&#xe2;" horiz-adv-x="1239" 
d="M797 -16q-66 0 -95.5 40t-29.5 89q0 171 194 505q-529 -642 -708 -634q-66 3 -99.5 53.5t-31.5 134.5q2 143 78 298.5t194.5 281t276 207t311.5 81.5q63 0 155.5 -12t161.5 -33l35 -10q46 -13 21 -51q-141 -208 -250 -418q-61 -124 -90 -200.5t-29 -141.5q0 -59 53 -59
q63 0 180 110l19 -20q-238 -221 -346 -221zM1198 1165q-32 0 -49 25q-59 81 -105 127q-110 -52 -235 -158l-21 21q261 204 361 204q22 0 87 -69t110 -137l-11 -13h-137zM231 229q0 -114 60 -114q70 0 256.5 188t453.5 531l27 40q-82 33 -176.5 57.5t-151.5 24.5
q-82 0 -159 -56t-131.5 -141t-96 -185t-62 -190.5t-20.5 -154.5z" />
    <glyph glyph-name="atilde" unicode="&#xe3;" horiz-adv-x="1239" 
d="M797 -16q-66 0 -95.5 40t-29.5 89q0 171 194 505q-529 -642 -708 -634q-66 3 -99.5 53.5t-31.5 134.5q2 143 78 298.5t194.5 281t276 207t311.5 81.5q63 0 155.5 -12t161.5 -33l35 -10q46 -13 21 -51q-141 -208 -250 -418q-61 -124 -90 -200.5t-29 -141.5q0 -59 53 -59
q63 0 180 110l19 -20q-238 -221 -346 -221zM715 1176q64 107 119 151.5t129 44.5q39 0 153 -29.5t156 -29.5q49 0 83.5 24t65.5 74l15 -10q-45 -91 -108.5 -145t-139.5 -54q-47 0 -159.5 27.5t-160.5 27.5q-45 0 -77 -22t-62 -70zM231 229q0 -114 60 -114q70 0 256.5 188
t453.5 531l27 40q-82 33 -176.5 57.5t-151.5 24.5q-82 0 -159 -56t-131.5 -141t-96 -185t-62 -190.5t-20.5 -154.5z" />
    <glyph glyph-name="adieresis" unicode="&#xe4;" horiz-adv-x="1239" 
d="M797 -16q-66 0 -95.5 40t-29.5 89q0 171 194 505q-529 -642 -708 -634q-66 3 -99.5 53.5t-31.5 134.5q2 143 78 298.5t194.5 281t276 207t311.5 81.5q63 0 155.5 -12t161.5 -33l35 -10q46 -13 21 -51q-141 -208 -250 -418q-61 -124 -90 -200.5t-29 -141.5q0 -59 53 -59
q63 0 180 110l19 -20q-238 -221 -346 -221zM1186 1133q-26 0 -52 24t-26 55q0 30 27 76q25 39 58 65.5t62 26.5q23 0 47.5 -23.5t24.5 -53.5t-27 -76q-21 -34 -53.5 -64t-60.5 -30zM844 1133q-27 0 -53.5 24t-26.5 55q0 27 29 76q23 38 56.5 65t63.5 27q22 0 46 -23.5
t24 -53.5q0 -35 -27 -76q-18 -33 -51 -63.5t-61 -30.5zM231 229q0 -114 60 -114q70 0 256.5 188t453.5 531l27 40q-82 33 -176.5 57.5t-151.5 24.5q-82 0 -159 -56t-131.5 -141t-96 -185t-62 -190.5t-20.5 -154.5z" />
    <glyph glyph-name="aring" unicode="&#xe5;" horiz-adv-x="1239" 
d="M797 -16q-66 0 -95.5 40t-29.5 89q0 171 194 505q-529 -642 -708 -634q-66 3 -99.5 53.5t-31.5 134.5q2 143 78 298.5t194.5 281t276 207t311.5 81.5q63 0 155.5 -12t161.5 -33l35 -10q46 -13 21 -51q-141 -208 -250 -418q-61 -124 -90 -200.5t-29 -141.5q0 -59 53 -59
q63 0 180 110l19 -20q-238 -221 -346 -221zM1053 1139q-90 0 -144.5 56.5t-54.5 141.5q0 83 58 141t141 58q94 0 146 -56t52 -143q0 -83 -57.5 -140.5t-140.5 -57.5zM1053 1167q72 0 119 47.5t47 122.5t-47 122.5t-119 47.5t-119 -47.5t-47 -122.5t47 -122.5t119 -47.5z
M231 229q0 -114 60 -114q70 0 256.5 188t453.5 531l27 40q-82 33 -176.5 57.5t-151.5 24.5q-82 0 -159 -56t-131.5 -141t-96 -185t-62 -190.5t-20.5 -154.5z" />
    <glyph glyph-name="ae" unicode="&#xe6;" horiz-adv-x="1552" 
d="M170 -16q-75 0 -115.5 60.5t-38.5 148.5q2 141 83 295t204 274.5t281.5 199t306.5 78.5q46 0 128.5 -17t182.5 -58l-26 -21q163 94 301 94q77 0 117 -34.5t40 -92.5q0 -54 -31 -105.5t-120 -127t-224.5 -167.5t-369.5 -239q13 -72 64 -111.5t128 -39.5q67 0 133.5 28
t151.5 101l18 -19q-127 -112 -254 -178.5t-208 -66.5q-65 -1 -115.5 22.5t-78 61t-41 77.5t-13.5 80q0 107 55 230q-162 -199 -313.5 -336t-245.5 -137zM225 262q0 -147 78 -147q65 0 213 149.5t297 349.5l4 -4q89 129 215 234q-204 112 -336 112q-79 1 -154 -46.5
t-131 -123.5t-99 -168t-65 -185.5t-22 -170.5zM885 311v-8q217 136 336.5 233t162.5 164.5t43 137.5q0 50 -31 82t-89 32q-78 0 -158 -62.5t-138.5 -156.5t-94 -208.5t-31.5 -213.5z" />
    <glyph glyph-name="ccedilla" unicode="&#xe7;" horiz-adv-x="903" 
d="M276 -14q-37 0 -67 6l-109 -92q63 9 109.5 1.5t76.5 -28.5t45 -47t15 -53q0 -101 -96.5 -181.5t-216.5 -80.5q-68 0 -111 25.5t-43 55.5q0 23 27.5 47.5t54.5 24.5t56 -23t63 -46t72 -23q48 0 78 31t30 73q0 46 -47.5 80.5t-138.5 34.5q-58 0 -121 -14l-10 12l239 211
q-78 27 -115.5 92t-37.5 135q0 109 47 226.5t129.5 220t186 185.5t225 131t237.5 48q67 0 128.5 -13.5t61.5 -39.5q0 -56 -47.5 -101.5t-97.5 -45.5q-47 0 -121.5 24t-206.5 76q-80 -27 -157.5 -127t-125 -237.5t-42.5 -262.5q3 -90 53 -140t137 -50q67 0 133.5 28
t151.5 101l18 -19q-127 -112 -254.5 -178.5t-208.5 -66.5z" />
    <glyph glyph-name="egrave" unicode="&#xe8;" horiz-adv-x="901" 
d="M270 -14q-65 -1 -115.5 22.5t-77.5 61t-40.5 77.5t-13.5 80q0 87 36.5 184t97 186t142 170.5t169 141t181.5 94.5t176 35q77 0 117.5 -34.5t40.5 -92.5q0 -54 -31 -105.5t-120 -127t-224.5 -167.5t-369.5 -239q13 -72 64 -111.5t128 -39.5q67 0 133.5 28t151.5 101
l18 -19q-127 -112 -254.5 -178.5t-208.5 -66.5zM770 1282q-35 12 -57.5 49t-22.5 84q0 39 13.5 73t39.5 34q21 0 48 -27l313 -305l-10 -21zM233 311v-8q164 103 270.5 181t166.5 141t83 112t23 101q0 50 -31.5 82t-89.5 32q-78 0 -158 -62.5t-138.5 -156.5t-94 -208.5
t-31.5 -213.5z" />
    <glyph glyph-name="eacute" unicode="&#xe9;" horiz-adv-x="901" 
d="M270 -14q-65 -1 -115.5 22.5t-77.5 61t-40.5 77.5t-13.5 80q0 87 36.5 184t97 186t142 170.5t169 141t181.5 94.5t176 35q77 0 117.5 -34.5t40.5 -92.5q0 -54 -31 -105.5t-120 -127t-224.5 -167.5t-369.5 -239q13 -72 64 -111.5t128 -39.5q67 0 133.5 28t151.5 101
l18 -19q-127 -112 -254.5 -178.5t-208.5 -66.5zM1085 1282l-323 -113l-10 21l313 305q27 27 47 27q26 0 39.5 -34t13.5 -73q0 -47 -22.5 -84t-57.5 -49zM233 311v-8q164 103 270.5 181t166.5 141t83 112t23 101q0 50 -31.5 82t-89.5 32q-78 0 -158 -62.5t-138.5 -156.5
t-94 -208.5t-31.5 -213.5z" />
    <glyph glyph-name="ecircumflex" unicode="&#xea;" horiz-adv-x="901" 
d="M270 -14q-65 -1 -115.5 22.5t-77.5 61t-40.5 77.5t-13.5 80q0 87 36.5 184t97 186t142 170.5t169 141t181.5 94.5t176 35q77 0 117.5 -34.5t40.5 -92.5q0 -54 -31 -105.5t-120 -127t-224.5 -167.5t-369.5 -239q13 -72 64 -111.5t128 -39.5q67 0 133.5 28t151.5 101
l18 -19q-127 -112 -254.5 -178.5t-208.5 -66.5zM995 1165q-32 0 -49 25q-62 85 -104 127q-112 -53 -236 -158l-20 21q261 204 360 204q22 0 87 -69t110 -137l-10 -13h-138zM233 311v-8q164 103 270.5 181t166.5 141t83 112t23 101q0 50 -31.5 82t-89.5 32q-78 0 -158 -62.5
t-138.5 -156.5t-94 -208.5t-31.5 -213.5z" />
    <glyph glyph-name="edieresis" unicode="&#xeb;" horiz-adv-x="901" 
d="M270 -14q-65 -1 -115.5 22.5t-77.5 61t-40.5 77.5t-13.5 80q0 87 36.5 184t97 186t142 170.5t169 141t181.5 94.5t176 35q77 0 117.5 -34.5t40.5 -92.5q0 -54 -31 -105.5t-120 -127t-224.5 -167.5t-369.5 -239q13 -72 64 -111.5t128 -39.5q67 0 133.5 28t151.5 101
l18 -19q-127 -112 -254.5 -178.5t-208.5 -66.5zM983 1133q-26 0 -52 24t-26 55q0 30 27 76q25 39 58.5 65.5t62.5 26.5q22 0 46.5 -23.5t24.5 -53.5q0 -32 -26 -76q-21 -34 -54 -64t-61 -30zM641 1133q-27 0 -53.5 24t-26.5 55q0 27 29 76q23 38 57 65t64 27
q22 0 45.5 -23.5t23.5 -53.5q0 -37 -26 -76q-18 -32 -51.5 -63t-61.5 -31zM233 311v-8q164 103 270.5 181t166.5 141t83 112t23 101q0 50 -31.5 82t-89.5 32q-78 0 -158 -62.5t-138.5 -156.5t-94 -208.5t-31.5 -213.5z" />
    <glyph glyph-name="igrave" unicode="&#xec;" horiz-adv-x="612" 
d="M141 -16q-59 0 -90 42t-31 95q0 69 58.5 188t128 224t128 205t58.5 136q0 46 -45 46q-64 0 -194 -121l-19 20q238 221 365 221q56 0 83 -31.5t27 -74.5q0 -63 -54.5 -173.5t-120.5 -210t-120.5 -197.5t-54.5 -140q0 -68 68 -68q66 0 151 80l19 -20q-238 -221 -357 -221z
M539 1282q-35 12 -57.5 49t-22.5 84q0 39 13.5 73t39.5 34q20 0 47 -27l313 -305l-10 -21z" />
    <glyph glyph-name="iacute" unicode="&#xed;" horiz-adv-x="612" 
d="M141 -16q-59 0 -90 42t-31 95q0 69 58.5 188t128 224t128 205t58.5 136q0 46 -45 46q-64 0 -194 -121l-19 20q238 221 365 221q56 0 83 -31.5t27 -74.5q0 -63 -54.5 -173.5t-120.5 -210t-120.5 -197.5t-54.5 -140q0 -68 68 -68q66 0 151 80l19 -20q-238 -221 -357 -221z
M854 1282l-324 -113l-10 21l314 305q27 27 47 27q26 0 39.5 -34t13.5 -73q0 -47 -22.5 -84t-57.5 -49z" />
    <glyph glyph-name="icircumflex" unicode="&#xee;" horiz-adv-x="612" 
d="M141 -16q-59 0 -90 42t-31 95q0 69 58.5 188t128 224t128 205t58.5 136q0 46 -45 46q-64 0 -194 -121l-19 20q238 221 365 221q56 0 83 -31.5t27 -74.5q0 -63 -54.5 -173.5t-120.5 -210t-120.5 -197.5t-54.5 -140q0 -68 68 -68q66 0 151 80l19 -20q-238 -221 -357 -221z
M764 1165q-32 0 -49 25q-59 81 -105 127q-110 -52 -235 -158l-21 21q261 204 361 204q22 0 86.5 -69t109.5 -137l-10 -13h-137z" />
    <glyph glyph-name="idieresis" unicode="&#xef;" horiz-adv-x="612" 
d="M141 -16q-59 0 -90 42t-31 95q0 69 58.5 188t128 224t128 205t58.5 136q0 46 -45 46q-64 0 -194 -121l-19 20q238 221 365 221q56 0 83 -31.5t27 -74.5q0 -63 -54.5 -173.5t-120.5 -210t-120.5 -197.5t-54.5 -140q0 -68 68 -68q66 0 151 80l19 -20q-238 -221 -357 -221z
M752 1133q-26 0 -52 24t-26 55q0 32 26 76q25 39 58.5 65.5t62.5 26.5q23 0 47.5 -23.5t24.5 -53.5t-27 -76q-21 -34 -53.5 -64t-60.5 -30zM410 1133q-27 0 -53.5 24t-26.5 55q0 29 28 76q23 38 57 65t64 27q22 0 46 -23.5t24 -53.5q0 -35 -27 -76q-18 -33 -51 -63.5
t-61 -30.5z" />
    <glyph glyph-name="eth" unicode="&#xf0;" horiz-adv-x="1019" 
d="M254 -16q-100 0 -163.5 73t-63.5 181q0 83 35.5 177.5t95 182t140.5 169t168.5 141.5t182.5 96t180 36q83 0 156 -16q47 193 47 346q0 31 -2 43l-147 -88l-17 25l158 96q-21 92 -109 92q-94 0 -256 -162l-18 19q260 260 422 260q114 0 162 -90l135 82l16 -25l-141 -84
q16 -44 16 -104q0 -107 -47 -259.5t-124 -311.5t-181 -318t-212.5 -283t-223.5 -201t-209 -77zM240 285q1 -48 14.5 -89.5t47 -72.5t83.5 -31q64 0 130 43t125 115.5t115 170.5t101.5 207t81.5 226q-163 80 -299 80q-89 0 -167 -58.5t-129 -151.5t-79 -209t-24 -230z" />
    <glyph glyph-name="ntilde" unicode="&#xf1;" horiz-adv-x="1226" 
d="M-20 0q-24 0 -31 14t6 37q135 230 270 491t135 326q0 52 -51 52q-64 0 -194 -121l-19 20q238 221 365 221q56 0 83 -31.5t27 -74.5q0 -114 -202 -508q139 179 299 336q136 131 252.5 204.5t191.5 73.5q49 0 79 -34t30 -84q1 -53 -34 -139t-85 -174.5t-100.5 -174
t-85.5 -157t-35 -103.5q0 -59 57 -59q59 0 176 110l19 -20q-238 -221 -347 -221q-66 0 -95 40t-29 89q0 77 54 194.5t118 216.5t118 197t54 141q0 58 -52 58q-44 0 -107.5 -44.5t-160.5 -134.5q-222 -212 -410 -487q-78 -144 -131 -225q-17 -29 -49 -29h-116zM524 1176
q64 107 119 151.5t129 44.5q38 0 153 -29.5t156 -29.5q49 0 84 24t66 74l14 -10q-45 -91 -108.5 -145t-139.5 -54q-47 0 -159 27.5t-160 27.5q-45 0 -77 -22t-62 -70z" />
    <glyph glyph-name="ograve" unicode="&#xf2;" horiz-adv-x="1019" 
d="M262 -16q-109 0 -172 72t-63 182q0 87 36.5 184t97 184t140 167.5t162.5 139t167.5 93t153.5 34.5q51 0 90.5 -16.5t62 -41t36.5 -57.5t19 -61.5t5 -58.5q0 -108 -40.5 -217.5t-105.5 -197.5t-146 -165t-163 -129t-155.5 -82t-124.5 -30zM410 84q68 0 130.5 45.5
t107.5 117.5t78.5 158.5t50 171t16.5 152.5q0 104 -45 155.5t-127 51.5q-83 0 -158 -59t-124.5 -149.5t-78.5 -197t-29 -204.5q0 -44 7.5 -82t25.5 -76.5t55.5 -61t90.5 -22.5zM782 1282q-35 12 -57.5 49t-22.5 84q0 39 13.5 73t40.5 34q20 0 47 -27l313 -305l-10 -21z" />
    <glyph glyph-name="oacute" unicode="&#xf3;" horiz-adv-x="1019" 
d="M262 -16q-109 0 -172 72t-63 182q0 87 36.5 184t97 184t140 167.5t162.5 139t167.5 93t153.5 34.5q51 0 90.5 -16.5t62 -41t36.5 -57.5t19 -61.5t5 -58.5q0 -108 -40.5 -217.5t-105.5 -197.5t-146 -165t-163 -129t-155.5 -82t-124.5 -30zM410 84q68 0 130.5 45.5
t107.5 117.5t78.5 158.5t50 171t16.5 152.5q0 104 -45 155.5t-127 51.5q-83 0 -158 -59t-124.5 -149.5t-78.5 -197t-29 -204.5q0 -44 7.5 -82t25.5 -76.5t55.5 -61t90.5 -22.5zM1098 1282l-324 -113l-10 21l313 305q27 27 47 27q27 0 40.5 -34t13.5 -73q0 -47 -22.5 -84
t-57.5 -49z" />
    <glyph glyph-name="ocircumflex" unicode="&#xf4;" horiz-adv-x="1019" 
d="M262 -16q-109 0 -172 72t-63 182q0 87 36.5 184t97 184t140 167.5t162.5 139t167.5 93t153.5 34.5q51 0 90.5 -16.5t62 -41t36.5 -57.5t19 -61.5t5 -58.5q0 -108 -40.5 -217.5t-105.5 -197.5t-146 -165t-163 -129t-155.5 -82t-124.5 -30zM410 84q68 0 130.5 45.5
t107.5 117.5t78.5 158.5t50 171t16.5 152.5q0 104 -45 155.5t-127 51.5q-83 0 -158 -59t-124.5 -149.5t-78.5 -197t-29 -204.5q0 -44 7.5 -82t25.5 -76.5t55.5 -61t90.5 -22.5zM1008 1165q-33 0 -50 25q-62 85 -104 127q-112 -53 -236 -158l-20 21q261 204 360 204
q22 0 87 -69t110 -137l-10 -13h-137z" />
    <glyph glyph-name="otilde" unicode="&#xf5;" horiz-adv-x="1019" 
d="M262 -16q-109 0 -172 72t-63 182q0 87 36.5 184t97 184t140 167.5t162.5 139t167.5 93t153.5 34.5q51 0 90.5 -16.5t62 -41t36.5 -57.5t19 -61.5t5 -58.5q0 -108 -40.5 -217.5t-105.5 -197.5t-146 -165t-163 -129t-155.5 -82t-124.5 -30zM410 84q68 0 130.5 45.5
t107.5 117.5t78.5 158.5t50 171t16.5 152.5q0 104 -45 155.5t-127 51.5q-83 0 -158 -59t-124.5 -149.5t-78.5 -197t-29 -204.5q0 -44 7.5 -82t25.5 -76.5t55.5 -61t90.5 -22.5zM524 1176q64 107 119 151.5t129 44.5q38 0 153 -29.5t156 -29.5q49 0 84 24t66 74l14 -10
q-45 -91 -108.5 -145t-139.5 -54q-47 0 -159 27.5t-160 27.5q-45 0 -77 -22t-62 -70z" />
    <glyph glyph-name="odieresis" unicode="&#xf6;" horiz-adv-x="1019" 
d="M262 -16q-109 0 -172 72t-63 182q0 87 36.5 184t97 184t140 167.5t162.5 139t167.5 93t153.5 34.5q51 0 90.5 -16.5t62 -41t36.5 -57.5t19 -61.5t5 -58.5q0 -108 -40.5 -217.5t-105.5 -197.5t-146 -165t-163 -129t-155.5 -82t-124.5 -30zM410 84q68 0 130.5 45.5
t107.5 117.5t78.5 158.5t50 171t16.5 152.5q0 104 -45 155.5t-127 51.5q-83 0 -158 -59t-124.5 -149.5t-78.5 -197t-29 -204.5q0 -44 7.5 -82t25.5 -76.5t55.5 -61t90.5 -22.5zM995 1133q-26 0 -51.5 24t-25.5 55q0 32 26 76q25 39 58.5 65.5t62.5 26.5q23 0 47.5 -23.5
t24.5 -53.5t-27 -76q-21 -34 -54 -64t-61 -30zM653 1133q-27 0 -53.5 24t-26.5 55q0 27 29 76q23 38 57 65t64 27q22 0 46 -23.5t24 -53.5q0 -35 -27 -76q-18 -32 -51.5 -63t-61.5 -31z" />
    <glyph glyph-name="divide" unicode="&#xf7;" horiz-adv-x="831" 
d="M809 657l-10 -24h-668l10 24h668zM492 741q-23 0 -37.5 17.5t-14.5 42.5q0 36 27 66t57 30q23 0 36 -16.5t13 -40.5q0 -38 -25.5 -68.5t-55.5 -30.5zM393 389q-23 0 -37 17.5t-14 42.5q0 36 27 66t57 30q22 0 35.5 -17t13.5 -41q0 -38 -26 -68t-56 -30z" />
    <glyph glyph-name="oslash" unicode="&#xf8;" horiz-adv-x="1019" 
d="M262 -16q-87 0 -149 49l-226 -262l-24 20l227 264q-63 72 -63 183q0 87 36.5 184t97 184t140 167.5t162.5 139t167.5 93t153.5 34.5q79 0 125 -34l178 208l25 -20l-178 -209q63 -61 63 -180q0 -108 -40.5 -217.5t-105.5 -197.5t-146 -165t-163 -129t-155.5 -82
t-124.5 -30zM410 84q68 0 130.5 45.5t107.5 117.5t78.5 158.5t50 171t16.5 152.5q0 30 -9 82l-532 -616q42 -111 158 -111zM231 326q0 -52 11 -95l530 617q-43 88 -151 88q-83 0 -158 -59t-124.5 -149.5t-78.5 -197t-29 -204.5z" />
    <glyph glyph-name="ugrave" unicode="&#xf9;" horiz-adv-x="1284" 
d="M805 -16q-66 0 -95.5 40t-29.5 89q0 164 164 467q-132 -170 -244 -291q-278 -305 -430 -305q-54 0 -100.5 39t-46.5 98q-1 48 37 129.5t92.5 169.5t109 174.5t93 163t38.5 116.5q0 46 -45 46q-64 0 -194 -121l-19 20q238 221 365 221q56 0 83 -31.5t27 -74.5
q0 -66 -55.5 -179.5t-121.5 -215.5t-121.5 -206.5t-55.5 -154.5q0 -26 16 -43.5t47 -17.5q83 0 259 188q170 178 401 506l98 166q16 29 47 29l131 -2q25 0 32 -14t-7 -36q-191 -311 -258 -438q-62 -125 -92.5 -203.5t-30.5 -138.5q0 -59 53 -59q64 0 181 110l18 -20
q-238 -221 -346 -221zM844 1282q-35 12 -57.5 49t-22.5 84q0 39 13.5 73t39.5 34q20 0 47 -27l314 -305l-11 -21z" />
    <glyph glyph-name="uacute" unicode="&#xfa;" horiz-adv-x="1284" 
d="M805 -16q-66 0 -95.5 40t-29.5 89q0 164 164 467q-132 -170 -244 -291q-278 -305 -430 -305q-54 0 -100.5 39t-46.5 98q-1 48 37 129.5t92.5 169.5t109 174.5t93 163t38.5 116.5q0 46 -45 46q-64 0 -194 -121l-19 20q238 221 365 221q56 0 83 -31.5t27 -74.5
q0 -66 -55.5 -179.5t-121.5 -215.5t-121.5 -206.5t-55.5 -154.5q0 -26 16 -43.5t47 -17.5q83 0 259 188q170 178 401 506l98 166q16 29 47 29l131 -2q25 0 32 -14t-7 -36q-191 -311 -258 -438q-62 -125 -92.5 -203.5t-30.5 -138.5q0 -59 53 -59q64 0 181 110l18 -20
q-238 -221 -346 -221zM1159 1282l-323 -113l-11 21l314 305q27 27 47 27q26 0 39.5 -34t13.5 -73q0 -47 -22.5 -84t-57.5 -49z" />
    <glyph glyph-name="ucircumflex" unicode="&#xfb;" horiz-adv-x="1284" 
d="M805 -16q-66 0 -95.5 40t-29.5 89q0 164 164 467q-132 -170 -244 -291q-278 -305 -430 -305q-54 0 -100.5 39t-46.5 98q-1 48 37 129.5t92.5 169.5t109 174.5t93 163t38.5 116.5q0 46 -45 46q-64 0 -194 -121l-19 20q238 221 365 221q56 0 83 -31.5t27 -74.5
q0 -66 -55.5 -179.5t-121.5 -215.5t-121.5 -206.5t-55.5 -154.5q0 -26 16 -43.5t47 -17.5q83 0 259 188q170 178 401 506l98 166q16 29 47 29l131 -2q25 0 32 -14t-7 -36q-191 -311 -258 -438q-62 -125 -92.5 -203.5t-30.5 -138.5q0 -59 53 -59q64 0 181 110l18 -20
q-238 -221 -346 -221zM1069 1165q-32 0 -49 25q-59 81 -105 127q-110 -52 -235 -158l-21 21q261 204 361 204q22 0 87 -69t110 -137l-11 -13h-137z" />
    <glyph glyph-name="udieresis" unicode="&#xfc;" horiz-adv-x="1284" 
d="M805 -16q-66 0 -95.5 40t-29.5 89q0 164 164 467q-132 -170 -244 -291q-278 -305 -430 -305q-54 0 -100.5 39t-46.5 98q-1 48 37 129.5t92.5 169.5t109 174.5t93 163t38.5 116.5q0 46 -45 46q-64 0 -194 -121l-19 20q238 221 365 221q56 0 83 -31.5t27 -74.5
q0 -66 -55.5 -179.5t-121.5 -215.5t-121.5 -206.5t-55.5 -154.5q0 -26 16 -43.5t47 -17.5q83 0 259 188q170 178 401 506l98 166q16 29 47 29l131 -2q25 0 32 -14t-7 -36q-191 -311 -258 -438q-62 -125 -92.5 -203.5t-30.5 -138.5q0 -59 53 -59q64 0 181 110l18 -20
q-238 -221 -346 -221zM1057 1133q-26 0 -52 24t-26 55q0 30 27 76q25 39 58 65.5t62 26.5q23 0 47.5 -23.5t24.5 -53.5t-27 -76q-21 -34 -53.5 -64t-60.5 -30zM715 1133q-27 0 -53.5 24t-26.5 55q0 27 29 76q23 38 56.5 65t63.5 27q22 0 46 -23.5t24 -53.5q0 -35 -27 -76
q-18 -33 -51 -63.5t-61 -30.5z" />
    <glyph glyph-name="yacute" unicode="&#xfd;" horiz-adv-x="1081" 
d="M-324 -426q-57 0 -107 16t-50 50q0 41 46 91t93 50q18 0 44 -4.5t49 -10t62.5 -17t62 -18.5t70 -22.5t66.5 -21.5q49 20 81.5 41.5t55.5 44.5t42 66t32 86t35 124q48 179 82.5 402.5t28.5 347.5q-3 56 -17.5 79t-42.5 23q-60 0 -170 -102l-18 20q128 119 203.5 170
t124.5 51q109 0 112 -149q4 -126 -38.5 -404t-121.5 -538q288 269 492 600l-6 99t-5 91t-2 65t0.5 63t4.5 42q9 55 61.5 93t114.5 38q51 0 51 -41q0 -50 -26 -128t-75 -173t-116 -202t-153 -215.5t-180.5 -211.5t-204 -192.5t-219.5 -157t-230 -106.5t-232 -39zM1096 1282
l-324 -113l-10 21l313 305q27 27 47 27q27 0 40.5 -34t13.5 -73q0 -47 -22.5 -84t-57.5 -49z" />
    <glyph glyph-name="thorn" unicode="&#xfe;" horiz-adv-x="1210" 
d="M-319 -553q-23 0 -32 13.5t1 33.5q61 120 353.5 709.5t387.5 767.5q68 128 184 250.5t256 218.5t305 154.5t320 58.5q168 0 168 -45q0 -50 -63 -105t-150 -55q-18 0 -35.5 1.5t-42.5 6t-41 7.5t-53 12.5t-54 14t-68.5 18.5t-74.5 20q-116 -51 -198 -144.5t-187 -293.5
l-311 -627q77 87 143 156.5t152.5 152t158.5 137.5t146.5 92.5t130.5 36.5q54 0 89.5 -45.5t35.5 -113.5q0 -97 -38 -204.5t-101.5 -204.5t-150 -186.5t-179 -155t-193 -104t-188.5 -38.5q-116 0 -196 80l-279 -588q-15 -31 -47 -31h-149zM238 240q85 -174 268 -174
q83 0 160 52.5t132.5 135.5t98 182t63.5 194.5t21 170.5q0 47 -20.5 74.5t-53.5 27.5q-74 0 -248.5 -158.5t-357.5 -373.5z" />
    <glyph glyph-name="ydieresis" unicode="&#xff;" horiz-adv-x="1081" 
d="M-324 -426q-57 0 -107 16t-50 50q0 41 46 91t93 50q18 0 44 -4.5t49 -10t62.5 -17t62 -18.5t70 -22.5t66.5 -21.5q49 20 81.5 41.5t55.5 44.5t42 66t32 86t35 124q48 179 82.5 402.5t28.5 347.5q-3 56 -17.5 79t-42.5 23q-60 0 -170 -102l-18 20q128 119 203.5 170
t124.5 51q109 0 112 -149q4 -126 -38.5 -404t-121.5 -538q288 269 492 600l-6 99t-5 91t-2 65t0.5 63t4.5 42q9 55 61.5 93t114.5 38q51 0 51 -41q0 -50 -26 -128t-75 -173t-116 -202t-153 -215.5t-180.5 -211.5t-204 -192.5t-219.5 -157t-230 -106.5t-232 -39zM993 1133
q-26 0 -52 24t-26 55q0 30 27 76q25 39 58.5 65.5t62.5 26.5q23 0 47.5 -23.5t24.5 -53.5t-27 -76q-21 -34 -54 -64t-61 -30zM651 1133q-27 0 -53.5 24t-26.5 55q0 27 29 76q23 38 57 65t64 27q22 0 46 -23.5t24 -53.5q0 -35 -27 -76q-18 -32 -51.5 -63t-61.5 -31z" />
    <glyph glyph-name="Amacron" unicode="&#x100;" horiz-adv-x="2267" 
d="M346 -37q-174 0 -283.5 92t-109.5 252q0 154 112 296.5t295.5 229.5t380.5 87q82 0 182 -30.5t241.5 -88.5t205.5 -80q180 196 346.5 403t268.5 353l-500 -7q-50 0 -78.5 -17.5t-67.5 -63.5l-18 10q10 14 33.5 46.5t32 44.5t26 34.5t27 34t22.5 25.5t25 24q37 30 102 30
h588q26 0 33.5 -10.5t1.5 -36.5q-110 -498 -179 -885t-69 -470q0 -62 20.5 -87.5t61.5 -25.5q31 0 67.5 21.5t96.5 80.5l18 -18q-123 -121 -202.5 -172t-149.5 -51q-59 0 -96 43.5t-37 124.5q0 130 82 548q-170 -137 -346 -137q-96 0 -189 19q-591 -619 -944 -619z
M1952 1808l-6 9l49 63q21 29 61 29h465l6 -8l-49 -64q-21 -29 -61 -29h-465zM117 412q0 -163 94.5 -251.5t232.5 -86.5q93 1 193 40t204 114.5t199 161t207 202.5q-91 22 -198 65t-182 79.5t-167.5 64.5t-171.5 28q-122 0 -218 -60.5t-144.5 -154.5t-48.5 -202zM1409 709
q127 -43 231 -43q108 0 191 71l147 674q-284 -390 -569 -702z" />
    <glyph glyph-name="amacron" unicode="&#x101;" horiz-adv-x="1239" 
d="M797 -16q-66 0 -95.5 40t-29.5 89q0 171 194 505q-529 -642 -708 -634q-66 3 -99.5 53.5t-31.5 134.5q2 143 78 298.5t194.5 281t276 207t311.5 81.5q63 0 155.5 -12t161.5 -33l35 -10q46 -13 21 -51q-141 -208 -250 -418q-61 -124 -90 -200.5t-29 -141.5q0 -59 53 -59
q63 0 180 110l19 -20q-238 -221 -346 -221zM799 1194l-6 8l49 64q20 28 61 28h465l6 -8l-49 -63q-21 -29 -61 -29h-465zM231 229q0 -114 60 -114q70 0 256.5 188t453.5 531l27 40q-82 33 -176.5 57.5t-151.5 24.5q-82 0 -159 -56t-131.5 -141t-96 -185t-62 -190.5
t-20.5 -154.5z" />
    <glyph glyph-name="Abreve" unicode="&#x102;" horiz-adv-x="2267" 
d="M346 -37q-174 0 -283.5 92t-109.5 252q0 154 112 296.5t295.5 229.5t380.5 87q82 0 182 -30.5t241.5 -88.5t205.5 -80q180 196 346.5 403t268.5 353l-500 -7q-50 0 -78.5 -17.5t-67.5 -63.5l-18 10q10 14 33.5 46.5t32 44.5t26 34.5t27 34t22.5 25.5t25 24q37 30 102 30
h588q26 0 33.5 -10.5t1.5 -36.5q-110 -498 -179 -885t-69 -470q0 -62 20.5 -87.5t61.5 -25.5q31 0 67.5 21.5t96.5 80.5l18 -18q-123 -121 -202.5 -172t-149.5 -51q-59 0 -96 43.5t-37 124.5q0 130 82 548q-170 -137 -346 -137q-96 0 -189 19q-591 -619 -944 -619z
M2173 1716q-84 0 -124 48.5t-40 127.5q0 21 44.5 45.5t84.5 24.5q25 0 25 -20q2 -65 31.5 -108.5t91.5 -43.5q58 0 113 41.5t95 110.5q8 12 35 -1q23 -11 13 -20q-103 -96 -204.5 -150.5t-164.5 -54.5zM117 412q0 -163 94.5 -251.5t232.5 -86.5q93 1 193 40t204 114.5
t199 161t207 202.5q-91 22 -198 65t-182 79.5t-167.5 64.5t-171.5 28q-122 0 -218 -60.5t-144.5 -154.5t-48.5 -202zM1409 709q127 -43 231 -43q108 0 191 71l147 674q-284 -390 -569 -702z" />
    <glyph glyph-name="abreve" unicode="&#x103;" horiz-adv-x="1239" 
d="M797 -16q-66 0 -95.5 40t-29.5 89q0 171 194 505q-529 -642 -708 -634q-66 3 -99.5 53.5t-31.5 134.5q2 143 78 298.5t194.5 281t276 207t311.5 81.5q63 0 155.5 -12t161.5 -33l35 -10q46 -13 21 -51q-141 -208 -250 -418q-61 -124 -90 -200.5t-29 -141.5q0 -59 53 -59
q63 0 180 110l19 -20q-238 -221 -346 -221zM1038 1176q-84 0 -124 48.5t-40 127.5q0 21 44.5 45t85.5 24q24 0 24 -20q2 -65 31.5 -108.5t91.5 -43.5q58 0 113.5 42t95.5 110q8 13 35 -1q22 -12 12 -20q-103 -96 -204.5 -150t-164.5 -54zM231 229q0 -114 60 -114
q70 0 256.5 188t453.5 531l27 40q-82 33 -176.5 57.5t-151.5 24.5q-82 0 -159 -56t-131.5 -141t-96 -185t-62 -190.5t-20.5 -154.5z" />
    <glyph glyph-name="Aogonek" unicode="&#x104;" horiz-adv-x="2267" 
d="M346 -37q-174 0 -283.5 92t-109.5 252q0 154 112 296.5t295.5 229.5t380.5 87q82 0 182 -30.5t241.5 -88.5t205.5 -80q180 196 346.5 403t268.5 353l-500 -7q-50 0 -78.5 -17.5t-67.5 -63.5l-18 10q10 14 33.5 46.5t32 44.5t26 34.5t27 34t22.5 25.5t25 24q37 30 102 30
h588q26 0 33.5 -10.5t1.5 -36.5q-110 -498 -179 -885t-69 -470q0 -62 20.5 -87.5t61.5 -25.5q31 0 67.5 21.5t96.5 80.5l18 -18q-123 -121 -202.5 -172t-149.5 -51q-28 0 -51 10q-96 -96 -96 -174q0 -49 31.5 -72.5t72.5 -23.5q56 0 106 32l9 -8l-80 -121q-34 -24 -94 -24
q-66 0 -109 39t-43 102q0 103 180 262q-59 43 -59 146q0 130 82 548q-170 -137 -346 -137q-96 0 -189 19q-591 -619 -944 -619zM117 412q0 -163 94.5 -251.5t232.5 -86.5q93 1 193 40t204 114.5t199 161t207 202.5q-91 22 -198 65t-182 79.5t-167.5 64.5t-171.5 28
q-122 0 -218 -60.5t-144.5 -154.5t-48.5 -202zM1409 709q127 -43 231 -43q108 0 191 71l147 674q-284 -390 -569 -702z" />
    <glyph glyph-name="aogonek" unicode="&#x105;" horiz-adv-x="1239" 
d="M797 -16q-66 0 -95.5 40t-29.5 89q0 171 194 505q-529 -642 -708 -634q-66 3 -99.5 53.5t-31.5 134.5q2 143 78 298.5t194.5 281t276 207t311.5 81.5q63 0 155.5 -12t161.5 -33l35 -10q46 -13 21 -51q-141 -208 -250 -418q-61 -124 -90 -200.5t-29 -141.5q0 -59 53 -59
q63 0 180 110l19 -20q-149 -137 -248 -189q-117 -114 -117 -196q0 -49 31.5 -72.5t73.5 -23.5q56 0 106 32l8 -8l-79 -121q-34 -24 -95 -24q-66 0 -108.5 38.5t-42.5 102.5q0 101 159 246q-18 -6 -34 -6zM231 229q0 -114 60 -114q70 0 256.5 188t453.5 531l27 40
q-82 33 -176.5 57.5t-151.5 24.5q-82 0 -159 -56t-131.5 -141t-96 -185t-62 -190.5t-20.5 -154.5z" />
    <glyph glyph-name="Cacute" unicode="&#x106;" horiz-adv-x="1437" 
d="M717 -16q-115 0 -218 35.5t-184 102.5t-128.5 173.5t-47.5 239.5q0 147 52.5 292t141.5 266.5t210.5 227t257 178.5t283 114.5t286.5 41.5q130 0 243.5 -18t172.5 -42t59 -45q0 -46 -56 -98.5t-126 -52.5q-75 0 -238 60.5t-305 133.5q-223 -64 -397 -200.5t-272.5 -322
t-106.5 -390.5q-9 -246 138.5 -394.5t394.5 -148.5q117 0 229.5 43.5t202.5 138.5l22 -18q-298 -317 -614 -317zM1473 1835l-369 -125l-12 16l350 279q53 43 74 43q18 0 18 -33v-25q0 -87 -8.5 -113.5t-52.5 -41.5z" />
    <glyph glyph-name="cacute" unicode="&#x107;" horiz-adv-x="903" 
d="M276 -14q-65 -1 -115.5 22.5t-77.5 61t-40.5 77.5t-13.5 80q0 109 47 226.5t129.5 220t186 185.5t225 131t237.5 48q67 0 128.5 -13.5t61.5 -39.5q0 -56 -47.5 -101.5t-97.5 -45.5q-47 0 -121.5 24t-206.5 76q-80 -27 -157.5 -127t-125 -237.5t-42.5 -262.5
q3 -90 53 -140t137 -50q67 0 133.5 28t151.5 101l18 -19q-127 -112 -254.5 -178.5t-208.5 -66.5zM1112 1282l-324 -113l-10 21l314 305q27 27 47 27q26 0 39.5 -34t13.5 -73q0 -47 -22.5 -84t-57.5 -49z" />
    <glyph glyph-name="Cdotaccent" unicode="&#x10a;" horiz-adv-x="1437" 
d="M717 -16q-115 0 -218 35.5t-184 102.5t-128.5 173.5t-47.5 239.5q0 147 52.5 292t141.5 266.5t210.5 227t257 178.5t283 114.5t286.5 41.5q130 0 243.5 -18t172.5 -42t59 -45q0 -46 -56 -98.5t-126 -52.5q-75 0 -238 60.5t-305 133.5q-223 -64 -397 -200.5t-272.5 -322
t-106.5 -390.5q-9 -246 138.5 -394.5t394.5 -148.5q117 0 229.5 43.5t202.5 138.5l22 -18q-298 -317 -614 -317zM1270 1788q-32 0 -63 27.5t-31 70.5q0 46 30 101q29 50 69 87t73 37q28 0 59 -29.5t31 -72.5q0 -41 -33 -102q-23 -40 -63 -79.5t-72 -39.5z" />
    <glyph glyph-name="cdotaccent" unicode="&#x10b;" horiz-adv-x="903" 
d="M276 -14q-65 -1 -115.5 22.5t-77.5 61t-40.5 77.5t-13.5 80q0 109 47 226.5t129.5 220t186 185.5t225 131t237.5 48q67 0 128.5 -13.5t61.5 -39.5q0 -56 -47.5 -101.5t-97.5 -45.5q-47 0 -121.5 24t-206.5 76q-80 -27 -157.5 -127t-125 -237.5t-42.5 -262.5
q3 -90 53 -140t137 -50q67 0 133.5 28t151.5 101l18 -19q-127 -112 -254.5 -178.5t-208.5 -66.5zM934 1217q-32 0 -63 27.5t-31 70.5q0 45 30 100q29 50 69 87.5t73 37.5q28 0 59 -29.5t31 -72.5q0 -42 -33 -103q-23 -40 -63 -79t-72 -39z" />
    <glyph glyph-name="Ccaron" unicode="&#x10c;" horiz-adv-x="1437" 
d="M717 -16q-115 0 -218 35.5t-184 102.5t-128.5 173.5t-47.5 239.5q0 147 52.5 292t141.5 266.5t210.5 227t257 178.5t283 114.5t286.5 41.5q130 0 243.5 -18t172.5 -42t59 -45q0 -46 -56 -98.5t-126 -52.5q-75 0 -238 60.5t-305 133.5q-223 -64 -397 -200.5t-272.5 -322
t-106.5 -390.5q-9 -246 138.5 -394.5t394.5 -148.5q117 0 229.5 43.5t202.5 138.5l22 -18q-298 -317 -614 -317zM1153 1985q32 0 49 -25q59 -81 105 -127q110 52 235 158l21 -21q-262 -205 -361 -205q-22 0 -86.5 69.5t-109.5 137.5l10 13h137z" />
    <glyph glyph-name="ccaron" unicode="&#x10d;" horiz-adv-x="903" 
d="M276 -14q-65 -1 -115.5 22.5t-77.5 61t-40.5 77.5t-13.5 80q0 109 47 226.5t129.5 220t186 185.5t225 131t237.5 48q67 0 128.5 -13.5t61.5 -39.5q0 -56 -47.5 -101.5t-97.5 -45.5q-47 0 -121.5 24t-206.5 76q-80 -27 -157.5 -127t-125 -237.5t-42.5 -262.5
q3 -90 53 -140t137 -50q67 0 133.5 28t151.5 101l18 -19q-127 -112 -254.5 -178.5t-208.5 -66.5zM801 1446q32 0 49 -25q62 -85 104 -127q112 53 236 158l20 -20q-262 -205 -360 -205q-22 0 -87 69.5t-110 137.5l11 12h137z" />
    <glyph glyph-name="Dcaron" unicode="&#x10e;" horiz-adv-x="1878" 
d="M637 -14q-302 0 -496 24q-22 2 -22 15q0 18 102 102l41 33q25 19 46 44.5t32 43t29 50t26 44.5q88 155 224 435t229 440q46 82 93.5 133.5t127.5 89.5l154 71q-102 27 -211 27q-282 0 -494 -147l-18 24q168 117 334.5 178.5t369.5 61.5q143 0 275 -54t224.5 -141.5
t148 -201t55.5 -230.5q0 -130 -39.5 -253.5t-109.5 -226t-165.5 -192t-209 -157t-237.5 -116t-253.5 -73t-255.5 -24.5zM1196 1985q32 0 49 -25q59 -81 105 -127q110 52 235 158l21 -21q-262 -205 -361 -205q-22 0 -86.5 69.5t-109.5 137.5l10 13h137zM350 170
q254 -27 611 -27q184 -1 328.5 53.5t237 153t140 232.5t47.5 295q0 235 -126 397t-331 227q-13 -9 -24.5 -19.5t-23.5 -23.5t-21 -22.5t-20.5 -26.5t-17.5 -25t-18 -27.5t-15.5 -25.5t-16.5 -28t-15 -25q-93 -159 -222 -432t-214 -422q-41 -72 -87 -119t-116 -84z" />
    <glyph glyph-name="dcaron" unicode="&#x10f;" horiz-adv-x="1021" 
d="M254 -16q-100 0 -163.5 73t-63.5 181q0 83 35.5 177.5t95 182t140.5 169t168.5 141.5t182.5 96t180 36q83 0 156 -16q47 193 47 346q0 168 -117 168q-94 0 -256 -162l-18 19q260 260 422 260q54 0 93 -19.5t58.5 -53.5t28 -70t8.5 -78q0 -107 -47 -259.5t-124 -311.5
t-181 -318t-212.5 -283t-223.5 -201t-209 -77zM1350 1208q57 40 83.5 69t26.5 56q0 25 -33.5 66t-33.5 61q0 51 52.5 114.5t98.5 63.5q43 0 69.5 -46t26.5 -95q0 -21 -5.5 -41.5t-19 -42t-25 -38.5t-35 -39t-36.5 -34.5t-42 -34.5t-38.5 -29.5t-39.5 -28.5t-33 -23zM240 285
q1 -48 14.5 -89.5t47 -72.5t83.5 -31q64 0 130 43t125 115.5t115 170.5t101.5 207t81.5 226q-163 80 -299 80q-89 0 -167 -58.5t-129 -151.5t-79 -209t-24 -230z" />
    <glyph glyph-name="Dcroat" unicode="&#x110;" horiz-adv-x="1878" 
d="M637 -14q-302 0 -496 24q-22 2 -22 15q0 18 102 102l41 33q25 19 46 44.5t32 43t29 50t26 44.5q88 155 224 435t229 440q46 82 93.5 133.5t127.5 89.5l154 71q-102 27 -211 27q-282 0 -494 -147l-18 24q168 117 334.5 178.5t369.5 61.5q143 0 275 -54t224.5 -141.5
t148 -201t55.5 -230.5q0 -130 -39.5 -253.5t-109.5 -226t-165.5 -192t-209 -157t-237.5 -116t-253.5 -73t-255.5 -24.5zM1311 829v-28h-469q-120 -251 -193 -377q-41 -72 -87 -119t-116 -84l-96 -51q254 -27 611 -27q184 -1 328.5 53.5t237 153t140 232.5t47.5 295
q0 235 -126 397t-331 227q-13 -9 -24.5 -19.5t-23.5 -23.5t-21 -22.5t-20.5 -26.5t-17.5 -25t-18 -27.5t-15.5 -25.5t-16.5 -28t-15 -25q-86 -148 -229 -449h455z" />
    <glyph glyph-name="dcroat" unicode="&#x111;" horiz-adv-x="1021" 
d="M254 -16q-100 0 -163.5 73t-63.5 181q0 83 35.5 177.5t95 182t140.5 169t168.5 141.5t182.5 96t180 36q83 0 156 -16q26 115 37 199h-137v28h141q6 65 6 119q0 168 -117 168q-94 0 -256 -162l-18 19q260 260 422 260q54 0 93 -19.5t58.5 -53.5t28 -70t8.5 -78
q0 -81 -24 -183h135v-28h-143q-39 -145 -117.5 -315t-182.5 -332t-216.5 -295.5t-231.5 -215t-217 -81.5zM240 285q1 -48 14.5 -89.5t47 -72.5t83.5 -31q64 0 130 43t125 115.5t115 170.5t101.5 207t81.5 226q-163 80 -299 80q-89 0 -167 -58.5t-129 -151.5t-79 -209
t-24 -230z" />
    <glyph glyph-name="Emacron" unicode="&#x112;" horiz-adv-x="1515" 
d="M0 0q-19 0 -24 4t-5 16t56.5 64.5t89.5 75.5q52 44 131 182q26 45 51.5 93.5t42.5 81t43.5 88t35.5 75t39.5 85.5t35.5 77h-168v32h184q89 190 166 322q46 81 93 130t128 83l117 49h-506q-50 0 -77.5 -17.5t-67.5 -64.5l-19 10q24 33 61.5 88.5t60 85t44.5 48.5
q37 30 102 30h1112q115 0 115 -71q3 -100 -250 -289l-16 25q104 71 104 114q0 28 -23.5 34.5t-86.5 6.5h-494q-27 -20 -49 -41.5t-44.5 -54t-31.5 -47t-35 -58.5q-98 -169 -192 -383h672v-32h-688q-104 -239 -205 -418q-41 -72 -87 -119t-116 -84l-78 -41h936q50 0 78 17.5
t68 64.5l18 -10q-23 -32 -61 -88t-60.5 -85t-44.5 -48q-38 -31 -102 -31h-1053zM1006 1808l-7 9l50 63q21 29 61 29h465l6 -8l-49 -64q-21 -29 -62 -29h-464z" />
    <glyph glyph-name="emacron" unicode="&#x113;" horiz-adv-x="901" 
d="M270 -14q-65 -1 -115.5 22.5t-77.5 61t-40.5 77.5t-13.5 80q0 87 36.5 184t97 186t142 170.5t169 141t181.5 94.5t176 35q77 0 117.5 -34.5t40.5 -92.5q0 -54 -31 -105.5t-120 -127t-224.5 -167.5t-369.5 -239q13 -72 64 -111.5t128 -39.5q67 0 133.5 28t151.5 101
l18 -19q-127 -112 -254.5 -178.5t-208.5 -66.5zM596 1194l-6 8l49 64q20 28 61 28h465l6 -8l-49 -63q-21 -29 -61 -29h-465zM233 311v-8q164 103 270.5 181t166.5 141t83 112t23 101q0 50 -31.5 82t-89.5 32q-78 0 -158 -62.5t-138.5 -156.5t-94 -208.5t-31.5 -213.5z" />
    <glyph glyph-name="Edotaccent" unicode="&#x116;" horiz-adv-x="1515" 
d="M0 0q-19 0 -24 4t-5 16t56.5 64.5t89.5 75.5q52 44 131 182q26 45 51.5 93.5t42.5 81t43.5 88t35.5 75t39.5 85.5t35.5 77h-168v32h184q89 190 166 322q46 81 93 130t128 83l117 49h-506q-50 0 -77.5 -17.5t-67.5 -64.5l-19 10q24 33 61.5 88.5t60 85t44.5 48.5
q37 30 102 30h1112q115 0 115 -71q3 -100 -250 -289l-16 25q104 71 104 114q0 28 -23.5 34.5t-86.5 6.5h-494q-27 -20 -49 -41.5t-44.5 -54t-31.5 -47t-35 -58.5q-98 -169 -192 -383h672v-32h-688q-104 -239 -205 -418q-41 -72 -87 -119t-116 -84l-78 -41h936q50 0 78 17.5
t68 64.5l18 -10q-23 -32 -61 -88t-60.5 -85t-44.5 -48q-38 -31 -102 -31h-1053zM1276 1788q-32 0 -63 27.5t-31 70.5q0 46 30 101q29 50 69 87t73 37q28 0 59 -29.5t31 -72.5q0 -41 -33 -102q-23 -40 -63 -79.5t-72 -39.5z" />
    <glyph glyph-name="edotaccent" unicode="&#x117;" horiz-adv-x="901" 
d="M270 -14q-65 -1 -115.5 22.5t-77.5 61t-40.5 77.5t-13.5 80q0 87 36.5 184t97 186t142 170.5t169 141t181.5 94.5t176 35q77 0 117.5 -34.5t40.5 -92.5q0 -54 -31 -105.5t-120 -127t-224.5 -167.5t-369.5 -239q13 -72 64 -111.5t128 -39.5q67 0 133.5 28t151.5 101
l18 -19q-127 -112 -254.5 -178.5t-208.5 -66.5zM907 1217q-32 0 -63 27.5t-31 70.5t31 100q29 50 68.5 87.5t72.5 37.5q28 0 59 -29.5t31 -72.5q0 -42 -33 -103q-23 -40 -63 -79t-72 -39zM233 311v-8q164 103 270.5 181t166.5 141t83 112t23 101q0 50 -31.5 82t-89.5 32
q-78 0 -158 -62.5t-138.5 -156.5t-94 -208.5t-31.5 -213.5z" />
    <glyph glyph-name="Eogonek" unicode="&#x118;" horiz-adv-x="1515" 
d="M0 0q-19 0 -24 4t-5 16t56.5 64.5t89.5 75.5q52 44 131 182q26 45 51.5 93.5t42.5 81t43.5 88t35.5 75t39.5 85.5t35.5 77h-168v32h184q89 190 166 322q46 81 93 130t128 83l117 49h-506q-50 0 -77.5 -17.5t-67.5 -64.5l-19 10q24 33 61.5 88.5t60 85t44.5 48.5
q37 30 102 30h1112q115 0 115 -71q3 -100 -250 -289l-16 25q104 71 104 114q0 28 -23.5 34.5t-86.5 6.5h-494q-27 -20 -49 -41.5t-44.5 -54t-31.5 -47t-35 -58.5q-98 -169 -192 -383h672v-32h-688q-104 -239 -205 -418q-41 -72 -87 -119t-116 -84l-78 -41h936q50 0 78 17.5
t68 64.5l18 -10q-23 -32 -61 -88t-60.5 -85t-44.5 -48q-27 -24 -65 -27q-105 -108 -105 -184q0 -49 31.5 -72.5t73.5 -23.5q56 0 106 32l8 -8l-80 -121q-34 -24 -94 -24q-66 0 -108.5 38.5t-42.5 102.5q0 101 172 256h-1051z" />
    <glyph glyph-name="eogonek" unicode="&#x119;" horiz-adv-x="901" 
d="M270 -14q-65 -1 -115.5 22.5t-77.5 61t-40.5 77.5t-13.5 80q0 87 36.5 184t97 186t142 170.5t169 141t181.5 94.5t176 35q77 0 117.5 -34.5t40.5 -92.5q0 -54 -31 -105.5t-120 -127t-224.5 -167.5t-369.5 -239q13 -72 64 -111.5t128 -39.5q67 0 133.5 28t151.5 101
l18 -19q-165 -145 -323 -213q-121 -112 -121 -198q0 -49 31.5 -72.5t72.5 -23.5q57 0 107 32l8 -8l-80 -121q-34 -24 -94 -24q-66 0 -109 39t-43 102q0 101 172 256q-43 -14 -84 -14zM233 311v-8q164 103 270.5 181t166.5 141t83 112t23 101q0 50 -31.5 82t-89.5 32
q-78 0 -158 -62.5t-138.5 -156.5t-94 -208.5t-31.5 -213.5z" />
    <glyph glyph-name="Ecaron" unicode="&#x11a;" horiz-adv-x="1515" 
d="M0 0q-19 0 -24 4t-5 16t56.5 64.5t89.5 75.5q52 44 131 182q26 45 51.5 93.5t42.5 81t43.5 88t35.5 75t39.5 85.5t35.5 77h-168v32h184q89 190 166 322q46 81 93 130t128 83l117 49h-506q-50 0 -77.5 -17.5t-67.5 -64.5l-19 10q24 33 61.5 88.5t60 85t44.5 48.5
q37 30 102 30h1112q115 0 115 -71q3 -100 -250 -289l-16 25q104 71 104 114q0 28 -23.5 34.5t-86.5 6.5h-494q-27 -20 -49 -41.5t-44.5 -54t-31.5 -47t-35 -58.5q-98 -169 -192 -383h672v-32h-688q-104 -239 -205 -418q-41 -72 -87 -119t-116 -84l-78 -41h936q50 0 78 17.5
t68 64.5l18 -10q-23 -32 -61 -88t-60.5 -85t-44.5 -48q-38 -31 -102 -31h-1053zM1159 1985q32 0 49 -25q59 -81 105 -127q110 52 235 158l21 -21q-262 -205 -361 -205q-22 0 -86.5 69.5t-109.5 137.5l10 13h137z" />
    <glyph glyph-name="ecaron" unicode="&#x11b;" horiz-adv-x="901" 
d="M270 -14q-65 -1 -115.5 22.5t-77.5 61t-40.5 77.5t-13.5 80q0 87 36.5 184t97 186t142 170.5t169 141t181.5 94.5t176 35q77 0 117.5 -34.5t40.5 -92.5q0 -54 -31 -105.5t-120 -127t-224.5 -167.5t-369.5 -239q13 -72 64 -111.5t128 -39.5q67 0 133.5 28t151.5 101
l18 -19q-127 -112 -254.5 -178.5t-208.5 -66.5zM774 1446q32 0 49 -25q59 -81 105 -127q110 52 235 158l21 -20q-262 -205 -361 -205q-22 0 -86.5 69.5t-109.5 137.5l10 12h137zM233 311v-8q164 103 270.5 181t166.5 141t83 112t23 101q0 50 -31.5 82t-89.5 32
q-78 0 -158 -62.5t-138.5 -156.5t-94 -208.5t-31.5 -213.5z" />
    <glyph glyph-name="Gbreve" unicode="&#x11e;" horiz-adv-x="1687" 
d="M700 -16q-115 0 -218 35.5t-183.5 102.5t-128 173.5t-47.5 239.5q0 147 52.5 292t141.5 266.5t210.5 227t257 178.5t283 114.5t286.5 41.5q130 0 243.5 -18t172.5 -42t59 -45q0 -46 -56 -98.5t-126 -52.5q-78 0 -229 54.5t-314 139.5q-223 -64 -397 -200.5t-272.5 -322
t-106.5 -390.5q-9 -246 138 -394.5t394 -148.5q114 0 213 50.5t184 179.5l113 278l-500 -20q-22 0 -22 14t40 78.5t60 83.5q12 10 60 10l583 -2h31q19 0 8 -27q-157 -405 -256 -621.5t-184 -359.5q-62 -107 -164 -188q-37 -28 -101.5 -54.5t-164 -58t-115.5 -37.5l-12 25
q112 38 179.5 98t145.5 178q116 178 248 486q-63 -77 -133.5 -132t-137.5 -83t-123.5 -39.5t-111.5 -11.5zM1307 1716q-84 0 -124 48.5t-40 127.5q0 21 44.5 45.5t84.5 24.5q24 0 24 -20q2 -65 31.5 -108.5t91.5 -43.5q58 0 113.5 42t95.5 110q8 13 35 -1q22 -12 12 -20
q-103 -96 -204 -150.5t-164 -54.5z" />
    <glyph glyph-name="gbreve" unicode="&#x11f;" horiz-adv-x="1165" 
d="M-57 -569q-69 1 -117 15.5t-70 38.5t-30 48t-5 51q5 59 66 124.5t160 111.5l14 -13q-51 -70 -51 -137t48 -111t161 -44q60 0 124.5 26.5t102.5 57.5q62 50 122.5 151t109 212t136 300.5t175.5 351.5l37 68q-273 -337 -460.5 -519.5t-285.5 -178.5q-66 3 -99.5 53.5
t-31.5 134.5q2 143 78 298.5t194.5 281t276 207t311.5 81.5q65 0 165.5 -12t168.5 -33l-2 -2l4 2l8 -2q40 -9 19 -53l-287 -547q-170 -325 -316 -509.5t-304 -307.5q-86 -67 -198.5 -106t-223.5 -39zM1071 1176q-84 0 -124 48.5t-40 127.5q0 21 44 45t85 24q25 0 25 -20
q2 -65 31.5 -108.5t91.5 -43.5q58 0 113.5 42t95.5 110q8 13 35 -1q22 -12 12 -20q-103 -96 -204.5 -150t-164.5 -54zM254 229q0 -114 59 -114q136 0 691 712l32 60q-80 29 -170 49t-143 20q-82 0 -159 -56t-131.5 -141t-96 -185t-62 -190.5t-20.5 -154.5z" />
    <glyph glyph-name="Gdotaccent" unicode="&#x120;" horiz-adv-x="1687" 
d="M700 -16q-115 0 -218 35.5t-183.5 102.5t-128 173.5t-47.5 239.5q0 147 52.5 292t141.5 266.5t210.5 227t257 178.5t283 114.5t286.5 41.5q130 0 243.5 -18t172.5 -42t59 -45q0 -46 -56 -98.5t-126 -52.5q-78 0 -229 54.5t-314 139.5q-223 -64 -397 -200.5t-272.5 -322
t-106.5 -390.5q-9 -246 138 -394.5t394 -148.5q114 0 213 50.5t184 179.5l113 278l-500 -20q-22 0 -22 14t40 78.5t60 83.5q12 10 60 10l583 -2h31q19 0 8 -27q-157 -405 -256 -621.5t-184 -359.5q-62 -107 -164 -188q-37 -28 -101.5 -54.5t-164 -58t-115.5 -37.5l-12 25
q112 38 179.5 98t145.5 178q116 178 248 486q-63 -77 -133.5 -132t-137.5 -83t-123.5 -39.5t-111.5 -11.5zM1356 1788q-32 0 -63 27.5t-31 70.5q0 46 30 101q29 50 69 87t73 37q28 0 59 -29.5t31 -72.5q0 -41 -33 -102q-23 -40 -63 -79.5t-72 -39.5z" />
    <glyph glyph-name="gdotaccent" unicode="&#x121;" horiz-adv-x="1165" 
d="M-57 -569q-69 1 -117 15.5t-70 38.5t-30 48t-5 51q5 59 66 124.5t160 111.5l14 -13q-51 -70 -51 -137t48 -111t161 -44q60 0 124.5 26.5t102.5 57.5q62 50 122.5 151t109 212t136 300.5t175.5 351.5l37 68q-273 -337 -460.5 -519.5t-285.5 -178.5q-66 3 -99.5 53.5
t-31.5 134.5q2 143 78 298.5t194.5 281t276 207t311.5 81.5q65 0 165.5 -12t168.5 -33l-2 -2l4 2l8 -2q40 -9 19 -53l-287 -547q-170 -325 -316 -509.5t-304 -307.5q-86 -67 -198.5 -106t-223.5 -39zM1143 1217q-32 0 -63 27.5t-31 70.5q0 45 30 100q29 50 69 87.5t73 37.5
q28 0 59 -29.5t31 -72.5q0 -42 -33 -103q-23 -40 -63 -79t-72 -39zM254 229q0 -114 59 -114q136 0 691 712l32 60q-80 29 -170 49t-143 20q-82 0 -159 -56t-131.5 -141t-96 -185t-62 -190.5t-20.5 -154.5z" />
    <glyph glyph-name="uni0122" unicode="&#x122;" horiz-adv-x="1687" 
d="M700 -16q-115 0 -218 35.5t-183.5 102.5t-128 173.5t-47.5 239.5q0 147 52.5 292t141.5 266.5t210.5 227t257 178.5t283 114.5t286.5 41.5q130 0 243.5 -18t172.5 -42t59 -45q0 -46 -56 -98.5t-126 -52.5q-78 0 -229 54.5t-314 139.5q-223 -64 -397 -200.5t-272.5 -322
t-106.5 -390.5q-9 -246 138 -394.5t394 -148.5q114 0 213 50.5t184 179.5l113 278l-500 -20q-22 0 -22 14t40 78.5t60 83.5q12 10 60 10l583 -2h31q19 0 8 -27q-157 -405 -256 -621.5t-184 -359.5q-62 -107 -164 -188q-37 -28 -101.5 -54.5t-164 -58t-115.5 -37.5l-12 25
q112 38 179.5 98t145.5 178q116 178 248 486q-63 -77 -133.5 -132t-137.5 -83t-123.5 -39.5t-111.5 -11.5zM362 -545q57 41 84 70t27 55t-33.5 67t-33.5 60q0 51 52.5 114.5t98.5 63.5q43 0 69.5 -46t26.5 -95q0 -21 -5.5 -41.5t-19 -42t-25 -38.5t-35 -39t-36.5 -34.5
t-42 -34.5t-38.5 -29.5t-39.5 -28.5t-33 -23z" />
    <glyph glyph-name="uni0123" unicode="&#x123;" horiz-adv-x="1165" 
d="M-57 -569q-69 1 -117 15.5t-70 38.5t-30 48t-5 51q5 59 66 124.5t160 111.5l14 -13q-51 -70 -51 -137t48 -111t161 -44q60 0 124.5 26.5t102.5 57.5q62 50 122.5 151t109 212t136 300.5t175.5 351.5l37 68q-273 -337 -460.5 -519.5t-285.5 -178.5q-66 3 -99.5 53.5
t-31.5 134.5q2 143 78 298.5t194.5 281t276 207t311.5 81.5q65 0 165.5 -12t168.5 -33l-2 -2l4 2l8 -2q40 -9 19 -53l-287 -547q-170 -325 -316 -509.5t-304 -307.5q-86 -67 -198.5 -106t-223.5 -39zM1245 1548q-57 -40 -83.5 -69t-26.5 -56q0 -25 33.5 -66t33.5 -61
q0 -51 -52.5 -114.5t-98.5 -63.5q-43 0 -70 46.5t-27 95.5q0 21 5.5 41.5t19 41.5t25.5 38.5t35 39t37 35t41.5 34.5t39 29.5t39.5 28.5t33 23zM254 229q0 -114 59 -114q136 0 691 712l32 60q-80 29 -170 49t-143 20q-82 0 -159 -56t-131.5 -141t-96 -185t-62 -190.5
t-20.5 -154.5z" />
    <glyph glyph-name="Hbar" unicode="&#x126;" horiz-adv-x="1937" 
d="M1438 -16q-57 0 -92 40t-35 107q0 49 18.5 105.5t77.5 173.5l219 432h-694q-120 -263 -195 -398q-51 -93 -152 -180t-215.5 -147t-232.5 -96.5t-207 -36.5q-149 0 -149 39q0 44 45.5 85.5t91.5 41.5q42 0 159.5 -23t170.5 -31q62 21 110.5 73t106.5 157q37 68 75 143
t61.5 123.5t63 131t56.5 118.5h-189v32h205q51 108 123 242h-43v29h60l36 65q47 83 99 134t159 96l101 43l-584 -13q-50 0 -77.5 -17.5t-67.5 -63.5l-19 10q10 14 33.5 46.5t32 44.5t26 34.5t27 34t22.5 25.5t25 24q37 30 103 30h673q23 0 23 -18q0 -13 -60.5 -67.5
t-95.5 -73.5q-15 -7 -29 -15.5t-27 -20t-22.5 -20t-21 -23.5t-18 -23t-17.5 -26t-15.5 -25t-16.5 -27.5t-15 -26.5q-22 -37 -72 -127h701l82 164q60 119 167.5 222.5t225.5 169t235.5 103t208.5 37.5q150 0 150 -39q0 -45 -47 -87t-99 -42q-11 0 -23 1t-27.5 3.5t-28 4.5
t-33 7t-32.5 7.5t-37 9t-36 9.5t-40 11t-40 11q-75 -28 -130 -81t-111 -163l-176 -348h125v-29h-140l-317 -631q-7 -13 -30 -58.5t-36.5 -72.5t-30.5 -65.5t-25.5 -67.5t-8.5 -49q0 -66 61 -66q37 0 79.5 29t109.5 94l18 -18q-123 -122 -204.5 -174.5t-151.5 -52.5zM948 874
h694l121 242h-698q-68 -133 -117 -242z" />
    <glyph glyph-name="hbar" unicode="&#x127;" horiz-adv-x="1210" 
d="M-39 0q-23 0 -31.5 14.5t2.5 34.5l500 922q46 84 98 149h-127v29h150q176 215 434 359.5t510 144.5q168 0 168 -45q0 -50 -63 -105t-150 -55q-18 0 -35.5 1.5t-42.5 6t-41 7.5t-53 12.5t-54 14t-68.5 18.5t-74.5 20q-107 -46 -185 -129.5t-169 -249.5h152v-29h-166
l-17 -30l-350 -670q149 194 303 342q135 131 252.5 204.5t192.5 73.5q49 0 78.5 -33.5t29.5 -84.5q1 -53 -34 -139t-85 -174.5t-100.5 -174t-85.5 -157t-35 -103.5q0 -59 58 -59q59 0 176 110l18 -20q-238 -221 -346 -221q-66 0 -95.5 40t-29.5 89q0 63 35.5 151.5t86 174
t101 167t86 151t35.5 105.5q0 58 -51 58q-44 0 -107.5 -44.5t-160.5 -134.5q-102 -98 -210 -225.5t-196 -257.5l-119 -227q-15 -31 -47 -31h-137z" />
    <glyph glyph-name="Imacron" unicode="&#x12a;" horiz-adv-x="874" 
d="M-201 0q-22 0 -22 18q0 13 40 58t72 69q25 17 45 17h213q24 18 45 39.5t33.5 35.5t29 40t21 33.5t20 35.5t15.5 29q69 124 196.5 394.5t225.5 440.5q47 83 99 134t159 96l88 37h-356q-51 0 -89.5 -22t-76.5 -66l-18 10q10 14 33.5 46.5t32 44.5t26 34.5t27 34t22.5 25.5
t25 24q37 30 124 30h592q23 0 23 -18q0 -14 -38 -59.5t-67 -67.5q-22 -16 -49 -16h-141q-22 -11 -42.5 -27t-33.5 -27.5t-31 -37t-24 -34.5t-25 -41.5t-22 -37.5q-98 -168 -223.5 -440.5t-198.5 -407.5q-31 -55 -56 -86t-82 -70.5t-151 -81.5l-53 -24h315q51 0 89.5 22
t76.5 66l19 -10q-10 -14 -33.5 -46.5t-32 -44.5t-26 -34.5t-27 -34t-22.5 -25.5t-25 -24q-38 -31 -125 -31h-617zM559 1808l-6 9l49 63q21 29 62 29h464l7 -8l-50 -64q-21 -29 -61 -29h-465z" />
    <glyph glyph-name="imacron" unicode="&#x12b;" horiz-adv-x="612" 
d="M141 -16q-59 0 -90 42t-31 95q0 69 58.5 188t128 224t128 205t58.5 136q0 46 -45 46q-64 0 -194 -121l-19 20q238 221 365 221q56 0 83 -31.5t27 -74.5q0 -63 -54.5 -173.5t-120.5 -210t-120.5 -197.5t-54.5 -140q0 -68 68 -68q66 0 151 80l19 -20q-238 -221 -357 -221z
M365 1194l-7 8l50 64q20 28 61 28h465l6 -8l-49 -63q-21 -29 -62 -29h-464z" />
    <glyph glyph-name="Iogonek" unicode="&#x12e;" horiz-adv-x="874" 
d="M-201 0q-22 0 -22 18q0 13 40 58t72 69q25 17 45 17h213q24 18 45 39.5t33.5 35.5t29 40t21 33.5t20 35.5t15.5 29q69 124 196.5 394.5t225.5 440.5q47 83 99 134t159 96l88 37h-356q-51 0 -89.5 -22t-76.5 -66l-18 10q10 14 33.5 46.5t32 44.5t26 34.5t27 34t22.5 25.5
t25 24q37 30 124 30h592q23 0 23 -18q0 -14 -38 -59.5t-67 -67.5q-22 -16 -49 -16h-141q-22 -11 -42.5 -27t-33.5 -27.5t-31 -37t-24 -34.5t-25 -41.5t-22 -37.5q-98 -168 -223.5 -440.5t-198.5 -407.5q-31 -55 -56 -86t-82 -70.5t-151 -81.5l-53 -24h315q51 0 89.5 22
t76.5 66l19 -10q-10 -14 -33.5 -46.5t-32 -44.5t-26 -34.5t-27 -34t-22.5 -25.5t-25 -24q-38 -31 -125 -31h-467q-80 -89 -80 -158q0 -49 31.5 -72.5t72.5 -23.5q56 0 107 33l8 -8l-80 -121q-36 -25 -94 -25q-66 0 -109 39t-43 103q0 92 148 233h-111z" />
    <glyph glyph-name="iogonek" unicode="&#x12f;" horiz-adv-x="612" 
d="M141 -16q-59 0 -90 42t-31 95q0 69 58.5 188t128 224t128 205t58.5 136q0 46 -45 46q-64 0 -194 -121l-19 20q238 221 365 221q56 0 83 -31.5t27 -74.5q0 -63 -54.5 -173.5t-120.5 -210t-120.5 -197.5t-54.5 -140q0 -68 68 -68q66 0 151 80l19 -20q-185 -171 -295 -209
q-97 -100 -97 -176q0 -49 31.5 -72.5t73.5 -23.5q56 0 106 32l9 -8l-80 -121q-34 -24 -94 -24q-66 0 -109 39t-43 102q0 98 156 240h-15zM926 1513q4 3 12.5 11t12.5 12t11 10t11.5 9.5t10 7t9.5 5t8 1.5q19 0 19 -33t-11 -49.5t-51 -46.5l-368 -277l-12 17z" />
    <glyph glyph-name="Idotaccent" unicode="&#x130;" horiz-adv-x="874" 
d="M-201 0q-22 0 -22 18q0 13 40 58t72 69q25 17 45 17h213q24 18 45 39.5t33.5 35.5t29 40t21 33.5t20 35.5t15.5 29q69 124 196.5 394.5t225.5 440.5q47 83 99 134t159 96l88 37h-356q-51 0 -89.5 -22t-76.5 -66l-18 10q10 14 33.5 46.5t32 44.5t26 34.5t27 34t22.5 25.5
t25 24q37 30 124 30h592q23 0 23 -18q0 -14 -38 -59.5t-67 -67.5q-22 -16 -49 -16h-141q-22 -11 -42.5 -27t-33.5 -27.5t-31 -37t-24 -34.5t-25 -41.5t-22 -37.5q-98 -168 -223.5 -440.5t-198.5 -407.5q-31 -55 -56 -86t-82 -70.5t-151 -81.5l-53 -24h315q51 0 89.5 22
t76.5 66l19 -10q-10 -14 -33.5 -46.5t-32 -44.5t-26 -34.5t-27 -34t-22.5 -25.5t-25 -24q-38 -31 -125 -31h-617zM829 1788q-32 0 -63 27.5t-31 70.5q0 44 31 101q29 50 68.5 87t72.5 37q28 0 59 -29.5t31 -72.5t-32 -102q-23 -40 -63.5 -79.5t-72.5 -39.5z" />
    <glyph glyph-name="dotlessi" unicode="&#x131;" horiz-adv-x="612" 
d="M141 -16q-59 0 -90 42t-31 95q0 69 58.5 188t128 224t128 205t58.5 136q0 46 -45 46q-64 0 -194 -121l-19 20q238 221 365 221q56 0 83 -31.5t27 -74.5q0 -63 -54.5 -173.5t-120.5 -210t-120.5 -197.5t-54.5 -140q0 -68 68 -68q66 0 151 80l19 -20q-238 -221 -357 -221z
" />
    <glyph glyph-name="IJ" unicode="&#x132;" horiz-adv-x="2533" 
d="M72 -16q-25 0 -55 2t-68 6t-63 14.5t-25 24.5q0 42 47.5 86.5t97.5 44.5q30 0 85 -9.5t147 -28t149 -28.5q110 34 219 230q83 152 217.5 434.5t231.5 449.5q47 83 99 134t159 96l100 43l-729 -13q-50 0 -77.5 -17.5t-67.5 -63.5l-19 10q10 14 33.5 46.5t32 44.5t26 34.5
t27 34t22.5 25.5t25 24q37 30 105 30h817q22 0 22 -18q0 -13 -60 -67.5t-95 -73.5q-14 -7 -27 -15t-23.5 -15.5t-22 -19.5t-19 -19t-18 -21.5t-15.5 -21.5t-15.5 -24t-14 -22.5t-14.5 -24.5t-14 -24q-97 -166 -219.5 -432.5t-193.5 -395.5q-51 -93 -152 -180t-215.5 -147
t-232.5 -96.5t-207 -36.5zM1231 -365q-111 0 -164 68t-53 174q0 130 75.5 273t226.5 283.5t353 240.5l17 -29q-161 -85 -270.5 -205t-155 -240.5t-41.5 -240.5q2 -60 17.5 -106t53 -77.5t94.5 -31.5q51 0 102 26.5t99 73t103 122t106 160t115 200.5q83 152 217 434.5
t231 449.5q46 82 98.5 132.5t159.5 97.5l95 41l-836 6q-50 0 -77.5 -17.5t-67.5 -64.5l-19 10q10 14 33.5 46.5t32 44.5t26 34.5t27 34t22.5 25.5t25 24q38 31 102 31l942 -4q23 0 23 -19q0 -12 -56.5 -65t-88.5 -76q-17 -8 -32.5 -18t-28 -18.5t-25.5 -21.5t-21.5 -20.5
t-20 -23t-16.5 -22t-16 -24t-14.5 -23t-15 -25t-13.5 -23.5q-92 -159 -212 -422.5t-200 -400.5q-110 -190 -249 -350t-268 -258t-243 -152t-192 -54z" />
    <glyph glyph-name="ij" unicode="&#x133;" horiz-adv-x="1144" 
d="M141 -16q-59 0 -90 42t-31 95q0 69 58.5 188t128 224t128 205t58.5 136q0 46 -45 46q-64 0 -194 -121l-19 20q238 221 365 221q56 0 83 -31.5t27 -74.5q0 -63 -54.5 -173.5t-120.5 -210t-120.5 -197.5t-54.5 -140q0 -68 68 -68q66 0 151 80l19 -20q-238 -221 -357 -221z
M926 1513q4 3 12.5 11t12.5 12t11 10t11.5 9.5t10 7t9.5 5t8 1.5q19 0 19 -33t-11 -49.5t-51 -46.5l-368 -277l-12 17zM23 -426q-20 0 -33 1.5t-25 11t-12 26.5q0 47 57.5 101.5t116.5 54.5q40 0 118 -11.5t124 -15.5q44 23 81 60.5t103.5 148t155.5 301.5q42 89 84.5 178.5
t67.5 141t49 103t36.5 78t22 51.5t13 38.5t3.5 25.5q0 52 -51 52q-65 0 -195 -121l-18 20q238 221 364 221q56 0 82.5 -31.5t28.5 -74.5q1 -53 -40.5 -152.5t-172.5 -369.5q-69 -143 -185.5 -293t-248 -270.5t-273 -197.5t-253.5 -77zM1475 1513q4 3 12.5 11t12.5 12t11 10
t11.5 9.5t10 7t9.5 5t8 1.5q19 0 19 -33t-11 -49.5t-51 -46.5l-368 -277l-13 17z" />
    <glyph glyph-name="uni0136" unicode="&#x136;" horiz-adv-x="1712" 
d="M-276 -16q-150 0 -150 39q0 44 45.5 85.5t91.5 41.5q42 0 159.5 -23t170.5 -31q62 21 110.5 73t106.5 157q83 152 217.5 434.5t231.5 449.5q47 83 99 134t159 96l100 43l-584 -13q-50 0 -77.5 -17.5t-67.5 -63.5l-19 10q10 14 33.5 46.5t32 44.5t26 34.5t27 34t22.5 25.5
t25 24q37 30 103 30h674q22 0 22 -18q0 -13 -60.5 -67.5t-95.5 -73.5q-15 -7 -29 -15.5t-27 -20t-22.5 -20t-21 -23.5t-18 -23t-17.5 -26t-15.5 -25t-16.5 -27.5t-15 -26.5q-36 -63 -69 -123.5t-65 -126.5t-51.5 -108.5t-55 -120t-50.5 -109.5q221 197 459 391.5t377 298.5
q397 281 635 281q125 0 125 -39q0 -45 -51.5 -90t-108.5 -45q-88 0 -264 53q-64 -26 -156 -81.5t-160 -106.5q-120 -87 -399 -318q46 -415 123.5 -671.5t169.5 -256.5q67 0 194 142l19 -19q-115 -122 -201 -180.5t-135 -58.5q-222 0 -322 917q-156 -133 -350 -305
q-40 -85 -78 -152q-51 -93 -151.5 -180t-215 -147t-232.5 -96.5t-207 -36.5zM383 -545q57 41 84 70t27 55t-34 67t-34 60q0 51 53 114.5t99 63.5q43 0 69.5 -46t26.5 -95q0 -21 -5.5 -41.5t-19 -41.5t-25.5 -38.5t-35 -39t-37 -35t-41.5 -34.5t-39 -29.5t-39.5 -28.5
t-33 -23z" />
    <glyph glyph-name="uni0137" unicode="&#x137;" horiz-adv-x="1144" 
d="M-39 0q-23 0 -31.5 14.5t2.5 34.5l500 922q69 128 185 250t256 218.5t304.5 155t319.5 58.5q168 0 168 -45q0 -50 -63 -105t-150 -55q-18 0 -35.5 1.5t-42.5 6t-41 7.5t-53 12.5t-54 14t-68.5 18.5t-74.5 20q-117 -51 -199.5 -145t-185.5 -293l-256 -492
q174 200 364.5 320.5t297.5 123.5q77 1 119.5 -31.5t42.5 -88.5q0 -32 -15.5 -68t-59 -84.5t-110 -96t-179 -101t-255.5 -101.5q10 -36 15 -53t17 -55.5t20.5 -60t22 -54t26 -51t28 -38t33 -28t35.5 -8.5q66 0 157 102l19 -18q-116 -123 -187 -173t-120 -50q-33 0 -65 29.5
t-55.5 70t-49 106.5t-40 113t-34.5 115l-43 -12l-6 28q151 39 269 84.5t190 88t118.5 87.5t64 82.5t17.5 73.5q0 38 -26.5 62t-65.5 24q-73 0 -195.5 -76.5t-243 -192.5t-188.5 -225l-215 -411q-15 -31 -47 -31h-137zM150 -545q57 40 83.5 69t26.5 56q0 26 -33.5 67
t-33.5 60q0 51 52.5 114.5t98.5 63.5q43 0 69.5 -46t26.5 -95q0 -21 -5.5 -41.5t-19 -42t-25 -38.5t-35 -39t-36.5 -34.5t-42 -34.5t-38.5 -29.5t-39.5 -28.5t-33 -23z" />
    <glyph glyph-name="Lacute" unicode="&#x139;" horiz-adv-x="1486" 
d="M864 -23q-180 0 -354 5l-588 18q-19 0 -23.5 4t-4.5 16q0 20 151 138q18 16 51 16l107 -4q81 60 138 169t86.5 219t82.5 294.5t108 327.5q40 102 108.5 184.5t148.5 135.5t175 88t185 50t180 15q105 0 191.5 -15.5t129 -36.5t42.5 -40q0 -44 -50.5 -90t-97.5 -46
q-35 0 -71 7t-84.5 27t-79 33.5t-101.5 48t-104 50.5q-36 -7 -62.5 -18t-64 -42t-71.5 -81t-77.5 -139.5t-89.5 -212.5q-57 -153 -92.5 -244.5t-94.5 -221t-103 -192.5q-65 -93 -125 -151t-156 -119l317 -10l355 -6q64 0 116.5 6.5t83.5 14.5t63 25.5t44.5 26.5t39.5 32
q7 6 11 9l16 -16q-30 -37 -73 -91.5t-67 -82.5t-46 -47q-20 -16 -39 -25.5t-74.5 -19t-136.5 -9.5zM1522 1835l-369 -125l-12 16l350 279q53 43 74 43q18 0 18 -33v-25q0 -87 -8.5 -113.5t-52.5 -41.5z" />
    <glyph glyph-name="lacute" unicode="&#x13a;" horiz-adv-x="600" 
d="M117 -16q-66 0 -95.5 41.5t-29.5 95.5q0 124 125 346l284 504q69 128 185 250t256 218.5t304.5 155t319.5 58.5q168 0 168 -45q0 -50 -63 -105t-150 -55q-18 0 -35.5 1.5t-42 6t-41.5 7.5t-52.5 12.5t-54 14t-68 18t-74.5 20.5q-115 -50 -196 -143.5t-189 -294.5
l-344 -633q-40 -73 -76.5 -161t-36.5 -122q0 -59 61 -59q55 0 172 110l19 -20q-238 -221 -346 -221zM1024 1835l-369 -125l-12 16l350 279q53 43 74 43q18 0 18 -33v-25q0 -87 -8.5 -113.5t-52.5 -41.5z" />
    <glyph glyph-name="uni013B" unicode="&#x13b;" horiz-adv-x="1486" 
d="M864 -23q-180 0 -354 5l-588 18q-19 0 -23.5 4t-4.5 16q0 20 151 138q18 16 51 16l107 -4q81 60 138 169t86.5 219t82.5 294.5t108 327.5q40 102 108.5 184.5t148.5 135.5t175 88t185 50t180 15q105 0 191.5 -15.5t129 -36.5t42.5 -40q0 -44 -50.5 -90t-97.5 -46
q-35 0 -71 7t-84.5 27t-79 33.5t-101.5 48t-104 50.5q-36 -7 -62.5 -18t-64 -42t-71.5 -81t-77.5 -139.5t-89.5 -212.5q-57 -153 -92.5 -244.5t-94.5 -221t-103 -192.5q-65 -93 -125 -151t-156 -119l317 -10l355 -6q64 0 116.5 6.5t83.5 14.5t63 25.5t44.5 26.5t39.5 32
q7 6 11 9l16 -16q-30 -37 -73 -91.5t-67 -82.5t-46 -47q-20 -16 -39 -25.5t-74.5 -19t-136.5 -9.5zM252 -545q57 40 83.5 69t26.5 56q0 26 -33.5 67t-33.5 60q0 51 52.5 114.5t98.5 63.5q44 0 70.5 -46t26.5 -95q0 -21 -5.5 -41.5t-19 -41.5t-25.5 -38.5t-35 -39t-37 -35
t-41.5 -34.5t-39 -29.5t-39.5 -28.5t-33 -23z" />
    <glyph glyph-name="uni013C" unicode="&#x13c;" horiz-adv-x="600" 
d="M117 -16q-66 0 -95.5 41.5t-29.5 95.5q0 124 125 346l284 504q69 128 185 250t256 218.5t304.5 155t319.5 58.5q168 0 168 -45q0 -50 -63 -105t-150 -55q-18 0 -35.5 1.5t-42 6t-41.5 7.5t-52.5 12.5t-54 14t-68 18t-74.5 20.5q-115 -50 -196 -143.5t-189 -294.5
l-344 -633q-40 -73 -76.5 -161t-36.5 -122q0 -59 61 -59q55 0 172 110l19 -20q-238 -221 -346 -221zM-172 -545q57 41 84 70t27 55t-34 67t-34 60q0 51 53 114.5t99 63.5q43 0 69.5 -46t26.5 -95q0 -21 -5.5 -41.5t-19 -41.5t-25.5 -38.5t-35 -39t-37 -35t-41.5 -34.5
t-39 -29.5t-39.5 -28.5t-33 -23z" />
    <glyph glyph-name="Lcaron" unicode="&#x13d;" horiz-adv-x="1486" 
d="M864 -23q-180 0 -354 5l-588 18q-19 0 -23.5 4t-4.5 16q0 20 151 138q18 16 51 16l107 -4q81 60 138 169t86.5 219t82.5 294.5t108 327.5q40 102 108.5 184.5t148.5 135.5t175 88t185 50t180 15q105 0 191.5 -15.5t129 -36.5t42.5 -40q0 -44 -50.5 -90t-97.5 -46
q-35 0 -71 7t-84.5 27t-79 33.5t-101.5 48t-104 50.5q-36 -7 -62.5 -18t-64 -42t-71.5 -81t-77.5 -139.5t-89.5 -212.5q-57 -153 -92.5 -244.5t-94.5 -221t-103 -192.5q-65 -93 -125 -151t-156 -119l317 -10l355 -6q64 0 116.5 6.5t83.5 14.5t63 25.5t44.5 26.5t39.5 32
q7 6 11 9l16 -16q-30 -37 -73 -91.5t-67 -82.5t-46 -47q-20 -16 -39 -25.5t-74.5 -19t-136.5 -9.5zM1143 973q57 40 83.5 69t26.5 56q0 26 -33.5 67t-33.5 60q0 51 52.5 114.5t98.5 63.5q44 0 70.5 -46t26.5 -95q0 -21 -5.5 -41.5t-19.5 -42t-25 -38.5t-35 -39.5
t-36.5 -34.5t-42 -34.5t-39 -29.5t-40 -28.5t-32.5 -23.5z" />
    <glyph glyph-name="lcaron" unicode="&#x13e;" horiz-adv-x="600" 
d="M117 -16q-66 0 -95.5 41.5t-29.5 95.5q0 124 125 346l284 504q69 128 185 250t256 218.5t304.5 155t319.5 58.5q168 0 168 -45q0 -50 -63 -105t-150 -55q-18 0 -35.5 1.5t-42 6t-41.5 7.5t-52.5 12.5t-54 14t-68 18t-74.5 20.5q-115 -50 -196 -143.5t-189 -294.5
l-344 -633q-40 -73 -76.5 -161t-36.5 -122q0 -59 61 -59q55 0 172 110l19 -20q-238 -221 -346 -221zM870 997q57 41 84 70t27 55t-34 67t-34 60q0 51 53 114.5t99 63.5q43 0 69.5 -46t26.5 -95q0 -21 -5.5 -41.5t-19 -42t-25 -38.5t-35 -39t-36.5 -34.5t-42 -34.5
t-38.5 -29.5t-39.5 -28.5t-33 -23z" />
    <glyph glyph-name="Lslash" unicode="&#x141;" horiz-adv-x="1486" 
d="M864 -23q-180 0 -354 5l-588 18q-19 0 -23.5 4t-4.5 16q0 20 151 138q18 16 51 16l107 -4q43 32 78.5 77.5t60 89.5t50 114.5t41 122.5t40.5 143l-90 -39l-12 29l112 47q84 293 135 426q40 102 108.5 184.5t148.5 135.5t175 88t185 50t180 15q105 0 191.5 -15.5
t129 -36.5t42.5 -40q0 -44 -50.5 -90t-97.5 -46q-35 0 -71 7t-84.5 27t-79 33.5t-101.5 48t-104 50.5q-36 -7 -62.5 -18t-64 -42t-71.5 -81t-77.5 -139.5t-89.5 -212.5l-90 -236l277 117l12 -29l-305 -129q-103 -266 -184 -381q-65 -93 -125 -151t-156 -119l317 -10l355 -6
q64 0 116.5 6.5t83.5 14.5t63 25.5t44.5 26.5t39.5 32q7 6 11 9l16 -16q-30 -37 -73 -91.5t-67 -82.5t-46 -47q-20 -16 -39 -25.5t-74.5 -19t-136.5 -9.5z" />
    <glyph glyph-name="lslash" unicode="&#x142;" horiz-adv-x="600" 
d="M117 -16q-66 0 -95.5 41.5t-29.5 95.5q0 124 125 346l176 311l-168 -71l-12 28l204 88l84 148q69 128 185 250t256 218.5t304.5 155t319.5 58.5q168 0 168 -45q0 -50 -63 -105t-150 -55q-18 0 -35.5 1.5t-42 6t-41.5 7.5t-52.5 12.5t-54 14t-68 18t-74.5 20.5
q-115 -50 -196 -143.5t-189 -294.5l-84 -154l170 72l12 -29l-207 -88l-235 -434q-40 -73 -76.5 -161t-36.5 -122q0 -59 61 -59q55 0 172 110l19 -20q-238 -221 -346 -221z" />
    <glyph glyph-name="Nacute" unicode="&#x143;" horiz-adv-x="1945" 
d="M1417 -16q-23 0 -28 49l-164 1411q-169 -394 -408 -780q-59 -94 -103 -159t-101 -141.5t-106 -127.5t-110.5 -102.5t-122 -81t-133.5 -48.5t-151 -20q-79 0 -148 13t-69 38q0 43 49 83t96 40q54 0 187 -14t214 -19q199 129 465 555q248 396 416 803l-594 -13
q-50 0 -77.5 -17.5t-67.5 -63.5l-19 10q10 14 33.5 46.5t32 44.5t26 34.5t27 34t22.5 25.5t25 24q37 30 103 30h641q25 0 31.5 -8.5t9.5 -38.5l159 -1288l381 787q47 93 80 153.5t75 126t79.5 105.5t86.5 78t103 58t121.5 32t149.5 12q159 0 159 -39q0 -44 -45.5 -88.5
t-91.5 -44.5q-16 0 -33 1t-31.5 2.5t-38 5t-37.5 5.5t-45.5 8t-47 9.5t-57.5 11.5t-62 12q-67 -37 -136.5 -127t-158.5 -268q-293 -590 -461 -955q-71 -154 -86 -176q-19 -28 -39 -28zM2146 1835l-368 -125l-13 16l351 279q53 43 73 43q19 0 19 -33q0 -109 -7 -131
q-9 -31 -47 -46q-4 -1 -8 -3z" />
    <glyph glyph-name="nacute" unicode="&#x144;" horiz-adv-x="1226" 
d="M-20 0q-24 0 -31 14t6 37q135 230 270 491t135 326q0 52 -51 52q-64 0 -194 -121l-19 20q238 221 365 221q56 0 83 -31.5t27 -74.5q0 -114 -202 -508q139 179 299 336q136 131 252.5 204.5t191.5 73.5q49 0 79 -34t30 -84q1 -53 -34 -139t-85 -174.5t-100.5 -174
t-85.5 -157t-35 -103.5q0 -59 57 -59q59 0 176 110l19 -20q-238 -221 -347 -221q-66 0 -95 40t-29 89q0 77 54 194.5t118 216.5t118 197t54 141q0 58 -52 58q-44 0 -107.5 -44.5t-160.5 -134.5q-222 -212 -410 -487q-78 -144 -131 -225q-17 -29 -49 -29h-116zM1098 1282
l-324 -113l-10 21l313 305q27 27 47 27q27 0 40.5 -34t13.5 -73q0 -47 -22.5 -84t-57.5 -49z" />
    <glyph glyph-name="uni0145" unicode="&#x145;" horiz-adv-x="1945" 
d="M1417 -16q-23 0 -28 49l-164 1411q-169 -394 -408 -780q-59 -94 -103 -159t-101 -141.5t-106 -127.5t-110.5 -102.5t-122 -81t-133.5 -48.5t-151 -20q-79 0 -148 13t-69 38q0 43 49 83t96 40q54 0 187 -14t214 -19q199 129 465 555q248 396 416 803l-594 -13
q-50 0 -77.5 -17.5t-67.5 -63.5l-19 10q10 14 33.5 46.5t32 44.5t26 34.5t27 34t22.5 25.5t25 24q37 30 103 30h641q25 0 31.5 -8.5t9.5 -38.5l159 -1288l381 787q47 93 80 153.5t75 126t79.5 105.5t86.5 78t103 58t121.5 32t149.5 12q159 0 159 -39q0 -44 -45.5 -88.5
t-91.5 -44.5q-16 0 -33 1t-31.5 2.5t-38 5t-37.5 5.5t-45.5 8t-47 9.5t-57.5 11.5t-62 12q-67 -37 -136.5 -127t-158.5 -268q-293 -590 -461 -955q-71 -154 -86 -176q-19 -28 -39 -28zM950 -545q57 41 84 70t27 55t-34 67t-34 60q0 51 53 114.5t99 63.5q43 0 69.5 -46
t26.5 -95q0 -21 -5.5 -41.5t-19 -42t-25 -38.5t-35 -39t-36.5 -34.5t-42 -34.5t-38.5 -29.5t-39.5 -28.5t-33 -23z" />
    <glyph glyph-name="uni0146" unicode="&#x146;" horiz-adv-x="1226" 
d="M-20 0q-24 0 -31 14t6 37q135 230 270 491t135 326q0 52 -51 52q-64 0 -194 -121l-19 20q238 221 365 221q56 0 83 -31.5t27 -74.5q0 -114 -202 -508q139 179 299 336q136 131 252.5 204.5t191.5 73.5q49 0 79 -34t30 -84q1 -53 -34 -139t-85 -174.5t-100.5 -174
t-85.5 -157t-35 -103.5q0 -59 57 -59q59 0 176 110l19 -20q-238 -221 -347 -221q-66 0 -95 40t-29 89q0 77 54 194.5t118 216.5t118 197t54 141q0 58 -52 58q-44 0 -107.5 -44.5t-160.5 -134.5q-222 -212 -410 -487q-78 -144 -131 -225q-17 -29 -49 -29h-116zM31 -545
q57 40 83.5 69t26.5 56q0 26 -33.5 67t-33.5 60q0 51 52.5 114.5t98.5 63.5q44 0 70.5 -46t26.5 -95q0 -21 -5.5 -41.5t-19 -41.5t-25.5 -38.5t-35 -39t-37 -35t-41.5 -34.5t-39 -29.5t-39.5 -28.5t-33 -23z" />
    <glyph glyph-name="Ncaron" unicode="&#x147;" horiz-adv-x="1945" 
d="M1417 -16q-23 0 -28 49l-164 1411q-169 -394 -408 -780q-59 -94 -103 -159t-101 -141.5t-106 -127.5t-110.5 -102.5t-122 -81t-133.5 -48.5t-151 -20q-79 0 -148 13t-69 38q0 43 49 83t96 40q54 0 187 -14t214 -19q199 129 465 555q248 396 416 803l-594 -13
q-50 0 -77.5 -17.5t-67.5 -63.5l-19 10q10 14 33.5 46.5t32 44.5t26 34.5t27 34t22.5 25.5t25 24q37 30 103 30h641q25 0 31.5 -8.5t9.5 -38.5l159 -1288l381 787q47 93 80 153.5t75 126t79.5 105.5t86.5 78t103 58t121.5 32t149.5 12q159 0 159 -39q0 -44 -45.5 -88.5
t-91.5 -44.5q-16 0 -33 1t-31.5 2.5t-38 5t-37.5 5.5t-45.5 8t-47 9.5t-57.5 11.5t-62 12q-67 -37 -136.5 -127t-158.5 -268q-293 -590 -461 -955q-71 -154 -86 -176q-19 -28 -39 -28zM1827 1985q32 0 49 -25q62 -85 104 -127q112 53 236 158l20 -21q-262 -205 -360 -205
q-22 0 -87 69.5t-110 137.5l11 13h137z" />
    <glyph glyph-name="ncaron" unicode="&#x148;" horiz-adv-x="1226" 
d="M-20 0q-24 0 -31 14t6 37q135 230 270 491t135 326q0 52 -51 52q-64 0 -194 -121l-19 20q238 221 365 221q56 0 83 -31.5t27 -74.5q0 -114 -202 -508q139 179 299 336q136 131 252.5 204.5t191.5 73.5q49 0 79 -34t30 -84q1 -53 -34 -139t-85 -174.5t-100.5 -174
t-85.5 -157t-35 -103.5q0 -59 57 -59q59 0 176 110l19 -20q-238 -221 -347 -221q-66 0 -95 40t-29 89q0 77 54 194.5t118 216.5t118 197t54 141q0 58 -52 58q-44 0 -107.5 -44.5t-160.5 -134.5q-222 -212 -410 -487q-78 -144 -131 -225q-17 -29 -49 -29h-116zM786 1446
q33 0 50 -25q62 -85 104 -127q112 53 236 158l20 -20q-262 -205 -360 -205q-22 0 -87 69.5t-110 137.5l10 12h137z" />
    <glyph glyph-name="Omacron" unicode="&#x14c;" horiz-adv-x="1808" 
d="M848 -16q-158 0 -285 55t-208.5 149.5t-125 219t-43.5 266.5q0 149 58.5 298t159 269.5t226.5 215t270 146.5t280 52q150 0 272 -53t200.5 -146.5t120 -219.5t39.5 -273q-2 -150 -58.5 -298.5t-152.5 -269t-217 -214t-261 -145.5t-275 -52zM1024 102q143 0 261.5 60
t193.5 158.5t116 221t41 251.5q1 179 -49 325t-136 239t-197 143t-234 50q-143 0 -268.5 -63.5t-209.5 -166.5t-132 -234t-48 -267q0 -331 179.5 -524t482.5 -193zM1262 1808l-7 9l50 63q21 29 61 29h465l6 -8l-49 -64q-21 -29 -62 -29h-464z" />
    <glyph glyph-name="omacron" unicode="&#x14d;" horiz-adv-x="1019" 
d="M262 -16q-109 0 -172 72t-63 182q0 87 36.5 184t97 184t140 167.5t162.5 139t167.5 93t153.5 34.5q51 0 90.5 -16.5t62 -41t36.5 -57.5t19 -61.5t5 -58.5q0 -108 -40.5 -217.5t-105.5 -197.5t-146 -165t-163 -129t-155.5 -82t-124.5 -30zM410 84q68 0 130.5 45.5
t107.5 117.5t78.5 158.5t50 171t16.5 152.5q0 104 -45 155.5t-127 51.5q-83 0 -158 -59t-124.5 -149.5t-78.5 -197t-29 -204.5q0 -44 7.5 -82t25.5 -76.5t55.5 -61t90.5 -22.5zM608 1194l-6 8l49 64q20 28 62 28h465l6 -8l-49 -63q-21 -29 -62 -29h-465z" />
    <glyph glyph-name="Ohungarumlaut" unicode="&#x150;" horiz-adv-x="1808" 
d="M848 -16q-158 0 -285 55t-208.5 149.5t-125 219t-43.5 266.5q0 149 58.5 298t159 269.5t226.5 215t270 146.5t280 52q150 0 272 -53t200.5 -146.5t120 -219.5t39.5 -273q-2 -150 -58.5 -298.5t-152.5 -269t-217 -214t-261 -145.5t-275 -52zM1024 102q143 0 261.5 60
t193.5 158.5t116 221t41 251.5q1 179 -49 325t-136 239t-197 143t-234 50q-143 0 -268.5 -63.5t-209.5 -166.5t-132 -234t-48 -267q0 -331 179.5 -524t482.5 -193zM1282 1716l-10 10l289 238q63 52 83 60q10 4 19 4q14 0 37.5 -16.5t23.5 -29.5t-15 -27.5t-58 -37.5z
M1569 1716l-10 10l286 222q6 4 17 13t15.5 12.5l13.5 10.5t13.5 9.5t11.5 7t11.5 6t10 3t10.5 1.5q14 0 37.5 -16t23.5 -29q0 -27 -74 -65z" />
    <glyph glyph-name="ohungarumlaut" unicode="&#x151;" horiz-adv-x="1019" 
d="M262 -16q-109 0 -172 72t-63 182q0 87 36.5 184t97 184t140 167.5t162.5 139t167.5 93t153.5 34.5q51 0 90.5 -16.5t62 -41t36.5 -57.5t19 -61.5t5 -58.5q0 -108 -40.5 -217.5t-105.5 -197.5t-146 -165t-163 -129t-155.5 -82t-124.5 -30zM410 84q68 0 130.5 45.5
t107.5 117.5t78.5 158.5t50 171t16.5 152.5q0 104 -45 155.5t-127 51.5q-83 0 -158 -59t-124.5 -149.5t-78.5 -197t-29 -204.5q0 -44 7.5 -82t25.5 -76.5t55.5 -61t90.5 -22.5zM938 1477q9 9 22 22.5t18 18.5t13 11.5t14.5 8.5t14.5 2q15 0 35 -11t20 -24q0 -26 -67 -75
l-367 -267h-23zM1225 1477q9 9 22 22.5t18 18.5t13 11.5t14.5 8.5t14.5 2q15 0 35 -11t20 -24q0 -25 -68 -75l-366 -267h-23z" />
    <glyph glyph-name="OE" unicode="&#x152;" horiz-adv-x="2826" 
d="M848 -16q-158 0 -285 55t-208.5 149.5t-125 219t-43.5 266.5q0 149 58.5 298t159 269.5t226.5 215t270 146.5t280 52q128 0 237 -39l-18 39q72 0 270 -8.5t320 -8.5h1048q115 0 115 -71q3 -100 -250 -289l-16 25q104 71 104 114q0 28 -23.5 34.5t-87.5 6.5h-493
q-27 -20 -49 -41.5t-44.5 -54t-31.5 -47t-35 -58.5q-98 -169 -192 -383h671v-32h-688q-104 -239 -205 -418q-41 -73 -86.5 -119.5t-115.5 -83.5l-78 -41h936q50 0 77.5 17.5t67.5 64.5l19 -10q-23 -32 -61 -88t-60.5 -85t-44.5 -48q-38 -31 -103 -31h-1052q-19 0 -24 4
t-5 16t56.5 64.5t88.5 75.5q54 46 132 182l2 4q-143 -166 -333.5 -264t-379.5 -98zM1024 102q143 0 261.5 60t193.5 158.5t116 221t41 251.5q1 179 -49 325t-136 239t-197 143t-234 50q-143 0 -268.5 -63.5t-209.5 -166.5t-132 -234t-48 -267q0 -331 179.5 -524t482.5 -193z
M1571 1532q119 -92 181.5 -240t59.5 -329q0 -59 -14 -138q102 217 191 371q46 81 93 130t128 83l117 49h-338q-129 0 -418 74z" />
    <glyph glyph-name="oe" unicode="&#x153;" horiz-adv-x="1603" 
d="M262 -16q-109 0 -172 72t-63 182q0 87 36.5 184t97 184t140 167.5t162.5 139t167.5 93t153.5 34.5q51 0 90.5 -16.5t62 -41t36.5 -57.5t19 -61.5t5 -58.5q0 -29 -2 -41q124 124 266.5 199.5t266.5 74.5q77 0 117.5 -34.5t40.5 -92.5q0 -54 -31 -105.5t-120.5 -127
t-225 -167.5t-369.5 -239q13 -72 64.5 -111.5t128.5 -39.5q67 0 132.5 28t151.5 101l19 -19q-127 -112 -254.5 -178.5t-208.5 -66.5q-65 -1 -115.5 22.5t-78 61t-41 77.5t-13.5 80v17q-117 -116 -249.5 -188t-213.5 -72zM410 84q68 0 130.5 45.5t107.5 117.5t78.5 158.5
t50 171t16.5 152.5q0 104 -45 155.5t-127 51.5q-83 0 -158 -59t-124.5 -149.5t-78.5 -197t-29 -204.5q0 -44 7.5 -82t25.5 -76.5t55.5 -61t90.5 -22.5zM936 311v-8q164 103 270.5 181t166.5 141t83 112t23 101q0 50 -31.5 82t-89.5 32q-78 0 -158 -62.5t-138.5 -156.5
t-94 -208.5t-31.5 -213.5z" />
    <glyph glyph-name="Racute" unicode="&#x154;" horiz-adv-x="1576" 
d="M-4 0q-23 0 -23 18q0 12 57 65.5t89 76.5q56 54 131 182q89 156 215.5 455t218.5 458q44 79 91.5 127.5t129.5 85.5l4 2h-327q-50 0 -78.5 -17.5t-67.5 -63.5l-18 10q10 14 33.5 46.5t32 44.5t26 34.5t27 34t22.5 25.5t25 24q37 30 102 30h535q107 0 193 -18t140.5 -47.5
t91 -69.5t51.5 -81.5t15 -86.5q0 -91 -40.5 -177t-115.5 -157t-194 -116t-264 -49q71 -368 138.5 -552t137.5 -184q64 0 164 103l18 -19q-200 -200 -299 -200q-121 0 -195.5 182.5t-162.5 669.5h-203q-111 -273 -192 -412q-41 -72 -87 -119t-116 -84l-100 -51l309 14
q14 0 18 -2.5t4 -9.5q0 -15 -39.5 -77.5t-62.5 -80.5q-16 -14 -59 -14h-375zM1614 1835l-369 -125l-12 16l350 279q53 43 74 43q18 0 18 -33v-25q0 -87 -8.5 -113.5t-52.5 -41.5zM711 868h383q100 0 177 23t123 59.5t75 86.5t39.5 98.5t9.5 101.5q-1 68 -31.5 115t-88 72
t-126.5 35.5t-160 10.5h-84q-13 -13 -24.5 -26.5t-24 -32.5t-18 -28t-21 -35t-18.5 -31q-101 -175 -211 -449z" />
    <glyph glyph-name="racute" unicode="&#x155;" horiz-adv-x="980" 
d="M-20 0q-24 0 -31 14t6 37q135 230 270 491t135 326q0 52 -51 52q-64 0 -194 -121l-19 20q238 221 365 221q56 0 83 -31.5t27 -74.5q0 -69 -77 -250q119 170 242 263t263 93q48 0 95 -11.5t47 -37.5q0 -42 -48.5 -95.5t-105.5 -53.5q-95 0 -270 51q-72 -54 -158.5 -166.5
t-169.5 -261.5q-144 -285 -244 -436q-17 -29 -49 -29h-116zM903 1282l-323 -113l-11 21l314 305q27 27 47 27q26 0 39.5 -34t13.5 -73q0 -47 -22.5 -84t-57.5 -49z" />
    <glyph glyph-name="uni0156" unicode="&#x156;" horiz-adv-x="1576" 
d="M-4 0q-23 0 -23 18q0 12 57 65.5t89 76.5q56 54 131 182q89 156 215.5 455t218.5 458q44 79 91.5 127.5t129.5 85.5l4 2h-327q-50 0 -78.5 -17.5t-67.5 -63.5l-18 10q10 14 33.5 46.5t32 44.5t26 34.5t27 34t22.5 25.5t25 24q37 30 102 30h535q107 0 193 -18t140.5 -47.5
t91 -69.5t51.5 -81.5t15 -86.5q0 -91 -40.5 -177t-115.5 -157t-194 -116t-264 -49q71 -368 138.5 -552t137.5 -184q64 0 164 103l18 -19q-200 -200 -299 -200q-121 0 -195.5 182.5t-162.5 669.5h-203q-111 -273 -192 -412q-41 -72 -87 -119t-116 -84l-100 -51l309 14
q14 0 18 -2.5t4 -9.5q0 -15 -39.5 -77.5t-62.5 -80.5q-16 -14 -59 -14h-375zM418 -545q57 40 83.5 69t26.5 56q0 26 -33.5 67t-33.5 60q0 51 52.5 114.5t98.5 63.5q44 0 70.5 -46t26.5 -95q0 -21 -5.5 -41.5t-19 -41.5t-25.5 -38.5t-35 -39t-37 -35t-41.5 -34.5t-39 -29.5
t-39.5 -28.5t-33 -23zM711 868h383q100 0 177 23t123 59.5t75 86.5t39.5 98.5t9.5 101.5q-1 68 -31.5 115t-88 72t-126.5 35.5t-160 10.5h-84q-13 -13 -24.5 -26.5t-24 -32.5t-18 -28t-21 -35t-18.5 -31q-101 -175 -211 -449z" />
    <glyph glyph-name="uni0157" unicode="&#x157;" horiz-adv-x="980" 
d="M-20 0q-24 0 -31 14t6 37q135 230 270 491t135 326q0 52 -51 52q-64 0 -194 -121l-19 20q238 221 365 221q56 0 83 -31.5t27 -74.5q0 -69 -77 -250q119 170 242 263t263 93q48 0 95 -11.5t47 -37.5q0 -42 -48.5 -95.5t-105.5 -53.5q-95 0 -270 51q-72 -54 -158.5 -166.5
t-169.5 -261.5q-144 -285 -244 -436q-17 -29 -49 -29h-116zM-61 -545q57 40 83.5 69t26.5 56q0 26 -33.5 67t-33.5 60q0 51 52.5 114.5t98.5 63.5q43 0 69.5 -46t26.5 -95q0 -21 -5.5 -41.5t-19 -42t-25 -38.5t-35 -39t-36.5 -34.5t-42 -34.5t-38.5 -29.5t-39.5 -28.5
t-33 -23z" />
    <glyph glyph-name="Rcaron" unicode="&#x158;" horiz-adv-x="1576" 
d="M-4 0q-23 0 -23 18q0 12 57 65.5t89 76.5q56 54 131 182q89 156 215.5 455t218.5 458q44 79 91.5 127.5t129.5 85.5l4 2h-327q-50 0 -78.5 -17.5t-67.5 -63.5l-18 10q10 14 33.5 46.5t32 44.5t26 34.5t27 34t22.5 25.5t25 24q37 30 102 30h535q107 0 193 -18t140.5 -47.5
t91 -69.5t51.5 -81.5t15 -86.5q0 -91 -40.5 -177t-115.5 -157t-194 -116t-264 -49q71 -368 138.5 -552t137.5 -184q64 0 164 103l18 -19q-200 -200 -299 -200q-121 0 -195.5 182.5t-162.5 669.5h-203q-111 -273 -192 -412q-41 -72 -87 -119t-116 -84l-100 -51l309 14
q14 0 18 -2.5t4 -9.5q0 -15 -39.5 -77.5t-62.5 -80.5q-16 -14 -59 -14h-375zM1294 1985q32 0 49 -25q59 -81 105 -127q110 52 235 158l21 -21q-262 -205 -361 -205q-22 0 -86.5 69.5t-109.5 137.5l10 13h137zM711 868h383q100 0 177 23t123 59.5t75 86.5t39.5 98.5
t9.5 101.5q-1 68 -31.5 115t-88 72t-126.5 35.5t-160 10.5h-84q-13 -13 -24.5 -26.5t-24 -32.5t-18 -28t-21 -35t-18.5 -31q-101 -175 -211 -449z" />
    <glyph glyph-name="rcaron" unicode="&#x159;" horiz-adv-x="980" 
d="M-20 0q-24 0 -31 14t6 37q135 230 270 491t135 326q0 52 -51 52q-64 0 -194 -121l-19 20q238 221 365 221q56 0 83 -31.5t27 -74.5q0 -69 -77 -250q119 170 242 263t263 93q48 0 95 -11.5t47 -37.5q0 -42 -48.5 -95.5t-105.5 -53.5q-95 0 -270 51q-72 -54 -158.5 -166.5
t-169.5 -261.5q-144 -285 -244 -436q-17 -29 -49 -29h-116zM592 1446q32 0 49 -25q62 -85 104 -127q112 53 236 158l20 -20q-262 -205 -360 -205q-22 0 -87 69.5t-110 137.5l11 12h137z" />
    <glyph glyph-name="Sacute" unicode="&#x15a;" horiz-adv-x="1310" 
d="M399 -12q-182 0 -334.5 45t-152.5 92q0 42 65 90.5t127 48.5q38 0 125 -33t165.5 -69.5t226.5 -108.5q60 13 121.5 37t121.5 61t106 81.5t74.5 103t28.5 121.5q0 28 -9.5 55t-22 49t-37.5 44.5t-44 38.5t-55 35.5t-56 30t-61.5 28t-58 24t-57.5 22.5q-43 16 -70.5 27
t-71 32t-71.5 39t-61.5 45.5t-52.5 56.5t-32.5 66.5t-13.5 79.5q0 99 74 195.5t196.5 168.5t291 116.5t345.5 44.5q346 0 346 -101q0 -55 -63 -125.5t-186 -162.5l-17 24q105 72 105 115q0 17 -10.5 35t-39.5 38.5t-74 36.5t-122.5 26.5t-175.5 10.5q-142 0 -261 -37
t-190.5 -105.5t-71.5 -154.5q0 -95 83.5 -161t304.5 -152q52 -21 88.5 -36.5t87 -41t85 -51.5t67 -59t49 -72.5t16.5 -83.5q0 -111 -70 -222t-183.5 -196t-266 -138.5t-308.5 -53.5zM1466 1835l-368 -125l-13 16l351 279q53 43 73 43q19 0 19 -33q0 -109 -7 -131
q-9 -31 -47 -46q-4 -1 -8 -3z" />
    <glyph glyph-name="sacute" unicode="&#x15b;" horiz-adv-x="755" 
d="M113 -14q-67 0 -113 14t-67 38t-28.5 48t-4.5 51q5 57 60.5 112.5t156.5 102.5l14 -12q-51 -70 -51 -137q0 -65 39.5 -108t122.5 -44q78 -2 131 52t53 139q0 52 -26.5 117.5t-58.5 118t-58.5 116t-26.5 111.5q0 88 68.5 166t178.5 122.5t230 44.5q65 0 128 -15t63 -42
q0 -48 -40.5 -95.5t-105.5 -47.5q-32 0 -85.5 20t-88 37.5t-117.5 60.5q-59 -33 -59 -112q0 -45 18.5 -98.5t45 -102.5t52 -98.5t42.5 -104t14 -102.5q-4 -67 -52.5 -133t-119.5 -113t-155.5 -76.5t-159.5 -29.5zM936 1282l-324 -113l-10 21l313 305q27 27 48 27
q26 0 39.5 -34t13.5 -73q0 -47 -22.5 -84t-57.5 -49z" />
    <glyph glyph-name="Scedilla" unicode="&#x15e;" horiz-adv-x="1310" 
d="M399 -12q-182 0 -334.5 45t-152.5 92q0 42 65 90.5t127 48.5q38 0 125 -33t165.5 -69.5t226.5 -108.5q60 13 121.5 37t121.5 61t106 81.5t74.5 103t28.5 121.5q0 28 -9.5 55t-22 49t-37.5 44.5t-44 38.5t-55 35.5t-56 30t-61.5 28t-58 24t-57.5 22.5q-43 16 -70.5 27
t-71 32t-71.5 39t-61.5 45.5t-52.5 56.5t-32.5 66.5t-13.5 79.5q0 99 74 195.5t196.5 168.5t291 116.5t345.5 44.5q346 0 346 -101q0 -55 -63 -125.5t-186 -162.5l-17 24q105 72 105 115q0 17 -10.5 35t-39.5 38.5t-74 36.5t-122.5 26.5t-175.5 10.5q-142 0 -261 -37
t-190.5 -105.5t-71.5 -154.5q0 -95 83.5 -161t304.5 -152q52 -21 88.5 -36.5t87 -41t85 -51.5t67 -59t49 -72.5t16.5 -83.5q0 -137 -100.5 -269.5t-269.5 -223.5t-359 -111l-111 -94q63 9 109.5 1.5t76.5 -28.5t45 -47t15 -53q0 -101 -97 -181.5t-217 -80.5
q-68 0 -110.5 25.5t-42.5 55.5q0 23 27.5 47.5t54.5 24.5t56 -23t62.5 -46t71.5 -23q48 0 78.5 31t30.5 73q0 46 -48 80.5t-139 34.5q-57 0 -120 -14l-11 12l230 201q-20 -2 -60 -2z" />
    <glyph glyph-name="scedilla" unicode="&#x15f;" horiz-adv-x="755" 
d="M113 -14q-67 0 -113 14t-67 38t-28.5 48t-4.5 51q5 57 60.5 112.5t156.5 102.5l14 -12q-51 -70 -51 -137q0 -65 39.5 -108t122.5 -44q78 -2 131 52t53 139q0 52 -26.5 117.5t-58.5 118t-58.5 116t-26.5 111.5q0 88 68.5 166t178.5 122.5t230 44.5q65 0 128 -15t63 -42
q0 -48 -40.5 -95.5t-105.5 -47.5q-32 0 -85.5 20t-88 37.5t-117.5 60.5q-59 -33 -59 -112q0 -45 18.5 -98.5t45 -102.5t52 -98.5t42.5 -104t14 -102.5q-6 -114 -129 -213t-270 -129l-113 -96q63 9 109.5 1.5t76.5 -28.5t45 -47t15 -53q0 -101 -97 -181.5t-217 -80.5
q-68 0 -110.5 25.5t-42.5 55.5q0 23 27.5 47.5t54.5 24.5t56 -23t62.5 -46t71.5 -23q48 0 78.5 31t30.5 73q0 46 -48 80.5t-139 34.5q-57 0 -120 -14l-11 12l228 199q-14 -2 -45 -2z" />
    <glyph glyph-name="Scaron" unicode="&#x160;" horiz-adv-x="1310" 
d="M399 -12q-182 0 -334.5 45t-152.5 92q0 42 65 90.5t127 48.5q38 0 125 -33t165.5 -69.5t226.5 -108.5q60 13 121.5 37t121.5 61t106 81.5t74.5 103t28.5 121.5q0 28 -9.5 55t-22 49t-37.5 44.5t-44 38.5t-55 35.5t-56 30t-61.5 28t-58 24t-57.5 22.5q-43 16 -70.5 27
t-71 32t-71.5 39t-61.5 45.5t-52.5 56.5t-32.5 66.5t-13.5 79.5q0 99 74 195.5t196.5 168.5t291 116.5t345.5 44.5q346 0 346 -101q0 -55 -63 -125.5t-186 -162.5l-17 24q105 72 105 115q0 17 -10.5 35t-39.5 38.5t-74 36.5t-122.5 26.5t-175.5 10.5q-142 0 -261 -37
t-190.5 -105.5t-71.5 -154.5q0 -95 83.5 -161t304.5 -152q52 -21 88.5 -36.5t87 -41t85 -51.5t67 -59t49 -72.5t16.5 -83.5q0 -111 -70 -222t-183.5 -196t-266 -138.5t-308.5 -53.5zM1147 1985q32 0 49 -25q62 -85 104 -127q112 53 236 158l20 -21q-262 -205 -360 -205
q-22 0 -87 69.5t-110 137.5l11 13h137z" />
    <glyph glyph-name="scaron" unicode="&#x161;" horiz-adv-x="755" 
d="M113 -14q-67 0 -113 14t-67 38t-28.5 48t-4.5 51q5 57 60.5 112.5t156.5 102.5l14 -12q-51 -70 -51 -137q0 -65 39.5 -108t122.5 -44q78 -2 131 52t53 139q0 52 -26.5 117.5t-58.5 118t-58.5 116t-26.5 111.5q0 88 68.5 166t178.5 122.5t230 44.5q65 0 128 -15t63 -42
q0 -48 -40.5 -95.5t-105.5 -47.5q-32 0 -85.5 20t-88 37.5t-117.5 60.5q-59 -33 -59 -112q0 -45 18.5 -98.5t45 -102.5t52 -98.5t42.5 -104t14 -102.5q-4 -67 -52.5 -133t-119.5 -113t-155.5 -76.5t-159.5 -29.5zM625 1446q32 0 49 -25q62 -85 104 -127q112 53 236 158
l20 -20q-262 -205 -360 -205q-22 0 -87 69.5t-110 137.5l10 12h138z" />
    <glyph glyph-name="uni0162" unicode="&#x162;" horiz-adv-x="1202" 
d="M254 0q-23 0 -23 18q0 12 57 65.5t89 76.5q17 19 32 37.5t25 31.5t22.5 32t18 27t18 28.5t15.5 25.5q95 165 221 436.5t203 409.5q42 78 89.5 127t129.5 86l121 55h-676q-50 0 -77.5 -17.5t-67.5 -64.5l-19 10q19 26 50 70l46.5 66t37 47.5t38.5 40.5q37 30 103 30h1265
q25 0 25 -14q0 -12 -52.5 -68t-84.5 -86q-16 -14 -60 -14h-465q-55 -38 -90.5 -86t-75.5 -123q-78 -139 -197.5 -401.5t-209.5 -421.5q-41 -72 -87 -119t-116 -84l-113 -59l322 22q23 0 23 -12q0 -15 -40 -77.5t-63 -80.5q-16 -14 -59 -14h-240l-119 -100q63 9 109.5 1.5
t76.5 -28.5t45 -47t15 -53q0 -101 -96.5 -181.5t-216.5 -80.5q-68 0 -111 25.5t-43 55.5q0 23 27.5 47.5t54.5 24.5t56 -23t63 -46t72 -23q48 0 78 31t30 73q0 46 -47.5 80.5t-138.5 34.5q-58 0 -121 -14l-10 12l241 211h-100z" />
    <glyph glyph-name="uni0163" unicode="&#x163;" horiz-adv-x="710" 
d="M889 1004l-15 -29h-256l-241 -443q-38 -70 -60.5 -113.5t-46.5 -107.5t-24 -104q0 -44 19 -66t50 -22q32 0 84 29t103 77l18 -20q-228 -214 -356 -221l-101 -84q63 9 109.5 1.5t76.5 -28.5t45 -47t15 -53q0 -101 -96.5 -181.5t-216.5 -80.5q-68 0 -111 25.5t-43 55.5
q0 23 27.5 47.5t54.5 24.5t56 -23t63 -46t72 -23q48 0 78 31t30 73q0 46 -47.5 80.5t-138.5 34.5q-58 0 -121 -14l-10 12l225 197q-52 10 -83.5 57.5t-31.5 108.5q0 134 189 458l213 367h-154v24l500 293l20 -14l-151 -276h256z" />
    <glyph glyph-name="Tcaron" unicode="&#x164;" horiz-adv-x="1202" 
d="M254 0q-23 0 -23 18q0 12 57 65.5t89 76.5q17 19 32 37.5t25 31.5t22.5 32t18 27t18 28.5t15.5 25.5q95 165 221 436.5t203 409.5q42 78 89.5 127t129.5 86l121 55h-676q-50 0 -77.5 -17.5t-67.5 -64.5l-19 10q19 26 50 70l46.5 66t37 47.5t38.5 40.5q37 30 103 30h1265
q25 0 25 -14q0 -12 -52.5 -68t-84.5 -86q-16 -14 -60 -14h-465q-55 -38 -90.5 -86t-75.5 -123q-78 -139 -197.5 -401.5t-209.5 -421.5q-41 -72 -87 -119t-116 -84l-113 -59l322 22q23 0 23 -12q0 -15 -40 -77.5t-63 -80.5q-16 -14 -59 -14h-375zM1030 1985q32 0 49 -25
q59 -81 105 -127q110 52 235 158l21 -21q-262 -205 -361 -205q-22 0 -86.5 69.5t-109.5 137.5l10 13h137z" />
    <glyph glyph-name="tcaron" unicode="&#x165;" horiz-adv-x="710" 
d="M156 -16q-62 0 -101 50t-39 118q0 134 189 458l213 367h-154v24l387 228q-4 6 -19.5 23.5t-21.5 29t-6 23.5q0 51 53 114.5t99 63.5q43 0 69.5 -46.5t26.5 -95.5q0 -101 -158 -225l-61 -112h256l-15 -29h-256l-241 -443q-38 -70 -60.5 -113.5t-46.5 -107.5t-24 -104
q0 -44 19 -66t50 -22q32 0 84 29t103 77l18 -20q-238 -221 -364 -221z" />
    <glyph glyph-name="Umacron" unicode="&#x16a;" horiz-adv-x="1738" 
d="M463 -16q-120 0 -196.5 86t-76.5 209q0 95 43.5 212.5t109 224.5t141.5 222.5t141.5 210.5t109 185.5t43.5 148.5q0 33 -20 52t-53 19q-42 0 -111.5 -42t-140.5 -111l-25 31q250 223 414 223q85 0 129.5 -46.5t44.5 -103.5q0 -80 -61.5 -202.5t-149 -252t-175 -260.5
t-149 -262t-61.5 -223q0 -57 16.5 -98t44 -62t56.5 -30t61 -9q265 0 803 693l461 809q16 30 49 30h137q25 0 32.5 -15t-5.5 -38q-433 -746 -590 -1067q-99 -198 -99 -278q0 -51 25.5 -73t63.5 -22q66 0 151 80l19 -20q-238 -221 -365 -221q-63 0 -105 51.5t-42 122.5
q0 128 104 336q35 68 78 147q-184 -230 -347.5 -380t-285 -213.5t-219.5 -63.5zM1186 1808l-6 9l49 63q21 29 61 29h465l6 -8l-49 -64q-21 -29 -61 -29h-465z" />
    <glyph glyph-name="umacron" unicode="&#x16b;" horiz-adv-x="1284" 
d="M805 -16q-66 0 -95.5 40t-29.5 89q0 164 164 467q-132 -170 -244 -291q-278 -305 -430 -305q-54 0 -100.5 39t-46.5 98q-1 48 37 129.5t92.5 169.5t109 174.5t93 163t38.5 116.5q0 46 -45 46q-64 0 -194 -121l-19 20q238 221 365 221q56 0 83 -31.5t27 -74.5
q0 -66 -55.5 -179.5t-121.5 -215.5t-121.5 -206.5t-55.5 -154.5q0 -26 16 -43.5t47 -17.5q83 0 259 188q170 178 401 506l98 166q16 29 47 29l131 -2q25 0 32 -14t-7 -36q-191 -311 -258 -438q-62 -125 -92.5 -203.5t-30.5 -138.5q0 -59 53 -59q64 0 181 110l18 -20
q-238 -221 -346 -221zM670 1194l-6 8l49 64q20 28 61 28h465l6 -8l-49 -63q-21 -29 -61 -29h-465z" />
    <glyph glyph-name="Uring" unicode="&#x16e;" horiz-adv-x="1738" 
d="M463 -16q-120 0 -196.5 86t-76.5 209q0 95 43.5 212.5t109 224.5t141.5 222.5t141.5 210.5t109 185.5t43.5 148.5q0 33 -20 52t-53 19q-42 0 -111.5 -42t-140.5 -111l-25 31q250 223 414 223q85 0 129.5 -46.5t44.5 -103.5q0 -80 -61.5 -202.5t-149 -252t-175 -260.5
t-149 -262t-61.5 -223q0 -57 16.5 -98t44 -62t56.5 -30t61 -9q265 0 803 693l461 809q16 30 49 30h137q25 0 32.5 -15t-5.5 -38q-433 -746 -590 -1067q-99 -198 -99 -278q0 -51 25.5 -73t63.5 -22q66 0 151 80l19 -20q-238 -221 -365 -221q-63 0 -105 51.5t-42 122.5
q0 128 104 336q35 68 78 147q-184 -230 -347.5 -380t-285 -213.5t-219.5 -63.5zM1440 1753q-90 0 -144.5 57t-54.5 142q0 83 58 140.5t141 57.5q94 0 146 -55.5t52 -142.5q0 -83 -57.5 -141t-140.5 -58zM1440 1782q72 0 119 47.5t47 122.5t-47 122.5t-119 47.5t-119 -47.5
t-47 -122.5t47 -122.5t119 -47.5z" />
    <glyph glyph-name="uring" unicode="&#x16f;" horiz-adv-x="1284" 
d="M805 -16q-66 0 -95.5 40t-29.5 89q0 164 164 467q-132 -170 -244 -291q-278 -305 -430 -305q-54 0 -100.5 39t-46.5 98q-1 48 37 129.5t92.5 169.5t109 174.5t93 163t38.5 116.5q0 46 -45 46q-64 0 -194 -121l-19 20q238 221 365 221q56 0 83 -31.5t27 -74.5
q0 -66 -55.5 -179.5t-121.5 -215.5t-121.5 -206.5t-55.5 -154.5q0 -26 16 -43.5t47 -17.5q83 0 259 188q170 178 401 506l98 166q16 29 47 29l131 -2q25 0 32 -14t-7 -36q-191 -311 -258 -438q-62 -125 -92.5 -203.5t-30.5 -138.5q0 -59 53 -59q64 0 181 110l18 -20
q-238 -221 -346 -221zM924 1139q-90 0 -144.5 56.5t-54.5 141.5q0 83 58 141t141 58q94 0 146 -56t52 -143q0 -83 -57.5 -140.5t-140.5 -57.5zM924 1167q72 0 119 47.5t47 122.5t-47 122.5t-119 47.5t-119 -47.5t-47 -122.5t47 -122.5t119 -47.5z" />
    <glyph glyph-name="Uhungarumlaut" unicode="&#x170;" horiz-adv-x="1738" 
d="M463 -16q-120 0 -196.5 86t-76.5 209q0 95 43.5 212.5t109 224.5t141.5 222.5t141.5 210.5t109 185.5t43.5 148.5q0 33 -20 52t-53 19q-42 0 -111.5 -42t-140.5 -111l-25 31q250 223 414 223q85 0 129.5 -46.5t44.5 -103.5q0 -80 -61.5 -202.5t-149 -252t-175 -260.5
t-149 -262t-61.5 -223q0 -57 16.5 -98t44 -62t56.5 -30t61 -9q265 0 803 693l461 809q16 30 49 30h137q25 0 32.5 -15t-5.5 -38q-433 -746 -590 -1067q-99 -198 -99 -278q0 -51 25.5 -73t63.5 -22q66 0 151 80l19 -20q-238 -221 -365 -221q-63 0 -105 51.5t-42 122.5
q0 128 104 336q35 68 78 147q-184 -230 -347.5 -380t-285 -213.5t-219.5 -63.5zM1206 1716l-10 10l289 238q63 52 83 60q10 4 19 4q14 0 38 -16.5t24 -29.5t-15.5 -27.5t-58.5 -37.5zM1493 1716l-10 10l286 222q6 4 17 13t15.5 12.5l13.5 10.5t13.5 9.5t11.5 7t11.5 6t10 3
t10.5 1.5q14 0 37.5 -16t23.5 -29q0 -28 -73 -65z" />
    <glyph glyph-name="uhungarumlaut" unicode="&#x171;" horiz-adv-x="1284" 
d="M805 -16q-66 0 -95.5 40t-29.5 89q0 164 164 467q-132 -170 -244 -291q-278 -305 -430 -305q-54 0 -100.5 39t-46.5 98q-1 48 37 129.5t92.5 169.5t109 174.5t93 163t38.5 116.5q0 46 -45 46q-64 0 -194 -121l-19 20q238 221 365 221q56 0 83 -31.5t27 -74.5
q0 -66 -55.5 -179.5t-121.5 -215.5t-121.5 -206.5t-55.5 -154.5q0 -26 16 -43.5t47 -17.5q83 0 259 188q170 178 401 506l98 166q16 29 47 29l131 -2q25 0 32 -14t-7 -36q-191 -311 -258 -438q-62 -125 -92.5 -203.5t-30.5 -138.5q0 -59 53 -59q64 0 181 110l18 -20
q-238 -221 -346 -221zM999 1477q9 9 22 22.5t18 18.5t13 11.5t14.5 8.5t14.5 2q15 0 35.5 -11.5t20.5 -23.5q0 -25 -68 -75l-367 -267h-22zM1286 1477q9 9 22 22.5t18 18.5t13 11.5t14.5 8.5t14.5 2q15 0 35 -11t20 -24q0 -26 -67 -75l-367 -267h-22z" />
    <glyph glyph-name="Uogonek" unicode="&#x172;" horiz-adv-x="1738" 
d="M463 -16q-120 0 -196.5 86t-76.5 209q0 95 43.5 212.5t109 224.5t141.5 222.5t141.5 210.5t109 185.5t43.5 148.5q0 33 -20 52t-53 19q-42 0 -111.5 -42t-140.5 -111l-25 31q250 223 414 223q85 0 129.5 -46.5t44.5 -103.5q0 -80 -61.5 -202.5t-149 -252t-175 -260.5
t-149 -262t-61.5 -223q0 -57 16.5 -98t44 -62t56.5 -30t61 -9q265 0 803 693l461 809q16 30 49 30h137q25 0 32.5 -15t-5.5 -38q-433 -746 -590 -1067q-99 -198 -99 -278q0 -51 25.5 -73t63.5 -22q66 0 151 80l19 -20q-212 -196 -336 -219q-88 -94 -88 -166
q0 -49 31.5 -72.5t72.5 -23.5q57 0 107 32l8 -8l-80 -121q-34 -24 -94 -24q-66 0 -109 39t-43 102q0 98 156 240q-60 6 -98.5 56.5t-38.5 117.5q0 128 104 336q35 68 78 147q-184 -230 -347.5 -380t-285 -213.5t-219.5 -63.5z" />
    <glyph glyph-name="uogonek" unicode="&#x173;" horiz-adv-x="1284" 
d="M805 -16h-2q-86 -95 -86 -164q0 -49 31.5 -72.5t72.5 -23.5q57 0 107 32l8 -8l-80 -121q-34 -24 -94 -24q-66 0 -109 39t-43 102q0 96 158 244q-46 11 -67 47.5t-21 77.5q0 164 164 467q-132 -170 -244 -291q-278 -305 -430 -305q-54 0 -100.5 39t-46.5 98
q-1 48 37 129.5t92.5 169.5t109 174.5t93 163t38.5 116.5q0 46 -45 46q-64 0 -194 -121l-19 20q238 221 365 221q56 0 83 -31.5t27 -74.5q0 -66 -55.5 -179.5t-121.5 -215.5t-121.5 -206.5t-55.5 -154.5q0 -26 16 -43.5t47 -17.5q83 0 259 188q170 178 401 506l98 166
q16 29 47 29l131 -2q25 0 32 -14t-7 -36q-191 -311 -258 -438q-62 -125 -92.5 -203.5t-30.5 -138.5q0 -59 53 -59q64 0 181 110l18 -20q-238 -221 -346 -221z" />
    <glyph glyph-name="Wcircumflex" unicode="&#x174;" horiz-adv-x="2535" 
d="M856 0q-43 0 -37 45l205 1143q55 294 -109 289l-333 -7q-51 -1 -79 -18.5t-67 -62.5l-18 10q10 14 33.5 46.5t32 44.5t26 34.5t27 34t22.5 25.5t25 24q37 30 102 30h653q32 0 19 -20l-80 -115q-14 -20 -66 -20l-196 -4q67 -35 106 -68.5t62.5 -78t23.5 -100t-12 -134.5
l-147 -836l976 1352q16 24 50 24h10q45 0 39 -43l-150 -1374l854 1090q19 49 45 122t39.5 110.5t33 80t38.5 70.5q39 57 82.5 83.5t103.5 26.5q39 0 62.5 -13.5t23.5 -31.5q0 -30 -69 -104q-21 -22 -72 -75t-85 -89t-83.5 -92.5t-91.5 -110.5l-995 -1265q-23 -23 -52 -23h-8
q-43 0 -37 45l166 1378l-1014 -1400q-23 -23 -51 -23h-8zM2734 1696q-33 0 -49 24q-59 81 -105 127q-112 -53 -235 -157l-21 20q262 205 361 205q22 0 87 -69.5t110 -137.5l-11 -12h-137z" />
    <glyph glyph-name="wcircumflex" unicode="&#x175;" horiz-adv-x="1554" 
d="M879 -16q-101 -1 -150 64t-49 159q0 42 10 100q-91 -157 -199 -239t-206 -84q-106 -1 -164 61t-58 162q0 82 41.5 174.5t112.5 179t150 162.5t168 143q-8 0 -120.5 3t-170.5 1q-50 -3 -76.5 -19.5t-65.5 -62.5l-18 11q10 14 33.5 46.5t32 44.5t26 34.5t27 34t22.5 25.5
t25 24q37 30 104 30q25 0 155 -7t202 -7l6 -18q-214 -174 -331.5 -377.5t-117.5 -368.5q0 -74 34.5 -123.5t105.5 -50.5q76 -2 154 79t161 261q58 165 174 338q22 30 127 69q97 35 104 19q2 -3 -2 -8q-108 -162 -174 -328t-63 -268q5 -158 129 -160q63 -1 140.5 68.5
t141 163.5t111.5 196q-13 178 -15.5 252.5t5.5 140.5q9 55 60.5 93t113.5 38q51 0 51 -41q0 -88 -151 -415q-52 -115 -116 -217.5t-140 -190t-165 -139.5t-175 -53zM1149 1165q-32 0 -49 25q-59 81 -105 127q-110 -52 -235 -158l-21 21q261 204 361 204q22 0 86.5 -69
t109.5 -137l-10 -13h-137z" />
    <glyph glyph-name="Ycircumflex" unicode="&#x176;" horiz-adv-x="1511" 
d="M578 0q-23 0 -23 18q0 12 56.5 65.5t88.5 76.5q15 16 27 31t23 30.5t17.5 25t16 26t12.5 22t13 24.5t12 23q51 104 93 221t51 187q15 143 -72 479q-12 49 -21.5 80.5t-24.5 66t-32 54t-41.5 32.5t-54.5 13l-189 -5q-51 -1 -78.5 -18.5t-66.5 -62.5l-18 10q13 17 40 55
t37.5 52t28.5 37.5t31.5 38t27.5 26.5q37 30 103 30h553q32 0 12 -28l-70 -101q-5 -7 -11 -12.5t-10 -8t-12 -4t-11 -1.5h-13h-12l-221 -6q81 -20 145 -67t88 -126q26 -80 55.5 -230.5t34.5 -297.5l660 944q38 55 64.5 78.5t49.5 21.5q28 -1 46 -31t18 -69q0 -80 -39 -121
l-797 -870q-16 -45 -34 -102.5t-33 -99.5t-33 -83q-35 -78 -73.5 -122t-108.5 -81l-86 -45q275 0 356 4q23 2 23 -12t-39.5 -75t-63.5 -79q-16 -14 -59 -14h-436zM1489 1696q-33 0 -49 24q-59 81 -105 127q-112 -53 -235 -157l-21 20q262 205 361 205q22 0 86.5 -69.5
t109.5 -137.5l-10 -12h-137z" />
    <glyph glyph-name="ycircumflex" unicode="&#x177;" horiz-adv-x="1081" 
d="M-324 -426q-57 0 -107 16t-50 50q0 41 46 91t93 50q18 0 44 -4.5t49 -10t62.5 -17t62 -18.5t70 -22.5t66.5 -21.5q49 20 81.5 41.5t55.5 44.5t42 66t32 86t35 124q48 179 82.5 402.5t28.5 347.5q-3 56 -17.5 79t-42.5 23q-60 0 -170 -102l-18 20q128 119 203.5 170
t124.5 51q109 0 112 -149q4 -126 -38.5 -404t-121.5 -538q288 269 492 600l-6 99t-5 91t-2 65t0.5 63t4.5 42q9 55 61.5 93t114.5 38q51 0 51 -41q0 -50 -26 -128t-75 -173t-116 -202t-153 -215.5t-180.5 -211.5t-204 -192.5t-219.5 -157t-230 -106.5t-232 -39zM1006 1165
q-33 0 -50 25q-62 85 -104 127q-112 -53 -236 -158l-20 21q261 204 360 204q22 0 87 -69t110 -137l-10 -13h-137z" />
    <glyph glyph-name="Ydieresis" unicode="&#x178;" horiz-adv-x="1511" 
d="M578 0q-23 0 -23 18q0 12 56.5 65.5t88.5 76.5q15 16 27 31t23 30.5t17.5 25t16 26t12.5 22t13 24.5t12 23q51 104 93 221t51 187q15 143 -72 479q-12 49 -21.5 80.5t-24.5 66t-32 54t-41.5 32.5t-54.5 13l-189 -5q-51 -1 -78.5 -18.5t-66.5 -62.5l-18 10q13 17 40 55
t37.5 52t28.5 37.5t31.5 38t27.5 26.5q37 30 103 30h553q32 0 12 -28l-70 -101q-5 -7 -11 -12.5t-10 -8t-12 -4t-11 -1.5h-13h-12l-221 -6q81 -20 145 -67t88 -126q26 -80 55.5 -230.5t34.5 -297.5l660 944q38 55 64.5 78.5t49.5 21.5q28 -1 46 -31t18 -69q0 -80 -39 -121
l-797 -870q-16 -45 -34 -102.5t-33 -99.5t-33 -83q-35 -78 -73.5 -122t-108.5 -81l-86 -45q275 0 356 4q23 2 23 -12t-39.5 -75t-63.5 -79q-16 -14 -59 -14h-436zM1518 1747q-26 0 -52 24.5t-26 55.5q0 32 26 76q25 39 58.5 65.5t62.5 26.5q22 0 47 -24t25 -54t-27 -76
q-21 -34 -53.5 -64t-60.5 -30zM1176 1747q-26 0 -53 24.5t-27 55.5q0 29 28 76q23 38 57 65t64 27q22 0 46 -24t24 -54q0 -35 -27 -76q-18 -33 -51 -63.5t-61 -30.5z" />
    <glyph glyph-name="Zacute" unicode="&#x179;" horiz-adv-x="1456" 
d="M-39 0q-19 0 -24 4t-5 16q0 5 10 17t29 30t35 32.5t38.5 34t29.5 26.5l878 706q409 316 707 592h-903q-50 0 -78 -17.5t-68 -64.5l-18 10q24 33 61.5 88.5t60 85t44.5 48.5q37 30 102 30h1084q14 -1 18 -5.5t4 -14.5q0 -19 -36 -51.5t-109 -87.5q-451 -326 -854 -648
q-479 -381 -744 -649l953 -2q50 0 77.5 17.5t67.5 64.5l18 -10q-24 -33 -61 -88t-59.5 -84.5t-44.5 -48.5q-38 -31 -103 -31h-1110zM1485 1835l-369 -125l-12 16l350 279q53 43 74 43q18 0 18 -33v-25q0 -87 -8.5 -113.5t-52.5 -41.5z" />
    <glyph glyph-name="zacute" unicode="&#x17a;" horiz-adv-x="993" 
d="M522 -14q-36 0 -80 16t-81.5 36t-96.5 36t-121 16q-39 0 -61.5 -2t-62.5 -15t-82 -40q-22 -14 -40 -30t-27 -23t-20 -7q-10 0 -18 7t-8 16q0 13 6.5 22t29.5 24.5t53.5 33.5t94.5 60.5t135 94.5q116 84 367 295q233 194 332 297q-87 29 -190.5 45.5t-176.5 16.5
q-152 0 -282 -148l-19 17q58 64 102.5 107.5t102 88t116 67t117.5 21.5q116 -2 215 -23t215 -71l105 82l18 -18q-92 -76 -310 -243t-325 -257q-50 -42 -100.5 -87t-124 -112t-94.5 -86q57 23 102 23q43 0 90.5 -16.5t83.5 -36t80.5 -36t81.5 -16.5q47 0 91.5 20.5t97.5 82.5
l20 -17q-210 -241 -336 -241zM1065 1282l-324 -113l-10 21l313 305q27 27 48 27q26 0 39.5 -34t13.5 -73q0 -47 -22.5 -84t-57.5 -49z" />
    <glyph glyph-name="Zdotaccent" unicode="&#x17b;" horiz-adv-x="1456" 
d="M-39 0q-19 0 -24 4t-5 16q0 5 10 17t29 30t35 32.5t38.5 34t29.5 26.5l878 706q409 316 707 592h-903q-50 0 -78 -17.5t-68 -64.5l-18 10q24 33 61.5 88.5t60 85t44.5 48.5q37 30 102 30h1084q14 -1 18 -5.5t4 -14.5q0 -19 -36 -51.5t-109 -87.5q-451 -326 -854 -648
q-479 -381 -744 -649l953 -2q50 0 77.5 17.5t67.5 64.5l18 -10q-24 -33 -61 -88t-59.5 -84.5t-44.5 -48.5q-38 -31 -103 -31h-1110zM1282 1788q-32 0 -63 27.5t-31 70.5q0 44 31 101q29 50 68.5 87t72.5 37q28 0 59 -29.5t31 -72.5q0 -41 -33 -102q-23 -40 -63 -79.5
t-72 -39.5z" />
    <glyph glyph-name="zdotaccent" unicode="&#x17c;" horiz-adv-x="993" 
d="M522 -14q-36 0 -80 16t-81.5 36t-96.5 36t-121 16q-39 0 -61.5 -2t-62.5 -15t-82 -40q-22 -14 -40 -30t-27 -23t-20 -7q-10 0 -18 7t-8 16q0 13 6.5 22t29.5 24.5t53.5 33.5t94.5 60.5t135 94.5q116 84 367 295q233 194 332 297q-87 29 -190.5 45.5t-176.5 16.5
q-152 0 -282 -148l-19 17q58 64 102.5 107.5t102 88t116 67t117.5 21.5q116 -2 215 -23t215 -71l105 82l18 -18q-92 -76 -310 -243t-325 -257q-50 -42 -100.5 -87t-124 -112t-94.5 -86q57 23 102 23q43 0 90.5 -16.5t83.5 -36t80.5 -36t81.5 -16.5q47 0 91.5 20.5t97.5 82.5
l20 -17q-210 -241 -336 -241zM887 1217q-32 0 -63 27.5t-31 70.5q0 45 30 100q29 50 69 87.5t73 37.5q28 0 59 -29.5t31 -72.5q0 -42 -33 -103q-23 -40 -63 -79t-72 -39z" />
    <glyph glyph-name="Zcaron" unicode="&#x17d;" horiz-adv-x="1456" 
d="M-39 0q-19 0 -24 4t-5 16q0 5 10 17t29 30t35 32.5t38.5 34t29.5 26.5l878 706q409 316 707 592h-903q-50 0 -78 -17.5t-68 -64.5l-18 10q24 33 61.5 88.5t60 85t44.5 48.5q37 30 102 30h1084q14 -1 18 -5.5t4 -14.5q0 -19 -36 -51.5t-109 -87.5q-451 -326 -854 -648
q-479 -381 -744 -649l953 -2q50 0 77.5 17.5t67.5 64.5l18 -10q-24 -33 -61 -88t-59.5 -84.5t-44.5 -48.5q-38 -31 -103 -31h-1110zM1165 1985q32 0 49 -25q59 -81 105 -127q110 52 235 158l21 -21q-262 -205 -361 -205q-22 0 -86.5 69.5t-109.5 137.5l10 13h137z" />
    <glyph glyph-name="zcaron" unicode="&#x17e;" horiz-adv-x="993" 
d="M522 -14q-36 0 -80 16t-81.5 36t-96.5 36t-121 16q-39 0 -61.5 -2t-62.5 -15t-82 -40q-22 -14 -40 -30t-27 -23t-20 -7q-10 0 -18 7t-8 16q0 13 6.5 22t29.5 24.5t53.5 33.5t94.5 60.5t135 94.5q116 84 367 295q233 194 332 297q-87 29 -190.5 45.5t-176.5 16.5
q-152 0 -282 -148l-19 17q58 64 102.5 107.5t102 88t116 67t117.5 21.5q116 -2 215 -23t215 -71l105 82l18 -18q-92 -76 -310 -243t-325 -257q-50 -42 -100.5 -87t-124 -112t-94.5 -86q57 23 102 23q43 0 90.5 -16.5t83.5 -36t80.5 -36t81.5 -16.5q47 0 91.5 20.5t97.5 82.5
l20 -17q-210 -241 -336 -241zM754 1446q32 0 49 -25q62 -85 104 -127q112 53 236 158l20 -20q-262 -205 -360 -205q-22 0 -87 69.5t-110 137.5l10 12h138z" />
    <glyph glyph-name="uni018F" unicode="&#x18f;" horiz-adv-x="1642" 
d="M598 -16q-153 0 -248.5 78.5t-95.5 195.5q0 59 22.5 112.5t82 116.5t141.5 125t224.5 149t307 179t410.5 223q-59 167 -195 264t-332 97q-128 0 -237.5 -43.5t-214.5 -141.5l-23 19q166 152 312 224.5t301 72.5q135 0 250.5 -44t194.5 -119t125 -175t50 -213
q5 -149 -40.5 -296t-125.5 -268t-189 -226t-229.5 -176.5t-247.5 -112.5t-243 -41zM459 344q0 -110 89.5 -170.5t227.5 -60.5q131 0 245.5 43.5t198 119t143.5 176.5t90 217t30 238q0 116 -31 221q-410 -214 -620.5 -348.5t-291.5 -231.5t-81 -204z" />
    <glyph glyph-name="uni0218" unicode="&#x218;" horiz-adv-x="1310" 
d="M399 -12q-182 0 -334.5 45t-152.5 92q0 42 65 90.5t127 48.5q38 0 125 -33t165.5 -69.5t226.5 -108.5q60 13 121.5 37t121.5 61t106 81.5t74.5 103t28.5 121.5q0 28 -9.5 55t-22 49t-37.5 44.5t-44 38.5t-55 35.5t-56 30t-61.5 28t-58 24t-57.5 22.5q-43 16 -70.5 27
t-71 32t-71.5 39t-61.5 45.5t-52.5 56.5t-32.5 66.5t-13.5 79.5q0 99 74 195.5t196.5 168.5t291 116.5t345.5 44.5q346 0 346 -101q0 -55 -63 -125.5t-186 -162.5l-17 24q105 72 105 115q0 17 -10.5 35t-39.5 38.5t-74 36.5t-122.5 26.5t-175.5 10.5q-142 0 -261 -37
t-190.5 -105.5t-71.5 -154.5q0 -95 83.5 -161t304.5 -152q52 -21 88.5 -36.5t87 -41t85 -51.5t67 -59t49 -72.5t16.5 -83.5q0 -111 -70 -222t-183.5 -196t-266 -138.5t-308.5 -53.5zM270 -545q57 41 84 70t27 55t-34 67t-34 60q0 51 53 114.5t99 63.5q43 0 69.5 -46
t26.5 -95q0 -21 -5.5 -41.5t-19 -42t-25 -38.5t-35 -39t-36.5 -34.5t-42 -34.5t-38.5 -29.5t-39.5 -28.5t-33 -23z" />
    <glyph glyph-name="uni0219" unicode="&#x219;" horiz-adv-x="755" 
d="M113 -14q-67 0 -113 14t-67 38t-28.5 48t-4.5 51q5 57 60.5 112.5t156.5 102.5l14 -12q-51 -70 -51 -137q0 -65 39.5 -108t122.5 -44q78 -2 131 52t53 139q0 52 -26.5 117.5t-58.5 118t-58.5 116t-26.5 111.5q0 88 68.5 166t178.5 122.5t230 44.5q65 0 128 -15t63 -42
q0 -48 -40.5 -95.5t-105.5 -47.5q-32 0 -85.5 20t-88 37.5t-117.5 60.5q-59 -33 -59 -112q0 -45 18.5 -98.5t45 -102.5t52 -98.5t42.5 -104t14 -102.5q-4 -67 -52.5 -133t-119.5 -113t-155.5 -76.5t-159.5 -29.5zM-29 -545q57 41 84 70t27 55t-34 67t-34 60q0 51 53 114.5
t99 63.5q43 0 69.5 -46t26.5 -95q0 -21 -5.5 -41.5t-19 -42t-25 -38.5t-35 -39t-36.5 -34.5t-42 -34.5t-38.5 -29.5t-39.5 -28.5t-33 -23z" />
    <glyph glyph-name="uni021A" unicode="&#x21a;" horiz-adv-x="1202" 
d="M254 0q-23 0 -23 18q0 12 57 65.5t89 76.5q17 19 32 37.5t25 31.5t22.5 32t18 27t18 28.5t15.5 25.5q95 165 221 436.5t203 409.5q42 78 89.5 127t129.5 86l121 55h-676q-50 0 -77.5 -17.5t-67.5 -64.5l-19 10q19 26 50 70l46.5 66t37 47.5t38.5 40.5q37 30 103 30h1265
q25 0 25 -14q0 -12 -52.5 -68t-84.5 -86q-16 -14 -60 -14h-465q-55 -38 -90.5 -86t-75.5 -123q-78 -139 -197.5 -401.5t-209.5 -421.5q-41 -72 -87 -119t-116 -84l-113 -59l322 22q23 0 23 -12q0 -15 -40 -77.5t-63 -80.5q-16 -14 -59 -14h-375zM154 -545q57 40 83.5 69
t26.5 56q0 26 -33.5 67t-33.5 60q0 51 52.5 114.5t98.5 63.5q43 0 69.5 -46t26.5 -95q0 -21 -5.5 -41.5t-19 -42t-25 -38.5t-35 -39t-36.5 -34.5t-42 -34.5t-38.5 -29.5t-39.5 -28.5t-33 -23z" />
    <glyph glyph-name="uni021B" unicode="&#x21b;" horiz-adv-x="710" 
d="M156 -16q-62 0 -101 50t-39 118q0 134 189 458l213 367h-154v24l500 293l20 -14l-151 -276h256l-15 -29h-256l-241 -443q-38 -70 -60.5 -113.5t-46.5 -107.5t-24 -104q0 -44 19 -66t50 -22q32 0 84 29t103 77l18 -20q-238 -221 -364 -221zM-53 -545q57 40 83.5 69
t26.5 56q0 26 -33.5 67t-33.5 60q0 51 52.5 114.5t98.5 63.5q44 0 70.5 -46t26.5 -95q0 -21 -5.5 -41.5t-19 -41.5t-25.5 -38.5t-35 -39t-37 -35t-41.5 -34.5t-39 -29.5t-39.5 -28.5t-33 -23z" />
    <glyph glyph-name="uni0237" unicode="&#x237;" horiz-adv-x="532" 
d="M-590 -426q-20 0 -32.5 1.5t-24.5 11t-12 26.5q0 47 57.5 101.5t116.5 54.5q40 0 117.5 -11.5t123.5 -15.5q44 23 81 60.5t103.5 148t155.5 301.5q56 118 112.5 237t81.5 171t47.5 101.5t29 70t6.5 36.5q0 52 -51 52q-65 0 -195 -121l-18 20q238 221 364 221
q56 0 82.5 -31.5t28.5 -74.5q1 -53 -40.5 -152.5t-172.5 -369.5q-69 -143 -185.5 -293t-248 -270.5t-273.5 -197.5t-254 -77z" />
    <glyph glyph-name="uni0259" unicode="&#x259;" horiz-adv-x="901" 
d="M631 1018q65 1 115.5 -22.5t78 -61.5t41 -78t13.5 -80q0 -87 -36.5 -184t-97 -186t-142 -170.5t-169.5 -141t-182 -94.5t-176 -35q-77 0 -117.5 34.5t-40.5 92.5q0 54 31 105.5t120.5 127t225 167.5t369.5 239q-13 72 -64.5 112t-128.5 40q-67 0 -133.5 -28t-151.5 -101
l-18 18q127 112 254.5 179t208.5 67zM125 166q0 -50 31.5 -82.5t89.5 -32.5q78 0 158 62.5t138.5 156.5t94 208.5t31.5 213.5v8q-217 -136 -336.5 -232.5t-163 -164t-43.5 -137.5z" />
    <glyph glyph-name="gravecomb" unicode="&#x300;" 
d="M496 1282q-35 12 -57.5 49t-22.5 84q0 39 13.5 73t39.5 34q20 0 47 -27l313 -305l-10 -21z" />
    <glyph glyph-name="acutecomb" unicode="&#x301;" 
d="M756 1282l-324 -113l-10 21l313 305q27 27 47 27q27 0 40.5 -34t13.5 -73q0 -47 -22.5 -84t-57.5 -49z" />
    <glyph glyph-name="uni0302" unicode="&#x302;" 
d="M758 1165q-32 0 -49 25q-59 81 -105 127q-110 -52 -235 -158l-21 21q261 204 361 204q22 0 86.5 -69t109.5 -137l-10 -13h-137z" />
    <glyph glyph-name="tildecomb" unicode="&#x303;" 
d="M262 1176q64 107 119 151.5t129 44.5q38 0 153 -29.5t156 -29.5q49 0 84 24t66 74l14 -10q-45 -91 -108.5 -145t-139.5 -54q-47 0 -159 27.5t-160 27.5q-45 0 -77.5 -22t-62.5 -70z" />
    <glyph glyph-name="uni0304" unicode="&#x304;" 
d="M389 1194l-6 8l49 64q20 28 62 28h464l7 -8l-50 -63q-21 -29 -61 -29h-465z" />
    <glyph glyph-name="uni0306" unicode="&#x306;" 
d="M571 1176q-84 0 -123.5 48t-39.5 128q0 21 44 45t85 24q24 0 24 -20q2 -65 31.5 -108.5t91.5 -43.5q58 0 113.5 42t95.5 110q8 13 35 -1q22 -12 12 -20q-103 -96 -204.5 -150t-164.5 -54z" />
    <glyph glyph-name="uni0307" unicode="&#x307;" 
d="M692 1513q60 56 76 56q18 0 18 -33t-11 -49.5t-50 -46.5l-369 -277l-12 17z" />
    <glyph glyph-name="uni0308" unicode="&#x308;" 
d="M760 1133q-26 0 -52 24t-26 55q0 30 27 76q25 39 58 65.5t62 26.5q23 0 47.5 -23.5t24.5 -53.5t-27 -76q-21 -34 -53.5 -64t-60.5 -30zM418 1133q-27 0 -53.5 24t-26.5 55q0 27 29 76q23 38 56.5 65t63.5 27q22 0 46 -23.5t24 -53.5q0 -35 -27 -76q-18 -33 -51 -63.5
t-61 -30.5z" />
    <glyph glyph-name="uni030A" unicode="&#x30a;" 
d="M598 1139q-90 0 -144.5 56.5t-54.5 141.5q0 83 58 141t141 58q94 0 146.5 -56t52.5 -143q0 -83 -58 -140.5t-141 -57.5zM598 1167q72 0 119 47.5t47 122.5t-47 122.5t-119 47.5t-119 -47.5t-47 -122.5t47 -122.5t119 -47.5z" />
    <glyph glyph-name="uni030B" unicode="&#x30b;" 
d="M653 1477q9 9 22 22.5t18 18.5t13 11.5t14.5 8.5t14.5 2q15 0 35.5 -11.5t20.5 -23.5q0 -25 -68 -75l-367 -267h-22zM940 1477q9 9 22 22.5t18 18.5t13 11.5t14.5 8.5t14.5 2q15 0 35 -11t20 -24q0 -26 -67 -75l-367 -267h-22z" />
    <glyph glyph-name="uni030C" unicode="&#x30c;" 
d="M471 1446q32 0 49 -25q59 -81 105 -127q110 52 235 158l21 -20q-262 -205 -361 -205q-22 0 -86.5 69.5t-109.5 137.5l10 12h137z" />
    <glyph glyph-name="uni0312" unicode="&#x312;" 
d="M737 1548q-57 -40 -83.5 -69t-26.5 -56q0 -25 33.5 -66t33.5 -61q0 -51 -52.5 -114.5t-98.5 -63.5q-43 0 -70 46.5t-27 95.5q0 21 5.5 41.5t19 41.5t25.5 38.5t35 39t37 35t41.5 34.5t39 29.5t39.5 28.5t33 23z" />
    <glyph glyph-name="uni0326" unicode="&#x326;" 
d="M-311 -545q57 40 83.5 69t26.5 56q0 26 -33.5 67t-33.5 60q0 51 52.5 114.5t98.5 63.5q44 0 70.5 -46t26.5 -95q0 -21 -5.5 -41.5t-19 -41.5t-25.5 -38.5t-35 -39t-37 -35t-41.5 -34.5t-39 -29.5t-39.5 -28.5t-33 -23z" />
    <glyph glyph-name="uni0327" unicode="&#x327;" 
d="M70 -219q0 -101 -97 -181.5t-217 -80.5q-68 0 -110.5 26t-42.5 56q0 23 27 47t55 24q27 0 56 -23t62.5 -46t71.5 -23q48 0 78.5 31.5t30.5 73.5q0 46 -47.5 80t-139.5 34q-58 0 -121 -14l-10 12l248 217l29 -6l-119 -100q63 9 109.5 1.5t76.5 -28.5t45 -47t15 -53z" />
    <glyph glyph-name="uni0328" unicode="&#x328;" 
d="M119 -377q-34 -24 -94 -24q-66 0 -109 39t-43 102q0 110 205 285l22 -11q-120 -111 -120 -198q0 -49 31.5 -73t72.5 -24q55 0 106 33l9 -8z" />
    <glyph glyph-name="uni0335" unicode="&#x335;" 
d="M1143 1202v-28h-477v28h477z" />
    <glyph glyph-name="uni0337" unicode="&#x337;" 
d="M647 969l12 -29l-641 -272l-12 28z" />
    <glyph glyph-name="uni0338" unicode="&#x338;" 
d="M1174 1214l24 -20l-1225 -1423l-24 20z" />
    <glyph glyph-name="Wgrave" unicode="&#x1e80;" horiz-adv-x="2535" 
d="M856 0q-43 0 -37 45l205 1143q55 294 -109 289l-333 -7q-51 -1 -79 -18.5t-67 -62.5l-18 10q10 14 33.5 46.5t32 44.5t26 34.5t27 34t22.5 25.5t25 24q37 30 102 30h653q32 0 19 -20l-80 -115q-14 -20 -66 -20l-196 -4q67 -35 106 -68.5t62.5 -78t23.5 -100t-12 -134.5
l-147 -836l976 1352q16 24 50 24h10q45 0 39 -43l-150 -1374l854 1090q19 49 45 122t39.5 110.5t33 80t38.5 70.5q39 57 82.5 83.5t103.5 26.5q39 0 62.5 -13.5t23.5 -31.5q0 -30 -69 -104q-21 -22 -72 -75t-85 -89t-83.5 -92.5t-91.5 -110.5l-995 -1265q-23 -23 -52 -23h-8
q-43 0 -37 45l166 1378l-1014 -1400q-23 -23 -51 -23h-8zM2488 1835q-44 15 -52.5 41t-8.5 114v25q0 33 18 33q21 0 74 -43l350 -279l-12 -16z" />
    <glyph glyph-name="wgrave" unicode="&#x1e81;" horiz-adv-x="1554" 
d="M879 -16q-101 -1 -150 64t-49 159q0 42 10 100q-91 -157 -199 -239t-206 -84q-106 -1 -164 61t-58 162q0 82 41.5 174.5t112.5 179t150 162.5t168 143q-8 0 -120.5 3t-170.5 1q-50 -3 -76.5 -19.5t-65.5 -62.5l-18 11q10 14 33.5 46.5t32 44.5t26 34.5t27 34t22.5 25.5
t25 24q37 30 104 30q25 0 155 -7t202 -7l6 -18q-214 -174 -331.5 -377.5t-117.5 -368.5q0 -74 34.5 -123.5t105.5 -50.5q76 -2 154 79t161 261q58 165 174 338q22 30 127 69q97 35 104 19q2 -3 -2 -8q-108 -162 -174 -328t-63 -268q5 -158 129 -160q63 -1 140.5 68.5
t141 163.5t111.5 196q-13 178 -15.5 252.5t5.5 140.5q9 55 60.5 93t113.5 38q51 0 51 -41q0 -88 -151 -415q-52 -115 -116 -217.5t-140 -190t-165 -139.5t-175 -53zM924 1282q-35 12 -57.5 49t-22.5 84q0 39 13.5 73t39.5 34q20 0 47 -27l313 -305l-10 -21z" />
    <glyph glyph-name="Wacute" unicode="&#x1e82;" horiz-adv-x="2535" 
d="M856 0q-43 0 -37 45l205 1143q55 294 -109 289l-333 -7q-51 -1 -79 -18.5t-67 -62.5l-18 10q10 14 33.5 46.5t32 44.5t26 34.5t27 34t22.5 25.5t25 24q37 30 102 30h653q32 0 19 -20l-80 -115q-14 -20 -66 -20l-196 -4q67 -35 106 -68.5t62.5 -78t23.5 -100t-12 -134.5
l-147 -836l976 1352q16 24 50 24h10q45 0 39 -43l-150 -1374l854 1090q19 49 45 122t39.5 110.5t33 80t38.5 70.5q39 57 82.5 83.5t103.5 26.5q39 0 62.5 -13.5t23.5 -31.5q0 -30 -69 -104q-21 -22 -72 -75t-85 -89t-83.5 -92.5t-91.5 -110.5l-995 -1265q-23 -23 -52 -23h-8
q-43 0 -37 45l166 1378l-1014 -1400q-23 -23 -51 -23h-8zM2849 1835l-369 -125l-12 16l350 279q53 43 74 43q18 0 18 -33v-25q0 -87 -8.5 -113.5t-52.5 -41.5z" />
    <glyph glyph-name="wacute" unicode="&#x1e83;" horiz-adv-x="1554" 
d="M879 -16q-101 -1 -150 64t-49 159q0 42 10 100q-91 -157 -199 -239t-206 -84q-106 -1 -164 61t-58 162q0 82 41.5 174.5t112.5 179t150 162.5t168 143q-8 0 -120.5 3t-170.5 1q-50 -3 -76.5 -19.5t-65.5 -62.5l-18 11q10 14 33.5 46.5t32 44.5t26 34.5t27 34t22.5 25.5
t25 24q37 30 104 30q25 0 155 -7t202 -7l6 -18q-214 -174 -331.5 -377.5t-117.5 -368.5q0 -74 34.5 -123.5t105.5 -50.5q76 -2 154 79t161 261q58 165 174 338q22 30 127 69q97 35 104 19q2 -3 -2 -8q-108 -162 -174 -328t-63 -268q5 -158 129 -160q63 -1 140.5 68.5
t141 163.5t111.5 196q-13 178 -15.5 252.5t5.5 140.5q9 55 60.5 93t113.5 38q51 0 51 -41q0 -88 -151 -415q-52 -115 -116 -217.5t-140 -190t-165 -139.5t-175 -53zM1239 1282l-324 -113l-10 21l314 305q27 27 47 27q26 0 39.5 -34t13.5 -73q0 -47 -22.5 -84t-57.5 -49z" />
    <glyph glyph-name="Wdieresis" unicode="&#x1e84;" horiz-adv-x="2535" 
d="M856 0q-43 0 -37 45l205 1143q55 294 -109 289l-333 -7q-51 -1 -79 -18.5t-67 -62.5l-18 10q10 14 33.5 46.5t32 44.5t26 34.5t27 34t22.5 25.5t25 24q37 30 102 30h653q32 0 19 -20l-80 -115q-14 -20 -66 -20l-196 -4q67 -35 106 -68.5t62.5 -78t23.5 -100t-12 -134.5
l-147 -836l976 1352q16 24 50 24h10q45 0 39 -43l-150 -1374l854 1090q19 49 45 122t39.5 110.5t33 80t38.5 70.5q39 57 82.5 83.5t103.5 26.5q39 0 62.5 -13.5t23.5 -31.5q0 -30 -69 -104q-21 -22 -72 -75t-85 -89t-83.5 -92.5t-91.5 -110.5l-995 -1265q-23 -23 -52 -23h-8
q-43 0 -37 45l166 1378l-1014 -1400q-23 -23 -51 -23h-8zM2763 1747q-26 0 -52 24.5t-26 55.5q0 30 27 76q25 39 58 65.5t62 26.5q22 0 47 -24t25 -54t-27 -76q-21 -34 -53.5 -64t-60.5 -30zM2421 1747q-26 0 -53 24.5t-27 55.5q0 27 29 76q23 38 56.5 65t63.5 27
q22 0 46 -24t24 -54q0 -35 -27 -76q-18 -33 -51 -63.5t-61 -30.5z" />
    <glyph glyph-name="wdieresis" unicode="&#x1e85;" horiz-adv-x="1554" 
d="M879 -16q-101 -1 -150 64t-49 159q0 42 10 100q-91 -157 -199 -239t-206 -84q-106 -1 -164 61t-58 162q0 82 41.5 174.5t112.5 179t150 162.5t168 143q-8 0 -120.5 3t-170.5 1q-50 -3 -76.5 -19.5t-65.5 -62.5l-18 11q10 14 33.5 46.5t32 44.5t26 34.5t27 34t22.5 25.5
t25 24q37 30 104 30q25 0 155 -7t202 -7l6 -18q-214 -174 -331.5 -377.5t-117.5 -368.5q0 -74 34.5 -123.5t105.5 -50.5q76 -2 154 79t161 261q58 165 174 338q22 30 127 69q97 35 104 19q2 -3 -2 -8q-108 -162 -174 -328t-63 -268q5 -158 129 -160q63 -1 140.5 68.5
t141 163.5t111.5 196q-13 178 -15.5 252.5t5.5 140.5q9 55 60.5 93t113.5 38q51 0 51 -41q0 -88 -151 -415q-52 -115 -116 -217.5t-140 -190t-165 -139.5t-175 -53zM1137 1133q-26 0 -52 24t-26 55q0 32 26 76q25 39 58.5 65.5t62.5 26.5q23 0 47.5 -23.5t24.5 -53.5
t-27 -76q-21 -34 -53.5 -64t-60.5 -30zM795 1133q-27 0 -53.5 24t-26.5 55q0 29 28 76q23 38 57 65t64 27q22 0 46 -23.5t24 -53.5q0 -35 -27 -76q-18 -33 -51 -63.5t-61 -30.5z" />
    <glyph glyph-name="uni1E9E" unicode="&#x1e9e;" horiz-adv-x="1957" 
d="M1276 -16q-149 -3 -240.5 13.5t-91.5 43.5q0 43 48 82t95 39q94 0 316 -121q51 13 95 34.5t86.5 56.5t67.5 91t25 125q0 61 -20 111t-71 102t-141 104t-226 111l-9 29l631 549q-205 113 -463 145q-12 -11 -23.5 -24.5t-19 -23t-20 -29t-16 -25.5t-17.5 -30.5t-16 -27.5
q-97 -167 -238 -467t-211 -428q-51 -93 -152 -180t-215.5 -147t-232.5 -96.5t-207 -36.5q-25 0 -55 2t-68 6t-63 14.5t-25 24.5q0 44 51 93.5t111 49.5q46 0 170 -33t195 -45q110 34 219 230q83 151 234.5 467.5t248.5 484.5q46 82 98.5 133t161.5 96q-74 6 -149 6
q-105 0 -188.5 -12t-146.5 -36.5t-103 -46.5t-91 -58q-12 -33 -30 -88t-29 -86t-28 -73.5t-34 -66.5t-40 -47.5t-51.5 -34t-63.5 -10.5q-72 0 -72 43q0 53 92.5 168t229.5 217q170 127 371 200.5t407 72.5q205 -1 384 -47.5t267 -114.5l4 -31l-635 -549q447 -187 447 -430
q0 -93 -47 -184.5t-123 -160.5t-177.5 -111.5t-205.5 -42.5z" />
    <glyph glyph-name="Ygrave" unicode="&#x1ef2;" horiz-adv-x="1511" 
d="M578 0q-23 0 -23 18q0 12 56.5 65.5t88.5 76.5q15 16 27 31t23 30.5t17.5 25t16 26t12.5 22t13 24.5t12 23q51 104 93 221t51 187q15 143 -72 479q-12 49 -21.5 80.5t-24.5 66t-32 54t-41.5 32.5t-54.5 13l-189 -5q-51 -1 -78.5 -18.5t-66.5 -62.5l-18 10q13 17 40 55
t37.5 52t28.5 37.5t31.5 38t27.5 26.5q37 30 103 30h553q32 0 12 -28l-70 -101q-5 -7 -11 -12.5t-10 -8t-12 -4t-11 -1.5h-13h-12l-221 -6q81 -20 145 -67t88 -126q26 -80 55.5 -230.5t34.5 -297.5l660 944q38 55 64.5 78.5t49.5 21.5q28 -1 46 -31t18 -69q0 -80 -39 -121
l-797 -870q-16 -45 -34 -102.5t-33 -99.5t-33 -83q-35 -78 -73.5 -122t-108.5 -81l-86 -45q275 0 356 4q23 2 23 -12t-39.5 -75t-63.5 -79q-16 -14 -59 -14h-436zM1243 1835q-44 15 -52.5 41t-8.5 114v25q0 33 18 33q21 0 74 -43l350 -279l-12 -16z" />
    <glyph glyph-name="ygrave" unicode="&#x1ef3;" horiz-adv-x="1081" 
d="M-324 -426q-57 0 -107 16t-50 50q0 41 46 91t93 50q18 0 44 -4.5t49 -10t62.5 -17t62 -18.5t70 -22.5t66.5 -21.5q49 20 81.5 41.5t55.5 44.5t42 66t32 86t35 124q48 179 82.5 402.5t28.5 347.5q-3 56 -17.5 79t-42.5 23q-60 0 -170 -102l-18 20q128 119 203.5 170
t124.5 51q109 0 112 -149q4 -126 -38.5 -404t-121.5 -538q288 269 492 600l-6 99t-5 91t-2 65t0.5 63t4.5 42q9 55 61.5 93t114.5 38q51 0 51 -41q0 -50 -26 -128t-75 -173t-116 -202t-153 -215.5t-180.5 -211.5t-204 -192.5t-219.5 -157t-230 -106.5t-232 -39zM780 1282
q-35 12 -57.5 49t-22.5 84q0 39 13.5 73t40.5 34q20 0 47 -27l313 -305l-10 -21z" />
    <glyph glyph-name="endash" unicode="&#x2013;" horiz-adv-x="827" 
d="M217 483h-24q-67 0 -92.5 -5.5t-53.5 -31.5l-16 17l22 22l23 23t21 20t24 20t23 16t26.5 15t27.5 9.5t32 7.5t34 2h408q68 0 94 7t61 36l17 -14q-6 -6 -26.5 -27t-26 -26t-23 -21.5t-24.5 -21t-23 -15.5t-27 -14.5t-27 -9.5t-31.5 -7.5t-33.5 -1.5h-385z" />
    <glyph glyph-name="emdash" unicode="&#x2014;" horiz-adv-x="1253" 
d="M217 483h-24q-67 0 -92.5 -5.5t-53.5 -31.5l-16 17l22 22l23 23t21 20t24 20t23 16t26.5 15t27.5 9.5t32 7.5t34 2h817q69 0 95 7t61 36l16 -14l-29.5 -29.5l-29 -29t-25 -23t-28.5 -22.5t-26.5 -15.5t-31.5 -14.5t-32 -6.5t-39 -3.5h-795z" />
    <glyph glyph-name="quoteleft" unicode="&#x2018;" horiz-adv-x="264" 
d="M715 1628q-66 -55 -95.5 -124.5t-29.5 -184.5q0 -86 -78 -98q-38 -6 -60 14.5t-22 58.5q0 92 81 189.5t189 163.5z" />
    <glyph glyph-name="quoteright" unicode="&#x2019;" horiz-adv-x="278" 
d="M422 1245q66 55 95.5 124.5t29.5 184.5q0 87 78 99q37 6 59.5 -15t22.5 -59q0 -92 -81.5 -188.5t-189.5 -163.5z" />
    <glyph glyph-name="quotesinglbase" unicode="&#x201a;" horiz-adv-x="303" 
d="M-225 -223q66 55 95.5 124.5t29.5 184.5q0 86 77 98q38 6 60 -14.5t22 -58.5q0 -92 -81 -189.5t-189 -163.5z" />
    <glyph glyph-name="quotedblleft" unicode="&#x201c;" horiz-adv-x="544" 
d="M952 1626q-66 -55 -95.5 -124.5t-29.5 -184.5q0 -86 -77 -98q-38 -6 -60 14.5t-22 58.5q0 92 81 189.5t189 163.5zM719 1626q-66 -55 -95.5 -124.5t-29.5 -184.5q0 -86 -78 -98q-38 -6 -60 14.5t-22 58.5q0 92 81.5 189.5t189.5 163.5z" />
    <glyph glyph-name="quotedblright" unicode="&#x201d;" horiz-adv-x="466" 
d="M397 1247q66 55 95.5 124.5t29.5 184.5q0 87 78 99q37 6 59.5 -15t22.5 -59q0 -92 -81 -189t-189 -163zM631 1247q66 55 95.5 124.5t29.5 184.5q0 87 78 99q37 6 59 -15t22 -59q0 -92 -81 -189t-189 -163z" />
    <glyph glyph-name="quotedblbase" unicode="&#x201e;" horiz-adv-x="538" 
d="M-225 -223q66 55 95.5 124.5t29.5 184.5q0 86 77 98q38 6 60 -14.5t22 -58.5q0 -92 -81 -189.5t-189 -163.5zM16 -223q66 55 95.5 124.5t29.5 184.5q0 86 78 98q38 6 60 -14.5t22 -58.5q0 -92 -81 -189.5t-189 -163.5z" />
    <glyph glyph-name="dagger" unicode="&#x2020;" horiz-adv-x="698" 
d="M666 1395q13 47 39.5 60.5t128.5 31.5q31 7 34 -12q1 -5 -0.5 -12t-6.5 -16.5t-9.5 -16.5t-12.5 -19.5t-12 -19.5l-200 -322q118 -29 161 -29q45 0 77.5 22.5t62.5 70.5l14 -11q-64 -107 -119 -151.5t-129 -44.5q-41 0 -127 22l-131 -454q-13 -47 -40 -61t-128 -32
q-32 -7 -35 13q-2 8 3.5 20.5t19 33.5t18.5 30l263 458q-118 29 -152 29q-49 0 -83.5 -24t-65.5 -74l-15 10q45 91 108.5 145t139.5 54q30 0 113 -17z" />
    <glyph glyph-name="bullet" unicode="&#x2022;" horiz-adv-x="440" 
d="M285 506q-45 0 -93.5 41.5t-48.5 99.5q0 74 67 156t138 82q49 0 92 -49.5t43 -110.5q0 -66 -63 -142.5t-135 -76.5z" />
    <glyph glyph-name="ellipsis" unicode="&#x2026;" horiz-adv-x="970" 
d="M283 -25q-31 0 -64 28.5t-33 68.5q0 50 45.5 105.5t94.5 55.5q33 0 62.5 -33t29.5 -75q0 -45 -43 -97.5t-92 -52.5zM602 -25q-31 0 -63.5 28.5t-32.5 68.5q0 50 45 105.5t94 55.5q33 0 62.5 -33t29.5 -75q0 -45 -43 -97.5t-92 -52.5zM-35 -25q-31 0 -63.5 28.5
t-32.5 68.5q0 50 45 105.5t94 55.5q33 0 62.5 -33t29.5 -75q0 -45 -43 -97.5t-92 -52.5z" />
    <glyph glyph-name="perthousand" unicode="&#x2030;" horiz-adv-x="1808" 
d="M408 811q-68 0 -104 41t-36 104q0 78 49 168t121.5 161t158.5 118t155 47q74 0 103.5 -39.5t29.5 -91.5q0 -73 -37.5 -150.5t-95 -139.5t-122.5 -112.5t-124.5 -78t-97.5 -27.5zM502 887q66 0 125.5 66.5t91 150.5t31.5 151q0 131 -97 131q-62 0 -121.5 -59t-94 -146.5
t-31.5 -168.5q2 -53 25.5 -89t70.5 -36zM629 -49q-68 0 -104 41t-36 104q0 78 49 168t121.5 161t158.5 118t155 47q74 0 103.5 -39.5t29.5 -91.5q0 -73 -37.5 -150.5t-95 -139.5t-122.5 -112.5t-124.5 -78t-97.5 -27.5zM723 27q66 0 125.5 66.5t91 150.5t31.5 151
q0 131 -97 131q-62 0 -121.5 -59t-94 -146.5t-31.5 -168.5q2 -53 25.5 -89t70.5 -36zM1313 1458l20 -16l-1272 -1469l-20 17zM1243 -49q-68 0 -103.5 41t-35.5 104q0 78 49 168t121 161t158 118t155 47q74 0 103.5 -39.5t29.5 -91.5q0 -73 -37.5 -150.5t-95 -139.5
t-122.5 -112.5t-124.5 -78t-97.5 -27.5zM1337 27q66 0 125.5 66.5t91 150.5t31.5 151q0 131 -96 131q-62 0 -121.5 -59t-94.5 -146.5t-32 -168.5q2 -53 25.5 -89t70.5 -36z" />
    <glyph glyph-name="guilsinglleft" unicode="&#x2039;" horiz-adv-x="808" 
d="M354 -23q-5 2 -9 6.5t-9 13t-8 14t-9.5 20t-9.5 20.5l-229 475l655 478q57 43 74 43q20 0 20 -33q0 -102 -8.5 -130t-52.5 -50l-659 -318l313 -332q14 -14 19.5 -27t7.5 -23.5t-7 -32t-16.5 -35.5t-28.5 -52q-6 -12 -10 -18q-18 -29 -33 -19z" />
    <glyph glyph-name="guilsinglright" unicode="&#x203a;" horiz-adv-x="804" 
d="M0 -25q-20 0 -20 33q0 102 8.5 130t52.5 50l659 318l-313 332q-14 14 -19.5 27t-7.5 23.5t7 32t16.5 35.5t28.5 52q6 12 10 18q18 28 33 18q4 -2 8 -6t7 -8t7 -12l6.5 -13t8 -16.5t8.5 -17.5l229 -475l-655 -478q-57 -43 -74 -43z" />
    <glyph glyph-name="Euro" unicode="&#x20ac;" horiz-adv-x="1228" 
d="M563 -16q-93 0 -176.5 30.5t-150 89.5t-105.5 155t-39 216q0 100 33 219h-137l10 25h135q6 21 39 98h-143l10 25h145q94 182 265 330t372.5 229.5t390.5 81.5q115 0 191 -18t76 -44q0 -47 -55.5 -90t-104.5 -43q-13 0 -27.5 1.5t-27 3.5t-31 7t-30.5 8.5t-35.5 12
t-36 13.5t-41.5 17l-43.5 18t-50.5 21.5t-54 22.5q-233 -81 -395.5 -232.5t-231.5 -338.5h740l-11 -25h-739q-11 -37 -26 -98h673l-10 -25h-668q-4 -28 -8 -80q-11 -216 114.5 -358.5t330.5 -142.5q103 0 189 36t171 127l21 -16q-80 -85 -153 -142t-139 -85t-120 -38.5
t-117 -10.5z" />
    <glyph glyph-name="trademark" unicode="&#x2122;" horiz-adv-x="948" 
d="M1022 1022l98 326l-252 -301h-26l-56 303l-145 -326h-20l186 422h45l59 -320l269 320h59l-119 -422zM334 1024l186 403h-127l8 19h332l-8 -19h-141l-185 -403h-65z" />
    <glyph glyph-name="minus" unicode="&#x2212;" horiz-adv-x="831" 
d="M809 657l-10 -24h-668l10 24h668z" />
    <glyph glyph-name="notequal" unicode="&#x2260;" horiz-adv-x="847" 
d="M858 780l-10 -24h-299l-88 -221h313l-10 -25h-313l-263 -651l-28 2l262 649h-326l10 25h326l88 221h-340l10 24h340l281 695l27 -2l-279 -693h299z" />
    <glyph glyph-name="uni004A0301" horiz-adv-x="1210" 
d="M-92 -365q-111 0 -164 68t-53 174q0 130 75.5 273t226.5 283.5t353 240.5l16 -29q-122 -65 -215 -149t-147.5 -174.5t-80.5 -182t-23 -180.5q2 -60 17.5 -106t53 -77.5t94.5 -31.5q51 0 102 26.5t99 73t103 122t106 160t115 200.5q83 152 217 434.5t231 449.5
q46 82 98.5 132.5t159.5 97.5l94 41l-835 6q-50 0 -77.5 -17.5t-67.5 -64.5l-19 10q10 14 33.5 46.5t32 44.5t26 34.5t27 34t22.5 25.5t25 24q38 31 102 31l942 -4q23 0 23 -19q0 -12 -56.5 -65t-88.5 -76q-17 -8 -32.5 -18t-28 -18.5t-25.5 -21.5t-21.5 -20.5t-20 -23
t-16.5 -22t-16 -24t-14.5 -23t-15 -25t-13.5 -23.5q-92 -159 -212 -422.5t-200 -400.5q-110 -190 -249 -350t-268 -258t-243 -152t-192 -54zM1622 1835l-369 -125l-12 16l350 279q53 43 74 43q18 0 18 -33v-25q0 -87 -8.5 -113.5t-52.5 -41.5z" />
    <glyph glyph-name="A.ss01" horiz-adv-x="2349" 
d="M340 -37q-174 0 -283.5 92t-109.5 252q0 154 112 296.5t295.5 229.5t380.5 87q79 0 186.5 -26.5t290 -87t238.5 -77.5l59 64q97 105 154 164.5t138.5 142.5t138.5 132.5t124 102.5t126.5 86.5t117.5 53.5l-606 -5q-50 0 -78.5 -17.5t-67.5 -63.5l-18 10q10 14 33.5 46.5
t32 44.5t26 34.5t27 34t22.5 25.5t25 24q37 30 102 30h942q19 0 24 -4t5 -16t-58 -66t-91 -77q-58 -39 -97.5 -93t-76.5 -131l-388 -794q-28 -55 -57 -133t-29 -111q0 -68 68 -68q67 0 152 80l18 -20q-238 -221 -365 -221q-59 0 -85.5 41t-26.5 96q0 102 119 346l114 231
q-177 -151 -364 -151q-109 0 -254 31q-116 -121 -208.5 -207.5t-197 -168t-198.5 -131t-199.5 -79t-212.5 -29.5zM111 412q0 -166 99.5 -253t260.5 -85q326 0 842 516q-94 25 -216.5 69.5t-210 80t-188.5 62.5t-176 27q-122 0 -218 -60.5t-144.5 -154.5t-48.5 -202z
M1489 717q192 -51 291 -51q56 0 105 20t71.5 39t56.5 53l203 412q41 84 93 139.5t149 97.5l112 50l-127 -2q-62 -3 -132.5 -31.5t-143 -78.5t-143.5 -109t-149 -135.5t-143.5 -145t-141.5 -149.5q-36 -39 -54 -58z" />
    <glyph glyph-name="B.ss01" horiz-adv-x="1716" 
d="M637 -14q-273 0 -467 24q-23 2 -23 15q0 12 56.5 63t89.5 72q11 9 22 19.5t22.5 26t18.5 24t19.5 29.5t16 26.5t17.5 30.5t15 26q89 155 214.5 421.5t217.5 426.5q44 79 91.5 127.5t129.5 85.5l180 82l11 -23q-40 -27 -75 -66t-50.5 -63.5t-48.5 -81.5
q-92 -159 -211.5 -418t-204.5 -409q-41 -72 -87 -119t-116 -84l-96 -51q81 -9 243 -18.5t285 -10.5q262 -3 411 133t161 371q6 124 -50.5 204.5t-162.5 80.5h-234l19 33h198q89 0 159.5 23t112.5 57.5t70 78.5t38 82t9 72q-1 68 -37 120t-98 82t-137 45t-160 15
q-221 0 -360 -45t-244 -119q-10 -27 -27.5 -78t-27 -78.5t-27 -70t-31 -66.5t-34 -53t-41 -44t-47.5 -25.5t-58 -10.5q-71 0 -71 43q0 54 100 179.5t237 226.5q169 126 370 199t409 73q104 0 187.5 -17.5t137 -45.5t89 -65.5t50.5 -75t15 -76.5q0 -129 -100 -236.5
t-248 -169.5q93 -17 149 -81t54 -148q-1 -135 -104.5 -276.5t-257.5 -248t-341 -175t-348 -68.5z" />
    <glyph glyph-name="D.ss01" horiz-adv-x="2015" 
d="M774 -14q-301 0 -495 24q-23 2 -23 15q0 18 102 102l41 33q25 19 46 44.5t32 43t29 50t26 44.5q88 155 224 435t229 440q46 82 93.5 133.5t127.5 89.5l142 65q-97 19 -195 19q-330 0 -563 -164q-10 -27 -27.5 -78t-27 -78.5t-27 -70t-31 -66.5t-34 -53t-41 -44
t-47.5 -25.5t-58 -10.5q-72 0 -72 43q0 53 100.5 178t237.5 227q169 126 370 199.5t408 73.5q129 0 243 -35t197 -95t143 -140t90 -171t30 -186q0 -130 -39.5 -253.5t-109.5 -226t-165.5 -192t-209 -157t-237.5 -116t-253.5 -73t-255.5 -24.5zM487 170q254 -27 611 -27
q184 -1 328.5 53.5t237 153t140 232.5t47.5 295q0 248 -122.5 406.5t-339.5 213.5q-27 -21 -50 -45.5t-47.5 -62t-32.5 -51t-36 -60.5q-93 -159 -222.5 -432t-214.5 -422q-41 -73 -86.5 -119.5t-115.5 -83.5z" />
    <glyph glyph-name="E.ss01" horiz-adv-x="1863" 
d="M348 0q-19 0 -24 4t-5 16t56.5 64.5t89.5 75.5q52 44 131 182q26 45 51.5 93.5t42.5 81t43.5 88t35.5 75t39.5 85.5t35.5 77h-168v32h184q89 190 166 322q46 81 93 130t128 83l113 47h-252q-210 0 -325 -27.5t-203 -89.5q-11 -31 -26.5 -77.5t-25.5 -75.5t-25 -67.5
t-27.5 -62t-31 -49.5t-38 -40t-46 -23.5t-57.5 -9.5q-72 0 -72 43q0 54 92 164.5t230 220.5q157 125 348 200.5t369 75.5h815q115 0 115 -71q3 -100 -250 -289l-17 25q105 72 105 114q0 14 -6 22.5t-23.5 12t-32.5 4t-49 0.5h-508q-47 -35 -79 -78.5t-69 -107.5
q-5 -9 -7 -13q-102 -176 -193 -383h672v-32h-688q-104 -239 -205 -418q-41 -72 -87 -119t-116 -84l-78 -41h936q50 0 78 17.5t68 64.5l18 -10q-23 -32 -61 -88t-60.5 -85t-44.5 -48q-38 -31 -102 -31h-1053z" />
    <glyph glyph-name="F.ss01" horiz-adv-x="1841" 
d="M346 0q-22 0 -22 18q0 10 41 51t79 72l23 19q52 44 131 182q36 64 73.5 135.5t61 120t61.5 127.5t56 117h-205v32h219q91 189 176 336q44 78 92 127t130 86l71 33h-225q-210 0 -325 -27.5t-203 -89.5q-11 -31 -26.5 -77.5t-25.5 -75.5t-25 -67.5t-27.5 -62t-31 -49.5
t-38 -40t-46 -23.5t-57.5 -9.5q-72 0 -72 43q0 54 92 164.5t230 220.5q157 125 348 200.5t369 75.5h815q115 0 115 -71q3 -100 -250 -289l-17 25q105 72 105 114q0 14 -6 22.5t-23.5 12t-32.5 4t-49 0.5h-510q-10 -9 -19.5 -17.5t-19 -19.5t-16 -18.5t-16 -21t-14 -19.5
t-14.5 -22.5t-13 -20.5t-14 -23t-13 -22q-82 -141 -203 -398h596v-32h-610q-118 -257 -209 -418q-41 -72 -87 -119t-116 -84l-100 -53l311 16q23 0 23 -12q0 -15 -40 -77.5t-63 -80.5q-16 -14 -59 -14h-375z" />
    </font>
</defs>
</svg>
