<?xml version="1.0" standalone="no"?>
<!DOCTYPE svg PUBLIC "-//W3C//DTD SVG 1.1//EN" "http://www.w3.org/Graphics/SVG/1.1/DTD/svg11.dtd" >
<svg xmlns="http://www.w3.org/2000/svg" xmlns:xlink="http://www.w3.org/1999/xlink" version="1.1">
<metadata>
Created by FontForge 20201107 at Wed Nov  5 09:27:29 2025
 By 
Elena Genova
</metadata>
<defs>
<font id="TheSeasons-Light" horiz-adv-x="0" >
  <font-face 
    font-family="The Seasons Light"
    font-weight="300"
    font-stretch="normal"
    units-per-em="2048"
    panose-1="0 0 0 0 0 0 0 0 0 0"
    ascent="1638"
    descent="-410"
    x-height="1024"
    cap-height="1434"
    bbox="-211 -608 2376 2040"
    underline-thickness="102"
    underline-position="153"
    unicode-range="U+0020-2260"
  />
<missing-glyph horiz-adv-x="468" 
d="M225 410q0 50 -32 88.5t-91 38.5v18q59 0 91 38.5t32 88.5h19q0 -49 33.5 -88t89.5 -39v-18q-56 0 -89.5 -39t-33.5 -88h-19z" />
    <glyph glyph-name="f_i" unicode="fi" horiz-adv-x="968" 
d="M86 0v23q31 8 47.5 26.5t25.5 68.5t9 142v723v16h-117l12 25h107q7 113 54 216.5t123.5 180.5t182.5 122.5t224 45.5q133 0 133 -53q0 -39 -32 -80t-85 -41q-92 0 -268 90q-27 -16 -39 -23t-41 -29t-45 -41t-38.5 -54t-34.5 -72.5t-21 -91.5t-9 -117v-53h283l-12 -25
h-271v-739q0 -92 9 -142t25.5 -68.5t47.5 -26.5v-23h-270zM604 0v23q31 8 47.5 26.5t25.5 68.5t9 142v471q0 83 -9 125t-23.5 57.5t-49.5 30.5v19l174 75l15 -12v-766q0 -93 9 -142.5t25 -68t47 -26.5v-23h-270z" />
    <glyph glyph-name="f_l" unicode="fl" horiz-adv-x="972" 
d="M621 0v23q31 8 47 26.5t25 68t9 142.5v1204l-198 47q-228 -116 -228 -409v-78h220l-13 -25h-207v-739q0 -92 9 -142t25.5 -68.5t47.5 -26.5v-23h-270v23q31 8 47.5 26.5t25.5 68.5t9 142v723v16h-119l12 25h109q6 103 41.5 194t89.5 156.5t120 114t133.5 73.5t129.5 29
l111 56l12 -9v-1378q0 -92 9 -142t25.5 -68.5t47.5 -26.5v-23h-270z" />
    <glyph glyph-name=".notdef" horiz-adv-x="468" 
d="M225 410q0 50 -32 88.5t-91 38.5v18q59 0 91 38.5t32 88.5h19q0 -49 33.5 -88t89.5 -39v-18q-56 0 -89.5 -39t-33.5 -88h-19z" />
    <glyph glyph-name=".null" 
 />
    <glyph glyph-name="nonmarkingreturn" horiz-adv-x="682" 
 />
    <glyph glyph-name="space" unicode=" " horiz-adv-x="450" 
 />
    <glyph glyph-name="space" unicode="&#xa0;" horiz-adv-x="450" 
 />
    <glyph glyph-name="exclam" unicode="!" horiz-adv-x="448" 
d="M211 326l-51 1003l133 84l12 -8l-74 -1079h-20zM225 -14q-37 0 -64.5 28t-27.5 66t27.5 66t64.5 28t63.5 -28t26.5 -66t-26.5 -66t-63.5 -28z" />
    <glyph glyph-name="quotedbl" unicode="&#x22;" horiz-adv-x="528" 
d="M76 1362q-7 86 47 86t47 -86l-39 -440h-16zM322 1362q-7 86 47 86t47 -86l-39 -440h-17z" />
    <glyph glyph-name="numbersign" unicode="#" horiz-adv-x="1656" 
d="M1075 -2v442h-504v-442h-28v442h-437v25h437v508h-437v24h437v437h28v-437h504v437h29v-437h438v-24h-438v-508h438v-25h-438v-442h-29zM571 465h504v508h-504v-508z" />
    <glyph glyph-name="dollar" unicode="$" horiz-adv-x="1105" 
d="M530 -20q-120 0 -237.5 29t-179.5 81l-21 289l14 2q95 -359 453 -365v621q-13 5 -38 16q-47 20 -71.5 30t-68 30.5t-67.5 34.5t-59.5 36.5t-55.5 42t-44 47t-36 55.5t-20.5 62t-8.5 72q0 69 27.5 133.5t82 120.5t147.5 91.5t212 39.5v190h29v-190q208 0 360 -86l23 -211
l-15 -4q-102 236 -368 260v-639q56 -24 88.5 -38.5t82.5 -40t79 -45.5t63.5 -50.5t53 -60.5t31.5 -69t13 -83q0 -161 -111 -271.5t-300 -127.5v-248h-29v246h-29zM166 1141q0 -40 12 -76t30 -64t50 -56t61 -47.5t75 -42.5t79.5 -38t85.5 -37v629q-14 2 -43 2
q-84 0 -152.5 -24.5t-110.5 -64t-64.5 -86.5t-22.5 -95zM588 16q152 4 235.5 79t83.5 206q0 48 -18 90.5t-44.5 73.5t-71.5 61.5t-85.5 51.5t-99.5 47v-609z" />
    <glyph glyph-name="percent" unicode="%" horiz-adv-x="1591" 
d="M186 -10l-20 20l1218 1434l21 -21zM408 729q-66 0 -127 22t-111 63.5t-80.5 110t-30.5 154.5q0 113 56 199t140.5 128t180.5 42q91 0 167 -37.5t125.5 -117t49.5 -187.5q0 -93 -34 -168t-88.5 -119t-118.5 -67t-129 -23zM449 766q112 0 185 71.5t73 194.5
q0 73 -21.5 140.5t-61 120.5t-100.5 84.5t-135 31.5q-113 0 -183.5 -76t-66.5 -205q1 -91 39 -173t110 -135.5t161 -53.5zM1165 -20q-66 0 -126.5 22t-111 63.5t-80.5 110t-30 154.5q0 85 32.5 156.5t86.5 116.5t120.5 70t137.5 25q91 0 167 -37.5t125.5 -117t49.5 -187.5
q0 -93 -34 -167.5t-89 -118.5t-119 -67t-129 -23zM1206 16q112 0 185 72t73 195q0 99 -36 183t-109.5 138.5t-171.5 54.5q-113 0 -183.5 -75.5t-66.5 -204.5q1 -91 38.5 -173.5t109.5 -136t161 -53.5z" />
    <glyph glyph-name="ampersand" unicode="&#x26;" horiz-adv-x="1746" 
d="M1272 -14q-59 0 -168 82.5t-240 214.5q-79 -158 -186 -230.5t-227 -72.5q-164 0 -280 104.5t-116 280.5q0 67 18.5 128t59 121t115 110.5t176.5 82.5q-117 164 -117 301q0 69 26 129.5t76.5 108t132 75t185.5 27.5q148 0 268 -68l23 -211l-14 -4q-61 140 -148.5 193
t-200.5 53q-120 0 -190 -73t-70 -173q0 -28 6 -58.5t20 -63.5t26.5 -59.5t37 -62.5t38.5 -57t43.5 -57.5t40.5 -50t41 -48.5t34 -40q210 -252 402.5 -430.5t285.5 -178.5q36 0 62 24.5t39 58.5t21 85.5t9.5 89t1.5 84.5q0 101 -36 212.5t-81 127.5h-425l12 25h719l-13 -25
h-239q82 -38 129 -118.5t47 -178.5q0 -104 -36 -194t-89.5 -145.5t-111.5 -87t-107 -31.5zM164 426q0 -146 95 -250t249 -104q31 0 68 9t85.5 31.5t99 70.5t89.5 116q-138 141 -258 291q-27 34 -80.5 101.5t-77.5 99.5q-83 -30 -140.5 -76.5t-83.5 -100t-36 -97.5t-10 -91z
" />
    <glyph glyph-name="quotesingle" unicode="'" horiz-adv-x="282" 
d="M94 1362q-7 86 47 86t47 -86l-38 -440h-17z" />
    <glyph glyph-name="parenleft" unicode="(" horiz-adv-x="819" 
d="M731 -555q-163 108 -286 288.5t-185.5 386t-62.5 408.5q0 205 62.5 406.5t194 387.5t316.5 316l14 -18q-166 -119 -281.5 -304t-167.5 -383.5t-52 -404.5q0 -315 118.5 -607.5t343.5 -459.5z" />
    <glyph glyph-name="parenright" unicode=")" horiz-adv-x="819" 
d="M92 -539q225 167 344 459.5t119 607.5q0 153 -30.5 305t-90.5 296.5t-158 272.5t-223 218l15 18q185 -130 316.5 -316t194 -387.5t62.5 -406.5q0 -203 -62.5 -408.5t-186 -386t-286.5 -288.5z" />
    <glyph glyph-name="asterisk" unicode="*" horiz-adv-x="718" 
d="M354 788q-28 0 -41 24t-6 62l43 236l-182 -154q-30 -25 -57 -26t-41 24q-14 23 0.5 47t50.5 37l225 80l-225 80q-36 13 -50.5 37t-0.5 47q14 25 41 24t57 -26l182 -154l-43 236q-7 38 6 62t41 24t41 -24t6 -62l-43 -236l183 154q30 25 57 26t41 -24q14 -23 -0.5 -47
t-50.5 -37l-226 -80l226 -80q36 -13 50.5 -37t0.5 -47q-14 -25 -41 -24t-57 26l-183 154l43 -236q7 -38 -6 -62t-41 -24z" />
    <glyph glyph-name="plus" unicode="+" horiz-adv-x="1142" 
d="M557 324v346h-350l10 24h340v342l25 11v-353h348l-10 -24h-338v-336z" />
    <glyph glyph-name="comma" unicode="," horiz-adv-x="477" 
d="M125 -236q142 74 145 240q-18 -12 -43 -12q-35 0 -60.5 25.5t-25.5 60.5q0 41 27.5 67.5t67.5 26.5q52 0 81 -39.5t27 -101.5q-1 -95 -60.5 -171.5t-152.5 -109.5z" />
    <glyph glyph-name="hyphen" unicode="-" horiz-adv-x="747" 
d="M106 502v24h535v-24h-535z" />
    <glyph glyph-name="period" unicode="." horiz-adv-x="448" 
d="M225 -14q-37 0 -64.5 28t-27.5 66t27.5 66t64.5 28t63.5 -28t26.5 -66t-26.5 -66t-63.5 -28z" />
    <glyph glyph-name="slash" unicode="/" horiz-adv-x="794" 
d="M-49 -559l-25 12l918 2192l24 -13z" />
    <glyph glyph-name="zero" unicode="0" horiz-adv-x="1384" 
d="M705 -20q-90 0 -178.5 29t-169 90t-141.5 146.5t-97.5 208t-36.5 265.5q0 159 48.5 296.5t130 231.5t190.5 147.5t229 53.5q90 0 178.5 -29t169 -90t141.5 -146.5t97.5 -208t36.5 -265.5q0 -159 -48.5 -296.5t-130 -231.5t-190.5 -147.5t-229 -53.5zM764 18
q105 0 186.5 43.5t132 122t76 179.5t27.5 223q2 212 -68 400t-199.5 305.5t-287.5 117.5q-109 0 -192.5 -43.5t-134.5 -121.5t-77 -179t-28 -223q-1 -158 40 -307.5t114 -263.5t181 -183.5t230 -69.5z" />
    <glyph glyph-name="one" unicode="1" horiz-adv-x="579" 
d="M147 0v23q38 8 57.5 26.5t30.5 68t11 142.5v1032l-180 -75l-5 14l283 213h16v-1184q0 -93 11 -142.5t30.5 -68t57.5 -26.5v-23h-312z" />
    <glyph glyph-name="two" unicode="2" horiz-adv-x="997" 
d="M20 29q36 35 111.5 105.5t124 116t121 119.5t120 131t101.5 133.5t85.5 144t53 146t21.5 154.5t-25 134.5t-66.5 91.5t-90 49t-101.5 16q-86 0 -171.5 -39t-147.5 -110l-15 18q180 209 412 209q138 0 233.5 -86.5t96.5 -231.5q0 -75 -23 -155.5t-57.5 -149t-92.5 -147
t-107.5 -135.5t-124 -130.5t-120.5 -115t-118.5 -105.5t-98.5 -88h486q75 0 124 11t79.5 37.5t47 59t31.5 87.5l21 -2l-31 -297h-879v29z" />
    <glyph glyph-name="three" unicode="3" horiz-adv-x="974" 
d="M88 -254q293 148 474 356t181 416q0 71 -17.5 125.5t-44.5 86t-65 51t-73.5 26t-75.5 6.5q-77 0 -148 -33l-8 19q164 72 241 157.5t77 204.5q0 99 -63 156t-167 57q-154 0 -286 -123l-17 17q174 180 375 180q127 0 203 -72t76 -172q0 -52 -16.5 -97.5t-42.5 -80.5
t-70.5 -70t-87.5 -61.5t-107 -60.5q59 18 115 18q42 0 84 -8.5t87 -30.5t79.5 -54.5t56.5 -86t22 -119.5q0 -124 -59.5 -242t-170 -222t-241 -191.5t-299.5 -176.5z" />
    <glyph glyph-name="four" unicode="4" horiz-adv-x="1048" 
d="M31 362l-11 21l773 1065h28v-1024h142l2 -4l-15 -27q-14 -28 -49 -28h-80v-105q0 -92 9 -142t25.5 -68.5t47.5 -26.5v-23h-278v23q31 8 47.5 26.5t25.5 68.5t9 142v102h-676zM86 424h621v858z" />
    <glyph glyph-name="five" unicode="5" horiz-adv-x="915" 
d="M41 -260q215 133 363.5 279.5t217 280t68.5 255.5q0 152 -98.5 232t-267.5 75q-35 -1 -73 -5.5t-60.5 -8.5t-53.5 -11t-37 -8l-20 15l82 493l16 97h316q130 0 195 32t93 97l21 -9q-16 -38 -33.5 -66.5t-47.5 -58.5t-67 -49t-93 -31t-126 -12h-250l-65 -411q115 37 258 37
q112 1 199 -30t137.5 -85t76 -119t25.5 -139q0 -209 -193 -423.5t-571 -451.5z" />
    <glyph glyph-name="six" unicode="6" horiz-adv-x="1042" 
d="M530 -20q-210 0 -329 148.5t-119 406.5q0 97 24 202.5t79 224t135.5 231.5t202.5 226.5t272 206.5l12 -20q-106 -68 -196 -153.5t-150.5 -169t-108.5 -176t-75 -170t-44 -155.5q70 71 160 110.5t170 39.5q180 0 295 -116.5t115 -321.5q0 -131 -40 -233.5t-105.5 -161.5
t-141.5 -89t-156 -30zM211 592q0 -116 21.5 -217t65 -182t117 -128t169.5 -47q38 0 75 9.5t76.5 35.5t69 66t48.5 107t19 153q0 201 -108.5 338t-269.5 137q-142 0 -267 -110q-16 -84 -16 -162z" />
    <glyph glyph-name="seven" unicode="7" horiz-adv-x="837" 
d="M213 0q0 187 135 483q183 406 422 850l-491 6q-86 1 -134.5 -18.5t-75.5 -60t-57 -125.5l-12 2l43 297h803v-17q-143 -251 -263 -525.5t-161 -422.5q-77 -272 -43 -469h-166z" />
    <glyph glyph-name="eight" unicode="8" horiz-adv-x="1056" 
d="M479 -20q-68 0 -136 21t-127.5 60.5t-96.5 106t-37 149.5q0 66 27 132t73.5 123.5t95.5 103.5t107 88q-108 68 -167.5 147.5t-59.5 192.5q0 64 25 124t72 110t123.5 80t170.5 30q153 0 246.5 -83t93.5 -200q0 -192 -266 -393q47 -25 76.5 -41t71 -42t67.5 -47t54.5 -51
t44.5 -59.5t27 -66.5t11 -78q0 -174 -136 -290.5t-360 -116.5zM178 373q0 -69 20.5 -125t55.5 -92.5t75.5 -63t87 -40t84 -19.5t70.5 -6q82 0 153.5 28.5t120 91t48.5 148.5q0 58 -22.5 109.5t-54 87.5t-86.5 74.5t-99 62.5t-112.5 60.5t-108.5 60.5q-100 -73 -166 -173.5
t-66 -203.5zM231 1178q0 -42 11.5 -80.5t28 -68.5t48 -61t57 -51.5t70.5 -48t73 -42.5t79 -42q75 66 130.5 156.5t55.5 194.5q0 49 -16.5 96t-49.5 88.5t-90.5 66.5t-131.5 25q-125 0 -195 -70.5t-70 -162.5z" />
    <glyph glyph-name="nine" unicode="9" horiz-adv-x="1042" 
d="M512 1448q210 0 329.5 -149t119.5 -406q0 -123 -40 -259t-121.5 -281.5t-223.5 -290.5t-328 -261l-12 21q106 68 195.5 153.5t150.5 169t108.5 175.5t74.5 169.5t44 155.5q-69 -71 -159.5 -110t-170.5 -39q-180 0 -294.5 116.5t-114.5 321.5q0 106 26.5 193.5t70 145.5
t101.5 98.5t119.5 58.5t124.5 18zM170 1038q0 -201 109 -338t270 -137q140 0 266 111q16 84 16 162q0 117 -21.5 217.5t-65 181.5t-116.5 127.5t-169 46.5q-38 0 -75 -9.5t-77 -35.5t-69.5 -66t-48.5 -107t-19 -153z" />
    <glyph glyph-name="colon" unicode=":" horiz-adv-x="354" 
d="M225 -14q-37 0 -64.5 28t-27.5 66t27.5 66t64.5 28t63.5 -28t26.5 -66t-26.5 -66t-63.5 -28zM225 662q-37 0 -64.5 28t-27.5 66t27.5 66t64.5 28t63.5 -28t26.5 -66t-26.5 -66t-63.5 -28z" />
    <glyph glyph-name="semicolon" unicode=";" horiz-adv-x="354" 
d="M147 -236q143 74 146 240q-18 -12 -43 -12q-35 0 -60.5 25.5t-25.5 60.5q0 41 27 67.5t67 26.5q53 0 82 -39.5t27 -101.5q-1 -95 -60.5 -171.5t-152.5 -109.5zM225 662q-37 0 -64.5 28t-27.5 66t27.5 66t64.5 28t63.5 -28t26.5 -66t-26.5 -66t-63.5 -28z" />
    <glyph glyph-name="less" unicode="&#x3c;" horiz-adv-x="1142" 
d="M887 401l-602 271v28l602 271l12 -21l-586 -264l586 -264z" />
    <glyph glyph-name="equal" unicode="=" horiz-adv-x="1142" 
d="M207 834l10 24h713l-10 -24h-713zM207 506l10 24h713l-10 -24h-713z" />
    <glyph glyph-name="greater" unicode="&#x3e;" horiz-adv-x="1142" 
d="M297 401l-12 21l585 264l-585 264l12 21l602 -271v-28z" />
    <glyph glyph-name="question" unicode="?" horiz-adv-x="808" 
d="M336 311l-12 6l-2 392q315 159 315 409q0 61 -17.5 108t-44 75.5t-62 47t-68.5 25t-66 6.5q-110 0 -200.5 -61.5t-135.5 -173.5l-23 10q55 133 162.5 213t253.5 80q129 0 220.5 -79t91.5 -212q0 -230 -334 -424l12 -350zM375 -14q-37 0 -64.5 28t-27.5 66t27.5 66
t64.5 28t63.5 -28t26.5 -66t-26.5 -66t-63.5 -28z" />
    <glyph glyph-name="at" unicode="@" horiz-adv-x="1933" 
d="M690 -406q-93 0 -174 14.5t-158.5 52t-132 97t-88 154.5t-33.5 219q0 130 47 270t127.5 268t195 244t243.5 201.5t277.5 135.5t293.5 50q120 0 215 -27.5t155.5 -72.5t100.5 -106t56 -123t16 -129q0 -132 -50.5 -265t-132 -238.5t-180 -188.5t-201 -128t-188.5 -45
q-59 0 -90 35t-31 84q0 141 189 549q-50 -78 -82 -127.5t-84.5 -126.5t-90.5 -126.5t-87 -107.5t-87.5 -91.5t-79.5 -56.5t-75 -23q-55 0 -87 52.5t-32 127.5q0 77 36.5 190t99.5 230t139.5 219.5t165.5 167.5t168 65q125 0 237 -153l123 151l21 -10q-123 -213 -232 -485
q-131 -312 -131 -416q0 -17 1.5 -27t8 -28t25 -27.5t47.5 -9.5q79 0 156.5 36t140 96t116.5 139t90 163.5t56.5 171t20.5 160.5q0 67 -13.5 128t-49 121t-89 104t-140 71.5t-196.5 27.5q-144 0 -282.5 -46.5t-251.5 -126t-209.5 -186.5t-162 -226.5t-102 -247t-36.5 -246.5
q0 -95 21.5 -173.5t56 -131t83.5 -92t97.5 -61.5t105 -36t99.5 -18t86 -4q188 0 382 76.5t340 195.5l13 -18q-63 -52 -143 -103t-183.5 -101t-226.5 -81t-240 -31zM555 213q0 -66 19.5 -104.5t56.5 -38.5q41 0 104 57.5t134.5 154.5t133 187.5t128 194t90.5 137.5
q-102 168 -236 168q-82 0 -164.5 -85.5t-138.5 -207t-91.5 -248.5t-35.5 -215z" />
    <glyph glyph-name="A" unicode="A" horiz-adv-x="1306" 
d="M-25 0v23q30 8 52 23.5t54 64t66 131.5l426 1052q16 41 -4 82l-12 27l105 45l497 -1208q34 -82 64 -130t49 -63.5t43 -23.5v-23h-258v23q23 6 32 15t7 34t-14.5 62t-41.5 106l-127 307h-610l-123 -305q-82 -199 19 -219v-23h-224zM315 575h586l-297 719z" />
    <glyph glyph-name="B" unicode="B" horiz-adv-x="1210" 
d="M502 0h-389v23q31 8 47.5 26.5t25.5 68.5t9 142v914q0 92 -9 142t-25.5 68.5t-47.5 26.5v23h450q214 0 322 -71.5t108 -199.5q0 -110 -75.5 -194t-223.5 -113q120 -8 209 -43t141 -90t77 -120t26 -142q1 -69 -18 -132.5t-67 -124t-120 -105.5t-185 -72t-255 -27zM520 29
q138 0 236.5 29t155.5 84.5t82.5 127t25.5 164.5q0 87 -25 157t-76 124.5t-135.5 84t-197.5 29.5h-277v-622q0 -110 20.5 -144t86.5 -34h104zM510 856q184 0 270 77t86 204q0 125 -83 197.5t-240 72.5h-234v-551h201z" />
    <glyph glyph-name="C" unicode="C" horiz-adv-x="1497" 
d="M854 -20q-340 0 -546 191t-206 513q0 226 106 401t289.5 269t413.5 94q132 0 263.5 -36.5t187.5 -68.5l8 -213l-16 -4q-60 128 -194.5 204.5t-336.5 76.5q-123 0 -230 -41t-189.5 -119.5t-131 -203t-49.5 -281.5q-1 -113 26 -220t83.5 -202.5t136.5 -167.5t193.5 -114
t246.5 -42q168 0 296 80.5t190 245.5l20 -2l-33 -238q-69 -46 -224.5 -84t-303.5 -38z" />
    <glyph glyph-name="D" unicode="D" horiz-adv-x="1470" 
d="M629 0h-516v23q31 8 47.5 26.5t25.5 68.5t9 142v914q0 92 -9 142t-25.5 68.5t-47.5 26.5v23h467q155 0 285.5 -37t222 -101.5t155 -152.5t94 -189t31.5 -213q1 -156 -51.5 -292t-147.5 -235.5t-234.5 -156.5t-305.5 -57zM635 29q292 0 448 169t156 482q0 119 -31.5 228
t-93.5 199.5t-148.5 157.5t-203.5 104.5t-252 37.5h-201v-1229q0 -79 26.5 -114t106.5 -35h193z" />
    <glyph glyph-name="E" unicode="E" horiz-adv-x="1193" 
d="M1094 0h-981v23q31 8 47.5 26.5t25.5 68.5t9 142v914q0 92 -9 142t-25.5 68.5t-47.5 26.5v23h919l25 -244l-19 -4q-46 118 -132.5 169.5t-227.5 51.5h-369v-631h336q103 0 162.5 16t81.5 40.5t31 66.5h22v-272h-22q-9 42 -31 66.5t-81.5 40.5t-162.5 16h-336v-641
q0 -82 82 -82h342q144 0 228 48t133 173l18 -4z" />
    <glyph glyph-name="F" unicode="F" horiz-adv-x="1140" 
d="M113 0v23q31 8 47.5 26.5t25.5 68.5t9 142v914q0 92 -9 142t-25.5 68.5t-47.5 26.5v23h940l20 -203l-18 -4q-46 100 -117 140t-207 40h-422v-608l330 -2q103 -1 162 14.5t81 40t31 66.5h23v-273h-23q-9 42 -31 66.5t-81 41t-162 17.5l-330 2v-512q0 -92 9 -142
t25.5 -68.5t47.5 -26.5v-23h-278z" />
    <glyph glyph-name="G" unicode="G" horiz-adv-x="1492" 
d="M838 -20q-334 0 -535 193.5t-201 516.5q0 213 92.5 386.5t257.5 272.5t369 99q159 0 286 -38t185 -75l8 -211l-16 -4q-27 56 -69.5 105.5t-103.5 93t-146.5 69t-184.5 25.5q-248 0 -406 -163.5t-161 -446.5q-1 -117 27.5 -231t86.5 -215t138.5 -178t192 -122t237.5 -45
t234 65t149 148l-4 236q-2 73 -21.5 104.5t-83.5 44.5v23h215v-393q-64 -104 -217.5 -182t-328.5 -78z" />
    <glyph glyph-name="H" unicode="H" horiz-adv-x="1470" 
d="M113 0v23q31 8 47.5 26.5t25.5 68.5t9 142v914q0 92 -9 142t-25.5 68.5t-47.5 26.5v23h278v-23q-31 -8 -47.5 -26.5t-25.5 -68.5t-9 -142v-400h852v400q0 92 -9 142t-25.5 68.5t-47.5 26.5v23h279v-23q-31 -8 -47.5 -26.5t-25.5 -68.5t-9 -142v-914q0 -92 9 -142
t25.5 -68.5t47.5 -26.5v-23h-279v23q31 8 47.5 26.5t25.5 68.5t9 142v485h-852v-485q0 -92 9 -142t25.5 -68.5t47.5 -26.5v-23h-278z" />
    <glyph glyph-name="I" unicode="I" horiz-adv-x="503" 
d="M113 0v23q31 8 47.5 26.5t25.5 68.5t9 142v914q0 92 -9 142t-25.5 68.5t-47.5 26.5v23h278v-23q-31 -8 -47.5 -26.5t-25.5 -68.5t-9 -142v-914q0 -92 9 -142t25.5 -68.5t47.5 -26.5v-23h-278z" />
    <glyph glyph-name="J" unicode="J" horiz-adv-x="546" 
d="M-98 -246q-36 0 -51 6.5t-15 26.5q0 30 27.5 54t70.5 24q40 0 179 -21q26 15 45.5 33t39.5 52t31 91t11 134v1020q0 92 -9 142t-25.5 68.5t-47.5 26.5v23h276v-23q-31 -8 -47.5 -26.5t-25.5 -68.5t-9 -142v-877q0 -128 -37.5 -233t-101 -171.5t-143.5 -102.5t-168 -36z
" />
    <glyph glyph-name="K" unicode="K" horiz-adv-x="1300" 
d="M113 0v23q31 8 47.5 26.5t25.5 68.5t9 142v914q0 92 -9 142t-25.5 68.5t-47.5 26.5v23h278v-23q-31 -8 -47.5 -26.5t-25.5 -68.5t-9 -142v-564l578 592q196 199 90 217v15h246v-23q-31 -9 -45 -14t-49.5 -21.5t-75 -48.5t-86.5 -80l-437 -448l41 4q53 7 98 2.5t79 -11
t64 -26t52.5 -41.5t45.5 -58.5t43 -77t43.5 -97t48.5 -117.5q12 -29 18 -45q64 -159 114.5 -232t98.5 -73q17 0 41 4v-23q-47 -14 -107 -14q-27 0 -50.5 9t-41 19.5t-37.5 37.5t-31 43.5t-30.5 59.5t-28 62.5t-30.5 73.5q-95 231 -124 288q-62 119 -136 158q-62 32 -158 27
l-41 -2l-193 -197v-313q0 -92 9 -142t25.5 -68.5t47.5 -26.5v-23h-278z" />
    <glyph glyph-name="L" unicode="L" horiz-adv-x="1099" 
d="M1040 0h-927v23q31 8 47.5 26.5t25.5 68.5t9 142v914q0 92 -9 142t-25.5 68.5t-47.5 26.5v23h278v-23q-31 -8 -47.5 -26.5t-25.5 -68.5t-9 -142v-1065q0 -82 82 -82h328q135 0 201.5 39.5t113.5 140.5l19 -4z" />
    <glyph glyph-name="M" unicode="M" horiz-adv-x="1691" 
d="M121 0v23q31 8 47.5 26.5t25.5 68.5t9 142v877q0 102 -14.5 162t-36.5 81.5t-60 30.5v23h182l568 -928l512 833l2 4l55 91h168v-23q-38 -9 -60 -30.5t-36.5 -81.5t-14.5 -162v-877q0 -92 9 -142t25.5 -68.5t47.5 -26.5v-23h-278v23q31 8 47.5 26.5t25.5 68.5t9 142v1022
l-549 -893h-29l-536 881v-973q0 -103 15.5 -162t40 -81t66.5 -31v-23h-241z" />
    <glyph glyph-name="N" unicode="N" horiz-adv-x="1396" 
d="M1196 -16l-967 1300v-987q0 -103 16 -162t40.5 -81t66.5 -31v-23h-235v23q31 8 47.5 26.5t25.5 68.5t9 142v914q0 134 -23.5 180t-83.5 57v23h170l930 -1248v951q0 103 -16 162t-40.5 81t-66.5 31v23h236v-23q-31 -8 -47.5 -26.5t-25.5 -68.5t-9 -142v-1190h-27z" />
    <glyph glyph-name="O" unicode="O" horiz-adv-x="1648" 
d="M825 -20q-107 0 -209 27.5t-195.5 87t-164 144t-112.5 207.5t-42 269q0 215 89.5 382t254.5 260t379 93q106 0 208 -28t195 -88t163.5 -145.5t112.5 -208.5t42 -269q0 -149 -42 -273t-112.5 -207t-164.5 -141t-195 -84t-207 -26zM879 18q256 0 407.5 161.5t151.5 424.5
q0 208 -87 393t-243 299.5t-342 114.5q-169 0 -295.5 -76t-192 -208.5t-65.5 -301.5q0 -154 50.5 -300.5t137.5 -258.5t212.5 -180t265.5 -68z" />
    <glyph glyph-name="P" unicode="P" horiz-adv-x="1116" 
d="M113 0v23q31 8 47.5 26.5t25.5 68.5t9 142v914q0 92 -9 142t-25.5 68.5t-47.5 26.5v23h399q139 0 245.5 -31t171.5 -87t97.5 -129.5t32.5 -162.5q0 -215 -148 -333t-405 -118h-197v-313q0 -92 9 -142t25.5 -68.5t47.5 -26.5v-23h-278zM506 602q198 0 312 97.5t114 283.5
q0 202 -131 312t-381 110q-37 0 -111 -4v-799h197z" />
    <glyph glyph-name="Q" unicode="Q" horiz-adv-x="1648" 
d="M1432 -328q-49 0 -106.5 24t-104 56t-100 80t-84 79.5t-66.5 69.5q-7 8 -10 11q-67 -12 -136 -12q-107 0 -209 27.5t-195.5 87t-164 144t-112.5 207.5t-42 269q0 215 89.5 382t254.5 260t379 93q106 0 208 -28t195 -88t163.5 -145.5t112.5 -208.5t42 -269
q0 -156 -45.5 -284.5t-124.5 -214t-176.5 -139.5t-210.5 -77q147 -108 266 -168.5t230 -60.5q65 0 113.5 22t93.5 70l14 -13q-161 -174 -274 -174zM879 18q256 0 407.5 161.5t151.5 424.5q0 208 -87 393t-243 299.5t-342 114.5q-169 0 -295.5 -76t-192 -208.5t-65.5 -301.5
q0 -154 50.5 -300.5t137.5 -258.5t212.5 -180t265.5 -68z" />
    <glyph glyph-name="R" unicode="R" horiz-adv-x="1239" 
d="M1157 -14q-31 0 -55.5 6.5t-45 23t-34 31.5t-30 47.5t-26 54.5t-28.5 68t-31 74q-14 32 -32 76.5t-29.5 72.5t-28 65t-29.5 60.5t-33 51t-40 45t-47.5 35t-58.5 27t-71 15.5t-87 6h-142v-485q0 -92 9 -142t25.5 -68.5t47.5 -26.5v-23h-278v23q31 8 47.5 26.5t25.5 68.5
t9 142v914q0 92 -9 142t-25.5 68.5t-47.5 26.5v23h376q279 0 408 -79t129 -233q0 -150 -109 -251t-303 -121q41 -6 76 -16t62 -20.5t52 -30t42 -33.5t36 -42.5t29.5 -45t27 -53.5t23.5 -55.5t24.5 -63.5t25.5 -66q65 -165 113.5 -236.5t97.5 -71.5q10 0 34 4v-20
q-33 -14 -100 -14zM526 774q178 0 275.5 79t97.5 224q0 330 -487 330q-29 0 -103 -4v-629h217z" />
    <glyph glyph-name="S" unicode="S" horiz-adv-x="1122" 
d="M582 -20q-148 0 -271.5 44t-204.5 101l-14 262l21 2q29 -81 66 -143.5t94.5 -118.5t143 -86.5t193.5 -30.5q141 0 239.5 82.5t98.5 204.5q0 43 -14.5 83t-35.5 70.5t-58 60.5t-68 50t-80.5 43.5t-80 36.5t-81.5 33q-217 86 -310 174t-93 229q0 168 129.5 269.5
t339.5 101.5q247 0 405 -102l9 -207l-17 -4q-23 47 -47 84t-62.5 75.5t-84 64t-111.5 42t-145 16.5q-135 0 -228.5 -74.5t-93.5 -209.5q0 -47 15 -88.5t45.5 -74.5t64 -59.5t82.5 -52t88 -42.5t94 -40l15 -6q70 -29 117 -50.5t100 -50.5t86.5 -58.5t62.5 -66.5t42.5 -81.5
t13.5 -97.5q0 -111 -64 -200t-170 -137t-231 -48z" />
    <glyph glyph-name="T" unicode="T" horiz-adv-x="1144" 
d="M432 0v23q31 8 47.5 26.5t25.5 68.5t9 142v1147h-141q-135 0 -202 -39.5t-114 -140.5l-18 4l12 203h1039l12 -203l-19 -4q-47 101 -113.5 140.5t-201.5 39.5h-137v-1147q0 -92 9 -142t25.5 -68.5t47.5 -26.5v-23h-281z" />
    <glyph glyph-name="U" unicode="U" horiz-adv-x="1372" 
d="M721 -20q-90 0 -169.5 17t-151.5 56t-123.5 97.5t-82 147t-30.5 198.5v678q0 92 -9 142t-25.5 68.5t-47.5 26.5v23h278v-23q-31 -8 -47 -26.5t-25 -68t-9 -142.5v-633q0 -113 27 -203.5t73 -150t109.5 -99.5t132.5 -57t147 -17q58 0 114 13.5t114.5 50t102 92.5
t71.5 148.5t28 209.5v609q0 103 -16 162t-40.5 81t-66.5 31v23h236v-23q-31 -8 -47.5 -26.5t-25.5 -68.5t-9 -142v-637q0 -120 -27 -215.5t-73.5 -158.5t-112 -105t-138.5 -60t-157 -18z" />
    <glyph glyph-name="V" unicode="V" horiz-adv-x="1273" 
d="M143 1192q-46 119 -80 162.5t-71 56.5v23h258v-23q-23 -6 -32.5 -15.5t-8 -34.5t13.5 -62.5t39 -106.5l420 -1071l410 1069q38 98 33 154.5t-58 66.5v23h223v-23q-46 -13 -84 -57t-84 -164l-465 -1210h-36z" />
    <glyph glyph-name="W" unicode="W" horiz-adv-x="1798" 
d="M715 1194q-34 82 -64 130t-49 63.5t-43 23.5v23h252v-23q-23 -6 -32 -15t-7.5 -34t15 -62.5t42.5 -105.5l125 -301l107 295q73 203 -17 223v23h211v-23q-45 -12 -81.5 -56t-79.5 -165l-121 -338l293 -705l374 1043q73 201 -28 221v23h223v-23q-45 -12 -82 -56.5
t-80 -164.5l-428 -1190h-37l-301 729l-297 -729h-37l-452 1190q-46 120 -79.5 164t-70.5 57v23h258v-23q-30 -7 -37.5 -25.5t3 -61.5t45.5 -134l397 -1049l254 627z" />
    <glyph glyph-name="X" unicode="X" horiz-adv-x="1175" 
d="M913 0v23q34 8 34 28q1 25 -62 130q-9 16 -25 42l-291 484l-327 -490q-30 -47 -46.5 -78.5t-22 -57t4.5 -39.5t37 -19v-23h-203v23q32 11 52.5 23.5t58 54t86.5 116.5l344 516l-289 477q-46 76 -81 120t-52.5 57t-42.5 24v23h246v-23q-34 -8 -34 -29q-1 -26 64 -133
q9 -16 23 -39l236 -391l266 398q30 46 46.5 78t22 57t-5 39.5t-37.5 19.5v23h203v-23q-32 -11 -52.5 -23.5t-57 -54t-86.5 -116.5l-283 -424l344 -570q46 -76 81 -119.5t52 -56.5t43 -24v-23h-246z" />
    <glyph glyph-name="Y" unicode="Y" horiz-adv-x="1095" 
d="M397 0v23q31 8 47.5 26.5t25.5 68.5t9 142l-2 375l-315 571q-32 59 -60 99t-50.5 60.5t-37.5 30t-34 15.5v23h260v-23q-22 -6 -30.5 -14t-2 -33t23 -57.5t54.5 -100.5l297 -528l299 528q27 48 41.5 82.5t17.5 60.5t-8.5 41.5t-38.5 20.5v23h223v-23q-23 -6 -41 -15.5
t-43.5 -30t-54.5 -60.5t-62 -99l-319 -567v-379q0 -92 9 -142t25.5 -68.5t47.5 -26.5v-23h-281z" />
    <glyph glyph-name="Z" unicode="Z" horiz-adv-x="1091" 
d="M53 0v20l858 1387h-444q-102 0 -169 -25.5t-107 -72t-76 -129.5h-17l25 254h913v-21l-860 -1386h418q92 0 155.5 10.5t106.5 27.5t75.5 54t53 75t47.5 105l17 -2l-37 -297h-959z" />
    <glyph glyph-name="bracketleft" unicode="[" horiz-adv-x="757" 
d="M229 -551v2189h486v-24h-412v-2140h412v-25h-486z" />
    <glyph glyph-name="backslash" unicode="\" horiz-adv-x="729" 
d="M817 -559l-917 2191l24 13l918 -2192z" />
    <glyph glyph-name="bracketright" unicode="]" horiz-adv-x="755" 
d="M528 -551h-485v25h412v2140h-412v24h485v-2189z" />
    <glyph glyph-name="asciicircum" unicode="^" horiz-adv-x="811" 
d="M180 954l-24 13l229 467h29l229 -467l-25 -13l-219 443z" />
    <glyph glyph-name="underscore" unicode="_" horiz-adv-x="1024" 
d="M-57 -195v25h1149v-25h-1149z" />
    <glyph glyph-name="a" unicode="a" horiz-adv-x="1083" 
d="M879 0q-41 0 -41 41v391q-52 -198 -182.5 -325t-276.5 -127q-124 0 -210.5 70t-86.5 198q0 45 13 84t34.5 69.5t56 57t70 46t84.5 38t92.5 31.5t99.5 28l304 80q-18 303 -306 303q-99 0 -191 -49t-165 -143l-18 14q181 231 430 231q180 0 269 -93.5t89 -258.5v-426
q0 -92 9 -142t25.5 -68.5t47.5 -26.5v-23h-147zM195 289q2 -99 64 -159t167 -60q70 0 134.5 30t114 81t86.5 117t56.5 140t20.5 148v45v26l-297 -77q-178 -47 -262.5 -110.5t-83.5 -180.5z" />
    <glyph glyph-name="b" unicode="b" horiz-adv-x="1208" 
d="M606 -18q-115 -1 -223.5 45.5t-161.5 105.5l-47 -133h-20v1346q0 83 -9 125t-23.5 57.5t-49.5 30.5v18l174 76l14 -13v-766q214 164 430 164q86 0 162.5 -34t135.5 -96.5t93.5 -159.5t34.5 -216q0 -99 -32 -194t-92.5 -175t-161 -130t-224.5 -51zM260 332
q0 -51 31 -106.5t83 -101.5t126.5 -76t154.5 -30q163 0 263 112.5t100 324.5q0 105 -23.5 198.5t-70 168.5t-123 119t-174.5 44q-189 0 -367 -139v-514z" />
    <glyph glyph-name="c" unicode="c" horiz-adv-x="1087" 
d="M571 -20q-69 0 -137 19.5t-131.5 61t-112 100t-77.5 143.5t-29 185q0 148 75.5 274.5t205 200.5t282.5 74q128 0 226 -31.5t98 -72.5q0 -27 -34.5 -56.5t-82.5 -29.5q-31 0 -100.5 36t-216.5 124q-156 -32 -252.5 -150t-96.5 -299q0 -221 127.5 -355t331.5 -134
q118 0 206.5 49t172.5 145l16 -16q-216 -268 -471 -268z" />
    <glyph glyph-name="d" unicode="d" horiz-adv-x="1193" 
d="M557 -20q-93 0 -178.5 36.5t-151 102t-104.5 165t-39 218.5q0 98 33.5 191t96 170t164 124.5t226.5 48.5q102 1 190.5 -32t153.5 -84v426q0 83 -9 125t-23.5 57.5t-49.5 30.5v18l174 76l15 -13v-1380q0 -92 9 -142t25.5 -68.5t47.5 -26.5v-23h-148q-41 0 -41 41v143
q-207 -204 -391 -204zM186 578q0 -222 116.5 -371.5t305.5 -149.5q172 0 340 158v524q-16 96 -132 180.5t-251 84.5q-164 0 -271.5 -112t-107.5 -314z" />
    <glyph glyph-name="e" unicode="e" horiz-adv-x="1107" 
d="M571 -20q-69 0 -137 19.5t-131.5 61t-112 100t-77.5 143.5t-29 185q0 237 154.5 393t386.5 156q175 0 283 -98t116 -258h-823q-13 -63 -13 -123q0 -221 127.5 -355t331.5 -134q118 0 206.5 49t172.5 145l16 -16q-216 -268 -471 -268zM205 707h704q-5 33 -20 70
t-44.5 78.5t-68.5 73.5t-97.5 53.5t-125.5 21.5q-131 0 -222.5 -79.5t-125.5 -217.5z" />
    <glyph glyph-name="f" unicode="f" horiz-adv-x="600" 
d="M88 0v23q31 8 47.5 26.5t25.5 68.5t9 142v729v10h-119l12 25h107q9 154 86.5 284.5t209.5 208.5t290 78q133 0 133 -47q0 -30 -31.5 -66t-81.5 -36q-20 0 -43 3t-39.5 6t-46.5 11.5t-43.5 12.5t-50.5 16t-49 16q-27 -15 -39 -22.5t-41 -29.5t-45 -41.5t-38.5 -54.5
t-34.5 -73.5t-21 -93.5t-9 -119v-53h281l-12 -25h-269v-739q0 -92 9 -142t25.5 -68.5t47.5 -26.5v-23h-270z" />
    <glyph glyph-name="g" unicode="g" horiz-adv-x="1048" 
d="M373 -567q-96 0 -172 27t-124 86.5t-48 144.5q0 100 73.5 184t214.5 172q-161 34 -161 146q0 16 4 31t14.5 29.5t17.5 24t25 24t24 19.5t28 20t24 17q-172 93 -172 299q0 104 57 193t147.5 138.5t188.5 49.5q76 0 150 -24q14 21 28 35q101 112 250 112q46 0 70 -12
t24 -31q0 -27 -31 -53.5t-75 -26.5t-176 35q-42 -29 -68 -67q97 -38 158 -119.5t61 -204.5q0 -87 -37 -161.5t-95.5 -121t-126 -72.5t-132.5 -26q-108 0 -199 45q-8 -6 -25.5 -18.5t-23.5 -17t-17 -14.5t-14.5 -17t-6.5 -17.5t-3 -21.5q3 -91 234 -103l239 -14
q60 -3 97.5 -7t81.5 -12.5t70.5 -22.5t50 -35t34 -53t10.5 -75q0 -118 -105 -232.5t-261 -183.5t-303 -69zM549 332q119 0 185.5 79.5t66.5 202.5q0 94 -39.5 184.5t-114 151t-164.5 60.5q-122 0 -189 -79.5t-67 -207.5q0 -97 40.5 -186.5t115.5 -147t166 -57.5zM133 -262
q0 -105 83.5 -176.5t242.5 -71.5q116 0 238 53.5t203 141t81 176.5q0 38 -14.5 65t-37.5 43t-64 26.5t-80 15t-99 7.5l-242 15q-65 4 -94 10q-217 -134 -217 -305z" />
    <glyph glyph-name="h" unicode="h" horiz-adv-x="1179" 
d="M72 0v23q31 8 47.5 26.5t25.5 68.5t9 142v1086q0 83 -9 125t-23.5 57.5t-49.5 30.5v18l174 76l14 -13v-792q103 84 219.5 137t227.5 53q161 0 247 -97t86 -279v-402q0 -92 9 -142t25.5 -68.5t47.5 -26.5v-23h-270v23q31 8 47.5 26.5t25.5 68.5t9 142v358q0 184 -77 275.5
t-236 91.5q-165 0 -361 -168v-557q0 -92 9 -142t25.5 -68.5t47.5 -26.5v-23h-270z" />
    <glyph glyph-name="i" unicode="i" horiz-adv-x="428" 
d="M76 0v23q31 8 47.5 26.5t25.5 68.5t9 142v471q0 83 -9 125t-23.5 57.5t-49.5 30.5v19l174 75l14 -12v-766q0 -92 9 -142t25.5 -68.5t47.5 -26.5v-23h-270zM199 1225q-35 0 -59.5 24.5t-24.5 59.5t24.5 59.5t59.5 24.5q36 0 60 -24t24 -60q0 -35 -24.5 -59.5t-59.5 -24.5z
" />
    <glyph glyph-name="j" unicode="j" horiz-adv-x="471" 
d="M-143 -567q-68 0 -68 37q0 29 29.5 60.5t72.5 31.5q22 0 90 -8.5t91 -10.5q72 53 103.5 135.5t31.5 210.5v842q0 83 -9 125t-23.5 57.5t-49.5 30.5v19l174 75l14 -12v-1020q0 -111 -32.5 -207.5t-83 -162t-112.5 -112.5t-120.5 -69t-107.5 -22zM240 1225
q-35 0 -59.5 24.5t-24.5 59.5t24.5 59.5t59.5 24.5q36 0 60 -24t24 -60q0 -35 -24.5 -59.5t-59.5 -24.5z" />
    <glyph glyph-name="k" unicode="k" horiz-adv-x="1064" 
d="M94 0v23q31 8 47.5 26.5t25.5 68.5t9 142v1086q0 83 -9 125t-23.5 57.5t-49.5 30.5v18l174 76l15 -13v-1212l389 365q194 180 119 221v10h137h86v-23q-4 -1 -17.5 -5t-18.5 -5.5t-18 -6.5t-20.5 -8.5t-21 -10.5t-24.5 -14t-26.5 -18t-30.5 -23t-34 -28.5t-39 -35.5
l-166 -156l233 -422q67 -121 118.5 -180.5t113.5 -67.5v-20h-102q-70 0 -112 47t-126 199l-203 370l-237 -223v-133q0 -92 9 -142t25.5 -68.5t47.5 -26.5v-23h-271z" />
    <glyph glyph-name="l" unicode="l" horiz-adv-x="466" 
d="M94 0v23q31 8 47.5 26.5t25.5 68.5t9 142v1086q0 83 -9 125t-23.5 57.5t-49.5 30.5v18l174 76l15 -13v-1380q0 -92 9 -142t25.5 -68.5t47.5 -26.5v-23h-271z" />
    <glyph glyph-name="m" unicode="m" horiz-adv-x="1878" 
d="M76 0v23q31 8 47.5 26.5t25.5 68.5t9 142v471q0 83 -9 125t-23.5 57.5t-49.5 30.5v19l174 75l14 -12v-174q247 186 428 186q237 0 293 -200q109 88 227 144t218 56q309 0 309 -342v-436q0 -92 9 -142t25.5 -68.5t47.5 -26.5v-23h-271v23q31 8 47.5 26.5t25.5 68.5t9 142
v399q0 326 -258 326q-95 0 -188.5 -46t-196.5 -124q12 -55 12 -119v-436q0 -92 9 -142t25.5 -68.5t47.5 -26.5v-23h-270v23q31 8 47.5 26.5t25.5 68.5t9 142v399q0 326 -258 326q-159 0 -373 -162v-563q0 -92 9 -142t25.5 -68.5t47.5 -26.5v-23h-270z" />
    <glyph glyph-name="n" unicode="n" horiz-adv-x="1183" 
d="M76 0v23q31 8 47.5 26.5t25.5 68.5t9 142v471q0 83 -9 125t-23.5 57.5t-49.5 30.5v19l174 75l14 -12v-178q103 84 219.5 137t227.5 53q161 0 247 -97t86 -279v-402q0 -92 9 -142t25.5 -68.5t47.5 -26.5v-23h-270v23q31 8 47.5 26.5t25.5 68.5t9 142v358q0 184 -77 275.5
t-236 91.5q-165 0 -361 -168v-557q0 -92 9 -142t25.5 -68.5t47.5 -26.5v-23h-270z" />
    <glyph glyph-name="o" unicode="o" horiz-adv-x="1226" 
d="M610 -20q-98 0 -189.5 32.5t-168 95t-122.5 167t-46 235.5q0 150 73 272.5t193 189t260 66.5q98 0 189.5 -32t167.5 -94.5t122 -167t46 -236.5q0 -101 -31.5 -188.5t-84 -149t-120.5 -105t-141.5 -64.5t-147.5 -21zM662 18q173 0 272.5 115t99.5 293q0 80 -22 163
t-64.5 156.5t-98.5 132t-130 92.5t-154 34q-177 0 -276 -116t-99 -300q0 -105 36 -207.5t97 -183t150.5 -130t188.5 -49.5z" />
    <glyph glyph-name="p" unicode="p" horiz-adv-x="1228" 
d="M627 -18q-96 -1 -188 32.5t-158 83.5v-391q0 -93 9 -142.5t25 -68t47 -26.5v-23h-270v23q31 8 47.5 26.5t25.5 68.5t9 142v1024q0 83 -9 125t-23.5 57.5t-49.5 30.5v19l174 75l15 -12v-172q104 83 210.5 133.5t227.5 50.5q83 0 158 -34t133 -96.5t92.5 -160.5t34.5 -217
q0 -78 -19.5 -155t-61 -147.5t-100 -124.5t-144 -87t-185.5 -34zM281 332q0 -51 31 -106.5t83 -101.5t126.5 -76t154.5 -30q163 0 262.5 112t99.5 325q0 105 -23.5 198.5t-70 168.5t-123 119t-174.5 44q-104 0 -192 -43.5t-174 -114.5v-495z" />
    <glyph glyph-name="q" unicode="q" horiz-adv-x="1202" 
d="M557 -20q-93 0 -178.5 36.5t-151 102t-104.5 165t-39 218.5q0 98 33.5 191t96 170t164 124.5t226.5 48.5q120 1 220 -43.5t161 -105.5l55 137h15v-1317q0 -92 9 -142t25.5 -68.5t47.5 -26.5v-23h-271v23q31 8 47.5 26.5t25.5 68.5t9 142v477q-210 -204 -391 -204z
M186 578q0 -222 116.5 -371.5t305.5 -149.5q177 0 340 160l2 504q-5 99 -124 191t-261 92q-164 0 -271.5 -112t-107.5 -314z" />
    <glyph glyph-name="r" unicode="r" horiz-adv-x="790" 
d="M76 0v23q31 8 47.5 26.5t25.5 68.5t9 142v471q0 83 -9 125t-23.5 57.5t-49.5 30.5v19l174 75l14 -12v-260q24 62 64 117.5t82 87.5q88 67 215 67q68 0 102.5 -14t34.5 -35q0 -34 -30.5 -66t-69.5 -32q-52 0 -244 51q-52 -32 -100 -117.5t-54 -156.5v-408q0 -92 9 -142
t25.5 -68.5t47.5 -26.5v-23h-270z" />
    <glyph glyph-name="s" unicode="s" horiz-adv-x="903" 
d="M473 -20q-122 -1 -223 27t-154 63l-14 229l16 4q61 -144 167.5 -217.5t248.5 -73.5q102 0 169 53.5t67 153.5q0 30 -9 56.5t-21.5 46t-37 38.5t-42.5 30.5t-52.5 25.5t-52.5 20.5t-56.5 19t-52.5 17.5q-144 48 -196 80q-111 66 -120 188q-1 12 -1 25q0 123 99 197.5
t247 74.5q186 0 321 -59l8 -193l-16 -4q-44 111 -136.5 171.5t-201.5 60.5q-114 0 -180 -49.5t-66 -139.5q0 -42 19 -78t45.5 -59.5t71 -46.5t77.5 -35t84 -28q11 -4 35 -11q41 -13 62.5 -20t60 -22.5t60 -28.5t49.5 -35t43 -46t25.5 -57t10.5 -71q0 -140 -101.5 -222.5
t-252.5 -84.5z" />
    <glyph glyph-name="t" unicode="t" horiz-adv-x="675" 
d="M391 -20q-203 0 -203 274v745h-131v25l215 231h23v-231h307l-12 -25h-295v-741q0 -205 154 -205q114 0 213 113l16 -16q-57 -69 -133 -119.5t-154 -50.5z" />
    <glyph glyph-name="u" unicode="u" horiz-adv-x="1146" 
d="M465 -18q-157 0 -239.5 96t-82.5 264v389q0 83 -9 125t-23.5 57.5t-49.5 30.5v19l175 75l14 -12v-637q0 -182 68.5 -265t201.5 -83q189 0 357 197v493q0 83 -9 125t-23.5 57.5t-49.5 30.5v19l174 75l14 -12v-766q0 -92 9 -142t25.5 -68.5t47.5 -26.5v-23h-137
q-29 0 -40 16.5t-11 65.5v119q-201 -219 -412 -219z" />
    <glyph glyph-name="v" unicode="v" horiz-adv-x="997" 
d="M147 784q-52 122 -79.5 162t-61.5 55v23h236v-23q-23 -6 -32 -15t-6.5 -34t16 -62t42.5 -106l293 -694l264 690q39 98 35 154.5t-57 66.5v23h200v-23q-42 -14 -70 -54.5t-77 -166.5l-299 -780h-76z" />
    <glyph glyph-name="w" unicode="w" horiz-adv-x="1441" 
d="M121 774q-38 129 -60 171t-55 56v23h234v-23q-30 -7 -39.5 -26t-3 -64t33.5 -137l197 -674l313 924h29l326 -922l194 672q61 206 -45 227v23h197v-23q-41 -14 -64.5 -55t-60.5 -172l-221 -774h-76l-305 864l-293 -864h-76z" />
    <glyph glyph-name="x" unicode="x" horiz-adv-x="958" 
d="M668 0v23q33 8 33 26q0 23 -63 119q-8 13 -32 49l-170 258l-194 -266q-57 -79 -71 -114t5 -50t84 -22v-23h-258v23q34 11 54 22.5t60.5 51.5t92.5 112l211 291l-203 307q-71 109 -111 143.5t-92 50.5v23h271v-23q-33 -8 -33 -26q-1 -23 62 -119q10 -15 32 -49l156 -238
l172 242q56 79 69 116t-7 52t-85 22v23h256v-23q-32 -11 -53 -23t-59 -53t-90 -114l-187 -266l215 -328q71 -109 111 -143.5t92 -50.5v-23h-268z" />
    <glyph glyph-name="y" unicode="y" horiz-adv-x="1030" 
d="M47 -395q-54 0 -90.5 15t-36.5 34q0 30 31 61t67 31q27 0 116 -24.5t122 -30.5q127 92 231 313l-323 780q-35 82 -65.5 130t-49.5 63.5t-43 23.5v23h254v-23q-23 -6 -32 -15t-7 -34t15.5 -62t42.5 -106l268 -643l278 643q43 96 41 151.5t-55 65.5v23h219v-23
q-30 -8 -52.5 -23.5t-55.5 -63.5t-68 -130l-324 -743q-39 -90 -82.5 -161.5t-81 -116.5t-80.5 -77t-72.5 -47.5t-66 -23.5t-53 -9t-41.5 -1h-6z" />
    <glyph glyph-name="z" unicode="z" horiz-adv-x="905" 
d="M66 0v23l636 974h-352q-96 0 -147.5 -47.5t-102.5 -173.5l-14 2l35 246h696v-23l-633 -974h383q106 0 169 62.5t83 195.5h15l-5 -285h-763z" />
    <glyph glyph-name="braceleft" unicode="{" horiz-adv-x="911" 
d="M723 -608q-176 0 -287.5 95t-111.5 267q0 78 30.5 179.5t61 196.5t30.5 157q0 91 -57 152t-139 61v26q82 0 139 61t57 152q0 64 -30.5 158.5t-61 195t-30.5 179.5q0 85 40 155.5t102.5 113.5t134.5 66t142 23v-22q-152 -5 -255 -84.5t-103 -208.5q0 -65 19 -142
t42.5 -136.5t42.5 -134.5t19 -136q0 -83 -54 -153.5t-139 -98.5q90 -28 141.5 -99t51.5 -155q0 -61 -19 -136.5t-41.5 -135.5t-41.5 -137t-19 -140q0 -143 88.5 -216t249.5 -79z" />
    <glyph glyph-name="bar" unicode="|" horiz-adv-x="546" 
d="M272 -553v2191h29v-2191h-29z" />
    <glyph glyph-name="braceright" unicode="}" horiz-adv-x="911" 
d="M195 -584q161 6 249 79t88 216q0 79 -30 178t-60 197t-30 174q0 84 51 155t141 99q-85 28 -138.5 98.5t-53.5 153.5q0 61 19 136t42.5 134.5t42.5 136.5t19 142q0 129 -103.5 208.5t-255.5 84.5v22q70 0 142 -23t135 -66t103 -113.5t40 -155.5q0 -63 -19 -140.5
t-42.5 -138t-42.5 -131.5t-19 -123q0 -91 57 -152t140 -61v-26q-83 0 -140 -61t-57 -152q0 -62 30.5 -157t61.5 -196.5t31 -179.5q0 -172 -111.5 -267t-287.5 -95z" />
    <glyph glyph-name="asciitilde" unicode="~" horiz-adv-x="954" 
d="M688 633q-54 0 -226.5 68.5t-219.5 68.5q-42 0 -70 -17.5t-66 -68.5l-14 8q61 93 86 117q44 45 96 45q45 0 133 -34t177.5 -68.5t138.5 -34.5q38 0 68 22.5t59 73.5l16 -6q-41 -84 -83 -129t-95 -45z" />
    <glyph glyph-name="exclamdown" unicode="&#xa1;" horiz-adv-x="370" 
d="M139 719l51 -1004l-133 -84l-12 9l74 1079h20zM125 1059q37 0 64.5 -28t27.5 -66t-27.5 -66.5t-64.5 -28.5t-63.5 28.5t-26.5 66.5t26.5 66t63.5 28z" />
    <glyph glyph-name="cent" unicode="&#xa2;" horiz-adv-x="1083" 
d="M559 -266v450q-213 8 -350 147.5t-137 358.5q0 209 139 368t348 181v399h29v-395h30q162 0 270.5 -52.5t108.5 -105.5q0 -31 -16 -55t-41 -24q-17 0 -38 19.5t-46.5 48.5t-59 58t-88 51.5t-120.5 26.5v-929q16 -2 49 -2q106 0 199 40.5t155 118.5l19 -16
q-183 -236 -422 -238v-450h-29zM188 754q0 -202 100.5 -324.5t270.5 -144.5v925q-113 -1 -198.5 -63.5t-129 -165t-43.5 -227.5z" />
    <glyph glyph-name="sterling" unicode="&#xa3;" horiz-adv-x="1312" 
d="M899 -55q-74 0 -173 32.5t-207 75.5t-173 56q-34 -57 -71.5 -86t-92.5 -29q-39 0 -63.5 20t-24.5 52q0 39 31.5 62.5t85.5 23.5q27 0 121 -13q26 128 55 525h-287l11 24h278l8 96q18 191 84 339.5t181 236.5t262 88q46 1 103.5 -10t105 -35t47.5 -55q0 -33 -18 -54.5
t-40 -21.5q-17 0 -47 20t-60 44.5t-79 44.5t-100 20q-67 0 -119 -31.5t-86.5 -83t-60.5 -134t-41 -166t-29 -198.5l-13 -100h480l-11 -24h-473q-56 -394 -125 -531q54 -9 143.5 -25t141 -24t127.5 -15.5t148 -7.5q121 0 195.5 43.5t150.5 151.5l16 -8
q-70 -130 -169.5 -216.5t-211.5 -86.5z" />
    <glyph glyph-name="yen" unicode="&#xa5;" horiz-adv-x="1069" 
d="M104 643l11 25h344l-297 538q-32 59 -60 99t-50.5 60.5t-37.5 30t-34 15.5v23h260v-23q-22 -6 -30.5 -14t-2 -33t23 -57.5t54.5 -100.5l297 -528l299 528q27 48 41.5 82.5t17.5 60.5t-8.5 41.5t-38.5 20.5v23h223v-23q-23 -6 -41 -15.5t-43.5 -30t-54.5 -60.5t-62 -99
l-303 -538h338l-10 -25h-342l-2 -4v-252h354l-10 -25h-344v-102q0 -92 9 -142t25.5 -68.5t47.5 -26.5v-23h-281v23q31 8 47.5 26.5t25.5 68.5t9 142v102h-375l11 25h364l-2 248l-4 8h-369z" />
    <glyph glyph-name="brokenbar" unicode="&#xa6;" horiz-adv-x="546" 
d="M272 676v962h29v-962h-29zM272 -553v963h29v-963h-29z" />
    <glyph glyph-name="section" unicode="&#xa7;" horiz-adv-x="1153" 
d="M500 -395q-102 0 -187.5 43.5t-85.5 91.5q0 33 18 54.5t40 21.5q12 0 28.5 -17.5t37.5 -42.5t47 -50t66.5 -43.5t86.5 -20.5q79 -3 133.5 50t54.5 154q0 49 -19.5 104.5t-45 101t-73.5 108t-82 102t-94 106.5q-17 19 -26 29q-64 73 -103.5 121.5t-82.5 112t-63.5 120.5
t-20.5 111q0 110 52.5 182t154.5 134q5 67 34.5 118.5t73 80.5t90 43t93.5 14q102 0 182 -41.5t80 -89.5q0 -33 -18 -54.5t-40 -21.5q-14 0 -38 27t-49.5 59t-72 59t-100.5 27q-68 0 -120 -45t-52 -135q0 -55 22 -113t69.5 -123.5t88.5 -113.5t111 -124q55 -59 82.5 -89.5
t74 -85t71 -92t51.5 -86t39 -93t12 -88.5q0 -62 -22.5 -119.5t-58.5 -100.5t-66 -70t-60 -48q-15 -122 -100.5 -195t-212.5 -73zM195 928q0 -55 22 -113t69.5 -123.5t87 -111.5t109.5 -123q51 -55 71 -77t64.5 -73.5t64.5 -79.5t51 -74.5t45 -79.5t25 -74t11 -79v-18
q129 96 129 235q0 60 -25 125t-75 135t-96.5 126t-116.5 134q-14 15 -21 23q-67 76 -105 122.5t-83.5 111.5t-66.5 122t-21 111v2q-66 -40 -102.5 -92t-36.5 -129z" />
    <glyph glyph-name="copyright" unicode="&#xa9;" horiz-adv-x="1671" 
d="M793 -27q-135 0 -261 52.5t-223.5 143.5t-156 226.5t-58.5 290.5q0 123 43.5 239t120 207.5t174.5 161t213.5 107t231.5 37.5q129 0 253.5 -50t223.5 -139.5t160 -226t61 -295.5q0 -165 -69 -309t-180 -239.5t-250.5 -150.5t-282.5 -55zM842 18q141 0 265 53.5t212.5 146
t140 223t51.5 278.5q0 145 -53 271.5t-144 215t-215.5 139t-264.5 50.5t-265 -53.5t-215.5 -145.5t-143 -222t-52.5 -276q0 -142 53 -268.5t144 -216.5t218 -142.5t269 -52.5zM821 276q-104 0 -194.5 49.5t-147.5 144t-57 214.5q0 87 30 162.5t78.5 127t111.5 88.5t129 54
t130 17q65 0 130 -17t97 -37l19 -149l-14 -2q-39 85 -116 125.5t-173 40.5q-153 0 -243.5 -92.5t-92.5 -249.5q-3 -173 93.5 -286.5t256.5 -113.5q113 0 195 50t145 163l16 -8q-58 -131 -157.5 -206t-235.5 -75z" />
    <glyph glyph-name="ordfeminine" unicode="&#xaa;" horiz-adv-x="952" 
d="M709 711q-80 0 -80 108v76q-162 -182 -318 -182q-78 0 -131 48.5t-53 133.5q0 177 285 252l215 57q-6 101 -50 149t-133 48q-110 0 -239 -109l-17 19q157 135 297 135q120 0 178 -65t58 -179v-366q0 -20 1 -32t10.5 -26t27.5 -14q24 0 57 33l12 -15q-44 -41 -69 -56
t-51 -15zM123 502v24h690v-24h-690zM223 924q0 -63 42.5 -104.5t115.5 -41.5q51 0 117 37t131 111v237v19l-211 -60q-103 -29 -149 -77.5t-46 -120.5z" />
    <glyph glyph-name="guillemotleft" unicode="&#xab;" horiz-adv-x="1126" 
d="M655 51l-540 461l540 461l21 -21l-516 -440l516 -440zM1004 51l-541 461l541 461l20 -21l-516 -440l516 -440z" />
    <glyph glyph-name="registered" unicode="&#xae;" horiz-adv-x="1646" 
d="M793 -27q-135 0 -261 52.5t-223.5 143.5t-156 226.5t-58.5 290.5q0 123 43.5 239t120 207.5t174.5 161t213.5 107t231.5 37.5q129 0 253.5 -50t223.5 -139.5t160 -226t61 -295.5q0 -165 -69 -309t-180 -239.5t-250.5 -150.5t-282.5 -55zM557 303v12q26 8 36.5 35
t10.5 105v536q0 78 -10 104.5t-37 34.5v13h174q391 0 391 -240q0 -103 -75.5 -180.5t-229.5 -99.5q84 -9 139 -42.5t91 -101.5l28 -53q22 -40 58.5 -72t70.5 -41v-10h-71q-84 0 -146 111l-29 51q-44 79 -98.5 114.5t-146.5 36.5h-4h-21v-161q0 -78 10.5 -105t36.5 -35v-12
h-178zM842 18q141 0 265 53.5t212.5 146t140 223t51.5 278.5q0 145 -53 271.5t-144 215t-215.5 139t-264.5 50.5t-265 -53.5t-215.5 -145.5t-143 -222t-52.5 -276q0 -142 53 -268.5t144 -216.5t218 -142.5t269 -52.5zM688 637h27q93 0 159 21t101 58.5t50 80.5t15 96
q0 112 -69 170.5t-240 58.5h-43v-485z" />
    <glyph glyph-name="degree" unicode="&#xb0;" horiz-adv-x="743" 
d="M375 874q-119 0 -203 84t-84 203t84 203t203 84t203 -84t84 -203t-84 -203t-203 -84zM375 899q109 0 183.5 75t74.5 187t-74.5 187t-183.5 75t-183.5 -75t-74.5 -187t74.5 -187t183.5 -75z" />
    <glyph glyph-name="plusminus" unicode="&#xb1;" horiz-adv-x="1142" 
d="M207 936l10 25h340v280l25 10v-290h348l-10 -25h-338v-274l-25 -11v285h-350zM207 403l10 25h713l-10 -25h-713z" />
    <glyph glyph-name="uni00B2" unicode="&#xb2;" horiz-adv-x="702" 
d="M20 518q14 14 63 60.5t71.5 69l69.5 69.5t71.5 78t62 78t58 85t42 83.5t31 90.5t9.5 89q0 101 -48 142.5t-122 41.5q-55 0 -112.5 -23.5t-100.5 -62.5l-15 18q127 115 267 115q99 0 168.5 -58t70.5 -155q0 -37 -9.5 -77t-23.5 -75t-41 -77.5t-47.5 -73t-59 -73.5
t-60.5 -66.5t-66 -66t-61.5 -58t-61 -55t-51.5 -46.5h301q93 0 131 27.5t59 99.5l19 -2l-19 -200h-596v22z" />
    <glyph glyph-name="uni00B3" unicode="&#xb3;" horiz-adv-x="724" 
d="M88 334q191 95 310.5 231.5t119.5 274.5q0 188 -172 188q-50 0 -102 -27l-8 23q114 50 164.5 101.5t50.5 142.5q0 65 -39.5 102t-100.5 37q-47 0 -102.5 -22.5t-97.5 -59.5l-15 18q120 109 250 109q83 0 140 -51.5t57 -124.5q0 -78 -43 -122t-138 -93q10 2 33 2
q36 0 73 -10.5t72.5 -32t58 -62.5t22.5 -96q0 -82 -40.5 -160t-115.5 -147.5t-163 -128t-202 -117.5z" />
    <glyph glyph-name="paragraph" unicode="&#xb6;" horiz-adv-x="1318" 
d="M680 -328v1051h-100q-186 0 -295 89t-109 241q0 158 101.5 240.5t293.5 82.5h568v-22q-31 -8 -47.5 -26.5t-25.5 -69t-9 -142.5v-1444h-29v1512q0 103 -13.5 133.5t-62.5 30.5h-243v-1676h-29z" />
    <glyph glyph-name="periodcentered" unicode="&#xb7;" horiz-adv-x="448" 
d="M225 430q-37 0 -64.5 28t-27.5 66t27.5 66t64.5 28t63.5 -28t26.5 -66t-26.5 -66t-63.5 -28z" />
    <glyph glyph-name="uni00B9" unicode="&#xb9;" horiz-adv-x="460" 
d="M119 496v14q36 8 49.5 38t13.5 118v677l-108 -55l-13 19l191 143h24v-784q0 -88 14 -118t50 -38v-14h-221z" />
    <glyph glyph-name="ordmasculine" unicode="&#xba;" horiz-adv-x="976" 
d="M489 711q-68 0 -131.5 22.5t-117 65.5t-85.5 116t-32 164q0 158 108 262.5t258 104.5q68 0 131.5 -22.5t116.5 -65.5t85 -116t32 -165q0 -88 -33 -159.5t-86.5 -115.5t-117 -67.5t-128.5 -23.5zM164 502v24h690v-24h-690zM524 745q116 0 176 77t60 200q0 93 -35.5 182
t-106 150t-159.5 61q-118 0 -178 -77t-60 -205q0 -97 36 -184.5t107 -145.5t160 -58z" />
    <glyph glyph-name="guillemotright" unicode="&#xbb;" horiz-adv-x="1126" 
d="M483 51l-20 21l516 440l-516 440l20 21l541 -461zM135 51l-20 21l516 440l-516 440l20 21l541 -461z" />
    <glyph glyph-name="questiondown" unicode="&#xbf;" horiz-adv-x="802" 
d="M446 713l13 -6l2 -392q-316 -159 -316 -409q0 -61 17.5 -108t44 -75.5t62 -47t68.5 -25t66 -6.5q110 0 200.5 61.5t135.5 173.5l23 -10q-55 -133 -162.5 -213t-253.5 -80q-129 0 -220 79t-91 212q0 230 334 424l-13 350zM408 1038q37 0 64.5 -28t27.5 -66t-27.5 -66
t-64.5 -28t-64 28t-27 66t27 66t64 28z" />
    <glyph glyph-name="Agrave" unicode="&#xc0;" horiz-adv-x="1306" 
d="M-25 0v23q30 8 52 23.5t54 64t66 131.5l426 1052q16 41 -4 82l-12 27l105 45l497 -1208q34 -82 64 -130t49 -63.5t43 -23.5v-23h-258v23q23 6 32 15t7 34t-14.5 62t-41.5 106l-127 307h-610l-123 -305q-82 -199 19 -219v-23h-224zM469 1622q-47 17 -47 41q0 17 26.5 33
t51.5 16q29 0 73 -33l203 -153l-8 -10zM315 575h586l-297 719z" />
    <glyph glyph-name="Aacute" unicode="&#xc1;" horiz-adv-x="1306" 
d="M-25 0v23q30 8 52 23.5t54 64t66 131.5l426 1052q16 41 -4 82l-12 27l105 45l497 -1208q34 -82 64 -130t49 -63.5t43 -23.5v-23h-258v23q23 6 32 15t7 34t-14.5 62t-41.5 106l-127 307h-610l-123 -305q-82 -199 19 -219v-23h-224zM809 1622l-299 -106l-8 10l203 153
q44 33 73 33q25 0 51.5 -16t26.5 -33q0 -24 -47 -41zM315 575h586l-297 719z" />
    <glyph glyph-name="Acircumflex" unicode="&#xc2;" horiz-adv-x="1306" 
d="M-25 0v23q30 8 52 23.5t54 64t66 131.5l426 1052q16 41 -4 82l-12 27l105 45l497 -1208q34 -82 64 -130t49 -63.5t43 -23.5v-23h-258v23q23 6 32 15t7 34t-14.5 62t-41.5 106l-127 307h-610l-123 -305q-82 -199 19 -219v-23h-224zM420 1513l-10 13l217 215h12l229 -215
l-10 -13l-225 117zM315 575h586l-297 719z" />
    <glyph glyph-name="Atilde" unicode="&#xc3;" horiz-adv-x="1306" 
d="M-25 0v23q30 8 52 23.5t54 64t66 131.5l426 1052q16 41 -4 82l-12 27l105 45l497 -1208q34 -82 64 -130t49 -63.5t43 -23.5v-23h-258v23q23 6 32 15t7 34t-14.5 62t-41.5 106l-127 307h-610l-123 -305q-82 -199 19 -219v-23h-224zM362 1563q62 94 89 120q43 41 94 41
q33 0 125 -48t137 -48q35 0 59 23t49 73l17 -6q-41 -84 -83 -129t-95 -45q-34 0 -124.5 48t-131.5 48q-36 0 -62.5 -19.5t-58.5 -66.5zM315 575h586l-297 719z" />
    <glyph glyph-name="Adieresis" unicode="&#xc4;" horiz-adv-x="1306" 
d="M-25 0v23q30 8 52 23.5t54 64t66 131.5l426 1052q16 41 -4 82l-12 27l105 45l497 -1208q34 -82 64 -130t49 -63.5t43 -23.5v-23h-258v23q23 6 32 15t7 34t-14.5 62t-41.5 106l-127 307h-610l-123 -305q-82 -199 19 -219v-23h-224zM811 1626q-33 0 -55.5 22.5t-22.5 55.5
q0 31 23 52.5t55 21.5t54 -22t22 -54t-22 -54t-54 -22zM467 1626q-32 0 -54 22t-22 56q0 31 22 52.5t54 21.5q34 0 56 -22t22 -54t-23 -54t-55 -22zM315 575h586l-297 719z" />
    <glyph glyph-name="Aring" unicode="&#xc5;" horiz-adv-x="1306" 
d="M-25 0v23q30 8 52 23.5t54 64t66 131.5l426 1052q16 41 -4 82l-12 27l105 45l497 -1208q34 -82 64 -130t49 -63.5t43 -23.5v-23h-258v23q23 6 32 15t7 34t-14.5 62t-41.5 106l-127 307h-610l-123 -305q-82 -199 19 -219v-23h-224zM637 1532q-61 0 -100 39.5t-39 97.5
q0 61 39 102t100 41q67 0 105 -39t38 -100q0 -59 -40.5 -100t-102.5 -41zM637 1552q51 0 85 34.5t34 86.5q0 53 -33 86t-86 33q-50 0 -82.5 -34t-32.5 -89q0 -51 32.5 -84t82.5 -33zM315 575h586l-297 719z" />
    <glyph glyph-name="AE" unicode="&#xc6;" horiz-adv-x="1601" 
d="M-25 0v23q30 8 52 23.5t54 64t66 131.5l488 1192h745l23 -203l-19 -4q-46 100 -117.5 140t-207.5 40h-336l170 -623h170q103 0 162 16t81 40.5t31 66.5h23v-272h-23q-9 42 -31 66.5t-81 40.5t-162 16h-162l170 -629q17 -63 43.5 -82.5t71.5 -19.5q135 0 201.5 39.5
t113.5 140.5l19 -4l-13 -203h-594v23q30 7 40.5 26t5 65t-30.5 138l-64 233h-583l-101 -245q-82 -197 19 -217v-23h-224zM293 514h563l-223 827z" />
    <glyph glyph-name="Ccedilla" unicode="&#xc7;" horiz-adv-x="1497" 
d="M854 -20h-10l-86 -115q115 21 177 -6.5t62 -89.5q0 -73 -77 -126t-166 -53q-42 0 -73.5 15.5t-31.5 36.5q0 14 15.5 25t29.5 11q12 0 55.5 -23.5t81.5 -23.5q45 0 77 24.5t32 63.5q0 40 -33 64t-104 24q-50 0 -111 -22l-10 12l139 183q-326 9 -522.5 199t-196.5 505
q0 226 106 401t289.5 269t413.5 94q132 0 263.5 -36.5t187.5 -68.5l8 -213l-16 -4q-60 128 -194.5 204.5t-336.5 76.5q-123 0 -230 -41t-189.5 -119.5t-131 -203t-49.5 -281.5q-1 -113 26 -220t83.5 -202.5t136.5 -167.5t193.5 -114t246.5 -42q168 0 296 80.5t190 245.5
l20 -2l-33 -238q-69 -46 -224.5 -84t-303.5 -38z" />
    <glyph glyph-name="Egrave" unicode="&#xc8;" horiz-adv-x="1193" 
d="M1094 0h-981v23q31 8 47.5 26.5t25.5 68.5t9 142v914q0 92 -9 142t-25.5 68.5t-47.5 26.5v23h919l25 -244l-19 -4q-46 118 -132.5 169.5t-227.5 51.5h-369v-631h336q103 0 162.5 16t81.5 40.5t31 66.5h22v-272h-22q-9 42 -31 66.5t-81.5 40.5t-162.5 16h-336v-641
q0 -82 82 -82h342q144 0 228 48t133 173l18 -4zM408 1622q-48 17 -48 41q0 17 26.5 33t51.5 16q30 0 74 -33l203 -153l-8 -10z" />
    <glyph glyph-name="Eacute" unicode="&#xc9;" horiz-adv-x="1193" 
d="M1094 0h-981v23q31 8 47.5 26.5t25.5 68.5t9 142v914q0 92 -9 142t-25.5 68.5t-47.5 26.5v23h919l25 -244l-19 -4q-46 118 -132.5 169.5t-227.5 51.5h-369v-631h336q103 0 162.5 16t81.5 40.5t31 66.5h22v-272h-22q-9 42 -31 66.5t-81.5 40.5t-162.5 16h-336v-641
q0 -82 82 -82h342q144 0 228 48t133 173l18 -4zM748 1622l-299 -106l-9 10l203 153q44 33 74 33q25 0 51.5 -16t26.5 -33q0 -24 -47 -41z" />
    <glyph glyph-name="Ecircumflex" unicode="&#xca;" horiz-adv-x="1193" 
d="M1094 0h-981v23q31 8 47.5 26.5t25.5 68.5t9 142v914q0 92 -9 142t-25.5 68.5t-47.5 26.5v23h919l25 -244l-19 -4q-46 118 -132.5 169.5t-227.5 51.5h-369v-631h336q103 0 162.5 16t81.5 40.5t31 66.5h22v-272h-22q-9 42 -31 66.5t-81.5 40.5t-162.5 16h-336v-641
q0 -82 82 -82h342q144 0 228 48t133 173l18 -4zM358 1513l-10 13l217 215h13l229 -215l-10 -13l-226 117z" />
    <glyph glyph-name="Edieresis" unicode="&#xcb;" horiz-adv-x="1193" 
d="M1094 0h-981v23q31 8 47.5 26.5t25.5 68.5t9 142v914q0 92 -9 142t-25.5 68.5t-47.5 26.5v23h919l25 -244l-19 -4q-46 118 -132.5 169.5t-227.5 51.5h-369v-631h336q103 0 162.5 16t81.5 40.5t31 66.5h22v-272h-22q-9 42 -31 66.5t-81.5 40.5t-162.5 16h-336v-641
q0 -82 82 -82h342q144 0 228 48t133 173l18 -4zM750 1626q-33 0 -55.5 22.5t-22.5 55.5q0 31 23 52.5t55 21.5t53.5 -22t21.5 -54t-21.5 -54t-53.5 -22zM406 1626q-32 0 -54 22t-22 56q0 31 22 52.5t54 21.5q34 0 55.5 -22t21.5 -54t-22.5 -54t-54.5 -22z" />
    <glyph glyph-name="Igrave" unicode="&#xcc;" horiz-adv-x="503" 
d="M113 0v23q31 8 47.5 26.5t25.5 68.5t9 142v914q0 92 -9 142t-25.5 68.5t-47.5 26.5v23h278v-23q-31 -8 -47.5 -26.5t-25.5 -68.5t-9 -142v-914q0 -92 9 -142t25.5 -68.5t47.5 -26.5v-23h-278zM82 1622q-47 17 -47 41q0 17 26.5 33t51.5 16q29 0 73 -33l203 -153l-8 -10z
" />
    <glyph glyph-name="Iacute" unicode="&#xcd;" horiz-adv-x="503" 
d="M113 0v23q31 8 47.5 26.5t25.5 68.5t9 142v914q0 92 -9 142t-25.5 68.5t-47.5 26.5v23h278v-23q-31 -8 -47.5 -26.5t-25.5 -68.5t-9 -142v-914q0 -92 9 -142t25.5 -68.5t47.5 -26.5v-23h-278zM422 1622l-299 -106l-8 10l202 153q44 33 74 33q25 0 51.5 -16t26.5 -33
q0 -24 -47 -41z" />
    <glyph glyph-name="Icircumflex" unicode="&#xce;" horiz-adv-x="503" 
d="M113 0v23q31 8 47.5 26.5t25.5 68.5t9 142v914q0 92 -9 142t-25.5 68.5t-47.5 26.5v23h278v-23q-31 -8 -47.5 -26.5t-25.5 -68.5t-9 -142v-914q0 -92 9 -142t25.5 -68.5t47.5 -26.5v-23h-278zM33 1513l-10 13l217 215h12l229 -215l-10 -13l-225 117z" />
    <glyph glyph-name="Idieresis" unicode="&#xcf;" horiz-adv-x="503" 
d="M113 0v23q31 8 47.5 26.5t25.5 68.5t9 142v914q0 92 -9 142t-25.5 68.5t-47.5 26.5v23h278v-23q-31 -8 -47.5 -26.5t-25.5 -68.5t-9 -142v-914q0 -92 9 -142t25.5 -68.5t47.5 -26.5v-23h-278zM424 1626q-33 0 -55.5 22.5t-22.5 55.5q0 31 23 52.5t55 21.5t54 -22t22 -54
t-22 -54t-54 -22zM80 1626q-32 0 -54 22t-22 56q0 31 22 52.5t54 21.5q34 0 56 -22t22 -54t-23 -54t-55 -22z" />
    <glyph glyph-name="Eth" unicode="&#xd0;" horiz-adv-x="1470" 
d="M629 0h-516v23q31 8 47.5 26.5t25.5 68.5t9 142v914q0 92 -9 142t-25.5 68.5t-47.5 26.5v23h467q155 0 285.5 -37t222 -101.5t155 -152.5t94 -189t31.5 -213q1 -156 -51.5 -292t-147.5 -235.5t-234.5 -156.5t-305.5 -57zM635 29q292 0 448 169t156 482q0 119 -31.5 228
t-93.5 199.5t-148.5 157.5t-203.5 104.5t-252 37.5h-201v-1229q0 -79 26.5 -114t106.5 -35h193zM61 795h498h-498z" />
    <glyph glyph-name="Ntilde" unicode="&#xd1;" horiz-adv-x="1396" 
d="M1196 -16l-967 1300v-987q0 -103 16 -162t40.5 -81t66.5 -31v-23h-235v23q31 8 47.5 26.5t25.5 68.5t9 142v914q0 134 -23.5 180t-83.5 57v23h170l930 -1248v951q0 103 -16 162t-40.5 81t-66.5 31v23h236v-23q-31 -8 -47.5 -26.5t-25.5 -68.5t-9 -142v-1190h-27z
M434 1563q61 93 87 118q43 43 95 43q33 0 125.5 -48t137.5 -48q35 0 59 23t49 73l17 -6q-40 -84 -83 -129t-96 -45q-34 0 -124.5 48t-131.5 48q-36 0 -62 -19.5t-58 -66.5z" />
    <glyph glyph-name="Ograve" unicode="&#xd2;" horiz-adv-x="1648" 
d="M825 -20q-107 0 -209 27.5t-195.5 87t-164 144t-112.5 207.5t-42 269q0 215 89.5 382t254.5 260t379 93q106 0 208 -28t195 -88t163.5 -145.5t112.5 -208.5t42 -269q0 -149 -42 -273t-112.5 -207t-164.5 -141t-195 -84t-207 -26zM879 18q256 0 407.5 161.5t151.5 424.5
q0 208 -87 393t-243 299.5t-342 114.5q-169 0 -295.5 -76t-192 -208.5t-65.5 -301.5q0 -154 50.5 -300.5t137.5 -258.5t212.5 -180t265.5 -68zM641 1622q-47 17 -47 41q0 17 26.5 33t51.5 16q29 0 73 -33l203 -153l-8 -10z" />
    <glyph glyph-name="Oacute" unicode="&#xd3;" horiz-adv-x="1648" 
d="M825 -20q-107 0 -209 27.5t-195.5 87t-164 144t-112.5 207.5t-42 269q0 215 89.5 382t254.5 260t379 93q106 0 208 -28t195 -88t163.5 -145.5t112.5 -208.5t42 -269q0 -149 -42 -273t-112.5 -207t-164.5 -141t-195 -84t-207 -26zM879 18q256 0 407.5 161.5t151.5 424.5
q0 208 -87 393t-243 299.5t-342 114.5q-169 0 -295.5 -76t-192 -208.5t-65.5 -301.5q0 -154 50.5 -300.5t137.5 -258.5t212.5 -180t265.5 -68zM981 1622l-299 -106l-8 10l203 153q44 33 73 33q25 0 51.5 -16t26.5 -33q0 -24 -47 -41z" />
    <glyph glyph-name="Ocircumflex" unicode="&#xd4;" horiz-adv-x="1648" 
d="M825 -20q-107 0 -209 27.5t-195.5 87t-164 144t-112.5 207.5t-42 269q0 215 89.5 382t254.5 260t379 93q106 0 208 -28t195 -88t163.5 -145.5t112.5 -208.5t42 -269q0 -149 -42 -273t-112.5 -207t-164.5 -141t-195 -84t-207 -26zM879 18q256 0 407.5 161.5t151.5 424.5
q0 208 -87 393t-243 299.5t-342 114.5q-169 0 -295.5 -76t-192 -208.5t-65.5 -301.5q0 -154 50.5 -300.5t137.5 -258.5t212.5 -180t265.5 -68zM592 1513l-10 13l217 215h12l229 -215l-10 -13l-225 117z" />
    <glyph glyph-name="Otilde" unicode="&#xd5;" horiz-adv-x="1648" 
d="M825 -20q-107 0 -209 27.5t-195.5 87t-164 144t-112.5 207.5t-42 269q0 215 89.5 382t254.5 260t379 93q106 0 208 -28t195 -88t163.5 -145.5t112.5 -208.5t42 -269q0 -149 -42 -273t-112.5 -207t-164.5 -141t-195 -84t-207 -26zM879 18q256 0 407.5 161.5t151.5 424.5
q0 208 -87 393t-243 299.5t-342 114.5q-169 0 -295.5 -76t-192 -208.5t-65.5 -301.5q0 -154 50.5 -300.5t137.5 -258.5t212.5 -180t265.5 -68zM535 1563q61 93 87 118q43 43 95 43q33 0 125 -48t137 -48q35 0 59 23t49 73l17 -6q-41 -84 -83 -129t-95 -45q-34 0 -124.5 48
t-131.5 48q-36 0 -62.5 -19.5t-58.5 -66.5z" />
    <glyph glyph-name="Odieresis" unicode="&#xd6;" horiz-adv-x="1648" 
d="M825 -20q-107 0 -209 27.5t-195.5 87t-164 144t-112.5 207.5t-42 269q0 215 89.5 382t254.5 260t379 93q106 0 208 -28t195 -88t163.5 -145.5t112.5 -208.5t42 -269q0 -149 -42 -273t-112.5 -207t-164.5 -141t-195 -84t-207 -26zM879 18q256 0 407.5 161.5t151.5 424.5
q0 208 -87 393t-243 299.5t-342 114.5q-169 0 -295.5 -76t-192 -208.5t-65.5 -301.5q0 -154 50.5 -300.5t137.5 -258.5t212.5 -180t265.5 -68zM983 1626q-33 0 -55.5 22.5t-22.5 55.5q0 31 23 52.5t55 21.5t54 -22t22 -54t-22 -54t-54 -22zM639 1626q-32 0 -54 22t-22 56
q0 31 22 52.5t54 21.5q34 0 56 -22t22 -54t-23 -54t-55 -22z" />
    <glyph glyph-name="multiply" unicode="&#xd7;" horiz-adv-x="1142" 
d="M303 383l-24 10l288 289l-293 291l25 10l285 -285l284 287l25 -10l-291 -293l289 -289l-25 -10l-282 281z" />
    <glyph glyph-name="Oslash" unicode="&#xd8;" horiz-adv-x="1648" 
d="M825 -20q-107 0 -209 27.5t-195.5 87t-164 144t-112.5 207.5t-42 269q0 215 89.5 382t254.5 260t379 93q106 0 208 -28t195 -88t163.5 -145.5t112.5 -208.5t42 -269q0 -149 -42 -273t-112.5 -207t-164.5 -141t-195 -84t-207 -26zM879 18q256 0 407.5 161.5t151.5 424.5
q0 208 -87 393t-243 299.5t-342 114.5q-169 0 -295.5 -76t-192 -208.5t-65.5 -301.5q0 -154 50.5 -300.5t137.5 -258.5t212.5 -180t265.5 -68zM209 -219l1233 1857z" />
    <glyph glyph-name="Ugrave" unicode="&#xd9;" horiz-adv-x="1372" 
d="M721 -20q-90 0 -169.5 17t-151.5 56t-123.5 97.5t-82 147t-30.5 198.5v678q0 92 -9 142t-25.5 68.5t-47.5 26.5v23h278v-23q-31 -8 -47 -26.5t-25 -68t-9 -142.5v-633q0 -113 27 -203.5t73 -150t109.5 -99.5t132.5 -57t147 -17q58 0 114 13.5t114.5 50t102 92.5
t71.5 148.5t28 209.5v609q0 103 -16 162t-40.5 81t-66.5 31v23h236v-23q-31 -8 -47.5 -26.5t-25.5 -68.5t-9 -142v-637q0 -120 -27 -215.5t-73.5 -158.5t-112 -105t-138.5 -60t-157 -18zM569 1622q-47 17 -47 41q0 17 26.5 33t51.5 16q30 0 74 -33l203 -153l-9 -10z" />
    <glyph glyph-name="Uacute" unicode="&#xda;" horiz-adv-x="1372" 
d="M721 -20q-90 0 -169.5 17t-151.5 56t-123.5 97.5t-82 147t-30.5 198.5v678q0 92 -9 142t-25.5 68.5t-47.5 26.5v23h278v-23q-31 -8 -47 -26.5t-25 -68t-9 -142.5v-633q0 -113 27 -203.5t73 -150t109.5 -99.5t132.5 -57t147 -17q58 0 114 13.5t114.5 50t102 92.5
t71.5 148.5t28 209.5v609q0 103 -16 162t-40.5 81t-66.5 31v23h236v-23q-31 -8 -47.5 -26.5t-25.5 -68.5t-9 -142v-637q0 -120 -27 -215.5t-73.5 -158.5t-112 -105t-138.5 -60t-157 -18zM909 1622l-299 -106l-8 10l203 153q44 33 74 33q25 0 51 -16t26 -33q0 -24 -47 -41z
" />
    <glyph glyph-name="Ucircumflex" unicode="&#xdb;" horiz-adv-x="1372" 
d="M721 -20q-90 0 -169.5 17t-151.5 56t-123.5 97.5t-82 147t-30.5 198.5v678q0 92 -9 142t-25.5 68.5t-47.5 26.5v23h278v-23q-31 -8 -47 -26.5t-25 -68t-9 -142.5v-633q0 -113 27 -203.5t73 -150t109.5 -99.5t132.5 -57t147 -17q58 0 114 13.5t114.5 50t102 92.5
t71.5 148.5t28 209.5v609q0 103 -16 162t-40.5 81t-66.5 31v23h236v-23q-31 -8 -47.5 -26.5t-25.5 -68.5t-9 -142v-637q0 -120 -27 -215.5t-73.5 -158.5t-112 -105t-138.5 -60t-157 -18zM520 1513l-10 13l217 215h12l230 -215l-11 -13l-225 117z" />
    <glyph glyph-name="Udieresis" unicode="&#xdc;" horiz-adv-x="1372" 
d="M721 -20q-90 0 -169.5 17t-151.5 56t-123.5 97.5t-82 147t-30.5 198.5v678q0 92 -9 142t-25.5 68.5t-47.5 26.5v23h278v-23q-31 -8 -47 -26.5t-25 -68t-9 -142.5v-633q0 -113 27 -203.5t73 -150t109.5 -99.5t132.5 -57t147 -17q58 0 114 13.5t114.5 50t102 92.5
t71.5 148.5t28 209.5v609q0 103 -16 162t-40.5 81t-66.5 31v23h236v-23q-31 -8 -47.5 -26.5t-25.5 -68.5t-9 -142v-637q0 -120 -27 -215.5t-73.5 -158.5t-112 -105t-138.5 -60t-157 -18zM911 1626q-33 0 -55 22t-22 56q0 31 22.5 52.5t54.5 21.5t54 -22t22 -54t-22 -54
t-54 -22zM567 1626q-32 0 -53.5 22t-21.5 56q0 31 21.5 52.5t53.5 21.5q34 0 56 -22t22 -54t-23 -54t-55 -22z" />
    <glyph glyph-name="Yacute" unicode="&#xdd;" horiz-adv-x="1095" 
d="M397 0v23q31 8 47.5 26.5t25.5 68.5t9 142l-2 375l-315 571q-32 59 -60 99t-50.5 60.5t-37.5 30t-34 15.5v23h260v-23q-22 -6 -30.5 -14t-2 -33t23 -57.5t54.5 -100.5l297 -528l299 528q27 48 41.5 82.5t17.5 60.5t-8.5 41.5t-38.5 20.5v23h223v-23q-23 -6 -41 -15.5
t-43.5 -30t-54.5 -60.5t-62 -99l-319 -567v-379q0 -92 9 -142t25.5 -68.5t47.5 -26.5v-23h-281zM715 1622l-299 -106l-8 10l202 153q44 33 74 33q25 0 51.5 -16t26.5 -33q0 -24 -47 -41z" />
    <glyph glyph-name="Thorn" unicode="&#xde;" horiz-adv-x="1155" 
d="M113 0v23q31 8 47.5 26.5t25.5 68.5t9 142v914q0 92 -9 142t-25.5 68.5t-47.5 26.5v23h278v-23q-43 -11 -61 -51t-21 -152h226q563 0 563 -387q0 -227 -165.5 -350t-490.5 -123h-133v-88q0 -92 9 -142t25.5 -68.5t47.5 -26.5v-23h-278zM309 377h148q259 0 389.5 109
t130.5 323q0 87 -26 153t-84.5 116.5t-160.5 77t-245 26.5h-152v-8v-797z" />
    <glyph glyph-name="germandbls" unicode="&#xdf;" horiz-adv-x="1179" 
d="M805 -16q-212 0 -356 79l-9 191l15 4q67 -121 154 -185.5t216 -60.5q99 3 161.5 57t62.5 154q0 60 -28 110t-73 85.5t-99 67t-108 62t-99 63t-73 76.5t-28 97q0 66 32.5 125.5t79.5 106t94 92.5t80.5 104t34.5 121q1 99 -67 154t-185 55q-69 0 -128 -23.5t-108.5 -72.5
t-77.5 -136.5t-28 -205.5v-844q0 -92 9 -142t25.5 -68.5t47.5 -26.5v-23h-270v23q31 8 47.5 26.5t25.5 68.5t9 142v739h-111l12 25h99q4 124 48 231t115 180.5t164 115.5t193 42q120 0 190 -54t70 -140q0 -54 -19 -103.5t-49.5 -88t-67.5 -74.5t-74 -69t-67.5 -64.5
t-49.5 -68t-19 -73.5q0 -45 29.5 -85.5t76.5 -72t103.5 -63t113 -65.5t103.5 -71.5t76.5 -89.5t29.5 -112q0 -75 -28.5 -136.5t-75.5 -99.5t-103.5 -58.5t-115.5 -20.5z" />
    <glyph glyph-name="agrave" unicode="&#xe0;" horiz-adv-x="1083" 
d="M879 0q-41 0 -41 41v391q-52 -198 -182.5 -325t-276.5 -127q-124 0 -210.5 70t-86.5 198q0 45 13 84t34.5 69.5t56 57t70 46t84.5 38t92.5 31.5t99.5 28l304 80q-18 303 -306 303q-99 0 -191 -49t-165 -143l-18 14q181 231 430 231q180 0 269 -93.5t89 -258.5v-426
q0 -92 9 -142t25.5 -68.5t47.5 -26.5v-23h-147zM453 1333q-47 24 -47 47q0 17 24.5 31t50.5 14q32 0 70 -36l207 -191l-8 -12zM195 289q2 -99 64 -159t167 -60q70 0 134.5 30t114 81t86.5 117t56.5 140t20.5 148v45v26l-297 -77q-178 -47 -262.5 -110.5t-83.5 -180.5z" />
    <glyph glyph-name="aacute" unicode="&#xe1;" horiz-adv-x="1083" 
d="M879 0q-41 0 -41 41v391q-52 -198 -182.5 -325t-276.5 -127q-124 0 -210.5 70t-86.5 198q0 45 13 84t34.5 69.5t56 57t70 46t84.5 38t92.5 31.5t99.5 28l304 80q-18 303 -306 303q-99 0 -191 -49t-165 -143l-18 14q181 231 430 231q180 0 269 -93.5t89 -258.5v-426
q0 -92 9 -142t25.5 -68.5t47.5 -26.5v-23h-147zM788 1333l-296 -147l-9 12l207 191q38 36 70 36q26 0 51 -14t25 -31q0 -22 -48 -47zM195 289q2 -99 64 -159t167 -60q70 0 134.5 30t114 81t86.5 117t56.5 140t20.5 148v45v26l-297 -77q-178 -47 -262.5 -110.5t-83.5 -180.5z
" />
    <glyph glyph-name="acircumflex" unicode="&#xe2;" horiz-adv-x="1083" 
d="M879 0q-41 0 -41 41v391q-52 -198 -182.5 -325t-276.5 -127q-124 0 -210.5 70t-86.5 198q0 45 13 84t34.5 69.5t56 57t70 46t84.5 38t92.5 31.5t99.5 28l304 80q-18 303 -306 303q-99 0 -191 -49t-165 -143l-18 14q181 231 430 231q180 0 269 -93.5t89 -258.5v-426
q0 -92 9 -142t25.5 -68.5t47.5 -26.5v-23h-147zM401 1186l-14 12l221 246h13l233 -244l-14 -14l-226 143zM195 289q2 -99 64 -159t167 -60q70 0 134.5 30t114 81t86.5 117t56.5 140t20.5 148v45v26l-297 -77q-178 -47 -262.5 -110.5t-83.5 -180.5z" />
    <glyph glyph-name="atilde" unicode="&#xe3;" horiz-adv-x="1083" 
d="M879 0q-41 0 -41 41v391q-52 -198 -182.5 -325t-276.5 -127q-124 0 -210.5 70t-86.5 198q0 45 13 84t34.5 69.5t56 57t70 46t84.5 38t92.5 31.5t99.5 28l304 80q-18 303 -306 303q-99 0 -191 -49t-165 -143l-18 14q181 231 430 231q180 0 269 -93.5t89 -258.5v-426
q0 -92 9 -142t25.5 -68.5t47.5 -26.5v-23h-147zM344 1153q61 93 86 117q44 45 96 45q33 0 125 -48t137 -48q35 0 59.5 23t49.5 73l16 -6q-41 -84 -83 -129t-95 -45q-34 0 -124.5 48t-131.5 48q-36 0 -62.5 -19.5t-58.5 -66.5zM195 289q2 -99 64 -159t167 -60q70 0 134.5 30
t114 81t86.5 117t56.5 140t20.5 148v45v26l-297 -77q-178 -47 -262.5 -110.5t-83.5 -180.5z" />
    <glyph glyph-name="adieresis" unicode="&#xe4;" horiz-adv-x="1083" 
d="M879 0q-41 0 -41 41v391q-52 -198 -182.5 -325t-276.5 -127q-124 0 -210.5 70t-86.5 198q0 45 13 84t34.5 69.5t56 57t70 46t84.5 38t92.5 31.5t99.5 28l304 80q-18 303 -306 303q-99 0 -191 -49t-165 -143l-18 14q181 231 430 231q180 0 269 -93.5t89 -258.5v-426
q0 -92 9 -142t25.5 -68.5t47.5 -26.5v-23h-147zM793 1217q-33 0 -55.5 22t-22.5 55q0 31 23 52.5t55 21.5t53.5 -22t21.5 -54t-21.5 -53.5t-53.5 -21.5zM449 1217q-33 0 -54.5 21.5t-21.5 55.5q0 31 22 52.5t54 21.5q33 0 55 -22t22 -54t-22.5 -53.5t-54.5 -21.5zM195 289
q2 -99 64 -159t167 -60q70 0 134.5 30t114 81t86.5 117t56.5 140t20.5 148v45v26l-297 -77q-178 -47 -262.5 -110.5t-83.5 -180.5z" />
    <glyph glyph-name="aring" unicode="&#xe5;" horiz-adv-x="1083" 
d="M879 0q-41 0 -41 41v391q-52 -198 -182.5 -325t-276.5 -127q-124 0 -210.5 70t-86.5 198q0 45 13 84t34.5 69.5t56 57t70 46t84.5 38t92.5 31.5t99.5 28l304 80q-18 303 -306 303q-99 0 -191 -49t-165 -143l-18 14q181 231 430 231q180 0 269 -93.5t89 -258.5v-426
q0 -92 9 -142t25.5 -68.5t47.5 -26.5v-23h-147zM618 1122q-61 0 -100 40t-39 98q0 61 39 102t100 41q67 0 105.5 -39.5t38.5 -99.5q0 -59 -41 -100.5t-103 -41.5zM618 1143q51 0 85 34.5t34 86.5t-33 85t-86 33q-50 0 -82 -33.5t-32 -88.5q0 -51 32 -84t82 -33zM195 289
q2 -99 64 -159t167 -60q70 0 134.5 30t114 81t86.5 117t56.5 140t20.5 148v45v26l-297 -77q-178 -47 -262.5 -110.5t-83.5 -180.5z" />
    <glyph glyph-name="ae" unicode="&#xe6;" horiz-adv-x="1841" 
d="M379 -20q-124 0 -210.5 70t-86.5 198q0 45 13 84t34.5 69.5t56 57t70 46t84.5 38t92.5 31.5t99.5 28l304 80q-18 303 -306 303q-99 0 -191 -49t-165 -143l-18 14q181 231 430 231q280 0 334 -237q73 112 190.5 174.5t261.5 62.5q175 0 283.5 -98t116.5 -258h-824
q-12 -58 -12 -123q0 -221 127.5 -355t331.5 -134q118 0 206.5 49t172.5 145l16 -16q-216 -268 -471 -268q-79 0 -156.5 26.5t-145.5 76.5t-116.5 133.5t-62.5 186.5q-50 -180 -180 -301.5t-279 -121.5zM838 631v26l-297 -77q-178 -47 -262.5 -110.5t-83.5 -180.5
q2 -99 64 -159t167 -60q78 0 151.5 40t125.5 102t86 134.5t42 140.5v2q0 16 5 66zM952 707h705q-7 43 -30.5 90.5t-64.5 95.5t-110 79.5t-152 31.5q-131 0 -222.5 -79.5t-125.5 -217.5z" />
    <glyph glyph-name="ccedilla" unicode="&#xe7;" horiz-adv-x="1087" 
d="M571 -20q-27 0 -39 2l-86 -117q115 21 177.5 -6.5t62.5 -89.5q0 -73 -77.5 -126t-166.5 -53q-42 0 -73 15.5t-31 36.5q0 14 15.5 25t29.5 11q12 0 55.5 -23.5t81.5 -23.5q45 0 77 24.5t32 63.5q0 40 -33 64t-104 24q-50 0 -111 -22l-10 12l141 187q-81 10 -155.5 46.5
t-136.5 97t-99 154.5t-37 207q0 148 75.5 274.5t205 200.5t282.5 74q128 0 226 -31.5t98 -72.5q0 -27 -34.5 -56.5t-82.5 -29.5q-31 0 -100.5 36t-216.5 124q-156 -32 -252.5 -150t-96.5 -299q0 -221 127.5 -355t331.5 -134q118 0 206.5 49t172.5 145l16 -16
q-216 -268 -471 -268z" />
    <glyph glyph-name="egrave" unicode="&#xe8;" horiz-adv-x="1107" 
d="M571 -20q-69 0 -137 19.5t-131.5 61t-112 100t-77.5 143.5t-29 185q0 237 154.5 393t386.5 156q175 0 283 -98t116 -258h-823q-13 -63 -13 -123q0 -221 127.5 -355t331.5 -134q118 0 206.5 49t172.5 145l16 -16q-216 -268 -471 -268zM410 1333q-48 25 -48 47q0 17 25 31
t51 14q32 0 70 -36l207 -191l-8 -12zM205 707h704q-5 33 -20 70t-44.5 78.5t-68.5 73.5t-97.5 53.5t-125.5 21.5q-131 0 -222.5 -79.5t-125.5 -217.5z" />
    <glyph glyph-name="eacute" unicode="&#xe9;" horiz-adv-x="1107" 
d="M571 -20q-69 0 -137 19.5t-131.5 61t-112 100t-77.5 143.5t-29 185q0 237 154.5 393t386.5 156q175 0 283 -98t116 -258h-823q-13 -63 -13 -123q0 -221 127.5 -355t331.5 -134q118 0 206.5 49t172.5 145l16 -16q-216 -268 -471 -268zM745 1333l-296 -147l-9 12l207 191
q38 36 70 36q26 0 51 -14t25 -31q0 -22 -48 -47zM205 707h704q-5 33 -20 70t-44.5 78.5t-68.5 73.5t-97.5 53.5t-125.5 21.5q-131 0 -222.5 -79.5t-125.5 -217.5z" />
    <glyph glyph-name="ecircumflex" unicode="&#xea;" horiz-adv-x="1107" 
d="M571 -20q-69 0 -137 19.5t-131.5 61t-112 100t-77.5 143.5t-29 185q0 237 154.5 393t386.5 156q175 0 283 -98t116 -258h-823q-13 -63 -13 -123q0 -221 127.5 -355t331.5 -134q118 0 206.5 49t172.5 145l16 -16q-216 -268 -471 -268zM358 1186l-14 12l221 246h13
l233 -244l-14 -14l-226 143zM205 707h704q-5 33 -20 70t-44.5 78.5t-68.5 73.5t-97.5 53.5t-125.5 21.5q-131 0 -222.5 -79.5t-125.5 -217.5z" />
    <glyph glyph-name="edieresis" unicode="&#xeb;" horiz-adv-x="1107" 
d="M571 -20q-69 0 -137 19.5t-131.5 61t-112 100t-77.5 143.5t-29 185q0 237 154.5 393t386.5 156q175 0 283 -98t116 -258h-823q-13 -63 -13 -123q0 -221 127.5 -355t331.5 -134q118 0 206.5 49t172.5 145l16 -16q-216 -268 -471 -268zM750 1217q-33 0 -55.5 22t-22.5 55
q0 31 23 52.5t55 21.5t53.5 -22t21.5 -54t-21.5 -53.5t-53.5 -21.5zM406 1217q-32 0 -54 21.5t-22 55.5q0 31 22 52.5t54 21.5q34 0 55.5 -22t21.5 -54t-22.5 -53.5t-54.5 -21.5zM205 707h704q-5 33 -20 70t-44.5 78.5t-68.5 73.5t-97.5 53.5t-125.5 21.5
q-131 0 -222.5 -79.5t-125.5 -217.5z" />
    <glyph glyph-name="igrave" unicode="&#xec;" horiz-adv-x="428" 
d="M76 0v23q31 8 47.5 26.5t25.5 68.5t9 142v471q0 83 -9 125t-23.5 57.5t-49.5 30.5v19l174 75l14 -12v-766q0 -92 9 -142t25.5 -68.5t47.5 -26.5v-23h-270zM31 1333q-47 24 -47 47q0 17 24.5 31t50.5 14q32 0 70 -36l207 -191l-8 -12z" />
    <glyph glyph-name="iacute" unicode="&#xed;" horiz-adv-x="428" 
d="M76 0v23q31 8 47.5 26.5t25.5 68.5t9 142v471q0 83 -9 125t-23.5 57.5t-49.5 30.5v19l174 75l14 -12v-766q0 -92 9 -142t25.5 -68.5t47.5 -26.5v-23h-270zM367 1333l-297 -147l-9 12l207 191q38 36 70 36q26 0 51 -14t25 -31q0 -23 -47 -47z" />
    <glyph glyph-name="icircumflex" unicode="&#xee;" horiz-adv-x="428" 
d="M76 0v23q31 8 47.5 26.5t25.5 68.5t9 142v471q0 83 -9 125t-23.5 57.5t-49.5 30.5v19l174 75l14 -12v-766q0 -92 9 -142t25.5 -68.5t47.5 -26.5v-23h-270zM-20 1186l-15 12l221 246h13l233 -244l-14 -14l-225 143z" />
    <glyph glyph-name="idieresis" unicode="&#xef;" horiz-adv-x="428" 
d="M76 0v23q31 8 47.5 26.5t25.5 68.5t9 142v471q0 83 -9 125t-23.5 57.5t-49.5 30.5v19l174 75l14 -12v-766q0 -92 9 -142t25.5 -68.5t47.5 -26.5v-23h-270zM371 1217q-33 0 -55.5 22t-22.5 55q0 31 23 52.5t55 21.5t53.5 -22t21.5 -54t-21.5 -53.5t-53.5 -21.5zM27 1217
q-33 0 -54.5 21.5t-21.5 55.5q0 31 22 52.5t54 21.5q33 0 55 -22t22 -54t-22.5 -53.5t-54.5 -21.5z" />
    <glyph glyph-name="eth" unicode="&#xf0;" horiz-adv-x="1228" 
d="M586 -20q-96 0 -185 32t-162 93t-117 162.5t-44 228.5q0 101 30.5 189t84 151.5t123.5 109.5t150 69t163 23q84 0 168 -31.5t147 -93.5q-68 221 -246 412l-258 -149l-2 2l2 24q4 22 19 31l211 121q-115 115 -240 176l12 18q154 -72 275 -166l174 101h4l-2 -27
q0 -20 -19 -31l-122 -69q169 -138 271 -324.5t101 -421.5q0 -185 -73 -330t-195.5 -222.5t-269.5 -77.5zM637 20q172 0 263 116.5t91 303.5q0 155 -48.5 279.5t-149 200.5t-238.5 75q-164 -1 -260 -116t-98 -306q-2 -141 50.5 -266.5t155.5 -206t234 -80.5z" />
    <glyph glyph-name="ntilde" unicode="&#xf1;" horiz-adv-x="1183" 
d="M76 0v23q31 8 47.5 26.5t25.5 68.5t9 142v471q0 83 -9 125t-23.5 57.5t-49.5 30.5v19l174 75l14 -12v-178q103 84 219.5 137t227.5 53q161 0 247 -97t86 -279v-402q0 -92 9 -142t25.5 -68.5t47.5 -26.5v-23h-270v23q31 8 47.5 26.5t25.5 68.5t9 142v358q0 184 -77 275.5
t-236 91.5q-165 0 -361 -168v-557q0 -92 9 -142t25.5 -68.5t47.5 -26.5v-23h-270zM311 1153q62 94 89 120q43 42 94 42q33 0 125 -48t137 -48q35 0 59 23t49 73l17 -6q-40 -84 -83 -129t-96 -45q-34 0 -124.5 48t-131.5 48q-36 0 -62 -19.5t-58 -66.5z" />
    <glyph glyph-name="ograve" unicode="&#xf2;" horiz-adv-x="1226" 
d="M610 -20q-98 0 -189.5 32.5t-168 95t-122.5 167t-46 235.5q0 150 73 272.5t193 189t260 66.5q98 0 189.5 -32t167.5 -94.5t122 -167t46 -236.5q0 -101 -31.5 -188.5t-84 -149t-120.5 -105t-141.5 -64.5t-147.5 -21zM662 18q173 0 272.5 115t99.5 293q0 80 -22 163
t-64.5 156.5t-98.5 132t-130 92.5t-154 34q-177 0 -276 -116t-99 -300q0 -105 36 -207.5t97 -183t150.5 -130t188.5 -49.5zM438 1333q-47 24 -47 47q0 17 25 31t51 14q32 0 70 -36l206 -191l-8 -12z" />
    <glyph glyph-name="oacute" unicode="&#xf3;" horiz-adv-x="1226" 
d="M610 -20q-98 0 -189.5 32.5t-168 95t-122.5 167t-46 235.5q0 150 73 272.5t193 189t260 66.5q98 0 189.5 -32t167.5 -94.5t122 -167t46 -236.5q0 -101 -31.5 -188.5t-84 -149t-120.5 -105t-141.5 -64.5t-147.5 -21zM662 18q173 0 272.5 115t99.5 293q0 80 -22 163
t-64.5 156.5t-98.5 132t-130 92.5t-154 34q-177 0 -276 -116t-99 -300q0 -105 36 -207.5t97 -183t150.5 -130t188.5 -49.5zM774 1333l-297 -147l-8 12l207 191q38 36 69 36q26 0 51 -14t25 -31q0 -23 -47 -47z" />
    <glyph glyph-name="ocircumflex" unicode="&#xf4;" horiz-adv-x="1226" 
d="M610 -20q-98 0 -189.5 32.5t-168 95t-122.5 167t-46 235.5q0 150 73 272.5t193 189t260 66.5q98 0 189.5 -32t167.5 -94.5t122 -167t46 -236.5q0 -101 -31.5 -188.5t-84 -149t-120.5 -105t-141.5 -64.5t-147.5 -21zM662 18q173 0 272.5 115t99.5 293q0 80 -22 163
t-64.5 156.5t-98.5 132t-130 92.5t-154 34q-177 0 -276 -116t-99 -300q0 -105 36 -207.5t97 -183t150.5 -130t188.5 -49.5zM387 1186l-14 12l221 246h12l234 -244l-15 -14l-225 143z" />
    <glyph glyph-name="otilde" unicode="&#xf5;" horiz-adv-x="1226" 
d="M610 -20q-98 0 -189.5 32.5t-168 95t-122.5 167t-46 235.5q0 150 73 272.5t193 189t260 66.5q98 0 189.5 -32t167.5 -94.5t122 -167t46 -236.5q0 -101 -31.5 -188.5t-84 -149t-120.5 -105t-141.5 -64.5t-147.5 -21zM662 18q173 0 272.5 115t99.5 293q0 80 -22 163
t-64.5 156.5t-98.5 132t-130 92.5t-154 34q-177 0 -276 -116t-99 -300q0 -105 36 -207.5t97 -183t150.5 -130t188.5 -49.5zM330 1153q61 93 86 117q44 45 96 45q33 0 125 -48t137 -48q35 0 59.5 23t49.5 73l16 -6q-41 -84 -83 -129t-95 -45q-34 0 -124.5 48t-131.5 48
q-36 0 -62.5 -19.5t-58.5 -66.5z" />
    <glyph glyph-name="odieresis" unicode="&#xf6;" horiz-adv-x="1226" 
d="M610 -20q-98 0 -189.5 32.5t-168 95t-122.5 167t-46 235.5q0 150 73 272.5t193 189t260 66.5q98 0 189.5 -32t167.5 -94.5t122 -167t46 -236.5q0 -101 -31.5 -188.5t-84 -149t-120.5 -105t-141.5 -64.5t-147.5 -21zM662 18q173 0 272.5 115t99.5 293q0 80 -22 163
t-64.5 156.5t-98.5 132t-130 92.5t-154 34q-177 0 -276 -116t-99 -300q0 -105 36 -207.5t97 -183t150.5 -130t188.5 -49.5zM778 1217q-33 0 -55.5 22t-22.5 55q0 31 23 52.5t55 21.5t54 -22t22 -54t-22 -53.5t-54 -21.5zM434 1217q-32 0 -54 21.5t-22 55.5q0 31 22 52.5
t54 21.5q34 0 56 -22t22 -54t-22.5 -53.5t-55.5 -21.5z" />
    <glyph glyph-name="divide" unicode="&#xf7;" horiz-adv-x="1142" 
d="M207 670l10 24h713l-10 -24h-713zM635 319q-37 0 -64.5 28.5t-27.5 66.5t27.5 66t64.5 28t63.5 -28t26.5 -66t-26.5 -66.5t-63.5 -28.5zM635 858q-37 0 -64.5 28t-27.5 66t27.5 66.5t64.5 28.5t63.5 -28.5t26.5 -66.5t-26.5 -66t-63.5 -28z" />
    <glyph glyph-name="oslash" unicode="&#xf8;" horiz-adv-x="1226" 
d="M610 -20q-98 0 -189.5 32.5t-168 95t-122.5 167t-46 235.5q0 150 73 272.5t193 189t260 66.5q98 0 189.5 -32t167.5 -94.5t122 -167t46 -236.5q0 -101 -31.5 -188.5t-84 -149t-120.5 -105t-141.5 -64.5t-147.5 -21zM662 18q173 0 272.5 115t99.5 293q0 80 -22 163
t-64.5 156.5t-98.5 132t-130 92.5t-154 34q-177 0 -276 -116t-99 -300q0 -105 36 -207.5t97 -183t150.5 -130t188.5 -49.5zM147 -219l904 1427z" />
    <glyph glyph-name="ugrave" unicode="&#xf9;" horiz-adv-x="1146" 
d="M465 -18q-157 0 -239.5 96t-82.5 264v389q0 83 -9 125t-23.5 57.5t-49.5 30.5v19l175 75l14 -12v-637q0 -182 68.5 -265t201.5 -83q189 0 357 197v493q0 83 -9 125t-23.5 57.5t-49.5 30.5v19l174 75l14 -12v-766q0 -92 9 -142t25.5 -68.5t47.5 -26.5v-23h-137
q-29 0 -40 16.5t-11 65.5v119q-201 -219 -412 -219zM442 1333q-47 24 -47 47q0 17 25 31t51 14q32 0 70 -36l207 -191l-9 -12z" />
    <glyph glyph-name="uacute" unicode="&#xfa;" horiz-adv-x="1146" 
d="M465 -18q-157 0 -239.5 96t-82.5 264v389q0 83 -9 125t-23.5 57.5t-49.5 30.5v19l175 75l14 -12v-637q0 -182 68.5 -265t201.5 -83q189 0 357 197v493q0 83 -9 125t-23.5 57.5t-49.5 30.5v19l174 75l14 -12v-766q0 -92 9 -142t25.5 -68.5t47.5 -26.5v-23h-137
q-29 0 -40 16.5t-11 65.5v119q-201 -219 -412 -219zM778 1333l-297 -147l-8 12l207 191q38 36 70 36q26 0 50.5 -14t24.5 -31q0 -23 -47 -47z" />
    <glyph glyph-name="ucircumflex" unicode="&#xfb;" horiz-adv-x="1146" 
d="M465 -18q-157 0 -239.5 96t-82.5 264v389q0 83 -9 125t-23.5 57.5t-49.5 30.5v19l175 75l14 -12v-637q0 -182 68.5 -265t201.5 -83q189 0 357 197v493q0 83 -9 125t-23.5 57.5t-49.5 30.5v19l174 75l14 -12v-766q0 -92 9 -142t25.5 -68.5t47.5 -26.5v-23h-137
q-29 0 -40 16.5t-11 65.5v119q-201 -219 -412 -219zM391 1186l-14 12l221 246h12l234 -244l-15 -14l-225 143z" />
    <glyph glyph-name="udieresis" unicode="&#xfc;" horiz-adv-x="1146" 
d="M465 -18q-157 0 -239.5 96t-82.5 264v389q0 83 -9 125t-23.5 57.5t-49.5 30.5v19l175 75l14 -12v-637q0 -182 68.5 -265t201.5 -83q189 0 357 197v493q0 83 -9 125t-23.5 57.5t-49.5 30.5v19l174 75l14 -12v-766q0 -92 9 -142t25.5 -68.5t47.5 -26.5v-23h-137
q-29 0 -40 16.5t-11 65.5v119q-201 -219 -412 -219zM782 1217q-33 0 -55 22t-22 55q0 31 22.5 52.5t54.5 21.5t54 -22t22 -54t-22 -53.5t-54 -21.5zM438 1217q-32 0 -54 21.5t-22 55.5q0 31 22 52.5t54 21.5q34 0 56 -22t22 -54t-22.5 -53.5t-55.5 -21.5z" />
    <glyph glyph-name="yacute" unicode="&#xfd;" horiz-adv-x="1030" 
d="M47 -395q-54 0 -90.5 15t-36.5 34q0 30 31 61t67 31q27 0 116 -24.5t122 -30.5q127 92 231 313l-323 780q-35 82 -65.5 130t-49.5 63.5t-43 23.5v23h254v-23q-23 -6 -32 -15t-7 -34t15.5 -62t42.5 -106l268 -643l278 643q43 96 41 151.5t-55 65.5v23h219v-23
q-30 -8 -52.5 -23.5t-55.5 -63.5t-68 -130l-324 -743q-39 -90 -82.5 -161.5t-81 -116.5t-80.5 -77t-72.5 -47.5t-66 -23.5t-53 -9t-41.5 -1h-6zM578 1333l-297 -147l-9 12l207 191q38 36 70 36q26 0 51 -14t25 -31q0 -23 -47 -47z" />
    <glyph glyph-name="thorn" unicode="&#xfe;" horiz-adv-x="1216" 
d="M606 -18q-87 -1 -172 27t-149 71v-373q0 -92 9 -142t25.5 -68.5t47.5 -26.5v-23h-271v23q31 8 47.5 26.5t25.5 68.5t9 142l-2 1639q0 83 -9 125t-23.5 57.5t-49.5 30.5v18l174 76l15 -13v-294v-478q227 170 417 170q192 0 308 -129t116 -358q0 -105 -33 -204.5
t-95.5 -181t-163.5 -132t-226 -51.5zM283 840l2 -633q59 -79 154.5 -134t215.5 -55q163 0 263 112.5t100 324.5q0 141 -43 259t-135 194.5t-219 76.5q-155 0 -338 -145z" />
    <glyph glyph-name="ydieresis" unicode="&#xff;" horiz-adv-x="1030" 
d="M47 -395q-54 0 -90.5 15t-36.5 34q0 30 31 61t67 31q27 0 116 -24.5t122 -30.5q127 92 231 313l-323 780q-35 82 -65.5 130t-49.5 63.5t-43 23.5v23h254v-23q-23 -6 -32 -15t-7 -34t15.5 -62t42.5 -106l268 -643l278 643q43 96 41 151.5t-55 65.5v23h219v-23
q-30 -8 -52.5 -23.5t-55.5 -63.5t-68 -130l-324 -743q-39 -90 -82.5 -161.5t-81 -116.5t-80.5 -77t-72.5 -47.5t-66 -23.5t-53 -9t-41.5 -1h-6zM582 1217q-33 0 -55.5 22t-22.5 55q0 31 23 52.5t55 21.5t53.5 -22t21.5 -54t-21.5 -53.5t-53.5 -21.5zM238 1217
q-32 0 -54 21.5t-22 55.5q0 31 22 52.5t54 21.5q34 0 55.5 -22t21.5 -54t-22.5 -53.5t-54.5 -21.5z" />
    <glyph glyph-name="Amacron" unicode="&#x100;" horiz-adv-x="1306" 
d="M-25 0v23q30 8 52 23.5t54 64t66 131.5l426 1052q16 41 -4 82l-12 27l105 45l497 -1208q34 -82 64 -130t49 -63.5t43 -23.5v-23h-258v23q23 6 32 15t7 34t-14.5 62t-41.5 106l-127 307h-610l-123 -305q-82 -199 19 -219v-23h-224zM367 1606l-2 4l20 28q11 17 31 17h499
l3 -4l-21 -29q-11 -16 -31 -16h-499zM315 575h586l-297 719z" />
    <glyph glyph-name="amacron" unicode="&#x101;" horiz-adv-x="1083" 
d="M879 0q-41 0 -41 41v391q-52 -198 -182.5 -325t-276.5 -127q-124 0 -210.5 70t-86.5 198q0 45 13 84t34.5 69.5t56 57t70 46t84.5 38t92.5 31.5t99.5 28l304 80q-18 303 -306 303q-99 0 -191 -49t-165 -143l-18 14q181 231 430 231q180 0 269 -93.5t89 -258.5v-426
q0 -92 9 -142t25.5 -68.5t47.5 -26.5v-23h-147zM348 1196l-2 4l21 29q11 16 30 16h500l2 -4l-20 -29q-11 -16 -31 -16h-500zM195 289q2 -99 64 -159t167 -60q70 0 134.5 30t114 81t86.5 117t56.5 140t20.5 148v45v26l-297 -77q-178 -47 -262.5 -110.5t-83.5 -180.5z" />
    <glyph glyph-name="Abreve" unicode="&#x102;" horiz-adv-x="1306" 
d="M-25 0v23q30 8 52 23.5t54 64t66 131.5l426 1052q16 41 -4 82l-12 27l105 45l497 -1208q34 -82 64 -130t49 -63.5t43 -23.5v-23h-258v23q23 6 32 15t7 34t-14.5 62t-41.5 106l-127 307h-610l-123 -305q-82 -199 19 -219v-23h-224zM639 1513q-75 0 -123 49t-98 162l14 7
q38 -62 83 -93.5t124 -31.5t125 32t82 93l12 -7q-50 -114 -97.5 -162.5t-121.5 -48.5zM315 575h586l-297 719z" />
    <glyph glyph-name="abreve" unicode="&#x103;" horiz-adv-x="1083" 
d="M879 0q-41 0 -41 41v391q-52 -198 -182.5 -325t-276.5 -127q-124 0 -210.5 70t-86.5 198q0 45 13 84t34.5 69.5t56 57t70 46t84.5 38t92.5 31.5t99.5 28l304 80q-18 303 -306 303q-99 0 -191 -49t-165 -143l-18 14q181 231 430 231q180 0 269 -93.5t89 -258.5v-426
q0 -92 9 -142t25.5 -68.5t47.5 -26.5v-23h-147zM621 1165q-75 0 -124.5 51.5t-121.5 188.5l18 8q49 -86 96.5 -119.5t131.5 -33.5t132 33.5t95 119.5l16 -8q-72 -138 -120.5 -189t-122.5 -51zM195 289q2 -99 64 -159t167 -60q70 0 134.5 30t114 81t86.5 117t56.5 140
t20.5 148v45v26l-297 -77q-178 -47 -262.5 -110.5t-83.5 -180.5z" />
    <glyph glyph-name="Aogonek" unicode="&#x104;" horiz-adv-x="1306" 
d="M-25 0v23q30 8 52 23.5t54 64t66 131.5l426 1052q16 41 -4 82l-12 27l105 45l497 -1208q34 -82 64 -130t49 -63.5t43 -23.5v-23h-250q-60 -58 -87.5 -104t-27.5 -95q0 -102 115 -102q53 0 104 33l11 -8l-47 -89q-34 -24 -95 -24q-64 0 -103.5 36.5t-39.5 92.5
q0 132 162 278v5q1 0 3 1t3 1l14 12l6 -4q10 8 13 20.5t-3 38t-18 58.5t-35 90l-127 307h-610l-123 -305q-82 -199 19 -219v-23h-224zM315 575h586l-297 719z" />
    <glyph glyph-name="aogonek" unicode="&#x105;" horiz-adv-x="1083" 
d="M879 0q-41 0 -41 41v391q-52 -198 -182.5 -325t-276.5 -127q-124 0 -210.5 70t-86.5 198q0 45 13 84t34.5 69.5t56 57t70 46t84.5 38t92.5 31.5t99.5 28l304 80q-18 303 -306 303q-99 0 -191 -49t-165 -143l-18 14q181 231 430 231q180 0 269 -93.5t89 -258.5v-426
q0 -114 12.5 -163t42.5 -64l5 4l16 -10l-2 -2q1 0 4 -1t4 -1v-23h-35q-59 -58 -86.5 -104t-27.5 -95q0 -102 114 -102q54 0 105 33l10 -8l-47 -89q-34 -24 -94 -24q-64 0 -104 36.5t-40 92.5q0 121 142 260h-84zM195 289q2 -99 64 -159t167 -60q70 0 134.5 30t114 81
t86.5 117t56.5 140t20.5 148v45v26l-297 -77q-178 -47 -262.5 -110.5t-83.5 -180.5z" />
    <glyph glyph-name="Cacute" unicode="&#x106;" horiz-adv-x="1497" 
d="M854 -20q-340 0 -546 191t-206 513q0 226 106 401t289.5 269t413.5 94q132 0 263.5 -36.5t187.5 -68.5l8 -213l-16 -4q-60 128 -194.5 204.5t-336.5 76.5q-123 0 -230 -41t-189.5 -119.5t-131 -203t-49.5 -281.5q-1 -113 26 -220t83.5 -202.5t136.5 -167.5t193.5 -114
t246.5 -42q168 0 296 80.5t190 245.5l20 -2l-33 -238q-69 -46 -224.5 -84t-303.5 -38zM1018 1622l-299 -106l-8 10l202 153q44 33 74 33q25 0 51.5 -16t26.5 -33q0 -24 -47 -41z" />
    <glyph glyph-name="cacute" unicode="&#x107;" horiz-adv-x="1087" 
d="M571 -20q-69 0 -137 19.5t-131.5 61t-112 100t-77.5 143.5t-29 185q0 148 75.5 274.5t205 200.5t282.5 74q128 0 226 -31.5t98 -72.5q0 -27 -34.5 -56.5t-82.5 -29.5q-31 0 -100.5 36t-216.5 124q-156 -32 -252.5 -150t-96.5 -299q0 -221 127.5 -355t331.5 -134
q118 0 206.5 49t172.5 145l16 -16q-216 -268 -471 -268zM705 1333l-297 -147l-9 12l207 191q38 36 70 36q26 0 51 -14t25 -31q0 -23 -47 -47z" />
    <glyph glyph-name="Cdotaccent" unicode="&#x10a;" horiz-adv-x="1497" 
d="M854 -20q-340 0 -546 191t-206 513q0 226 106 401t289.5 269t413.5 94q132 0 263.5 -36.5t187.5 -68.5l8 -213l-16 -4q-60 128 -194.5 204.5t-336.5 76.5q-123 0 -230 -41t-189.5 -119.5t-131 -203t-49.5 -281.5q-1 -113 26 -220t83.5 -202.5t136.5 -167.5t193.5 -114
t246.5 -42q168 0 296 80.5t190 245.5l20 -2l-33 -238q-69 -46 -224.5 -84t-303.5 -38zM848 1634q-35 0 -59.5 24.5t-24.5 59.5t24.5 59.5t59.5 24.5q36 0 60 -24t24 -60q0 -35 -24.5 -59.5t-59.5 -24.5z" />
    <glyph glyph-name="cdotaccent" unicode="&#x10b;" horiz-adv-x="1087" 
d="M571 -20q-69 0 -137 19.5t-131.5 61t-112 100t-77.5 143.5t-29 185q0 148 75.5 274.5t205 200.5t282.5 74q128 0 226 -31.5t98 -72.5q0 -27 -34.5 -56.5t-82.5 -29.5q-31 0 -100.5 36t-216.5 124q-156 -32 -252.5 -150t-96.5 -299q0 -221 127.5 -355t331.5 -134
q118 0 206.5 49t172.5 145l16 -16q-216 -268 -471 -268zM537 1225q-35 0 -59.5 24.5t-24.5 59.5t24.5 59.5t59.5 24.5q36 0 60 -24t24 -60q0 -35 -24.5 -59.5t-59.5 -24.5z" />
    <glyph glyph-name="Ccaron" unicode="&#x10c;" horiz-adv-x="1497" 
d="M854 -20q-340 0 -546 191t-206 513q0 226 106 401t289.5 269t413.5 94q132 0 263.5 -36.5t187.5 -68.5l8 -213l-16 -4q-60 128 -194.5 204.5t-336.5 76.5q-123 0 -230 -41t-189.5 -119.5t-131 -203t-49.5 -281.5q-1 -113 26 -220t83.5 -202.5t136.5 -167.5t193.5 -114
t246.5 -42q168 0 296 80.5t190 245.5l20 -2l-33 -238q-69 -46 -224.5 -84t-303.5 -38zM629 1731l213 -117l225 117l10 -13l-229 -215h-12l-218 215z" />
    <glyph glyph-name="ccaron" unicode="&#x10d;" horiz-adv-x="1087" 
d="M571 -20q-69 0 -137 19.5t-131.5 61t-112 100t-77.5 143.5t-29 185q0 148 75.5 274.5t205 200.5t282.5 74q128 0 226 -31.5t98 -72.5q0 -27 -34.5 -56.5t-82.5 -29.5q-31 0 -100.5 36t-216.5 124q-156 -32 -252.5 -150t-96.5 -299q0 -221 127.5 -355t331.5 -134
q118 0 206.5 49t172.5 145l16 -16q-216 -268 -471 -268zM317 1464l213 -143l226 143l14 -14l-233 -244h-13l-221 246z" />
    <glyph glyph-name="Dcaron" unicode="&#x10e;" horiz-adv-x="1470" 
d="M629 0h-516v23q31 8 47.5 26.5t25.5 68.5t9 142v914q0 92 -9 142t-25.5 68.5t-47.5 26.5v23h467q155 0 285.5 -37t222 -101.5t155 -152.5t94 -189t31.5 -213q1 -156 -51.5 -292t-147.5 -235.5t-234.5 -156.5t-305.5 -57zM635 29q292 0 448 169t156 482q0 119 -31.5 228
t-93.5 199.5t-148.5 157.5t-203.5 104.5t-252 37.5h-201v-1229q0 -79 26.5 -114t106.5 -35h193zM555 1731l213 -117l225 117l11 -13l-230 -215h-12l-217 215z" />
    <glyph glyph-name="dcaron" unicode="&#x10f;" horiz-adv-x="1193" 
d="M557 -20q-93 0 -178.5 36.5t-151 102t-104.5 165t-39 218.5q0 98 33.5 191t96 170t164 124.5t226.5 48.5q102 1 190.5 -32t153.5 -84v426q0 83 -9 125t-23.5 57.5t-49.5 30.5v18l174 76l15 -13v-1380q0 -92 9 -142t25.5 -68.5t47.5 -26.5v-23h-148q-41 0 -41 41v143
q-207 -204 -391 -204zM1257 1294q17 45 17 86q0 52 -31 109.5t-31 91.5q0 30 16 54t48 24q55 0 55 -107q0 -45 -15 -120.5t-42 -143.5zM186 578q0 -222 116.5 -371.5t305.5 -149.5q172 0 340 158v524q-16 96 -132 180.5t-251 84.5q-164 0 -271.5 -112t-107.5 -314z" />
    <glyph glyph-name="Dcroat" unicode="&#x110;" horiz-adv-x="1470" 
d="M629 0h-516v23q31 8 47.5 26.5t25.5 68.5t9 142v914q0 92 -9 142t-25.5 68.5t-47.5 26.5v23h467q155 0 285.5 -37t222 -101.5t155 -152.5t94 -189t31.5 -213q1 -156 -51.5 -292t-147.5 -235.5t-234.5 -156.5t-305.5 -57zM635 29q292 0 448 169t156 482q0 119 -31.5 228
t-93.5 199.5t-148.5 157.5t-203.5 104.5t-252 37.5h-201v-1229q0 -79 26.5 -114t106.5 -35h193zM61 795h498h-498z" />
    <glyph glyph-name="dcroat" unicode="&#x111;" horiz-adv-x="1193" 
d="M557 -20q-93 0 -178.5 36.5t-151 102t-104.5 165t-39 218.5q0 98 33.5 191t96 170t164 124.5t226.5 48.5q102 1 190.5 -32t153.5 -84v426q0 83 -9 125t-23.5 57.5t-49.5 30.5v18l174 76l15 -13v-1380q0 -92 9 -142t25.5 -68.5t47.5 -26.5v-23h-148q-41 0 -41 41v143
q-207 -204 -391 -204zM186 578q0 -222 116.5 -371.5t305.5 -149.5q172 0 340 158v524q-16 96 -132 180.5t-251 84.5q-164 0 -271.5 -112t-107.5 -314zM662 1188h477h-477z" />
    <glyph glyph-name="Emacron" unicode="&#x112;" horiz-adv-x="1193" 
d="M1094 0h-981v23q31 8 47.5 26.5t25.5 68.5t9 142v914q0 92 -9 142t-25.5 68.5t-47.5 26.5v23h919l25 -244l-19 -4q-46 118 -132.5 169.5t-227.5 51.5h-369v-631h336q103 0 162.5 16t81.5 40.5t31 66.5h22v-272h-22q-9 42 -31 66.5t-81.5 40.5t-162.5 16h-336v-641
q0 -82 82 -82h342q144 0 228 48t133 173l18 -4zM305 1606l-2 4l21 28q11 17 30 17h500l2 -4l-20 -29q-11 -16 -31 -16h-500z" />
    <glyph glyph-name="emacron" unicode="&#x113;" horiz-adv-x="1107" 
d="M571 -20q-69 0 -137 19.5t-131.5 61t-112 100t-77.5 143.5t-29 185q0 237 154.5 393t386.5 156q175 0 283 -98t116 -258h-823q-13 -63 -13 -123q0 -221 127.5 -355t331.5 -134q118 0 206.5 49t172.5 145l16 -16q-216 -268 -471 -268zM305 1196l-2 4l21 29q11 16 30 16
h500l2 -4l-20 -29q-11 -16 -31 -16h-500zM205 707h704q-5 33 -20 70t-44.5 78.5t-68.5 73.5t-97.5 53.5t-125.5 21.5q-131 0 -222.5 -79.5t-125.5 -217.5z" />
    <glyph glyph-name="Edotaccent" unicode="&#x116;" horiz-adv-x="1193" 
d="M1094 0h-981v23q31 8 47.5 26.5t25.5 68.5t9 142v914q0 92 -9 142t-25.5 68.5t-47.5 26.5v23h919l25 -244l-19 -4q-46 118 -132.5 169.5t-227.5 51.5h-369v-631h336q103 0 162.5 16t81.5 40.5t31 66.5h22v-272h-22q-9 42 -31 66.5t-81.5 40.5t-162.5 16h-336v-641
q0 -82 82 -82h342q144 0 228 48t133 173l18 -4zM578 1634q-35 0 -59.5 24.5t-24.5 59.5t24.5 59.5t59.5 24.5q36 0 60 -24t24 -60q0 -35 -24.5 -59.5t-59.5 -24.5z" />
    <glyph glyph-name="edotaccent" unicode="&#x117;" horiz-adv-x="1107" 
d="M571 -20q-69 0 -137 19.5t-131.5 61t-112 100t-77.5 143.5t-29 185q0 237 154.5 393t386.5 156q175 0 283 -98t116 -258h-823q-13 -63 -13 -123q0 -221 127.5 -355t331.5 -134q118 0 206.5 49t172.5 145l16 -16q-216 -268 -471 -268zM578 1225q-35 0 -59.5 24.5
t-24.5 59.5t24.5 59.5t59.5 24.5q36 0 60 -24t24 -60q0 -35 -24.5 -59.5t-59.5 -24.5zM205 707h704q-5 33 -20 70t-44.5 78.5t-68.5 73.5t-97.5 53.5t-125.5 21.5q-131 0 -222.5 -79.5t-125.5 -217.5z" />
    <glyph glyph-name="Eogonek" unicode="&#x118;" horiz-adv-x="1193" 
d="M1094 0h-82q-60 -58 -87.5 -104t-27.5 -95q0 -102 115 -102q53 0 104 33l10 -8l-47 -89q-34 -24 -94 -24q-64 0 -103.5 36.5t-39.5 92.5q0 122 141 260h-870v23q31 8 47.5 26.5t25.5 68.5t9 142v914q0 92 -9 142t-25.5 68.5t-47.5 26.5v23h919l25 -244l-19 -4
q-46 118 -132.5 169.5t-227.5 51.5h-369v-631h336q103 0 162.5 16t81.5 40.5t31 66.5h22v-272h-22q-9 42 -31 66.5t-81.5 40.5t-162.5 16h-336v-641q0 -82 82 -82h342q144 0 228 48t133 173l18 -4z" />
    <glyph glyph-name="eogonek" unicode="&#x119;" horiz-adv-x="1107" 
d="M571 -20q-69 0 -137 19.5t-131.5 61t-112 100t-77.5 143.5t-29 185q0 237 154.5 393t386.5 156q175 0 283 -98t116 -258h-823q-13 -63 -13 -123q0 -221 127.5 -355t331.5 -134q118 0 206.5 49t172.5 145l16 -16q-126 -157 -268 -223q-74 -69 -107.5 -119.5t-33.5 -104.5
q0 -102 115 -102q53 0 104 33l10 -8l-47 -89q-34 -24 -94 -24q-64 0 -103.5 36.5t-39.5 92.5q0 125 147 266q-80 -26 -154 -26zM205 707h704q-5 33 -20 70t-44.5 78.5t-68.5 73.5t-97.5 53.5t-125.5 21.5q-131 0 -222.5 -79.5t-125.5 -217.5z" />
    <glyph glyph-name="Ecaron" unicode="&#x11a;" horiz-adv-x="1193" 
d="M1094 0h-981v23q31 8 47.5 26.5t25.5 68.5t9 142v914q0 92 -9 142t-25.5 68.5t-47.5 26.5v23h919l25 -244l-19 -4q-46 118 -132.5 169.5t-227.5 51.5h-369v-631h336q103 0 162.5 16t81.5 40.5t31 66.5h22v-272h-22q-9 42 -31 66.5t-81.5 40.5t-162.5 16h-336v-641
q0 -82 82 -82h342q144 0 228 48t133 173l18 -4zM358 1731l213 -117l226 117l10 -13l-229 -215h-13l-217 215z" />
    <glyph glyph-name="ecaron" unicode="&#x11b;" horiz-adv-x="1107" 
d="M571 -20q-69 0 -137 19.5t-131.5 61t-112 100t-77.5 143.5t-29 185q0 237 154.5 393t386.5 156q175 0 283 -98t116 -258h-823q-13 -63 -13 -123q0 -221 127.5 -355t331.5 -134q118 0 206.5 49t172.5 145l16 -16q-216 -268 -471 -268zM358 1464l213 -143l226 143l14 -14
l-233 -244h-13l-221 246zM205 707h704q-5 33 -20 70t-44.5 78.5t-68.5 73.5t-97.5 53.5t-125.5 21.5q-131 0 -222.5 -79.5t-125.5 -217.5z" />
    <glyph glyph-name="Gbreve" unicode="&#x11e;" horiz-adv-x="1492" 
d="M838 -20q-334 0 -535 193.5t-201 516.5q0 213 92.5 386.5t257.5 272.5t369 99q159 0 286 -38t185 -75l8 -211l-16 -4q-27 56 -69.5 105.5t-103.5 93t-146.5 69t-184.5 25.5q-248 0 -406 -163.5t-161 -446.5q-1 -117 27.5 -231t86.5 -215t138.5 -178t192 -122t237.5 -45
t234 65t149 148l-4 236q-2 73 -21.5 104.5t-83.5 44.5v23h215v-393q-64 -104 -217.5 -182t-328.5 -78zM862 1513q-75 0 -123 49t-98 162l14 7q38 -62 83 -93.5t124 -31.5t125 32t82 93l12 -7q-50 -114 -97.5 -162.5t-121.5 -48.5z" />
    <glyph glyph-name="gbreve" unicode="&#x11f;" horiz-adv-x="1048" 
d="M373 -567q-96 0 -172 27t-124 86.5t-48 144.5q0 100 73.5 184t214.5 172q-161 34 -161 146q0 16 4 31t14.5 29.5t17.5 24t25 24t24 19.5t28 20t24 17q-172 93 -172 299q0 104 57 193t147.5 138.5t188.5 49.5q76 0 150 -24q14 21 28 35q101 112 250 112q46 0 70 -12
t24 -31q0 -27 -31 -53.5t-75 -26.5t-176 35q-42 -29 -68 -67q97 -38 158 -119.5t61 -204.5q0 -87 -37 -161.5t-95.5 -121t-126 -72.5t-132.5 -26q-108 0 -199 45q-8 -6 -25.5 -18.5t-23.5 -17t-17 -14.5t-14.5 -17t-6.5 -17.5t-3 -21.5q3 -91 234 -103l239 -14
q60 -3 97.5 -7t81.5 -12.5t70.5 -22.5t50 -35t34 -53t10.5 -75q0 -118 -105 -232.5t-261 -183.5t-303 -69zM549 332q119 0 185.5 79.5t66.5 202.5q0 94 -39.5 184.5t-114 151t-164.5 60.5q-122 0 -189 -79.5t-67 -207.5q0 -97 40.5 -186.5t115.5 -147t166 -57.5zM535 1165
q-75 0 -124.5 51.5t-121.5 188.5l18 8q49 -86 96.5 -119.5t131.5 -33.5t132 33.5t95 119.5l16 -8q-72 -138 -120.5 -189t-122.5 -51zM133 -262q0 -105 83.5 -176.5t242.5 -71.5q116 0 238 53.5t203 141t81 176.5q0 38 -14.5 65t-37.5 43t-64 26.5t-80 15t-99 7.5l-242 15
q-65 4 -94 10q-217 -134 -217 -305z" />
    <glyph glyph-name="Gdotaccent" unicode="&#x120;" horiz-adv-x="1492" 
d="M838 -20q-334 0 -535 193.5t-201 516.5q0 213 92.5 386.5t257.5 272.5t369 99q159 0 286 -38t185 -75l8 -211l-16 -4q-27 56 -69.5 105.5t-103.5 93t-146.5 69t-184.5 25.5q-248 0 -406 -163.5t-161 -446.5q-1 -117 27.5 -231t86.5 -215t138.5 -178t192 -122t237.5 -45
t234 65t149 148l-4 236q-2 73 -21.5 104.5t-83.5 44.5v23h215v-393q-64 -104 -217.5 -182t-328.5 -78zM862 1634q-35 0 -59.5 24.5t-24.5 59.5t24.5 59.5t59.5 24.5q36 0 60 -24t24 -60q0 -35 -24.5 -59.5t-59.5 -24.5z" />
    <glyph glyph-name="gdotaccent" unicode="&#x121;" horiz-adv-x="1048" 
d="M373 -567q-96 0 -172 27t-124 86.5t-48 144.5q0 100 73.5 184t214.5 172q-161 34 -161 146q0 16 4 31t14.5 29.5t17.5 24t25 24t24 19.5t28 20t24 17q-172 93 -172 299q0 104 57 193t147.5 138.5t188.5 49.5q76 0 150 -24q14 21 28 35q101 112 250 112q46 0 70 -12
t24 -31q0 -27 -31 -53.5t-75 -26.5t-176 35q-42 -29 -68 -67q97 -38 158 -119.5t61 -204.5q0 -87 -37 -161.5t-95.5 -121t-126 -72.5t-132.5 -26q-108 0 -199 45q-8 -6 -25.5 -18.5t-23.5 -17t-17 -14.5t-14.5 -17t-6.5 -17.5t-3 -21.5q3 -91 234 -103l239 -14
q60 -3 97.5 -7t81.5 -12.5t70.5 -22.5t50 -35t34 -53t10.5 -75q0 -118 -105 -232.5t-261 -183.5t-303 -69zM549 332q119 0 185.5 79.5t66.5 202.5q0 94 -39.5 184.5t-114 151t-164.5 60.5q-122 0 -189 -79.5t-67 -207.5q0 -97 40.5 -186.5t115.5 -147t166 -57.5zM535 1225
q-35 0 -59.5 24.5t-24.5 59.5t24.5 59.5t59.5 24.5q36 0 59.5 -24t23.5 -60q0 -35 -24 -59.5t-59 -24.5zM133 -262q0 -105 83.5 -176.5t242.5 -71.5q116 0 238 53.5t203 141t81 176.5q0 38 -14.5 65t-37.5 43t-64 26.5t-80 15t-99 7.5l-242 15q-65 4 -94 10
q-217 -134 -217 -305z" />
    <glyph glyph-name="uni0122" unicode="&#x122;" horiz-adv-x="1492" 
d="M838 -20q-334 0 -535 193.5t-201 516.5q0 213 92.5 386.5t257.5 272.5t369 99q159 0 286 -38t185 -75l8 -211l-16 -4q-27 56 -69.5 105.5t-103.5 93t-146.5 69t-184.5 25.5q-248 0 -406 -163.5t-161 -446.5q-1 -117 27.5 -231t86.5 -215t138.5 -178t192 -122t237.5 -45
t234 65t149 148l-4 236q-2 73 -21.5 104.5t-83.5 44.5v23h215v-393q-64 -104 -217.5 -182t-328.5 -78zM778 -430q122 64 125 197q-14 -11 -37 -11q-30 0 -50.5 21t-20.5 51q0 34 22.5 56t56.5 22q43 0 68 -33.5t23 -85.5q-1 -78 -51.5 -141.5t-127.5 -91.5z" />
    <glyph glyph-name="uni0123" unicode="&#x123;" horiz-adv-x="1048" 
d="M373 -567q-96 0 -172 27t-124 86.5t-48 144.5q0 100 73.5 184t214.5 172q-161 34 -161 146q0 16 4 31t14.5 29.5t17.5 24t25 24t24 19.5t28 20t24 17q-172 93 -172 299q0 104 57 193t147.5 138.5t188.5 49.5q76 0 150 -24q14 21 28 35q101 112 250 112q46 0 70 -12
t24 -31q0 -27 -31 -53.5t-75 -26.5t-176 35q-42 -29 -68 -67q97 -38 158 -119.5t61 -204.5q0 -87 -37 -161.5t-95.5 -121t-126 -72.5t-132.5 -26q-108 0 -199 45q-8 -6 -25.5 -18.5t-23.5 -17t-17 -14.5t-14.5 -17t-6.5 -17.5t-3 -21.5q3 -91 234 -103l239 -14
q60 -3 97.5 -7t81.5 -12.5t70.5 -22.5t50 -35t34 -53t10.5 -75q0 -118 -105 -232.5t-261 -183.5t-303 -69zM549 332q119 0 185.5 79.5t66.5 202.5q0 94 -39.5 184.5t-114 151t-164.5 60.5q-122 0 -189 -79.5t-67 -207.5q0 -97 40.5 -186.5t115.5 -147t166 -57.5zM547 1151
q-43 0 -67.5 33.5t-22.5 85.5q1 78 51 141.5t127 91.5l8 -16q-122 -64 -125 -197q13 10 37 10q30 0 51 -20.5t21 -50.5q0 -34 -23 -56t-57 -22zM133 -262q0 -105 83.5 -176.5t242.5 -71.5q116 0 238 53.5t203 141t81 176.5q0 38 -14.5 65t-37.5 43t-64 26.5t-80 15t-99 7.5
l-242 15q-65 4 -94 10q-217 -134 -217 -305z" />
    <glyph glyph-name="Hbar" unicode="&#x126;" horiz-adv-x="1470" 
d="M113 0v23q31 8 47.5 26.5t25.5 68.5t9 142v914q0 92 -9 142t-25.5 68.5t-47.5 26.5v23h278v-23q-31 -8 -47.5 -26.5t-25.5 -68.5t-9 -142v-400h852v400q0 92 -9 142t-25.5 68.5t-47.5 26.5v23h279v-23q-31 -8 -47.5 -26.5t-25.5 -68.5t-9 -142v-914q0 -92 9 -142
t25.5 -68.5t47.5 -26.5v-23h-279v23q31 8 47.5 26.5t25.5 68.5t9 142v485h-852v-485q0 -92 9 -142t25.5 -68.5t47.5 -26.5v-23h-278zM78 1098h1296h-1296z" />
    <glyph glyph-name="hbar" unicode="&#x127;" horiz-adv-x="1179" 
d="M72 0v23q31 8 47.5 26.5t25.5 68.5t9 142v1086q0 83 -9 125t-23.5 57.5t-49.5 30.5v18l174 76l14 -13v-792q103 84 219.5 137t227.5 53q161 0 247 -97t86 -279v-402q0 -92 9 -142t25.5 -68.5t47.5 -26.5v-23h-270v23q31 8 47.5 26.5t25.5 68.5t9 142v358q0 184 -77 275.5
t-236 91.5q-165 0 -361 -168v-557q0 -92 9 -142t25.5 -68.5t47.5 -26.5v-23h-270zM51 1188h477h-477z" />
    <glyph glyph-name="Imacron" unicode="&#x12a;" horiz-adv-x="503" 
d="M113 0v23q31 8 47.5 26.5t25.5 68.5t9 142v914q0 92 -9 142t-25.5 68.5t-47.5 26.5v23h278v-23q-31 -8 -47.5 -26.5t-25.5 -68.5t-9 -142v-914q0 -92 9 -142t25.5 -68.5t47.5 -26.5v-23h-278zM-20 1606l-3 4l21 28q11 17 31 17h499l2 -4l-20 -29q-11 -16 -31 -16h-499z
" />
    <glyph glyph-name="imacron" unicode="&#x12b;" horiz-adv-x="428" 
d="M76 0v23q31 8 47.5 26.5t25.5 68.5t9 142v471q0 83 -9 125t-23.5 57.5t-49.5 30.5v19l174 75l14 -12v-766q0 -92 9 -142t25.5 -68.5t47.5 -26.5v-23h-270zM-74 1196l-2 4l21 29q11 16 30 16h500l2 -4l-20 -29q-11 -16 -31 -16h-500z" />
    <glyph glyph-name="Iogonek" unicode="&#x12e;" horiz-adv-x="503" 
d="M258 0q-72 -67 -104.5 -116.5t-32.5 -102.5q0 -103 115 -103q53 0 104 33l10 -8l-47 -88q-36 -25 -94 -25q-64 0 -103.5 36.5t-39.5 92.5q0 134 163 281h-116v23q31 8 47.5 26.5t25.5 68.5t9 142v914q0 92 -9 142t-25.5 68.5t-47.5 26.5v23h278v-23q-31 -8 -47.5 -26.5
t-25.5 -68.5t-9 -142v-914q0 -92 9 -142t25.5 -68.5t47.5 -26.5v-23h-133z" />
    <glyph glyph-name="iogonek" unicode="&#x12f;" horiz-adv-x="428" 
d="M199 1225q-35 0 -59.5 24.5t-24.5 59.5t24.5 59.5t59.5 24.5q36 0 60 -24t24 -60q0 -35 -24.5 -59.5t-59.5 -24.5zM213 -389q-64 0 -103.5 36.5t-39.5 92.5q0 122 141 260h-135v23q31 8 47.5 26.5t25.5 68.5t9 142v471q0 83 -9 125t-23.5 57.5t-49.5 30.5v19l174 75
l14 -12v-766q0 -92 9 -142t25.5 -68.5t47.5 -26.5v-23h-106q-60 -58 -87.5 -104t-27.5 -95q0 -102 115 -102q53 0 104 33l10 -8l-47 -89q-34 -24 -94 -24z" />
    <glyph glyph-name="Idotaccent" unicode="&#x130;" horiz-adv-x="503" 
d="M113 0v23q31 8 47.5 26.5t25.5 68.5t9 142v914q0 92 -9 142t-25.5 68.5t-47.5 26.5v23h278v-23q-31 -8 -47.5 -26.5t-25.5 -68.5t-9 -142v-914q0 -92 9 -142t25.5 -68.5t47.5 -26.5v-23h-278zM252 1528q-35 0 -59.5 24.5t-24.5 59.5t24.5 59.5t59.5 24.5q36 0 60 -24
t24 -60q0 -35 -24.5 -59.5t-59.5 -24.5z" />
    <glyph glyph-name="dotlessi" unicode="&#x131;" horiz-adv-x="428" 
d="M76 0v23q31 8 47.5 26.5t25.5 68.5t9 142v471q0 83 -9 125t-23.5 57.5t-49.5 30.5v19l174 75l14 -12v-766q0 -92 9 -142t25.5 -68.5t47.5 -26.5v-23h-270z" />
    <glyph glyph-name="IJ" unicode="&#x132;" horiz-adv-x="1050" 
d="M113 0v23q31 8 47.5 26.5t25.5 68.5t9 142v914q0 92 -9 142t-25.5 68.5t-47.5 26.5v23h278v-23q-31 -8 -47.5 -26.5t-25.5 -68.5t-9 -142v-914q0 -92 9 -142t25.5 -68.5t47.5 -26.5v-23h-278zM406 -246q-36 0 -51 6.5t-15 26.5q0 30 27.5 54t70.5 24q39 0 178 -21
q26 15 45.5 33t39.5 52t31 91t11 134v1020q0 93 -9 142.5t-25 68t-47 26.5v23h276v-23q-31 -8 -47.5 -26.5t-25.5 -68.5t-9 -142v-877q0 -128 -37.5 -233t-101 -171.5t-143.5 -102.5t-168 -36z" />
    <glyph glyph-name="ij" unicode="&#x133;" horiz-adv-x="899" 
d="M76 0v23q31 8 47.5 26.5t25.5 68.5t9 142v471q0 83 -9 125t-23.5 57.5t-49.5 30.5v19l174 75l14 -12v-766q0 -92 9 -142t25.5 -68.5t47.5 -26.5v-23h-270zM199 1225q-35 0 -59.5 24.5t-24.5 59.5t24.5 59.5t59.5 24.5q36 0 60 -24t24 -60q0 -35 -24.5 -59.5t-59.5 -24.5z
M285 -567q-68 0 -68 37q0 29 29.5 60.5t72.5 31.5q22 0 90 -8.5t91 -10.5q72 53 103.5 135.5t31.5 210.5v842q0 83 -9 125t-23.5 57.5t-49.5 30.5v19l174 75l14 -12v-1020q0 -111 -32.5 -207.5t-83 -162t-112.5 -112.5t-120.5 -69t-107.5 -22zM668 1225q-35 0 -59.5 24.5
t-24.5 59.5t24.5 59.5t59.5 24.5q36 0 60 -24t24 -60q0 -35 -24.5 -59.5t-59.5 -24.5z" />
    <glyph glyph-name="uni0136" unicode="&#x136;" horiz-adv-x="1300" 
d="M113 0v23q31 8 47.5 26.5t25.5 68.5t9 142v914q0 92 -9 142t-25.5 68.5t-47.5 26.5v23h278v-23q-31 -8 -47.5 -26.5t-25.5 -68.5t-9 -142v-564l578 592q196 199 90 217v15h246v-23q-31 -9 -45 -14t-49.5 -21.5t-75 -48.5t-86.5 -80l-437 -448l41 4q53 7 98 2.5t79 -11
t64 -26t52.5 -41.5t45.5 -58.5t43 -77t43.5 -97t48.5 -117.5q12 -29 18 -45q64 -159 114.5 -232t98.5 -73q17 0 41 4v-23q-47 -14 -107 -14q-27 0 -50.5 9t-41 19.5t-37.5 37.5t-31 43.5t-30.5 59.5t-28 62.5t-30.5 73.5q-95 231 -124 288q-62 119 -136 158q-62 32 -158 27
l-41 -2l-193 -197v-313q0 -92 9 -142t25.5 -68.5t47.5 -26.5v-23h-278zM539 -430q122 64 125 197q-14 -11 -37 -11q-30 0 -51 21t-21 51q0 34 23 56t57 22q43 0 67.5 -33.5t22.5 -85.5q-1 -78 -51 -141.5t-127 -91.5z" />
    <glyph glyph-name="uni0137" unicode="&#x137;" horiz-adv-x="1064" 
d="M94 0v23q31 8 47.5 26.5t25.5 68.5t9 142v1086q0 83 -9 125t-23.5 57.5t-49.5 30.5v18l174 76l15 -13v-1212l389 365q194 180 119 221v10h137h86v-23q-4 -1 -17.5 -5t-18.5 -5.5t-18 -6.5t-20.5 -8.5t-21 -10.5t-24.5 -14t-26.5 -18t-30.5 -23t-34 -28.5t-39 -35.5
l-166 -156l233 -422q67 -121 118.5 -180.5t113.5 -67.5v-20h-102q-70 0 -112 47t-126 199l-203 370l-237 -223v-133q0 -92 9 -142t25.5 -68.5t47.5 -26.5v-23h-271zM469 -430q122 64 125 197q-14 -11 -37 -11q-30 0 -51 21t-21 51q0 34 23 56t57 22q43 0 67.5 -33.5
t22.5 -85.5q-1 -78 -51 -141.5t-127 -91.5z" />
    <glyph glyph-name="Lacute" unicode="&#x139;" horiz-adv-x="1099" 
d="M1040 0h-927v23q31 8 47.5 26.5t25.5 68.5t9 142v914q0 92 -9 142t-25.5 68.5t-47.5 26.5v23h278v-23q-31 -8 -47.5 -26.5t-25.5 -68.5t-9 -142v-1065q0 -82 82 -82h328q135 0 201.5 39.5t113.5 140.5l19 -4zM422 1622l-299 -106l-8 10l202 153q44 33 74 33
q25 0 51.5 -16t26.5 -33q0 -24 -47 -41z" />
    <glyph glyph-name="lacute" unicode="&#x13a;" horiz-adv-x="466" 
d="M94 0v23q31 8 47.5 26.5t25.5 68.5t9 142v1086q0 83 -9 125t-23.5 57.5t-49.5 30.5v18l174 76l15 -13v-1380q0 -92 9 -142t25.5 -68.5t47.5 -26.5v-23h-271zM399 1948l-297 -148l-8 12l207 191q39 37 70 37q26 0 50.5 -14t24.5 -31q0 -23 -47 -47z" />
    <glyph glyph-name="uni013B" unicode="&#x13b;" horiz-adv-x="1099" 
d="M1040 0h-927v23q31 8 47.5 26.5t25.5 68.5t9 142v914q0 92 -9 142t-25.5 68.5t-47.5 26.5v23h278v-23q-31 -8 -47.5 -26.5t-25.5 -68.5t-9 -142v-1065q0 -82 82 -82h328q135 0 201.5 39.5t113.5 140.5l19 -4zM440 -430q122 64 125 197q-14 -11 -37 -11q-30 0 -50.5 21
t-20.5 51q0 34 23 56t57 22q43 0 67.5 -33.5t22.5 -85.5q-1 -78 -51 -141.5t-127 -91.5z" />
    <glyph glyph-name="uni013C" unicode="&#x13c;" horiz-adv-x="466" 
d="M94 0v23q31 8 47.5 26.5t25.5 68.5t9 142v1086q0 83 -9 125t-23.5 57.5t-49.5 30.5v18l174 76l15 -13v-1380q0 -92 9 -142t25.5 -68.5t47.5 -26.5v-23h-271zM147 -430q122 64 125 197q-14 -11 -36 -11q-30 0 -51 21t-21 51q0 34 23 56t57 22q43 0 67.5 -33.5t22.5 -85.5
q-1 -78 -51 -141.5t-127 -91.5z" />
    <glyph glyph-name="Lcaron" unicode="&#x13d;" horiz-adv-x="1099" 
d="M1040 0h-927v23q31 8 47.5 26.5t25.5 68.5t9 142v914q0 92 -9 142t-25.5 68.5t-47.5 26.5v23h278v-23q-31 -8 -47.5 -26.5t-25.5 -68.5t-9 -142v-1065q0 -82 82 -82h328q135 0 201.5 39.5t113.5 140.5l19 -4zM606 1090q17 45 17 86q0 52 -31 109t-31 91q0 30 16 54t48 24
q55 0 55 -106q0 -46 -15 -121.5t-42 -143.5z" />
    <glyph glyph-name="lcaron" unicode="&#x13e;" horiz-adv-x="466" 
d="M94 0v23q31 8 47.5 26.5t25.5 68.5t9 142v1086q0 83 -9 125t-23.5 57.5t-49.5 30.5v18l174 76l15 -13v-1380q0 -92 9 -142t25.5 -68.5t47.5 -26.5v-23h-271zM440 1294q17 45 17 86q0 52 -31 109.5t-31 91.5q0 30 16 54t48 24q55 0 55 -107q0 -45 -15 -120.5t-42 -143.5z
" />
    <glyph glyph-name="Lslash" unicode="&#x141;" horiz-adv-x="1099" 
d="M1040 0h-927v23q31 8 47.5 26.5t25.5 68.5t9 142v914q0 92 -9 142t-25.5 68.5t-47.5 26.5v23h278v-23q-31 -8 -47.5 -26.5t-25.5 -68.5t-9 -142v-1065q0 -82 82 -82h328q135 0 201.5 39.5t113.5 140.5l19 -4zM74 623l471 198z" />
    <glyph glyph-name="lslash" unicode="&#x142;" horiz-adv-x="466" 
d="M94 0v23q31 8 47.5 26.5t25.5 68.5t9 142v1086q0 83 -9 125t-23.5 57.5t-49.5 30.5v18l174 76l15 -13v-1380q0 -92 9 -142t25.5 -68.5t47.5 -26.5v-23h-271zM6 653l447 209z" />
    <glyph glyph-name="Nacute" unicode="&#x143;" horiz-adv-x="1396" 
d="M1196 -16l-967 1300v-987q0 -103 16 -162t40.5 -81t66.5 -31v-23h-235v23q31 8 47.5 26.5t25.5 68.5t9 142v914q0 134 -23.5 180t-83.5 57v23h170l930 -1248v951q0 103 -16 162t-40.5 81t-66.5 31v23h236v-23q-31 -8 -47.5 -26.5t-25.5 -68.5t-9 -142v-1190h-27z
M881 1622l-299 -106l-9 10l203 153q44 33 74 33q25 0 51.5 -16t26.5 -33q0 -24 -47 -41z" />
    <glyph glyph-name="nacute" unicode="&#x144;" horiz-adv-x="1183" 
d="M76 0v23q31 8 47.5 26.5t25.5 68.5t9 142v471q0 83 -9 125t-23.5 57.5t-49.5 30.5v19l174 75l14 -12v-178q103 84 219.5 137t227.5 53q161 0 247 -97t86 -279v-402q0 -92 9 -142t25.5 -68.5t47.5 -26.5v-23h-270v23q31 8 47.5 26.5t25.5 68.5t9 142v358q0 184 -77 275.5
t-236 91.5q-165 0 -361 -168v-557q0 -92 9 -142t25.5 -68.5t47.5 -26.5v-23h-270zM756 1333l-297 -147l-8 12l206 191q38 36 70 36q26 0 51 -14t25 -31q0 -23 -47 -47z" />
    <glyph glyph-name="uni0145" unicode="&#x145;" horiz-adv-x="1396" 
d="M1196 -16l-967 1300v-987q0 -103 16 -162t40.5 -81t66.5 -31v-23h-235v23q31 8 47.5 26.5t25.5 68.5t9 142v914q0 134 -23.5 180t-83.5 57v23h170l930 -1248v951q0 103 -16 162t-40.5 81t-66.5 31v23h236v-23q-31 -8 -47.5 -26.5t-25.5 -68.5t-9 -142v-1190h-27z
M569 -430q122 64 125 197q-14 -11 -37 -11q-29 0 -50 21t-21 51q0 34 23 56t57 22q43 0 67.5 -33.5t22.5 -85.5q-1 -78 -51 -141.5t-127 -91.5z" />
    <glyph glyph-name="uni0146" unicode="&#x146;" horiz-adv-x="1183" 
d="M76 0v23q31 8 47.5 26.5t25.5 68.5t9 142v471q0 83 -9 125t-23.5 57.5t-49.5 30.5v19l174 75l14 -12v-178q103 84 219.5 137t227.5 53q161 0 247 -97t86 -279v-402q0 -92 9 -142t25.5 -68.5t47.5 -26.5v-23h-270v23q31 8 47.5 26.5t25.5 68.5t9 142v358q0 184 -77 275.5
t-236 91.5q-165 0 -361 -168v-557q0 -92 9 -142t25.5 -68.5t47.5 -26.5v-23h-270zM504 -430q122 64 125 197q-14 -11 -37 -11q-30 0 -51 21t-21 51q0 34 23 56t57 22q43 0 67.5 -33.5t22.5 -85.5q-1 -78 -51 -141.5t-127 -91.5z" />
    <glyph glyph-name="Ncaron" unicode="&#x147;" horiz-adv-x="1396" 
d="M1196 -16l-967 1300v-987q0 -103 16 -162t40.5 -81t66.5 -31v-23h-235v23q31 8 47.5 26.5t25.5 68.5t9 142v914q0 134 -23.5 180t-83.5 57v23h170l930 -1248v951q0 103 -16 162t-40.5 81t-66.5 31v23h236v-23q-31 -8 -47.5 -26.5t-25.5 -68.5t-9 -142v-1190h-27z
M492 1731l213 -117l225 117l10 -13l-229 -215h-13l-217 215z" />
    <glyph glyph-name="ncaron" unicode="&#x148;" horiz-adv-x="1183" 
d="M76 0v23q31 8 47.5 26.5t25.5 68.5t9 142v471q0 83 -9 125t-23.5 57.5t-49.5 30.5v19l174 75l14 -12v-178q103 84 219.5 137t227.5 53q161 0 247 -97t86 -279v-402q0 -92 9 -142t25.5 -68.5t47.5 -26.5v-23h-270v23q31 8 47.5 26.5t25.5 68.5t9 142v358q0 184 -77 275.5
t-236 91.5q-165 0 -361 -168v-557q0 -92 9 -142t25.5 -68.5t47.5 -26.5v-23h-270zM369 1464l213 -143l225 143l14 -14l-233 -244h-13l-221 246z" />
    <glyph glyph-name="Omacron" unicode="&#x14c;" horiz-adv-x="1648" 
d="M825 -20q-107 0 -209 27.5t-195.5 87t-164 144t-112.5 207.5t-42 269q0 215 89.5 382t254.5 260t379 93q106 0 208 -28t195 -88t163.5 -145.5t112.5 -208.5t42 -269q0 -149 -42 -273t-112.5 -207t-164.5 -141t-195 -84t-207 -26zM879 18q256 0 407.5 161.5t151.5 424.5
q0 208 -87 393t-243 299.5t-342 114.5q-169 0 -295.5 -76t-192 -208.5t-65.5 -301.5q0 -154 50.5 -300.5t137.5 -258.5t212.5 -180t265.5 -68zM539 1606l-2 4l20 28q11 17 31 17h499l3 -4l-21 -29q-11 -16 -31 -16h-499z" />
    <glyph glyph-name="omacron" unicode="&#x14d;" horiz-adv-x="1226" 
d="M610 -20q-98 0 -189.5 32.5t-168 95t-122.5 167t-46 235.5q0 150 73 272.5t193 189t260 66.5q98 0 189.5 -32t167.5 -94.5t122 -167t46 -236.5q0 -101 -31.5 -188.5t-84 -149t-120.5 -105t-141.5 -64.5t-147.5 -21zM662 18q173 0 272.5 115t99.5 293q0 80 -22 163
t-64.5 156.5t-98.5 132t-130 92.5t-154 34q-177 0 -276 -116t-99 -300q0 -105 36 -207.5t97 -183t150.5 -130t188.5 -49.5zM334 1196l-2 4l20 29q11 16 31 16h500l2 -4l-21 -29q-11 -16 -30 -16h-500z" />
    <glyph glyph-name="Ohungarumlaut" unicode="&#x150;" horiz-adv-x="1648" 
d="M825 -20q-107 0 -209 27.5t-195.5 87t-164 144t-112.5 207.5t-42 269q0 215 89.5 382t254.5 260t379 93q106 0 208 -28t195 -88t163.5 -145.5t112.5 -208.5t42 -269q0 -149 -42 -273t-112.5 -207t-164.5 -141t-195 -84t-207 -26zM879 18q256 0 407.5 161.5t151.5 424.5
q0 208 -87 393t-243 299.5t-342 114.5q-169 0 -295.5 -76t-192 -208.5t-65.5 -301.5q0 -154 50.5 -300.5t137.5 -258.5t212.5 -180t265.5 -68zM637 1524l-10 8l186 180q29 27 43 35t35 8q22 0 38.5 -9t16.5 -22q0 -22 -49 -49zM885 1524l-8 10l184 178q29 27 43 35t35 8
q22 0 38.5 -9t16.5 -22q0 -22 -49 -49z" />
    <glyph glyph-name="ohungarumlaut" unicode="&#x151;" horiz-adv-x="1226" 
d="M610 -20q-98 0 -189.5 32.5t-168 95t-122.5 167t-46 235.5q0 150 73 272.5t193 189t260 66.5q98 0 189.5 -32t167.5 -94.5t122 -167t46 -236.5q0 -101 -31.5 -188.5t-84 -149t-120.5 -105t-141.5 -64.5t-147.5 -21zM662 18q173 0 272.5 115t99.5 293q0 80 -22 163
t-64.5 156.5t-98.5 132t-130 92.5t-154 34q-177 0 -276 -116t-99 -300q0 -105 36 -207.5t97 -183t150.5 -130t188.5 -49.5zM565 1419q24 37 56 37q20 0 37.5 -7.5t17.5 -18.5q0 -16 -33 -46l-207 -198h-20zM813 1419q23 35 57 35q21 0 36.5 -6.5t15.5 -17.5q0 -16 -33 -46
l-207 -198h-20z" />
    <glyph glyph-name="OE" unicode="&#x152;" horiz-adv-x="2039" 
d="M842 -20q-112 0 -218 28t-201 86.5t-166 142.5t-113 203.5t-42 261.5q0 145 44.5 267.5t120.5 209.5t178.5 148.5t218.5 91t239 29.5q97 0 244 -14h780l12 -203l-18 -4q-47 101 -113.5 140.5t-201.5 39.5h-404v-612h357q103 0 162 16t81 40.5t31 66.5h22v-273h-22
q-9 42 -31 66.5t-81 40.5t-162 16h-357v-659q0 -82 82 -82h340q135 0 201.5 39.5t113.5 140.5l19 -4l-12 -203l-861 2q-121 -22 -243 -22zM891 29q106 0 150 27t44 89v1158q0 42 -76.5 70t-185.5 28q-174 0 -312.5 -70.5t-220 -206t-83.5 -315.5q-1 -116 32 -231t96 -213
t146.5 -174t190 -119t219.5 -43z" />
    <glyph glyph-name="oe" unicode="&#x153;" horiz-adv-x="2070" 
d="M598 -20q-76 0 -149.5 19.5t-139.5 61t-116 101t-79.5 146t-29.5 188.5q0 101 31.5 189t85.5 151.5t125 110t151.5 69t163.5 22.5q150 0 281.5 -80.5t189.5 -226.5q64 141 194.5 224t295.5 83q175 0 283 -98t116 -258h-823q-13 -63 -13 -123q0 -221 127.5 -355
t331.5 -134q118 0 206.5 49t172.5 145l16 -16q-216 -268 -471 -268q-91 0 -177.5 32.5t-161.5 104t-113 170.5q-46 -101 -130 -172.5t-177.5 -103t-190.5 -31.5zM649 20q182 0 290 113.5t108 319.5q0 101 -32 197t-90.5 173.5t-152 125t-205.5 46.5q-167 -2 -273.5 -112
t-107.5 -297q-1 -104 33 -206t94.5 -181.5t148.5 -129t187 -49.5zM1182 707h704q-5 33 -20 70t-44.5 78.5t-68.5 73.5t-97.5 53.5t-125.5 21.5q-131 0 -222.5 -79.5t-125.5 -217.5z" />
    <glyph glyph-name="Racute" unicode="&#x154;" horiz-adv-x="1239" 
d="M1157 -14q-31 0 -55.5 6.5t-45 23t-34 31.5t-30 47.5t-26 54.5t-28.5 68t-31 74q-14 32 -32 76.5t-29.5 72.5t-28 65t-29.5 60.5t-33 51t-40 45t-47.5 35t-58.5 27t-71 15.5t-87 6h-142v-485q0 -92 9 -142t25.5 -68.5t47.5 -26.5v-23h-278v23q31 8 47.5 26.5t25.5 68.5
t9 142v914q0 92 -9 142t-25.5 68.5t-47.5 26.5v23h376q279 0 408 -79t129 -233q0 -150 -109 -251t-303 -121q41 -6 76 -16t62 -20.5t52 -30t42 -33.5t36 -42.5t29.5 -45t27 -53.5t23.5 -55.5t24.5 -63.5t25.5 -66q65 -165 113.5 -236.5t97.5 -71.5q10 0 34 4v-20
q-33 -14 -100 -14zM526 774q178 0 275.5 79t97.5 224q0 330 -487 330q-29 0 -103 -4v-629h217zM700 1622l-299 -106l-8 10l203 153q44 33 74 33q25 0 51.5 -16t26.5 -33q0 -24 -48 -41z" />
    <glyph glyph-name="racute" unicode="&#x155;" horiz-adv-x="790" 
d="M76 0v23q31 8 47.5 26.5t25.5 68.5t9 142v471q0 83 -9 125t-23.5 57.5t-49.5 30.5v19l174 75l14 -12v-260q24 62 64 117.5t82 87.5q88 67 215 67q68 0 102.5 -14t34.5 -35q0 -34 -30.5 -66t-69.5 -32q-52 0 -244 51q-52 -32 -100 -117.5t-54 -156.5v-408q0 -92 9 -142
t25.5 -68.5t47.5 -26.5v-23h-270zM502 1333l-297 -147l-8 12l206 191q38 36 70 36q26 0 51 -14t25 -31q0 -23 -47 -47z" />
    <glyph glyph-name="uni0156" unicode="&#x156;" horiz-adv-x="1239" 
d="M1157 -14q-31 0 -55.5 6.5t-45 23t-34 31.5t-30 47.5t-26 54.5t-28.5 68t-31 74q-14 32 -32 76.5t-29.5 72.5t-28 65t-29.5 60.5t-33 51t-40 45t-47.5 35t-58.5 27t-71 15.5t-87 6h-142v-485q0 -92 9 -142t25.5 -68.5t47.5 -26.5v-23h-278v23q31 8 47.5 26.5t25.5 68.5
t9 142v914q0 92 -9 142t-25.5 68.5t-47.5 26.5v23h376q279 0 408 -79t129 -233q0 -150 -109 -251t-303 -121q41 -6 76 -16t62 -20.5t52 -30t42 -33.5t36 -42.5t29.5 -45t27 -53.5t23.5 -55.5t24.5 -63.5t25.5 -66q65 -165 113.5 -236.5t97.5 -71.5q10 0 34 4v-20
q-33 -14 -100 -14zM526 774q178 0 275.5 79t97.5 224q0 330 -487 330q-29 0 -103 -4v-629h217zM487 -430q122 64 125 197q-14 -11 -37 -11q-29 0 -50 21t-21 51q0 34 23 56t57 22q43 0 67.5 -33.5t22.5 -85.5q-1 -78 -51 -141.5t-127 -91.5z" />
    <glyph glyph-name="uni0157" unicode="&#x157;" horiz-adv-x="790" 
d="M76 0v23q31 8 47.5 26.5t25.5 68.5t9 142v471q0 83 -9 125t-23.5 57.5t-49.5 30.5v19l174 75l14 -12v-260q24 62 64 117.5t82 87.5q88 67 215 67q68 0 102.5 -14t34.5 -35q0 -34 -30.5 -66t-69.5 -32q-52 0 -244 51q-52 -32 -100 -117.5t-54 -156.5v-408q0 -92 9 -142
t25.5 -68.5t47.5 -26.5v-23h-270zM127 -430q122 64 125 197q-14 -11 -37 -11q-30 0 -51 21t-21 51q0 34 23 56t57 22q43 0 67.5 -33.5t22.5 -85.5q-1 -78 -51 -141.5t-127 -91.5z" />
    <glyph glyph-name="Rcaron" unicode="&#x158;" horiz-adv-x="1239" 
d="M1157 -14q-31 0 -55.5 6.5t-45 23t-34 31.5t-30 47.5t-26 54.5t-28.5 68t-31 74q-14 32 -32 76.5t-29.5 72.5t-28 65t-29.5 60.5t-33 51t-40 45t-47.5 35t-58.5 27t-71 15.5t-87 6h-142v-485q0 -92 9 -142t25.5 -68.5t47.5 -26.5v-23h-278v23q31 8 47.5 26.5t25.5 68.5
t9 142v914q0 92 -9 142t-25.5 68.5t-47.5 26.5v23h376q279 0 408 -79t129 -233q0 -150 -109 -251t-303 -121q41 -6 76 -16t62 -20.5t52 -30t42 -33.5t36 -42.5t29.5 -45t27 -53.5t23.5 -55.5t24.5 -63.5t25.5 -66q65 -165 113.5 -236.5t97.5 -71.5q10 0 34 4v-20
q-33 -14 -100 -14zM526 774q178 0 275.5 79t97.5 224q0 330 -487 330q-29 0 -103 -4v-629h217zM311 1731l213 -117l226 117l10 -13l-230 -215h-12l-217 215z" />
    <glyph glyph-name="rcaron" unicode="&#x159;" horiz-adv-x="790" 
d="M76 0v23q31 8 47.5 26.5t25.5 68.5t9 142v471q0 83 -9 125t-23.5 57.5t-49.5 30.5v19l174 75l14 -12v-260q24 62 64 117.5t82 87.5q88 67 215 67q68 0 102.5 -14t34.5 -35q0 -34 -30.5 -66t-69.5 -32q-52 0 -244 51q-52 -32 -100 -117.5t-54 -156.5v-408q0 -92 9 -142
t25.5 -68.5t47.5 -26.5v-23h-270zM115 1464l213 -143l225 143l14 -14l-233 -244h-12l-222 246z" />
    <glyph glyph-name="Sacute" unicode="&#x15a;" horiz-adv-x="1122" 
d="M582 -20q-148 0 -271.5 44t-204.5 101l-14 262l21 2q29 -81 66 -143.5t94.5 -118.5t143 -86.5t193.5 -30.5q141 0 239.5 82.5t98.5 204.5q0 43 -14.5 83t-35.5 70.5t-58 60.5t-68 50t-80.5 43.5t-80 36.5t-81.5 33q-217 86 -310 174t-93 229q0 168 129.5 269.5
t339.5 101.5q247 0 405 -102l9 -207l-17 -4q-23 47 -47 84t-62.5 75.5t-84 64t-111.5 42t-145 16.5q-135 0 -228.5 -74.5t-93.5 -209.5q0 -47 15 -88.5t45.5 -74.5t64 -59.5t82.5 -52t88 -42.5t94 -40l15 -6q70 -29 117 -50.5t100 -50.5t86.5 -58.5t62.5 -66.5t42.5 -81.5
t13.5 -97.5q0 -111 -64 -200t-170 -137t-231 -48zM725 1602l-299 -107l-8 10l203 154q44 33 73 33q25 0 51.5 -16.5t26.5 -33.5q0 -13 -10.5 -22t-36.5 -18z" />
    <glyph glyph-name="sacute" unicode="&#x15b;" horiz-adv-x="903" 
d="M473 -20q-122 -1 -223 27t-154 63l-14 229l16 4q61 -144 167.5 -217.5t248.5 -73.5q102 0 169 53.5t67 153.5q0 30 -9 56.5t-21.5 46t-37 38.5t-42.5 30.5t-52.5 25.5t-52.5 20.5t-56.5 19t-52.5 17.5q-144 48 -196 80q-111 66 -120 188q-1 12 -1 25q0 123 99 197.5
t247 74.5q186 0 321 -59l8 -193l-16 -4q-44 111 -136.5 171.5t-201.5 60.5q-114 0 -180 -49.5t-66 -139.5q0 -42 19 -78t45.5 -59.5t71 -46.5t77.5 -35t84 -28q11 -4 35 -11q41 -13 62.5 -20t60 -22.5t60 -28.5t49.5 -35t43 -46t25.5 -57t10.5 -71q0 -140 -101.5 -222.5
t-252.5 -84.5zM586 1333l-297 -147l-8 12l206 191q38 36 70 36q26 0 51 -14t25 -31q0 -23 -47 -47z" />
    <glyph glyph-name="Scedilla" unicode="&#x15e;" horiz-adv-x="1122" 
d="M582 -20h-15l-86 -115q115 21 177.5 -6.5t62.5 -89.5q0 -73 -77.5 -126t-166.5 -53q-42 0 -73 15.5t-31 36.5q0 14 15.5 25t29.5 11q12 0 55.5 -23.5t81.5 -23.5q45 0 77 24.5t32 63.5q0 40 -33.5 64t-104.5 24q-49 0 -110 -22l-10 12l139 183q-136 7 -249 49.5
t-190 95.5l-14 262l21 2q27 -77 62 -137.5t88 -115.5t130.5 -87t175.5 -37l2 2l11 -4h28q141 0 239.5 82.5t98.5 204.5q0 43 -14.5 83t-35.5 70.5t-58 60.5t-68 50t-80.5 43.5t-80 36.5t-81.5 33q-217 86 -310 174t-93 229q0 168 129.5 269.5t339.5 101.5q247 0 405 -102
l9 -207l-17 -4q-23 47 -47 84t-62.5 75.5t-84 64t-111.5 42t-145 16.5q-135 0 -228.5 -74.5t-93.5 -209.5q0 -47 15 -88.5t45.5 -74.5t64 -59.5t82.5 -52t88 -42.5t94 -40l15 -6q70 -29 117 -50.5t100 -50.5t86.5 -58.5t62.5 -66.5t42.5 -81.5t13.5 -97.5q0 -111 -64 -200
t-170 -137t-231 -48z" />
    <glyph glyph-name="scedilla" unicode="&#x15f;" horiz-adv-x="903" 
d="M473 -20q-41 0 -59 2l-86 -117q115 21 177 -6.5t62 -89.5q0 -73 -77 -126t-166 -53q-42 0 -73.5 15.5t-31.5 36.5q0 14 15.5 25t29.5 11q12 0 55.5 -23.5t81.5 -23.5q45 0 77 24.5t32 63.5q0 40 -33 64t-104 24q-50 0 -111 -22l-10 12l141 185q-182 16 -297 88l-14 229
l16 4q61 -144 167.5 -217.5t248.5 -73.5q102 0 169 53.5t67 153.5q0 30 -9 56.5t-21.5 46t-37 38.5t-42.5 30.5t-52.5 25.5t-52.5 20.5t-56.5 19t-52.5 17.5q-144 48 -196 80q-111 66 -120 188q-1 12 -1 25q0 123 99 197.5t247 74.5q186 0 321 -59l8 -193l-16 -4
q-44 111 -136.5 171.5t-201.5 60.5q-114 0 -180 -49.5t-66 -139.5q0 -42 19 -78t45.5 -59.5t71 -46.5t77.5 -35t84 -28q11 -4 35 -11q41 -13 62.5 -20t60 -22.5t60 -28.5t49.5 -35t43 -46t25.5 -57t10.5 -71q0 -140 -101.5 -222.5t-252.5 -84.5z" />
    <glyph glyph-name="Scaron" unicode="&#x160;" horiz-adv-x="1122" 
d="M582 -20q-148 0 -271.5 44t-204.5 101l-14 262l21 2q29 -81 66 -143.5t94.5 -118.5t143 -86.5t193.5 -30.5q141 0 239.5 82.5t98.5 204.5q0 43 -14.5 83t-35.5 70.5t-58 60.5t-68 50t-80.5 43.5t-80 36.5t-81.5 33q-217 86 -310 174t-93 229q0 168 129.5 269.5
t339.5 101.5q247 0 405 -102l9 -207l-17 -4q-23 47 -47 84t-62.5 75.5t-84 64t-111.5 42t-145 16.5q-135 0 -228.5 -74.5t-93.5 -209.5q0 -47 15 -88.5t45.5 -74.5t64 -59.5t82.5 -52t88 -42.5t94 -40l15 -6q70 -29 117 -50.5t100 -50.5t86.5 -58.5t62.5 -66.5t42.5 -81.5
t13.5 -97.5q0 -111 -64 -200t-170 -137t-231 -48zM336 1710l213 -117l225 117l10 -12l-229 -215h-12l-217 215z" />
    <glyph glyph-name="scaron" unicode="&#x161;" horiz-adv-x="903" 
d="M473 -20q-122 -1 -223 27t-154 63l-14 229l16 4q61 -144 167.5 -217.5t248.5 -73.5q102 0 169 53.5t67 153.5q0 30 -9 56.5t-21.5 46t-37 38.5t-42.5 30.5t-52.5 25.5t-52.5 20.5t-56.5 19t-52.5 17.5q-144 48 -196 80q-111 66 -120 188q-1 12 -1 25q0 123 99 197.5
t247 74.5q186 0 321 -59l8 -193l-16 -4q-44 111 -136.5 171.5t-201.5 60.5q-114 0 -180 -49.5t-66 -139.5q0 -42 19 -78t45.5 -59.5t71 -46.5t77.5 -35t84 -28q11 -4 35 -11q41 -13 62.5 -20t60 -22.5t60 -28.5t49.5 -35t43 -46t25.5 -57t10.5 -71q0 -140 -101.5 -222.5
t-252.5 -84.5zM199 1464l213 -143l225 143l14 -14l-233 -244h-12l-222 246z" />
    <glyph glyph-name="uni0162" unicode="&#x162;" horiz-adv-x="1144" 
d="M584 0l-101 -135q115 21 177.5 -6.5t62.5 -89.5q0 -73 -77.5 -126t-166.5 -53q-42 0 -73 15.5t-31 36.5q0 14 15.5 25t29.5 11q12 0 55.5 -23.5t81.5 -23.5q45 0 77 24.5t32 63.5q0 40 -33.5 64t-104.5 24q-49 0 -110 -22l-10 12l155 203h-131v23q31 8 47.5 26.5
t25.5 68.5t9 142v1147h-141q-135 0 -202 -39.5t-114 -140.5l-18 4l12 203h1039l12 -203l-19 -4q-47 101 -113.5 140.5t-201.5 39.5h-137v-1147q0 -92 9 -142t25.5 -68.5t47.5 -26.5v-23h-129z" />
    <glyph glyph-name="uni0163" unicode="&#x163;" horiz-adv-x="675" 
d="M391 -20q-30 0 -57 6l-90 -121q115 21 177 -6.5t62 -89.5q0 -73 -77 -126t-166 -53q-42 0 -73.5 15.5t-31.5 36.5q0 14 15.5 25t29.5 11q12 0 55.5 -23.5t81.5 -23.5q45 0 77 24.5t32 63.5q0 40 -33 64t-104 24q-50 0 -111 -22l-10 12l147 195q-127 44 -127 262v745h-131
v25l215 231h23v-231h307l-12 -25h-295v-741q0 -205 154 -205q114 0 213 113l16 -16q-57 -69 -133 -119.5t-154 -50.5z" />
    <glyph glyph-name="Tcaron" unicode="&#x164;" horiz-adv-x="1144" 
d="M432 0v23q31 8 47.5 26.5t25.5 68.5t9 142v1147h-141q-135 0 -202 -39.5t-114 -140.5l-18 4l12 203h1039l12 -203l-19 -4q-47 101 -113.5 140.5t-201.5 39.5h-137v-1147q0 -92 9 -142t25.5 -68.5t47.5 -26.5v-23h-281zM354 1731l213 -117l226 117l10 -13l-230 -215h-12
l-217 215z" />
    <glyph glyph-name="tcaron" unicode="&#x165;" horiz-adv-x="675" 
d="M391 -20q-203 0 -203 274v745h-131v25l215 231h23v-231h307l-12 -25h-295v-741q0 -205 154 -205q114 0 213 113l16 -16q-57 -69 -133 -119.5t-154 -50.5zM750 1294q16 43 16 86q0 52 -30.5 109.5t-30.5 91.5q0 30 15.5 54t47.5 24q55 0 55 -107q0 -45 -15 -120.5
t-42 -143.5z" />
    <glyph glyph-name="Umacron" unicode="&#x16a;" horiz-adv-x="1372" 
d="M721 -20q-90 0 -169.5 17t-151.5 56t-123.5 97.5t-82 147t-30.5 198.5v678q0 92 -9 142t-25.5 68.5t-47.5 26.5v23h278v-23q-31 -8 -47 -26.5t-25 -68t-9 -142.5v-633q0 -113 27 -203.5t73 -150t109.5 -99.5t132.5 -57t147 -17q58 0 114 13.5t114.5 50t102 92.5
t71.5 148.5t28 209.5v609q0 103 -16 162t-40.5 81t-66.5 31v23h236v-23q-31 -8 -47.5 -26.5t-25.5 -68.5t-9 -142v-637q0 -120 -27 -215.5t-73.5 -158.5t-112 -105t-138.5 -60t-157 -18zM467 1606l-2 4l20 28q11 17 31 17h500l2 -4l-21 -29q-11 -16 -30 -16h-500z" />
    <glyph glyph-name="umacron" unicode="&#x16b;" horiz-adv-x="1146" 
d="M465 -18q-157 0 -239.5 96t-82.5 264v389q0 83 -9 125t-23.5 57.5t-49.5 30.5v19l175 75l14 -12v-637q0 -182 68.5 -265t201.5 -83q189 0 357 197v493q0 83 -9 125t-23.5 57.5t-49.5 30.5v19l174 75l14 -12v-766q0 -92 9 -142t25.5 -68.5t47.5 -26.5v-23h-137
q-29 0 -40 16.5t-11 65.5v119q-201 -219 -412 -219zM338 1196l-2 4l20 29q11 16 31 16h500l2 -4l-21 -29q-11 -16 -30 -16h-500z" />
    <glyph glyph-name="Uring" unicode="&#x16e;" horiz-adv-x="1372" 
d="M721 -20q-90 0 -169.5 17t-151.5 56t-123.5 97.5t-82 147t-30.5 198.5v678q0 92 -9 142t-25.5 68.5t-47.5 26.5v23h278v-23q-31 -8 -47 -26.5t-25 -68t-9 -142.5v-633q0 -113 27 -203.5t73 -150t109.5 -99.5t132.5 -57t147 -17q58 0 114 13.5t114.5 50t102 92.5
t71.5 148.5t28 209.5v609q0 103 -16 162t-40.5 81t-66.5 31v23h236v-23q-31 -8 -47.5 -26.5t-25.5 -68.5t-9 -142v-637q0 -120 -27 -215.5t-73.5 -158.5t-112 -105t-138.5 -60t-157 -18zM737 1532q-61 0 -100 39.5t-39 97.5q0 61 39 102t100 41q67 0 105.5 -39.5t38.5 -99.5
q0 -59 -41 -100t-103 -41zM737 1552q51 0 85 34.5t34 86.5q0 53 -33 86t-86 33q-50 0 -82 -34t-32 -89q0 -51 32 -84t82 -33z" />
    <glyph glyph-name="uring" unicode="&#x16f;" horiz-adv-x="1146" 
d="M465 -18q-157 0 -239.5 96t-82.5 264v389q0 83 -9 125t-23.5 57.5t-49.5 30.5v19l175 75l14 -12v-637q0 -182 68.5 -265t201.5 -83q189 0 357 197v493q0 83 -9 125t-23.5 57.5t-49.5 30.5v19l174 75l14 -12v-766q0 -92 9 -142t25.5 -68.5t47.5 -26.5v-23h-137
q-29 0 -40 16.5t-11 65.5v119q-201 -219 -412 -219zM608 1122q-61 0 -100 40t-39 98q0 61 39 102t100 41q67 0 105.5 -39.5t38.5 -99.5q0 -59 -41 -100.5t-103 -41.5zM608 1143q51 0 85 34.5t34 86.5t-33 85t-86 33q-50 0 -82 -33.5t-32 -88.5q0 -51 32 -84t82 -33z" />
    <glyph glyph-name="Uhungarumlaut" unicode="&#x170;" horiz-adv-x="1372" 
d="M721 -20q-90 0 -169.5 17t-151.5 56t-123.5 97.5t-82 147t-30.5 198.5v678q0 92 -9 142t-25.5 68.5t-47.5 26.5v23h278v-23q-31 -8 -47 -26.5t-25 -68t-9 -142.5v-633q0 -113 27 -203.5t73 -150t109.5 -99.5t132.5 -57t147 -17q58 0 114 13.5t114.5 50t102 92.5
t71.5 148.5t28 209.5v609q0 103 -16 162t-40.5 81t-66.5 31v23h236v-23q-31 -8 -47.5 -26.5t-25.5 -68.5t-9 -142v-637q0 -120 -27 -215.5t-73.5 -158.5t-112 -105t-138.5 -60t-157 -18zM565 1524l-10 8l186 180q29 27 43 35t35 8q22 0 38.5 -9t16.5 -22q0 -22 -49 -49z
M813 1524l-8 10l184 178q29 27 43 35t35 8q22 0 38.5 -9t16.5 -22q0 -22 -49 -49z" />
    <glyph glyph-name="uhungarumlaut" unicode="&#x171;" horiz-adv-x="1146" 
d="M465 -18q-157 0 -239.5 96t-82.5 264v389q0 83 -9 125t-23.5 57.5t-49.5 30.5v19l175 75l14 -12v-637q0 -182 68.5 -265t201.5 -83q189 0 357 197v493q0 83 -9 125t-23.5 57.5t-49.5 30.5v19l174 75l14 -12v-766q0 -92 9 -142t25.5 -68.5t47.5 -26.5v-23h-137
q-29 0 -40 16.5t-11 65.5v119q-201 -219 -412 -219zM569 1419q24 37 56 37q20 0 37.5 -7.5t17.5 -18.5q0 -16 -33 -46l-207 -198h-20zM817 1419q23 35 57 35q21 0 36.5 -6.5t15.5 -17.5q0 -16 -33 -46l-207 -198h-20z" />
    <glyph glyph-name="Uogonek" unicode="&#x172;" horiz-adv-x="1372" 
d="M721 -20q-90 0 -169.5 17t-151.5 56t-123.5 97.5t-82 147t-30.5 198.5v678q0 92 -9 142t-25.5 68.5t-47.5 26.5v23h278v-23q-31 -8 -47 -26.5t-25 -68t-9 -142.5v-633q0 -113 27 -203.5t73 -150t109.5 -99.5t132.5 -57t147 -17q36 0 96 11l15 12l10 -6q62 17 114 51.5
t97.5 91.5t71.5 147.5t26 206.5v609q0 103 -16 162t-40.5 81t-66.5 31v23h236v-23q-31 -8 -47.5 -26.5t-25.5 -68.5t-9 -142v-637q0 -240 -100 -373.5t-269 -169.5q-56 -56 -82 -100.5t-26 -92.5q0 -102 114 -102q54 0 105 33l10 -8l-47 -89q-34 -24 -94 -24
q-64 0 -104 36.5t-40 92.5q0 119 129 248q-47 -8 -104 -8z" />
    <glyph glyph-name="uogonek" unicode="&#x173;" horiz-adv-x="1146" 
d="M465 -18q-157 0 -239.5 96t-82.5 264v389q0 83 -9 125t-23.5 57.5t-49.5 30.5v19l175 75l14 -12v-637q0 -182 68.5 -265t201.5 -83q189 0 357 197v493q0 83 -9 125t-23.5 57.5t-49.5 30.5v19l174 75l14 -12v-766q0 -115 12.5 -163t42.5 -64l6 4l17 -10l-2 -2q1 0 3 -1
t3 -1v-23h-33q-59 -58 -86.5 -104t-27.5 -95q0 -102 114 -102q54 0 105 33l10 -8l-47 -89q-34 -24 -94 -24q-64 0 -104 36.5t-40 92.5q0 121 142 260h-76q-29 0 -40 16.5t-11 65.5v119q-201 -219 -412 -219z" />
    <glyph glyph-name="Wcircumflex" unicode="&#x174;" horiz-adv-x="1798" 
d="M715 1194q-34 82 -64 130t-49 63.5t-43 23.5v23h252v-23q-23 -6 -32 -15t-7.5 -34t15 -62.5t42.5 -105.5l125 -301l107 295q73 203 -17 223v23h211v-23q-45 -12 -81.5 -56t-79.5 -165l-121 -338l293 -705l374 1043q73 201 -28 221v23h223v-23q-45 -12 -82 -56.5
t-80 -164.5l-428 -1190h-37l-301 729l-297 -729h-37l-452 1190q-46 120 -79.5 164t-70.5 57v23h258v-23q-30 -7 -37.5 -25.5t3 -61.5t45.5 -134l397 -1049l254 627zM676 1513l-10 13l217 215h12l229 -215l-10 -13l-225 117z" />
    <glyph glyph-name="wcircumflex" unicode="&#x175;" horiz-adv-x="1441" 
d="M121 774q-38 129 -60 171t-55 56v23h234v-23q-30 -7 -39.5 -26t-3 -64t33.5 -137l197 -674l313 924h29l326 -922l194 672q61 206 -45 227v23h197v-23q-41 -14 -64.5 -55t-60.5 -172l-221 -774h-76l-305 864l-293 -864h-76zM502 1186l-15 12l222 246h12l233 -244l-14 -14
l-225 143z" />
    <glyph glyph-name="Ycircumflex" unicode="&#x176;" horiz-adv-x="1095" 
d="M397 0v23q31 8 47.5 26.5t25.5 68.5t9 142l-2 375l-315 571q-32 59 -60 99t-50.5 60.5t-37.5 30t-34 15.5v23h260v-23q-22 -6 -30.5 -14t-2 -33t23 -57.5t54.5 -100.5l297 -528l299 528q27 48 41.5 82.5t17.5 60.5t-8.5 41.5t-38.5 20.5v23h223v-23q-23 -6 -41 -15.5
t-43.5 -30t-54.5 -60.5t-62 -99l-319 -567v-379q0 -92 9 -142t25.5 -68.5t47.5 -26.5v-23h-281zM326 1513l-11 13l217 215h13l229 -215l-10 -13l-225 117z" />
    <glyph glyph-name="ycircumflex" unicode="&#x177;" horiz-adv-x="1030" 
d="M47 -395q-54 0 -90.5 15t-36.5 34q0 30 31 61t67 31q27 0 116 -24.5t122 -30.5q127 92 231 313l-323 780q-35 82 -65.5 130t-49.5 63.5t-43 23.5v23h254v-23q-23 -6 -32 -15t-7 -34t15.5 -62t42.5 -106l268 -643l278 643q43 96 41 151.5t-55 65.5v23h219v-23
q-30 -8 -52.5 -23.5t-55.5 -63.5t-68 -130l-324 -743q-39 -90 -82.5 -161.5t-81 -116.5t-80.5 -77t-72.5 -47.5t-66 -23.5t-53 -9t-41.5 -1h-6zM190 1186l-14 12l221 246h13l233 -244l-14 -14l-226 143z" />
    <glyph glyph-name="Ydieresis" unicode="&#x178;" horiz-adv-x="1095" 
d="M397 0v23q31 8 47.5 26.5t25.5 68.5t9 142l-2 375l-315 571q-32 59 -60 99t-50.5 60.5t-37.5 30t-34 15.5v23h260v-23q-22 -6 -30.5 -14t-2 -33t23 -57.5t54.5 -100.5l297 -528l299 528q27 48 41.5 82.5t17.5 60.5t-8.5 41.5t-38.5 20.5v23h223v-23q-23 -6 -41 -15.5
t-43.5 -30t-54.5 -60.5t-62 -99l-319 -567v-379q0 -92 9 -142t25.5 -68.5t47.5 -26.5v-23h-281zM717 1626q-33 0 -55.5 22.5t-22.5 55.5q0 31 23 52.5t55 21.5t54 -22t22 -54t-22 -54t-54 -22zM373 1626q-32 0 -54 22t-22 56q0 31 22 52.5t54 21.5q34 0 56 -22t22 -54
t-23 -54t-55 -22z" />
    <glyph glyph-name="Zacute" unicode="&#x179;" horiz-adv-x="1091" 
d="M53 0v20l858 1387h-444q-102 0 -169 -25.5t-107 -72t-76 -129.5h-17l25 254h913v-21l-860 -1386h418q92 0 155.5 10.5t106.5 27.5t75.5 54t53 75t47.5 105l17 -2l-37 -297h-959zM727 1622l-299 -106l-8 10l203 153q44 33 73 33q25 0 51.5 -16t26.5 -33q0 -24 -47 -41z
" />
    <glyph glyph-name="zacute" unicode="&#x17a;" horiz-adv-x="905" 
d="M66 0v23l636 974h-352q-96 0 -147.5 -47.5t-102.5 -173.5l-14 2l35 246h696v-23l-633 -974h383q106 0 169 62.5t83 195.5h15l-5 -285h-763zM621 1333l-297 -147l-9 12l207 191q38 36 70 36q26 0 51 -14t25 -31q0 -23 -47 -47z" />
    <glyph glyph-name="Zdotaccent" unicode="&#x17b;" horiz-adv-x="1091" 
d="M53 0v20l858 1387h-444q-102 0 -169 -25.5t-107 -72t-76 -129.5h-17l25 254h913v-21l-860 -1386h418q92 0 155.5 10.5t106.5 27.5t75.5 54t53 75t47.5 105l17 -2l-37 -297h-959zM557 1634q-35 0 -59.5 24.5t-24.5 59.5t24.5 59.5t59.5 24.5q36 0 60 -24t24 -60
q0 -35 -24.5 -59.5t-59.5 -24.5z" />
    <glyph glyph-name="zdotaccent" unicode="&#x17c;" horiz-adv-x="905" 
d="M66 0v23l636 974h-352q-96 0 -147.5 -47.5t-102.5 -173.5l-14 2l35 246h696v-23l-633 -974h383q106 0 169 62.5t83 195.5h15l-5 -285h-763zM453 1225q-35 0 -59.5 24.5t-24.5 59.5t24.5 59.5t59.5 24.5q36 0 60 -24t24 -60q0 -35 -24.5 -59.5t-59.5 -24.5z" />
    <glyph glyph-name="Zcaron" unicode="&#x17d;" horiz-adv-x="1091" 
d="M53 0v20l858 1387h-444q-102 0 -169 -25.5t-107 -72t-76 -129.5h-17l25 254h913v-21l-860 -1386h418q92 0 155.5 10.5t106.5 27.5t75.5 54t53 75t47.5 105l17 -2l-37 -297h-959zM338 1731l213 -117l225 117l10 -13l-229 -215h-12l-217 215z" />
    <glyph glyph-name="zcaron" unicode="&#x17e;" horiz-adv-x="905" 
d="M66 0v23l636 974h-352q-96 0 -147.5 -47.5t-102.5 -173.5l-14 2l35 246h696v-23l-633 -974h383q106 0 169 62.5t83 195.5h15l-5 -285h-763zM233 1464l213 -143l226 143l14 -14l-233 -244h-13l-221 246z" />
    <glyph glyph-name="uni018F" unicode="&#x18f;" horiz-adv-x="1542" 
d="M670 -14q-103 0 -193.5 28.5t-166.5 86.5t-125.5 156.5t-61.5 227.5h1173q23 97 23 187q2 138 -41.5 262t-123 218t-201.5 149t-269 55q-97 0 -197.5 -35t-200 -114.5t-163.5 -192.5l-21 10q96 200 267.5 313t390.5 113q145 0 270.5 -49.5t216 -137.5t142 -216.5
t51.5 -280.5q0 -178 -63 -327t-169.5 -247t-245.5 -152t-292 -54zM279 455q22 -194 143.5 -309t322.5 -115q199 0 342.5 116t200.5 308h-1009z" />
    <glyph glyph-name="uni0218" unicode="&#x218;" horiz-adv-x="1122" 
d="M582 -20q-148 0 -271.5 44t-204.5 101l-14 262l21 2q29 -81 66 -143.5t94.5 -118.5t143 -86.5t193.5 -30.5q141 0 239.5 82.5t98.5 204.5q0 43 -14.5 83t-35.5 70.5t-58 60.5t-68 50t-80.5 43.5t-80 36.5t-81.5 33q-217 86 -310 174t-93 229q0 168 129.5 269.5
t339.5 101.5q247 0 405 -102l9 -207l-17 -4q-23 47 -47 84t-62.5 75.5t-84 64t-111.5 42t-145 16.5q-135 0 -228.5 -74.5t-93.5 -209.5q0 -47 15 -88.5t45.5 -74.5t64 -59.5t82.5 -52t88 -42.5t94 -40l15 -6q70 -29 117 -50.5t100 -50.5t86.5 -58.5t62.5 -66.5t42.5 -81.5
t13.5 -97.5q0 -111 -64 -200t-170 -137t-231 -48zM487 -430q122 64 125 197q-14 -11 -37 -11q-29 0 -50 21t-21 51q0 34 23 56t57 22q43 0 67.5 -33.5t22.5 -85.5q-1 -78 -51 -141.5t-127 -91.5z" />
    <glyph glyph-name="uni0219" unicode="&#x219;" horiz-adv-x="903" 
d="M473 -20q-122 -1 -223 27t-154 63l-14 229l16 4q61 -144 167.5 -217.5t248.5 -73.5q102 0 169 53.5t67 153.5q0 30 -9 56.5t-21.5 46t-37 38.5t-42.5 30.5t-52.5 25.5t-52.5 20.5t-56.5 19t-52.5 17.5q-144 48 -196 80q-111 66 -120 188q-1 12 -1 25q0 123 99 197.5
t247 74.5q186 0 321 -59l8 -193l-16 -4q-44 111 -136.5 171.5t-201.5 60.5q-114 0 -180 -49.5t-66 -139.5q0 -42 19 -78t45.5 -59.5t71 -46.5t77.5 -35t84 -28q11 -4 35 -11q41 -13 62.5 -20t60 -22.5t60 -28.5t49.5 -35t43 -46t25.5 -57t10.5 -71q0 -140 -101.5 -222.5
t-252.5 -84.5zM334 -430q122 64 125 197q-14 -11 -37 -11q-30 0 -51 21t-21 51q0 34 23 56t57 22q43 0 67.5 -33.5t22.5 -85.5q-1 -78 -51 -141.5t-127 -91.5z" />
    <glyph glyph-name="uni021A" unicode="&#x21a;" horiz-adv-x="1144" 
d="M432 0v23q31 8 47.5 26.5t25.5 68.5t9 142v1147h-141q-135 0 -202 -39.5t-114 -140.5l-18 4l12 203h1039l12 -203l-19 -4q-47 101 -113.5 140.5t-201.5 39.5h-137v-1147q0 -92 9 -142t25.5 -68.5t47.5 -26.5v-23h-281zM489 -430q122 64 125 197q-14 -11 -36 -11
q-30 0 -51 21t-21 51q0 34 23 56t57 22q43 0 67.5 -33.5t22.5 -85.5q-1 -78 -51 -141.5t-127 -91.5z" />
    <glyph glyph-name="uni021B" unicode="&#x21b;" horiz-adv-x="675" 
d="M391 -20q-203 0 -203 274v745h-131v25l215 231h23v-231h307l-12 -25h-295v-741q0 -205 154 -205q114 0 213 113l16 -16q-57 -69 -133 -119.5t-154 -50.5zM250 -430q122 64 125 197q-14 -11 -37 -11q-30 0 -51 21t-21 51q0 34 23 56t57 22q43 0 67.5 -33.5t22.5 -85.5
q-1 -78 -51 -141.5t-127 -91.5z" />
    <glyph glyph-name="uni0237" unicode="&#x237;" horiz-adv-x="471" 
d="M-143 -567q-68 0 -68 37q0 29 29.5 60.5t72.5 31.5q22 0 90 -8.5t91 -10.5q72 53 103.5 135.5t31.5 210.5v842q0 83 -9 125t-23.5 57.5t-49.5 30.5v19l174 75l14 -12v-1020q0 -111 -32.5 -207.5t-83 -162t-112.5 -112.5t-120.5 -69t-107.5 -22z" />
    <glyph glyph-name="uni0259" unicode="&#x259;" horiz-adv-x="1101" 
d="M471 -14q-175 0 -283 98t-116 258h821q10 58 10 113q0 233 -106.5 365t-290.5 132q-131 0 -224.5 -48.5t-179.5 -143.5l-16 16q216 268 463 268q212 0 336.5 -138.5t124.5 -352.5q0 -244 -153.5 -405.5t-385.5 -161.5zM186 317q7 -43 30.5 -90.5t64.5 -95.5t110 -79.5
t152 -31.5q130 0 221.5 80t124.5 217h-703z" />
    <glyph glyph-name="gravecomb" unicode="&#x300;" 
d="M31 1333q-47 24 -47 47q0 17 24.5 31t50.5 14q32 0 70 -36l207 -191l-8 -12z" />
    <glyph glyph-name="acutecomb" unicode="&#x301;" 
d="M367 1333l-297 -147l-9 12l207 191q38 36 70 36q26 0 51 -14t25 -31q0 -23 -47 -47z" />
    <glyph glyph-name="uni0302" unicode="&#x302;" 
d="M23 1186l-15 12l221 246h13l233 -244l-14 -14l-225 143z" />
    <glyph glyph-name="tildecomb" unicode="&#x303;" 
d="M53 1153q62 94 89 120q43 42 94 42q33 0 125 -48t137 -48q35 0 59 23t49 73l17 -6q-40 -84 -83 -129t-96 -45q-34 0 -124.5 48t-131.5 48q-36 0 -62 -19.5t-58 -66.5z" />
    <glyph glyph-name="uni0304" unicode="&#x304;" 
d="M31 1196l-2 4l20 29q11 16 31 16h500l2 -4l-21 -29q-11 -16 -31 -16h-499z" />
    <glyph glyph-name="uni0306" unicode="&#x306;" 
d="M287 1165q-75 0 -124.5 51.5t-121.5 188.5l18 8q49 -86 96.5 -119.5t131.5 -33.5t132 33.5t95 119.5l16 -8q-72 -138 -120.5 -189t-122.5 -51z" />
    <glyph glyph-name="uni0307" unicode="&#x307;" 
d="M166 1225q-35 0 -59.5 24.5t-24.5 59.5t24.5 59.5t59.5 24.5q36 0 60 -24t24 -60q0 -35 -24.5 -59.5t-59.5 -24.5z" />
    <glyph glyph-name="uni0308" unicode="&#x308;" 
d="M420 1217q-33 0 -55.5 22t-22.5 55q0 31 23 52.5t55 21.5t54 -22t22 -54t-22 -53.5t-54 -21.5zM76 1217q-32 0 -54 21.5t-22 55.5q0 31 22 52.5t54 21.5q34 0 56 -22t22 -54t-22.5 -53.5t-55.5 -21.5z" />
    <glyph glyph-name="uni030A" unicode="&#x30a;" 
d="M180 1122q-61 0 -100 40t-39 98q0 61 39 102t100 41q67 0 105.5 -39.5t38.5 -99.5q0 -59 -41 -100.5t-103 -41.5zM180 1143q51 0 85 34.5t34 86.5t-33 85t-86 33q-50 0 -82 -33.5t-32 -88.5q0 -51 32 -84t82 -33z" />
    <glyph glyph-name="uni030B" unicode="&#x30b;" 
d="M190 1419q24 37 56 37q20 0 37.5 -7.5t17.5 -18.5q0 -16 -33 -46l-207 -198h-20zM438 1419q23 35 58 35q20 0 35.5 -6.5t15.5 -17.5q0 -16 -33 -46l-207 -198h-20z" />
    <glyph glyph-name="uni030C" unicode="&#x30c;" 
d="M23 1464l213 -143l225 143l14 -14l-233 -244h-13l-221 246z" />
    <glyph glyph-name="uni0312" unicode="&#x312;" 
d="M129 1151q-43 0 -67.5 33.5t-22.5 85.5q1 78 51 141.5t127 91.5l8 -16q-122 -64 -125 -197q12 10 37 10q30 0 51 -20.5t21 -50.5q0 -34 -23 -56t-57 -22z" />
    <glyph glyph-name="uni0326" unicode="&#x326;" 
d="M41 -430q122 64 125 197q-14 -11 -37 -11q-30 0 -51 21t-21 51q0 34 23 56t57 22q43 0 67.5 -33.5t22.5 -85.5q-1 -78 -51 -141.5t-127 -91.5z" />
    <glyph glyph-name="uni0327" unicode="&#x327;" 
d="M129 -410q-42 0 -73 15.5t-31 36.5q0 14 15.5 25t29.5 11q12 0 55.5 -23.5t81.5 -23.5q45 0 76.5 24.5t31.5 63.5q0 40 -33 64t-104 24q-49 0 -110 -22l-11 12l166 217l17 -6l-107 -143q115 21 177.5 -6.5t62.5 -89.5q0 -73 -77.5 -126t-166.5 -53z" />
    <glyph glyph-name="uni0328" unicode="&#x328;" 
d="M209 -410q-64 0 -103.5 36.5t-39.5 92.5q0 141 182 297l16 -10q-76 -71 -109.5 -121t-33.5 -104q0 -103 115 -103q53 0 104 33l10 -8l-47 -88q-36 -25 -94 -25z" />
    <glyph glyph-name="uni0335" unicode="&#x335;" 
d="M666 1188h477h-477z" />
    <glyph glyph-name="uni0337" unicode="&#x337;" 
d="M74 682l446 209z" />
    <glyph glyph-name="uni0338" unicode="&#x338;" 
d="M145 -219l904 1427z" />
    <glyph glyph-name="Wgrave" unicode="&#x1e80;" horiz-adv-x="1798" 
d="M715 1194q-34 82 -64 130t-49 63.5t-43 23.5v23h252v-23q-23 -6 -32 -15t-7.5 -34t15 -62.5t42.5 -105.5l125 -301l107 295q73 203 -17 223v23h211v-23q-45 -12 -81.5 -56t-79.5 -165l-121 -338l293 -705l374 1043q73 201 -28 221v23h223v-23q-45 -12 -82 -56.5
t-80 -164.5l-428 -1190h-37l-301 729l-297 -729h-37l-452 1190q-46 120 -79.5 164t-70.5 57v23h258v-23q-30 -7 -37.5 -25.5t3 -61.5t45.5 -134l397 -1049l254 627zM725 1622q-47 17 -47 41q0 17 26.5 33t51.5 16q29 0 73 -33l203 -153l-8 -10z" />
    <glyph glyph-name="wgrave" unicode="&#x1e81;" horiz-adv-x="1441" 
d="M121 774q-38 129 -60 171t-55 56v23h234v-23q-30 -7 -39.5 -26t-3 -64t33.5 -137l197 -674l313 924h29l326 -922l194 672q61 206 -45 227v23h197v-23q-41 -14 -64.5 -55t-60.5 -172l-221 -774h-76l-305 864l-293 -864h-76zM553 1333q-47 24 -47 47q0 17 25 31t51 14
q31 0 69 -36l207 -191l-8 -12z" />
    <glyph glyph-name="Wacute" unicode="&#x1e82;" horiz-adv-x="1798" 
d="M715 1194q-34 82 -64 130t-49 63.5t-43 23.5v23h252v-23q-23 -6 -32 -15t-7.5 -34t15 -62.5t42.5 -105.5l125 -301l107 295q73 203 -17 223v23h211v-23q-45 -12 -81.5 -56t-79.5 -165l-121 -338l293 -705l374 1043q73 201 -28 221v23h223v-23q-45 -12 -82 -56.5
t-80 -164.5l-428 -1190h-37l-301 729l-297 -729h-37l-452 1190q-46 120 -79.5 164t-70.5 57v23h258v-23q-30 -7 -37.5 -25.5t3 -61.5t45.5 -134l397 -1049l254 627zM1065 1622l-299 -106l-8 10l203 153q44 33 73 33q25 0 51.5 -16t26.5 -33q0 -24 -47 -41z" />
    <glyph glyph-name="wacute" unicode="&#x1e83;" horiz-adv-x="1441" 
d="M121 774q-38 129 -60 171t-55 56v23h234v-23q-30 -7 -39.5 -26t-3 -64t33.5 -137l197 -674l313 924h29l326 -922l194 672q61 206 -45 227v23h197v-23q-41 -14 -64.5 -55t-60.5 -172l-221 -774h-76l-305 864l-293 -864h-76zM889 1333l-297 -147l-8 12l207 191q38 36 69 36
q26 0 51 -14t25 -31q0 -23 -47 -47z" />
    <glyph glyph-name="Wdieresis" unicode="&#x1e84;" horiz-adv-x="1798" 
d="M715 1194q-34 82 -64 130t-49 63.5t-43 23.5v23h252v-23q-23 -6 -32 -15t-7.5 -34t15 -62.5t42.5 -105.5l125 -301l107 295q73 203 -17 223v23h211v-23q-45 -12 -81.5 -56t-79.5 -165l-121 -338l293 -705l374 1043q73 201 -28 221v23h223v-23q-45 -12 -82 -56.5
t-80 -164.5l-428 -1190h-37l-301 729l-297 -729h-37l-452 1190q-46 120 -79.5 164t-70.5 57v23h258v-23q-30 -7 -37.5 -25.5t3 -61.5t45.5 -134l397 -1049l254 627zM1067 1626q-33 0 -55.5 22.5t-22.5 55.5q0 31 23 52.5t55 21.5t54 -22t22 -54t-22 -54t-54 -22zM723 1626
q-32 0 -54 22t-22 56q0 31 22 52.5t54 21.5q34 0 56 -22t22 -54t-23 -54t-55 -22z" />
    <glyph glyph-name="wdieresis" unicode="&#x1e85;" horiz-adv-x="1441" 
d="M121 774q-38 129 -60 171t-55 56v23h234v-23q-30 -7 -39.5 -26t-3 -64t33.5 -137l197 -674l313 924h29l326 -922l194 672q61 206 -45 227v23h197v-23q-41 -14 -64.5 -55t-60.5 -172l-221 -774h-76l-305 864l-293 -864h-76zM893 1217q-33 0 -55.5 22t-22.5 55
q0 31 23 52.5t55 21.5t54 -22t22 -54t-22 -53.5t-54 -21.5zM549 1217q-33 0 -54.5 21.5t-21.5 55.5q0 31 22 52.5t54 21.5q34 0 56 -22t22 -54t-22.5 -53.5t-55.5 -21.5z" />
    <glyph glyph-name="uni1E9E" unicode="&#x1e9e;" horiz-adv-x="1361" 
d="M920 -16q-121 0 -238.5 29t-179.5 81l-21 264l19 2q49 -168 165 -255t281 -89q127 0 201 71t74 202q0 53 -20 103t-49 89t-81 79.5t-95.5 68.5t-113.5 62t-115 54t-119 51q-8 3 -12 5l-8 18l387 467q-136 119 -325 119q-172 0 -266.5 -115t-94.5 -327v-703q0 -92 9 -142
t25.5 -68.5t47.5 -26.5v-23h-278v23q31 8 47.5 26.5t25.5 68.5t9 142v635q0 82 22.5 161.5t68.5 150t109.5 124.5t152 85.5t189.5 31.5q91 0 190.5 -25.5t159.5 -66.5l-397 -477q129 -51 219.5 -94t171 -92.5t128.5 -99.5t75 -110.5t27 -130.5q0 -154 -115 -261t-276 -107z
" />
    <glyph glyph-name="Ygrave" unicode="&#x1ef2;" horiz-adv-x="1095" 
d="M397 0v23q31 8 47.5 26.5t25.5 68.5t9 142l-2 375l-315 571q-32 59 -60 99t-50.5 60.5t-37.5 30t-34 15.5v23h260v-23q-22 -6 -30.5 -14t-2 -33t23 -57.5t54.5 -100.5l297 -528l299 528q27 48 41.5 82.5t17.5 60.5t-8.5 41.5t-38.5 20.5v23h223v-23q-23 -6 -41 -15.5
t-43.5 -30t-54.5 -60.5t-62 -99l-319 -567v-379q0 -92 9 -142t25.5 -68.5t47.5 -26.5v-23h-281zM375 1622q-47 17 -47 41q0 17 26.5 33t51.5 16q29 0 73 -33l203 -153l-8 -10z" />
    <glyph glyph-name="ygrave" unicode="&#x1ef3;" horiz-adv-x="1030" 
d="M47 -395q-54 0 -90.5 15t-36.5 34q0 30 31 61t67 31q27 0 116 -24.5t122 -30.5q127 92 231 313l-323 780q-35 82 -65.5 130t-49.5 63.5t-43 23.5v23h254v-23q-23 -6 -32 -15t-7 -34t15.5 -62t42.5 -106l268 -643l278 643q43 96 41 151.5t-55 65.5v23h219v-23
q-30 -8 -52.5 -23.5t-55.5 -63.5t-68 -130l-324 -743q-39 -90 -82.5 -161.5t-81 -116.5t-80.5 -77t-72.5 -47.5t-66 -23.5t-53 -9t-41.5 -1h-6zM242 1333q-47 24 -47 47q0 17 24.5 31t50.5 14q32 0 70 -36l207 -191l-8 -12z" />
    <glyph glyph-name="endash" unicode="&#x2013;" horiz-adv-x="1157" 
d="M106 502v24h945v-24h-945z" />
    <glyph glyph-name="emdash" unicode="&#x2014;" horiz-adv-x="1976" 
d="M106 502v24h1764v-24h-1764z" />
    <glyph glyph-name="quoteleft" unicode="&#x2018;" horiz-adv-x="382" 
d="M322 1503q-143 -74 -146 -239q18 12 43 12q35 0 60.5 -25.5t25.5 -60.5q0 -41 -27 -67.5t-67 -26.5q-53 0 -82 39.5t-27 101.5q1 95 60.5 171.5t152.5 109.5z" />
    <glyph glyph-name="quoteright" unicode="&#x2019;" horiz-adv-x="382" 
d="M61 1114q143 74 146 240q-19 -13 -43 -13q-35 0 -60.5 25.5t-25.5 60.5q0 41 27 68t67 27q53 0 82 -40t27 -102q-1 -95 -60.5 -171t-152.5 -109z" />
    <glyph glyph-name="quotesinglbase" unicode="&#x201a;" horiz-adv-x="477" 
d="M125 -236q142 74 145 240q-18 -12 -43 -12q-35 0 -60.5 25.5t-25.5 60.5q0 41 27.5 67.5t67.5 26.5q52 0 81 -39.5t27 -101.5q-1 -95 -60.5 -171.5t-152.5 -109.5z" />
    <glyph glyph-name="quotedblleft" unicode="&#x201c;" horiz-adv-x="649" 
d="M547 1503q-143 -74 -146 -239q18 12 43 12q35 0 60.5 -25.5t25.5 -60.5q0 -41 -27 -67.5t-67 -26.5q-52 0 -81 39.5t-27 101.5q1 95 60.5 171.5t152.5 109.5zM281 1503q-143 -74 -146 -239q18 12 43 12q35 0 60.5 -25.5t25.5 -60.5q0 -41 -27 -67.5t-67 -26.5
q-53 0 -82 39.5t-27 101.5q1 95 60.5 171.5t152.5 109.5z" />
    <glyph glyph-name="quotedblright" unicode="&#x201d;" horiz-adv-x="649" 
d="M61 1116q143 74 146 240q-19 -13 -43 -13q-35 0 -60.5 26t-25.5 61q0 41 27 67.5t67 26.5q53 0 82 -40t27 -102q-1 -95 -60.5 -171t-152.5 -109zM328 1116q142 74 145 240q-20 -13 -43 -13q-35 0 -60.5 26t-25.5 61q0 41 27 67.5t67 26.5q53 0 82 -40t27 -102
q-1 -95 -60.5 -171t-152.5 -109z" />
    <glyph glyph-name="quotedblbase" unicode="&#x201e;" horiz-adv-x="649" 
d="M102 -236q143 74 146 240q-18 -12 -43 -12q-35 0 -60.5 25.5t-25.5 60.5q0 41 27 67.5t67 26.5q53 0 82 -39.5t27 -101.5q-1 -95 -60.5 -171.5t-152.5 -109.5zM369 -236q142 74 145 240q-18 -12 -43 -12q-35 0 -60.5 25.5t-25.5 60.5q0 41 27 67.5t67 26.5q53 0 82 -39.5
t27 -101.5q-1 -95 -60.5 -171.5t-152.5 -109.5z" />
    <glyph glyph-name="dagger" unicode="&#x2020;" horiz-adv-x="862" 
d="M229 797q-22 0 -42.5 8.5t-34 17.5t-33.5 33.5t-29.5 38t-32.5 48.5q-7 10 -10 15l14 9q38 -51 66 -68.5t70 -17.5q49 0 211 75l-50 373l134 119l12 -8l-70 -471q158 69 209 69q53 0 95 -45t83 -129l-16 -6q-29 51 -59 73.5t-68 22.5q-29 0 -75 -15t-77.5 -29t-93.5 -44
l51 -749l-133 -119l-12 8l72 850q-133 -59 -181 -59z" />
    <glyph glyph-name="bullet" unicode="&#x2022;" horiz-adv-x="614" 
d="M309 352q-69 0 -120.5 52t-51.5 124t51.5 124.5t120.5 52.5t119.5 -52.5t50.5 -124.5t-50.5 -124t-119.5 -52z" />
    <glyph glyph-name="ellipsis" unicode="&#x2026;" horiz-adv-x="1173" 
d="M225 -14q-37 0 -64.5 28t-27.5 66t27.5 66t64.5 28t63.5 -28t26.5 -66t-26.5 -66t-63.5 -28zM635 -14q-37 0 -64.5 28t-27.5 66t27.5 66t64.5 28t63.5 -28t26.5 -66t-26.5 -66t-63.5 -28zM1044 -14q-37 0 -64.5 28t-27.5 66t27.5 66t64.5 28t64 -28t27 -66t-27 -66
t-64 -28z" />
    <glyph glyph-name="perthousand" unicode="&#x2030;" horiz-adv-x="2437" 
d="M186 -10l-20 20l1218 1434l21 -21zM408 729q-66 0 -127 22t-111 63.5t-80.5 110t-30.5 154.5q0 113 56 199t140.5 128t180.5 42q91 0 167 -37.5t125.5 -117t49.5 -187.5q0 -93 -34 -168t-88.5 -119t-118.5 -67t-129 -23zM449 766q112 0 185 71.5t73 194.5
q0 73 -21.5 140.5t-61 120.5t-100.5 84.5t-135 31.5q-113 0 -183.5 -76t-66.5 -205q1 -91 39 -173t110 -135.5t161 -53.5zM1165 -20q-66 0 -126.5 22t-111 63.5t-80.5 110t-30 154.5q0 85 32.5 156.5t86.5 116.5t120.5 70t137.5 25q91 0 167 -37.5t125.5 -117t49.5 -187.5
q0 -93 -34 -167.5t-89 -118.5t-119 -67t-129 -23zM1206 16q112 0 185 72t73 195q0 99 -36 183t-109.5 138.5t-171.5 54.5q-113 0 -183.5 -75.5t-66.5 -204.5q1 -91 38.5 -173.5t109.5 -136t161 -53.5zM2005 -20q-66 0 -126.5 22t-111 63.5t-80.5 110t-30 154.5
q0 85 32.5 156.5t86.5 116.5t120.5 70t137.5 25q91 0 167 -37.5t125.5 -117t49.5 -187.5q0 -93 -34 -167.5t-89 -118.5t-119 -67t-129 -23zM2048 16q111 0 183.5 71.5t72.5 191.5q0 100 -35.5 185t-109.5 140t-172 55q-111 0 -180.5 -72t-69.5 -194q0 -147 87.5 -262
t223.5 -115z" />
    <glyph glyph-name="guilsinglleft" unicode="&#x2039;" horiz-adv-x="825" 
d="M655 51l-540 461l540 461l21 -21l-516 -440l516 -440z" />
    <glyph glyph-name="guilsinglright" unicode="&#x203a;" horiz-adv-x="825" 
d="M135 51l-20 21l516 440l-516 440l20 21l541 -461z" />
    <glyph glyph-name="fraction" unicode="&#x2044;" horiz-adv-x="794" 
d="M-49 -559l-25 12l918 2192l24 -13z" />
    <glyph glyph-name="Euro" unicode="&#x20ac;" horiz-adv-x="1419" 
d="M762 -16q-251 0 -437 151t-231 406h-137l10 24h123q-8 52 -8 121q0 108 24 203h-149l10 24h146q71 248 277 391.5t472 143.5q132 0 246 -29t172 -65l23 -201l-15 -4q-136 258 -497 258q-121 0 -223.5 -38.5t-175.5 -106t-120.5 -156.5t-66.5 -193h823l-10 -24h-817
q-8 -41 -8 -96q0 -120 24 -228h688l-10 -24h-672q59 -208 215.5 -329.5t392.5 -121.5q98 0 190.5 32t183 108t155.5 190l20 -10q-97 -201 -256.5 -313.5t-361.5 -112.5z" />
    <glyph glyph-name="trademark" unicode="&#x2122;" horiz-adv-x="1613" 
d="M725 571v15q28 6 38.5 33t10.5 108v551q0 81 -10.5 108t-38.5 33v15h121l303 -674l299 674h117v-15q-28 -6 -38.5 -33t-10.5 -108v-551q0 -81 10.5 -108t38.5 -33v-15h-164v15q28 6 38.5 33t10.5 108v653l-317 -714h-17l-319 710v-626q0 -61 9.5 -97t24 -49.5t39.5 -17.5
v-15h-145zM254 571v15q28 6 38.5 33t10.5 108v686h-102q-55 0 -94 -29.5t-68 -93.5h-10l14 144h590l12 -144h-10q-32 65 -68 94t-92 29h-102v-686q0 -81 10.5 -108t38.5 -33v-15h-168z" />
    <glyph glyph-name="minus" unicode="&#x2212;" horiz-adv-x="1142" 
d="M207 670l10 24h713l-10 -24h-713z" />
    <glyph glyph-name="approxequal" unicode="&#x2248;" horiz-adv-x="1142" 
d="M748 725q-45 0 -99.5 17.5t-96.5 39t-93 39t-90 17.5q-79 0 -144 -88l-22 14q77 102 168 102q59 0 189 -56t190 -56q101 0 163 92l23 -15q-74 -106 -188 -106zM748 520q-57 0 -126.5 28t-136.5 56.5t-116 28.5q-79 0 -144 -88l-22 14q78 103 168 103q59 0 189 -56.5
t190 -56.5q101 0 163 92l23 -14q-75 -107 -188 -107z" />
    <glyph glyph-name="notequal" unicode="&#x2260;" horiz-adv-x="1142" 
d="M246 143l205 363h-244l10 24h248l172 304h-430l10 24h434l209 371h29l-209 -371h250l-10 -24h-254l-172 -304h436l-10 -24h-441l-205 -363h-28z" />
    <glyph glyph-name="uni004A0301" horiz-adv-x="546" 
d="M-98 -246q-36 0 -51 6.5t-15 26.5q0 30 27.5 54t70.5 24q40 0 179 -21q26 15 45.5 33t39.5 52t31 91t11 134v1020q0 92 -9 142t-25.5 68.5t-47.5 26.5v23h276v-23q-31 -8 -47.5 -26.5t-25.5 -68.5t-9 -142v-877q0 -128 -37.5 -233t-101 -171.5t-143.5 -102.5t-168 -36z
M440 1622l-299 -106l-8 10l203 153q44 33 74 33q25 0 51 -16t26 -33q0 -24 -47 -41z" />
    <glyph glyph-name="K.ss01" horiz-adv-x="1300" 
d="M113 0v23q31 8 47.5 26.5t25.5 68.5t9 142v914q0 92 -9 142t-25.5 68.5t-47.5 26.5v23h278v-23q-31 -8 -47.5 -26.5t-25.5 -68.5t-9 -142v-564l578 592q196 199 90 217v15h246v-23q-31 -9 -45 -14t-49.5 -21.5t-75 -48.5t-86.5 -80l-285 -293l328 -622
q87 -162 151 -233.5t115 -71.5q17 0 41 4v-23q-47 -14 -107 -14q-47 0 -89.5 22.5t-80 67.5t-67.5 94t-66 121l-299 582l-299 -308v-313q0 -92 9 -142t25.5 -68.5t47.5 -26.5v-23h-278z" />
    <glyph glyph-name="C.ss02" horiz-adv-x="1456" 
d="M813 -20q-103 0 -203 27.5t-192.5 87t-162 144t-111.5 207.5t-42 269q0 160 53.5 297t147.5 232.5t227 149.5t287 54q144 0 273.5 -38t201.5 -87l8 -207l-16 -4q-55 125 -196 212t-330 87q-161 0 -286 -76t-192 -209t-67 -301q0 -153 51.5 -292t140 -240t213 -161
t263.5 -60q293 0 493 217l21 -19q-56 -65 -111.5 -113t-126.5 -90.5t-158 -64.5t-186 -22z" />
    <glyph glyph-name="Cacute.ss02" horiz-adv-x="1456" 
d="M813 -20q-103 0 -203 27.5t-192.5 87t-162 144t-111.5 207.5t-42 269q0 160 53.5 297t147.5 232.5t227 149.5t287 54q144 0 273.5 -38t201.5 -87l8 -207l-16 -4q-55 125 -196 212t-330 87q-161 0 -286 -76t-192 -209t-67 -301q0 -153 51.5 -292t140 -240t213 -161
t263.5 -60q293 0 493 217l21 -19q-56 -65 -111.5 -113t-126.5 -90.5t-158 -64.5t-186 -22zM913 1622l-299 -106l-8 10l203 153q44 33 74 33q25 0 51.5 -16t26.5 -33q0 -24 -48 -41z" />
    <glyph glyph-name="Ccaron.ss02" horiz-adv-x="1456" 
d="M813 -20q-103 0 -203 27.5t-192.5 87t-162 144t-111.5 207.5t-42 269q0 160 53.5 297t147.5 232.5t227 149.5t287 54q144 0 273.5 -38t201.5 -87l8 -207l-16 -4q-55 125 -196 212t-330 87q-161 0 -286 -76t-192 -209t-67 -301q0 -153 51.5 -292t140 -240t213 -161
t263.5 -60q293 0 493 217l21 -19q-56 -65 -111.5 -113t-126.5 -90.5t-158 -64.5t-186 -22zM524 1731l213 -117l226 117l10 -13l-230 -215h-12l-217 215z" />
    <glyph glyph-name="Ccedilla.ss02" horiz-adv-x="1456" 
d="M813 -20q-22 0 -72 4l-88 -119q115 21 177.5 -6.5t62.5 -89.5q0 -73 -77.5 -126t-166.5 -53q-42 0 -73 15.5t-31 36.5q0 14 15.5 25t29.5 11q12 0 55.5 -23.5t81.5 -23.5q45 0 77 24.5t32 63.5q0 40 -33.5 64t-104.5 24q-49 0 -110 -22l-10 12l143 189q-95 12 -183 46.5
t-168 96t-139 143.5t-94 196t-35 247q0 160 53.5 297t147.5 232.5t227 149.5t287 54q144 0 273.5 -38t201.5 -87l8 -207l-16 -4q-55 125 -196 212t-330 87q-161 0 -286 -76t-192 -209t-67 -301q0 -153 51.5 -292t140 -240t213 -161t263.5 -60q293 0 493 217l21 -19
q-56 -65 -111.5 -113t-126.5 -90.5t-158 -64.5t-186 -22z" />
    <glyph glyph-name="Cdotaccent.ss02" horiz-adv-x="1456" 
d="M813 -20q-103 0 -203 27.5t-192.5 87t-162 144t-111.5 207.5t-42 269q0 160 53.5 297t147.5 232.5t227 149.5t287 54q144 0 273.5 -38t201.5 -87l8 -207l-16 -4q-55 125 -196 212t-330 87q-161 0 -286 -76t-192 -209t-67 -301q0 -153 51.5 -292t140 -240t213 -161
t263.5 -60q293 0 493 217l21 -19q-56 -65 -111.5 -113t-126.5 -90.5t-158 -64.5t-186 -22zM743 1528q-35 0 -59.5 24.5t-24.5 59.5t24.5 59.5t59.5 24.5q36 0 60 -24t24 -60q0 -35 -24.5 -59.5t-59.5 -24.5z" />
    <glyph glyph-name="E.ss02" horiz-adv-x="1495" 
d="M825 -20q-107 0 -209 27.5t-195.5 87t-164 144t-112.5 207.5t-42 269q0 215 91 381.5t257.5 259t380.5 92.5q80 0 155.5 -15.5t150.5 -52.5t133 -92.5t99.5 -143t53.5 -196.5h-1200q-10 -65 -10 -123q0 -205 87.5 -377.5t244.5 -274t348 -101.5q153 0 281.5 61.5
t222.5 163.5l20 -18q-56 -65 -113 -114.5t-130 -93.5t-161.5 -67.5t-187.5 -23.5zM229 979h1057q-27 198 -171.5 315t-338.5 117q-214 0 -359.5 -118t-187.5 -314z" />
    <glyph glyph-name="Eacute.ss02" horiz-adv-x="1495" 
d="M825 -20q-107 0 -209 27.5t-195.5 87t-164 144t-112.5 207.5t-42 269q0 215 91 381.5t257.5 259t380.5 92.5q80 0 155.5 -15.5t150.5 -52.5t133 -92.5t99.5 -143t53.5 -196.5h-1200q-10 -65 -10 -123q0 -205 87.5 -377.5t244.5 -274t348 -101.5q153 0 281.5 61.5
t222.5 163.5l20 -18q-56 -65 -113 -114.5t-130 -93.5t-161.5 -67.5t-187.5 -23.5zM942 1622l-299 -106l-8 10l203 153q44 33 73 33q25 0 51.5 -16t26.5 -33q0 -24 -47 -41zM229 979h1057q-27 198 -171.5 315t-338.5 117q-214 0 -359.5 -118t-187.5 -314z" />
    <glyph glyph-name="Ecaron.ss02" horiz-adv-x="1495" 
d="M825 -20q-107 0 -209 27.5t-195.5 87t-164 144t-112.5 207.5t-42 269q0 215 91 381.5t257.5 259t380.5 92.5q80 0 155.5 -15.5t150.5 -52.5t133 -92.5t99.5 -143t53.5 -196.5h-1200q-10 -65 -10 -123q0 -205 87.5 -377.5t244.5 -274t348 -101.5q153 0 281.5 61.5
t222.5 163.5l20 -18q-56 -65 -113 -114.5t-130 -93.5t-161.5 -67.5t-187.5 -23.5zM553 1731l213 -117l225 117l10 -13l-229 -215h-12l-217 215zM229 979h1057q-27 198 -171.5 315t-338.5 117q-214 0 -359.5 -118t-187.5 -314z" />
    <glyph glyph-name="Ecircumflex.ss02" horiz-adv-x="1495" 
d="M825 -20q-107 0 -209 27.5t-195.5 87t-164 144t-112.5 207.5t-42 269q0 215 91 381.5t257.5 259t380.5 92.5q80 0 155.5 -15.5t150.5 -52.5t133 -92.5t99.5 -143t53.5 -196.5h-1200q-10 -65 -10 -123q0 -205 87.5 -377.5t244.5 -274t348 -101.5q153 0 281.5 61.5
t222.5 163.5l20 -18q-56 -65 -113 -114.5t-130 -93.5t-161.5 -67.5t-187.5 -23.5zM553 1513l-10 13l217 215h12l229 -215l-10 -13l-225 117zM229 979h1057q-27 198 -171.5 315t-338.5 117q-214 0 -359.5 -118t-187.5 -314z" />
    <glyph glyph-name="Edieresis.ss02" horiz-adv-x="1495" 
d="M825 -20q-107 0 -209 27.5t-195.5 87t-164 144t-112.5 207.5t-42 269q0 215 91 381.5t257.5 259t380.5 92.5q80 0 155.5 -15.5t150.5 -52.5t133 -92.5t99.5 -143t53.5 -196.5h-1200q-10 -65 -10 -123q0 -205 87.5 -377.5t244.5 -274t348 -101.5q153 0 281.5 61.5
t222.5 163.5l20 -18q-56 -65 -113 -114.5t-130 -93.5t-161.5 -67.5t-187.5 -23.5zM944 1626q-33 0 -55.5 22.5t-22.5 55.5q0 31 23 52.5t55 21.5t54 -22t22 -54t-22 -54t-54 -22zM600 1626q-32 0 -54 22t-22 56q0 31 22 52.5t54 21.5q34 0 56 -22t22 -54t-23 -54t-55 -22z
M229 979h1057q-27 198 -171.5 315t-338.5 117q-214 0 -359.5 -118t-187.5 -314z" />
    <glyph glyph-name="Edotaccent.ss02" horiz-adv-x="1495" 
d="M825 -20q-107 0 -209 27.5t-195.5 87t-164 144t-112.5 207.5t-42 269q0 215 91 381.5t257.5 259t380.5 92.5q80 0 155.5 -15.5t150.5 -52.5t133 -92.5t99.5 -143t53.5 -196.5h-1200q-10 -65 -10 -123q0 -205 87.5 -377.5t244.5 -274t348 -101.5q153 0 281.5 61.5
t222.5 163.5l20 -18q-56 -65 -113 -114.5t-130 -93.5t-161.5 -67.5t-187.5 -23.5zM772 1528q-35 0 -59.5 24.5t-24.5 59.5t24.5 59.5t59.5 24.5q36 0 60 -24t24 -60q0 -35 -24.5 -59.5t-59.5 -24.5zM229 979h1057q-27 198 -171.5 315t-338.5 117q-214 0 -359.5 -118
t-187.5 -314z" />
    <glyph glyph-name="Egrave.ss02" horiz-adv-x="1495" 
d="M825 -20q-107 0 -209 27.5t-195.5 87t-164 144t-112.5 207.5t-42 269q0 215 91 381.5t257.5 259t380.5 92.5q80 0 155.5 -15.5t150.5 -52.5t133 -92.5t99.5 -143t53.5 -196.5h-1200q-10 -65 -10 -123q0 -205 87.5 -377.5t244.5 -274t348 -101.5q153 0 281.5 61.5
t222.5 163.5l20 -18q-56 -65 -113 -114.5t-130 -93.5t-161.5 -67.5t-187.5 -23.5zM602 1622q-47 17 -47 41q0 17 26.5 33t51.5 16q30 0 74 -33l202 -153l-8 -10zM229 979h1057q-27 198 -171.5 315t-338.5 117q-214 0 -359.5 -118t-187.5 -314z" />
    <glyph glyph-name="Emacron.ss02" horiz-adv-x="1495" 
d="M825 -20q-107 0 -209 27.5t-195.5 87t-164 144t-112.5 207.5t-42 269q0 215 91 381.5t257.5 259t380.5 92.5q80 0 155.5 -15.5t150.5 -52.5t133 -92.5t99.5 -143t53.5 -196.5h-1200q-10 -65 -10 -123q0 -205 87.5 -377.5t244.5 -274t348 -101.5q153 0 281.5 61.5
t222.5 163.5l20 -18q-56 -65 -113 -114.5t-130 -93.5t-161.5 -67.5t-187.5 -23.5zM500 1606l-2 4l20 28q11 17 31 17h500l2 -4l-21 -29q-11 -16 -31 -16h-499zM229 979h1057q-27 198 -171.5 315t-338.5 117q-214 0 -359.5 -118t-187.5 -314z" />
    <glyph glyph-name="Eogonek.ss02" horiz-adv-x="1495" 
d="M825 -20q-107 0 -209 27.5t-195.5 87t-164 144t-112.5 207.5t-42 269q0 215 91 381.5t257.5 259t380.5 92.5q80 0 155.5 -15.5t150.5 -52.5t133 -92.5t99.5 -143t53.5 -196.5h-1200q-10 -65 -10 -123q0 -205 87.5 -377.5t244.5 -274t348 -101.5q164 0 303 71l18 17l7 -4
q97 56 176 141l20 -18q-143 -161 -280 -228q-50 -65 -50 -127q0 -102 115 -102q54 0 105 33l10 -9l-47 -88q-34 -24 -94 -24q-64 0 -104 36.5t-40 92.5q0 83 60 168q-121 -51 -267 -51zM229 979h1057q-27 198 -171.5 315t-338.5 117q-214 0 -359.5 -118t-187.5 -314z" />
    <glyph glyph-name="A.ss04" horiz-adv-x="1306" 
d="M-25 0v23q30 8 52 23.5t54 64t66 131.5l426 1052q16 41 -4 82l-12 27l105 45l497 -1208q34 -82 64 -130t49 -63.5t43 -23.5v-23h-258v23q23 6 32 15t7 34t-14.5 62t-41.5 106l-436 1054l-424 -1052q-82 -199 19 -219v-23h-224zM602 434q0 50 -32 88.5t-91 38.5v19
q59 0 91 38.5t32 88.5h19q0 -49 33 -88t89 -39v-19q-56 0 -89 -39t-33 -88h-19z" />
    <glyph glyph-name="Aacute.ss04" horiz-adv-x="1306" 
d="M-25 0v23q30 8 52 23.5t54 64t66 131.5l426 1052q16 41 -4 82l-12 27l105 45l497 -1208q34 -82 64 -130t49 -63.5t43 -23.5v-23h-258v23q23 6 32 15t7 34t-14.5 62t-41.5 106l-436 1054l-424 -1052q-82 -199 19 -219v-23h-224zM602 434q0 50 -32 88.5t-91 38.5v19
q59 0 91 38.5t32 88.5h19q0 -49 33 -88t89 -39v-19q-56 0 -89 -39t-33 -88h-19zM758 1622l-299 -106l-8 10l202 153q44 33 74 33q25 0 51.5 -16t26.5 -33q0 -24 -47 -41z" />
    <glyph glyph-name="Abreve.ss04" horiz-adv-x="1306" 
d="M-25 0v23q30 8 52 23.5t54 64t66 131.5l426 1052q16 41 -4 82l-12 27l105 45l497 -1208q34 -82 64 -130t49 -63.5t43 -23.5v-23h-258v23q23 6 32 15t7 34t-14.5 62t-41.5 106l-436 1054l-424 -1052q-82 -199 19 -219v-23h-224zM602 434q0 50 -32 88.5t-91 38.5v19
q59 0 91 38.5t32 88.5h19q0 -49 33 -88t89 -39v-19q-56 0 -89 -39t-33 -88h-19zM588 1513q-75 0 -123 49t-98 162l14 7q38 -62 83 -93.5t124 -31.5t125 32t82 93l12 -7q-50 -114 -97.5 -162.5t-121.5 -48.5z" />
    <glyph glyph-name="Acircumflex.ss04" horiz-adv-x="1306" 
d="M-25 0v23q30 8 52 23.5t54 64t66 131.5l426 1052q16 41 -4 82l-12 27l105 45l497 -1208q34 -82 64 -130t49 -63.5t43 -23.5v-23h-258v23q23 6 32 15t7 34t-14.5 62t-41.5 106l-436 1054l-424 -1052q-82 -199 19 -219v-23h-224zM602 434q0 50 -32 88.5t-91 38.5v19
q59 0 91 38.5t32 88.5h19q0 -49 33 -88t89 -39v-19q-56 0 -89 -39t-33 -88h-19zM369 1513l-11 13l217 215h13l229 -215l-10 -13l-225 117z" />
    <glyph glyph-name="Adieresis.ss04" horiz-adv-x="1306" 
d="M-25 0v23q30 8 52 23.5t54 64t66 131.5l426 1052q16 41 -4 82l-12 27l105 45l497 -1208q34 -82 64 -130t49 -63.5t43 -23.5v-23h-258v23q23 6 32 15t7 34t-14.5 62t-41.5 106l-436 1054l-424 -1052q-82 -199 19 -219v-23h-224zM602 434q0 50 -32 88.5t-91 38.5v19
q59 0 91 38.5t32 88.5h19q0 -49 33 -88t89 -39v-19q-56 0 -89 -39t-33 -88h-19zM760 1626q-33 0 -55.5 22.5t-22.5 55.5q0 31 23 52.5t55 21.5t54 -22t22 -54t-22 -54t-54 -22zM416 1626q-32 0 -54 22t-22 56q0 31 22 52.5t54 21.5q34 0 56 -22t22 -54t-23 -54t-55 -22z" />
    <glyph glyph-name="Agrave.ss04" horiz-adv-x="1306" 
d="M-25 0v23q30 8 52 23.5t54 64t66 131.5l426 1052q16 41 -4 82l-12 27l105 45l497 -1208q34 -82 64 -130t49 -63.5t43 -23.5v-23h-258v23q23 6 32 15t7 34t-14.5 62t-41.5 106l-436 1054l-424 -1052q-82 -199 19 -219v-23h-224zM602 434q0 50 -32 88.5t-91 38.5v19
q59 0 91 38.5t32 88.5h19q0 -49 33 -88t89 -39v-19q-56 0 -89 -39t-33 -88h-19zM418 1622q-47 17 -47 41q0 17 26.5 33t51.5 16q29 0 73 -33l203 -153l-8 -10z" />
    <glyph glyph-name="Amacron.ss04" horiz-adv-x="1306" 
d="M-25 0v23q30 8 52 23.5t54 64t66 131.5l426 1052q16 41 -4 82l-12 27l105 45l497 -1208q34 -82 64 -130t49 -63.5t43 -23.5v-23h-258v23q23 6 32 15t7 34t-14.5 62t-41.5 106l-436 1054l-424 -1052q-82 -199 19 -219v-23h-224zM602 434q0 50 -32 88.5t-91 38.5v19
q59 0 91 38.5t32 88.5h19q0 -49 33 -88t89 -39v-19q-56 0 -89 -39t-33 -88h-19zM315 1606l-2 4l21 28q11 17 31 17h499l2 -4l-20 -29q-11 -16 -31 -16h-500z" />
    <glyph glyph-name="Aogonek.ss04" horiz-adv-x="1306" 
d="M-25 0v23q30 8 52 23.5t54 64t66 131.5l426 1052q16 41 -4 82l-12 27l105 45l497 -1208q34 -82 64 -130t49 -63.5t43 -23.5v-23h-258v8q-66 -63 -95.5 -109.5t-29.5 -97.5q0 -102 115 -102q53 0 104 33l10 -8l-47 -89q-34 -24 -94 -24q-64 0 -103.5 36.5t-39.5 92.5
q0 141 182 297l14 -8q15 6 20.5 17t1 36.5t-17 60t-37.5 97.5l-436 1054l-424 -1052q-82 -199 19 -219v-23h-224zM602 434q0 50 -32 88.5t-91 38.5v19q59 0 91 38.5t32 88.5h19q0 -49 33 -88t89 -39v-19q-56 0 -89 -39t-33 -88h-19z" />
    <glyph glyph-name="Aring.ss04" horiz-adv-x="1306" 
d="M-25 0v23q30 8 52 23.5t54 64t66 131.5l426 1052q16 41 -4 82l-12 27l105 45l497 -1208q34 -82 64 -130t49 -63.5t43 -23.5v-23h-258v23q23 6 32 15t7 34t-14.5 62t-41.5 106l-436 1054l-424 -1052q-82 -199 19 -219v-23h-224zM602 434q0 50 -32 88.5t-91 38.5v19
q59 0 91 38.5t32 88.5h19q0 -49 33 -88t89 -39v-19q-56 0 -89 -39t-33 -88h-19zM586 1532q-61 0 -100.5 39.5t-39.5 97.5q0 61 39.5 102t100.5 41q67 0 105 -39t38 -100q0 -59 -40.5 -100t-102.5 -41zM586 1552q51 0 85 34.5t34 86.5q0 53 -33.5 86t-85.5 33
q-50 0 -82.5 -34t-32.5 -89q0 -51 32.5 -84t82.5 -33z" />
    <glyph glyph-name="Atilde.ss04" horiz-adv-x="1306" 
d="M-25 0v23q30 8 52 23.5t54 64t66 131.5l426 1052q16 41 -4 82l-12 27l105 45l497 -1208q34 -82 64 -130t49 -63.5t43 -23.5v-23h-258v23q23 6 32 15t7 34t-14.5 62t-41.5 106l-436 1054l-424 -1052q-82 -199 19 -219v-23h-224zM602 434q0 50 -32 88.5t-91 38.5v19
q59 0 91 38.5t32 88.5h19q0 -49 33 -88t89 -39v-19q-56 0 -89 -39t-33 -88h-19zM311 1563q62 94 89 120q43 41 94 41q33 0 125 -48t137 -48q35 0 59 23t49 73l17 -6q-40 -84 -83 -129t-96 -45q-34 0 -124.5 48t-131.5 48q-36 0 -62 -19.5t-58 -66.5z" />
    <glyph glyph-name="AE.ss04" horiz-adv-x="1601" 
d="M-25 0v23q30 8 52 23.5t54 64t66 131.5l488 1192h745l23 -203l-19 -4q-46 100 -117.5 140t-207.5 40h-336l170 -623h170q103 0 162 16t81 40.5t31 66.5h23v-272h-23q-9 42 -31 66.5t-81 40.5t-162 16h-162l170 -629q17 -63 43.5 -82.5t71.5 -19.5q135 0 201.5 39.5
t113.5 140.5l19 -4l-13 -203h-512l-362 1341l-453 -1101q-82 -197 19 -217v-23h-224zM563 324q0 50 -32 88.5t-91 38.5v18q59 0 91 38.5t32 88.5h19q0 -49 33.5 -88t89.5 -39v-18q-56 0 -89.5 -39t-33.5 -88h-19z" />
    <glyph glyph-name="E.ss04" horiz-adv-x="1146" 
d="M1053 0h-940v23q31 8 47.5 26.5t25.5 68.5t9 142v914q0 92 -9 142t-25.5 68.5t-47.5 26.5v23h919l23 -203l-19 -4q-45 96 -131 138t-227 42h-369v-1298q0 -82 82 -82h301q141 0 225.5 41.5t129.5 138.5l18 -4zM739 633q0 50 -32 88.5t-91 38.5v18q59 0 91 38.5t32 88.5
h19q0 -49 33.5 -88t89.5 -39v-18q-56 0 -89.5 -39t-33.5 -88h-19z" />
    <glyph glyph-name="Eacute.ss04" horiz-adv-x="1146" 
d="M1053 0h-940v23q31 8 47.5 26.5t25.5 68.5t9 142v914q0 92 -9 142t-25.5 68.5t-47.5 26.5v23h919l23 -203l-19 -4q-45 96 -131 138t-227 42h-369v-1298q0 -82 82 -82h301q141 0 225.5 41.5t129.5 138.5l18 -4zM739 633q0 50 -32 88.5t-91 38.5v18q59 0 91 38.5t32 88.5
h19q0 -49 33.5 -88t89.5 -39v-18q-56 0 -89.5 -39t-33.5 -88h-19zM707 1622l-299 -106l-9 10l203 153q44 33 74 33q25 0 51.5 -16t26.5 -33q0 -24 -47 -41z" />
    <glyph glyph-name="Ecaron.ss04" horiz-adv-x="1146" 
d="M1053 0h-940v23q31 8 47.5 26.5t25.5 68.5t9 142v914q0 92 -9 142t-25.5 68.5t-47.5 26.5v23h919l23 -203l-19 -4q-45 96 -131 138t-227 42h-369v-1298q0 -82 82 -82h301q141 0 225.5 41.5t129.5 138.5l18 -4zM739 633q0 50 -32 88.5t-91 38.5v18q59 0 91 38.5t32 88.5
h19q0 -49 33.5 -88t89.5 -39v-18q-56 0 -89.5 -39t-33.5 -88h-19zM317 1731l213 -117l226 117l10 -13l-229 -215h-13l-217 215z" />
    <glyph glyph-name="Ecircumflex.ss04" horiz-adv-x="1146" 
d="M1053 0h-940v23q31 8 47.5 26.5t25.5 68.5t9 142v914q0 92 -9 142t-25.5 68.5t-47.5 26.5v23h919l23 -203l-19 -4q-45 96 -131 138t-227 42h-369v-1298q0 -82 82 -82h301q141 0 225.5 41.5t129.5 138.5l18 -4zM739 633q0 50 -32 88.5t-91 38.5v18q59 0 91 38.5t32 88.5
h19q0 -49 33.5 -88t89.5 -39v-18q-56 0 -89.5 -39t-33.5 -88h-19zM317 1513l-10 13l217 215h13l229 -215l-10 -13l-226 117z" />
    <glyph glyph-name="Edieresis.ss04" horiz-adv-x="1146" 
d="M1053 0h-940v23q31 8 47.5 26.5t25.5 68.5t9 142v914q0 92 -9 142t-25.5 68.5t-47.5 26.5v23h919l23 -203l-19 -4q-45 96 -131 138t-227 42h-369v-1298q0 -82 82 -82h301q141 0 225.5 41.5t129.5 138.5l18 -4zM739 633q0 50 -32 88.5t-91 38.5v18q59 0 91 38.5t32 88.5
h19q0 -49 33.5 -88t89.5 -39v-18q-56 0 -89.5 -39t-33.5 -88h-19zM709 1626q-33 0 -55.5 22.5t-22.5 55.5q0 31 23 52.5t55 21.5t53.5 -22t21.5 -54t-21.5 -54t-53.5 -22zM365 1626q-32 0 -54 22t-22 56q0 31 22 52.5t54 21.5q33 0 55 -22t22 -54t-22.5 -54t-54.5 -22z" />
    <glyph glyph-name="Edotaccent.ss04" horiz-adv-x="1146" 
d="M1053 0h-940v23q31 8 47.5 26.5t25.5 68.5t9 142v914q0 92 -9 142t-25.5 68.5t-47.5 26.5v23h919l23 -203l-19 -4q-45 96 -131 138t-227 42h-369v-1298q0 -82 82 -82h301q141 0 225.5 41.5t129.5 138.5l18 -4zM739 633q0 50 -32 88.5t-91 38.5v18q59 0 91 38.5t32 88.5
h19q0 -49 33.5 -88t89.5 -39v-18q-56 0 -89.5 -39t-33.5 -88h-19zM537 1528q-35 0 -59.5 24.5t-24.5 59.5t24.5 59.5t59.5 24.5q36 0 60 -24t24 -60q0 -35 -24.5 -59.5t-59.5 -24.5z" />
    <glyph glyph-name="Egrave.ss04" horiz-adv-x="1146" 
d="M1053 0h-940v23q31 8 47.5 26.5t25.5 68.5t9 142v914q0 92 -9 142t-25.5 68.5t-47.5 26.5v23h919l23 -203l-19 -4q-45 96 -131 138t-227 42h-369v-1298q0 -82 82 -82h301q141 0 225.5 41.5t129.5 138.5l18 -4zM739 633q0 50 -32 88.5t-91 38.5v18q59 0 91 38.5t32 88.5
h19q0 -49 33.5 -88t89.5 -39v-18q-56 0 -89.5 -39t-33.5 -88h-19zM367 1622q-48 17 -48 41q0 17 26.5 33t51.5 16q30 0 74 -33l203 -153l-8 -10z" />
    <glyph glyph-name="Emacron.ss04" horiz-adv-x="1146" 
d="M1053 0h-940v23q31 8 47.5 26.5t25.5 68.5t9 142v914q0 92 -9 142t-25.5 68.5t-47.5 26.5v23h919l23 -203l-19 -4q-45 96 -131 138t-227 42h-369v-1298q0 -82 82 -82h301q141 0 225.5 41.5t129.5 138.5l18 -4zM739 633q0 50 -32 88.5t-91 38.5v18q59 0 91 38.5t32 88.5
h19q0 -49 33.5 -88t89.5 -39v-18q-56 0 -89.5 -39t-33.5 -88h-19zM264 1606l-2 4l21 28q11 17 30 17h500l2 -4l-20 -29q-11 -16 -31 -16h-500z" />
    <glyph glyph-name="Eogonek.ss04" horiz-adv-x="1146" 
d="M1053 0h-82q-60 -58 -87.5 -104t-27.5 -95q0 -102 115 -102q53 0 104 33l10 -8l-47 -89q-34 -24 -94 -24q-64 0 -103.5 36.5t-39.5 92.5q0 122 141 260h-829v23q31 8 47.5 26.5t25.5 68.5t9 142v914q0 92 -9 142t-25.5 68.5t-47.5 26.5v23h919l23 -203l-19 -4
q-45 96 -131 138t-227 42h-369v-1298q0 -82 82 -82h301q141 0 225.5 41.5t129.5 138.5l18 -4zM739 633q0 50 -32 88.5t-91 38.5v18q59 0 91 38.5t32 88.5h19q0 -49 33.5 -88t89.5 -39v-18q-56 0 -89.5 -39t-33.5 -88h-19z" />
    <glyph glyph-name="F.ss04" horiz-adv-x="1079" 
d="M113 0v23q31 8 47.5 26.5t25.5 68.5t9 142v914q0 92 -9 142t-25.5 68.5t-47.5 26.5v23h878l21 -203l-19 -4q-46 100 -116.5 140t-206.5 40h-361v-1147q0 -92 9 -142t25.5 -68.5t47.5 -26.5v-23h-278zM657 694q0 50 -31.5 88.5t-90.5 38.5v19q59 0 90.5 38.5t31.5 88.5h19
q0 -49 33.5 -88t89.5 -39v-19q-56 0 -89.5 -39t-33.5 -88h-19z" />
    <glyph glyph-name="H.ss04" horiz-adv-x="1468" 
d="M113 0v23q31 8 47.5 26.5t25.5 68.5t9 142v914q0 92 -9 142t-25.5 68.5t-47.5 26.5v23h278v-23q-31 -8 -47.5 -26.5t-25.5 -68.5t-9 -142v-914q0 -92 9 -142t25.5 -68.5t47.5 -26.5v-23h-278zM709 569q0 50 -32 88.5t-91 38.5v19q59 0 91 38.5t32 88.5h18q0 -49 33.5 -88
t89.5 -39v-19q-56 0 -89.5 -39t-33.5 -88h-18zM1077 0v23q31 8 47.5 26.5t25.5 68.5t9 142v914q0 92 -9 142t-25.5 68.5t-47.5 26.5v23h279v-23q-31 -8 -47.5 -26.5t-25.5 -68.5t-9 -142v-914q0 -92 9 -142t25.5 -68.5t47.5 -26.5v-23h-279z" />
    <glyph glyph-name="O.ss04" horiz-adv-x="1648" 
d="M825 -20q-107 0 -209 27.5t-195.5 87t-164 144t-112.5 207.5t-42 269q0 215 89.5 382t254.5 260t379 93q106 0 208 -28t195 -88t163.5 -145.5t112.5 -208.5t42 -269q0 -149 -42 -273t-112.5 -207t-164.5 -141t-195 -84t-207 -26zM879 18q256 0 407.5 161.5t151.5 424.5
q0 208 -87 393t-243 299.5t-342 114.5q-169 0 -295.5 -76t-192 -208.5t-65.5 -301.5q0 -154 50.5 -300.5t137.5 -258.5t212.5 -180t265.5 -68zM862 600q0 50 -32 88.5t-91 38.5v18q59 0 91 38.5t32 88.5h19q0 -49 33.5 -88t89.5 -39v-18q-56 0 -89.5 -39t-33.5 -88h-19z" />
    <glyph glyph-name="Oacute.ss04" horiz-adv-x="1648" 
d="M825 -20q-107 0 -209 27.5t-195.5 87t-164 144t-112.5 207.5t-42 269q0 215 89.5 382t254.5 260t379 93q106 0 208 -28t195 -88t163.5 -145.5t112.5 -208.5t42 -269q0 -149 -42 -273t-112.5 -207t-164.5 -141t-195 -84t-207 -26zM879 18q256 0 407.5 161.5t151.5 424.5
q0 208 -87 393t-243 299.5t-342 114.5q-169 0 -295.5 -76t-192 -208.5t-65.5 -301.5q0 -154 50.5 -300.5t137.5 -258.5t212.5 -180t265.5 -68zM862 600q0 50 -32 88.5t-91 38.5v18q59 0 91 38.5t32 88.5h19q0 -49 33.5 -88t89.5 -39v-18q-56 0 -89.5 -39t-33.5 -88h-19z
M981 1622l-299 -106l-8 10l203 153q44 33 73 33q25 0 51.5 -16t26.5 -33q0 -24 -47 -41z" />
    <glyph glyph-name="Ocircumflex.ss04" horiz-adv-x="1648" 
d="M825 -20q-107 0 -209 27.5t-195.5 87t-164 144t-112.5 207.5t-42 269q0 215 89.5 382t254.5 260t379 93q106 0 208 -28t195 -88t163.5 -145.5t112.5 -208.5t42 -269q0 -149 -42 -273t-112.5 -207t-164.5 -141t-195 -84t-207 -26zM879 18q256 0 407.5 161.5t151.5 424.5
q0 208 -87 393t-243 299.5t-342 114.5q-169 0 -295.5 -76t-192 -208.5t-65.5 -301.5q0 -154 50.5 -300.5t137.5 -258.5t212.5 -180t265.5 -68zM862 600q0 50 -32 88.5t-91 38.5v18q59 0 91 38.5t32 88.5h19q0 -49 33.5 -88t89.5 -39v-18q-56 0 -89.5 -39t-33.5 -88h-19z
M592 1513l-10 13l217 215h12l229 -215l-10 -13l-225 117z" />
    <glyph glyph-name="Odieresis.ss04" horiz-adv-x="1648" 
d="M825 -20q-107 0 -209 27.5t-195.5 87t-164 144t-112.5 207.5t-42 269q0 215 89.5 382t254.5 260t379 93q106 0 208 -28t195 -88t163.5 -145.5t112.5 -208.5t42 -269q0 -149 -42 -273t-112.5 -207t-164.5 -141t-195 -84t-207 -26zM879 18q256 0 407.5 161.5t151.5 424.5
q0 208 -87 393t-243 299.5t-342 114.5q-169 0 -295.5 -76t-192 -208.5t-65.5 -301.5q0 -154 50.5 -300.5t137.5 -258.5t212.5 -180t265.5 -68zM862 600q0 50 -32 88.5t-91 38.5v18q59 0 91 38.5t32 88.5h19q0 -49 33.5 -88t89.5 -39v-18q-56 0 -89.5 -39t-33.5 -88h-19z
M983 1626q-33 0 -55.5 22.5t-22.5 55.5q0 31 23 52.5t55 21.5t54 -22t22 -54t-22 -54t-54 -22zM639 1626q-32 0 -54 22t-22 56q0 31 22 52.5t54 21.5q34 0 56 -22t22 -54t-23 -54t-55 -22z" />
    <glyph glyph-name="Ograve.ss04" horiz-adv-x="1648" 
d="M825 -20q-107 0 -209 27.5t-195.5 87t-164 144t-112.5 207.5t-42 269q0 215 89.5 382t254.5 260t379 93q106 0 208 -28t195 -88t163.5 -145.5t112.5 -208.5t42 -269q0 -149 -42 -273t-112.5 -207t-164.5 -141t-195 -84t-207 -26zM879 18q256 0 407.5 161.5t151.5 424.5
q0 208 -87 393t-243 299.5t-342 114.5q-169 0 -295.5 -76t-192 -208.5t-65.5 -301.5q0 -154 50.5 -300.5t137.5 -258.5t212.5 -180t265.5 -68zM862 600q0 50 -32 88.5t-91 38.5v18q59 0 91 38.5t32 88.5h19q0 -49 33.5 -88t89.5 -39v-18q-56 0 -89.5 -39t-33.5 -88h-19z
M641 1622q-47 17 -47 41q0 17 26.5 33t51.5 16q29 0 73 -33l203 -153l-8 -10z" />
    <glyph glyph-name="Ohungarumlaut.ss04" horiz-adv-x="1648" 
d="M825 -20q-107 0 -209 27.5t-195.5 87t-164 144t-112.5 207.5t-42 269q0 215 89.5 382t254.5 260t379 93q106 0 208 -28t195 -88t163.5 -145.5t112.5 -208.5t42 -269q0 -149 -42 -273t-112.5 -207t-164.5 -141t-195 -84t-207 -26zM879 18q256 0 407.5 161.5t151.5 424.5
q0 208 -87 393t-243 299.5t-342 114.5q-169 0 -295.5 -76t-192 -208.5t-65.5 -301.5q0 -154 50.5 -300.5t137.5 -258.5t212.5 -180t265.5 -68zM862 600q0 50 -32 88.5t-91 38.5v18q59 0 91 38.5t32 88.5h19q0 -49 33.5 -88t89.5 -39v-18q-56 0 -89.5 -39t-33.5 -88h-19z
M637 1524l-10 8l186 180q29 27 43 35t35 8q22 0 38.5 -9t16.5 -22q0 -22 -49 -49zM885 1524l-8 10l184 178q29 27 43 35t35 8q22 0 38.5 -9t16.5 -22q0 -22 -49 -49z" />
    <glyph glyph-name="Omacron.ss04" horiz-adv-x="1648" 
d="M825 -20q-107 0 -209 27.5t-195.5 87t-164 144t-112.5 207.5t-42 269q0 215 89.5 382t254.5 260t379 93q106 0 208 -28t195 -88t163.5 -145.5t112.5 -208.5t42 -269q0 -149 -42 -273t-112.5 -207t-164.5 -141t-195 -84t-207 -26zM879 18q256 0 407.5 161.5t151.5 424.5
q0 208 -87 393t-243 299.5t-342 114.5q-169 0 -295.5 -76t-192 -208.5t-65.5 -301.5q0 -154 50.5 -300.5t137.5 -258.5t212.5 -180t265.5 -68zM862 600q0 50 -32 88.5t-91 38.5v18q59 0 91 38.5t32 88.5h19q0 -49 33.5 -88t89.5 -39v-18q-56 0 -89.5 -39t-33.5 -88h-19z
M539 1606l-2 4l20 28q11 17 31 17h499l3 -4l-21 -29q-11 -16 -31 -16h-499z" />
    <glyph glyph-name="Otilde.ss04" horiz-adv-x="1648" 
d="M825 -20q-107 0 -209 27.5t-195.5 87t-164 144t-112.5 207.5t-42 269q0 215 89.5 382t254.5 260t379 93q106 0 208 -28t195 -88t163.5 -145.5t112.5 -208.5t42 -269q0 -149 -42 -273t-112.5 -207t-164.5 -141t-195 -84t-207 -26zM879 18q256 0 407.5 161.5t151.5 424.5
q0 208 -87 393t-243 299.5t-342 114.5q-169 0 -295.5 -76t-192 -208.5t-65.5 -301.5q0 -154 50.5 -300.5t137.5 -258.5t212.5 -180t265.5 -68zM862 600q0 50 -32 88.5t-91 38.5v18q59 0 91 38.5t32 88.5h19q0 -49 33.5 -88t89.5 -39v-18q-56 0 -89.5 -39t-33.5 -88h-19z
M535 1563q61 93 87 118q43 43 95 43q33 0 125 -48t137 -48q35 0 59 23t49 73l17 -6q-41 -84 -83 -129t-95 -45q-34 0 -124.5 48t-131.5 48q-36 0 -62.5 -19.5t-58.5 -66.5z" />
    <glyph glyph-name="OE.ss04" horiz-adv-x="2039" 
d="M842 -20q-112 0 -218 28t-201 86.5t-166 142.5t-113 203.5t-42 261.5q0 145 44.5 267.5t120.5 209.5t178.5 148.5t218.5 91t239 29.5q97 0 244 -14h737l12 -203l-18 -4q-47 101 -113.5 140.5t-201.5 39.5h-361v-1298q0 -82 82 -82h340q135 0 201.5 39.5t113.5 140.5
l19 -4l-12 -203l-861 2q-121 -22 -243 -22zM891 29q106 0 150 27t44 89v1158q0 42 -76.5 70t-185.5 28q-174 0 -312.5 -70.5t-220 -206t-83.5 -315.5q-1 -116 32 -231t96 -213t146.5 -174t190 -119t219.5 -43zM1599 694q0 50 -31.5 88.5t-90.5 38.5v19q59 0 90.5 38.5
t31.5 88.5h19q0 -49 33.5 -88t89.5 -39v-19q-56 0 -89.5 -39t-33.5 -88h-19z" />
    <glyph glyph-name="K_E" horiz-adv-x="2164" 
d="M1591 -29q-89 0 -164.5 28t-130.5 75.5t-103 109t-89 129l-82 135t-88.5 127.5t-101.5 105.5t-128 70.5t-161 21l-41 -2l-193 -197v-313q0 -92 9 -142t25.5 -68.5t47.5 -26.5v-23h-278v23q31 8 47.5 26.5t25.5 68.5t9 142v914q0 92 -9 142t-25.5 68.5t-47.5 26.5v23h278
v-23q-31 -8 -47.5 -26.5t-25.5 -68.5t-9 -142v-564l578 592q196 199 90 217v15h246v-23q-31 -9 -45 -14t-49.5 -21.5t-75 -48.5t-86.5 -80l-437 -448l41 4q101 8 186.5 -13.5t147.5 -65t116.5 -102t99.5 -125t88.5 -133.5t91 -128t100 -108.5t123 -76t153.5 -28.5
q129 0 244 104l14 -16q-144 -140 -344 -140zM2066 389h-741v23q31 8 47.5 26.5t25.5 68.5t9 142v525q0 92 -9 142t-25.5 68.5t-47.5 26.5v23h705l18 -164l-16 -2q-36 73 -98 106t-167 33h-251v-432h155q92 0 145 14t73 36.5t28 59.5h20v-247h-20q-8 37 -28 59.5t-73 36.5
t-145 14h-155v-450q0 -82 81 -82h168q129 0 193 35t108 122l17 -2z" />
    <glyph glyph-name="K_Eacute" horiz-adv-x="2164" 
d="M1591 -29q-89 0 -164.5 28t-130.5 75.5t-103 109t-89 129l-82 135t-88.5 127.5t-101.5 105.5t-128 70.5t-161 21l-41 -2l-193 -197v-313q0 -92 9 -142t25.5 -68.5t47.5 -26.5v-23h-278v23q31 8 47.5 26.5t25.5 68.5t9 142v914q0 92 -9 142t-25.5 68.5t-47.5 26.5v23h278
v-23q-31 -8 -47.5 -26.5t-25.5 -68.5t-9 -142v-564l578 592q196 199 90 217v15h246v-23q-31 -9 -45 -14t-49.5 -21.5t-75 -48.5t-86.5 -80l-437 -448l41 4q101 8 186.5 -13.5t147.5 -65t116.5 -102t99.5 -125t88.5 -133.5t91 -128t100 -108.5t123 -76t153.5 -28.5
q129 0 244 104l14 -16q-144 -140 -344 -140zM2066 389h-741v23q31 8 47.5 26.5t25.5 68.5t9 142v525q0 92 -9 142t-25.5 68.5t-47.5 26.5v23h705l18 -164l-16 -2q-36 73 -98 106t-167 33h-251v-432h155q92 0 145 14t73 36.5t28 59.5h20v-247h-20q-8 37 -28 59.5t-73 36.5
t-145 14h-155v-450q0 -82 81 -82h168q129 0 193 35t108 122l17 -2zM1751 1614l-299 -107l-8 11l203 153q44 33 73 33q25 0 51.5 -16t26.5 -33q0 -24 -47 -41z" />
    <glyph glyph-name="K_Ecaron" horiz-adv-x="2164" 
d="M1591 -29q-89 0 -164.5 28t-130.5 75.5t-103 109t-89 129l-82 135t-88.5 127.5t-101.5 105.5t-128 70.5t-161 21l-41 -2l-193 -197v-313q0 -92 9 -142t25.5 -68.5t47.5 -26.5v-23h-278v23q31 8 47.5 26.5t25.5 68.5t9 142v914q0 92 -9 142t-25.5 68.5t-47.5 26.5v23h278
v-23q-31 -8 -47.5 -26.5t-25.5 -68.5t-9 -142v-564l578 592q196 199 90 217v15h246v-23q-31 -9 -45 -14t-49.5 -21.5t-75 -48.5t-86.5 -80l-437 -448l41 4q101 8 186.5 -13.5t147.5 -65t116.5 -102t99.5 -125t88.5 -133.5t91 -128t100 -108.5t123 -76t153.5 -28.5
q129 0 244 104l14 -16q-144 -140 -344 -140zM2066 389h-741v23q31 8 47.5 26.5t25.5 68.5t9 142v525q0 92 -9 142t-25.5 68.5t-47.5 26.5v23h705l18 -164l-16 -2q-36 73 -98 106t-167 33h-251v-432h155q92 0 145 14t73 36.5t28 59.5h20v-247h-20q-8 37 -28 59.5t-73 36.5
t-145 14h-155v-450q0 -82 81 -82h168q129 0 193 35t108 122l17 -2zM1364 1712l213 -117l225 117l10 -12l-229 -215h-12l-217 215z" />
    <glyph glyph-name="K_Edieresis" horiz-adv-x="2164" 
d="M1591 -29q-89 0 -164.5 28t-130.5 75.5t-103 109t-89 129l-82 135t-88.5 127.5t-101.5 105.5t-128 70.5t-161 21l-41 -2l-193 -197v-313q0 -92 9 -142t25.5 -68.5t47.5 -26.5v-23h-278v23q31 8 47.5 26.5t25.5 68.5t9 142v914q0 92 -9 142t-25.5 68.5t-47.5 26.5v23h278
v-23q-31 -8 -47.5 -26.5t-25.5 -68.5t-9 -142v-564l578 592q196 199 90 217v15h246v-23q-31 -9 -45 -14t-49.5 -21.5t-75 -48.5t-86.5 -80l-437 -448l41 4q101 8 186.5 -13.5t147.5 -65t116.5 -102t99.5 -125t88.5 -133.5t91 -128t100 -108.5t123 -76t153.5 -28.5
q129 0 244 104l14 -16q-144 -140 -344 -140zM2066 389h-741v23q31 8 47.5 26.5t25.5 68.5t9 142v525q0 92 -9 142t-25.5 68.5t-47.5 26.5v23h705l18 -164l-16 -2q-36 73 -98 106t-167 33h-251v-432h155q92 0 145 14t73 36.5t28 59.5h20v-247h-20q-8 37 -28 59.5t-73 36.5
t-145 14h-155v-450q0 -82 81 -82h168q129 0 193 35t108 122l17 -2zM1782 1624q-33 0 -55.5 22.5t-22.5 55.5q0 31 23 52.5t55 21.5t54 -22t22 -54t-22 -54t-54 -22zM1438 1624q-32 0 -54 22t-22 56q0 31 22 52.5t54 21.5q34 0 56 -22t22 -54t-23 -54t-55 -22z" />
    <glyph glyph-name="K_Edotaccent" horiz-adv-x="2164" 
d="M1591 -29q-89 0 -164.5 28t-130.5 75.5t-103 109t-89 129l-82 135t-88.5 127.5t-101.5 105.5t-128 70.5t-161 21l-41 -2l-193 -197v-313q0 -92 9 -142t25.5 -68.5t47.5 -26.5v-23h-278v23q31 8 47.5 26.5t25.5 68.5t9 142v914q0 92 -9 142t-25.5 68.5t-47.5 26.5v23h278
v-23q-31 -8 -47.5 -26.5t-25.5 -68.5t-9 -142v-564l578 592q196 199 90 217v15h246v-23q-31 -9 -45 -14t-49.5 -21.5t-75 -48.5t-86.5 -80l-437 -448l41 4q101 8 186.5 -13.5t147.5 -65t116.5 -102t99.5 -125t88.5 -133.5t91 -128t100 -108.5t123 -76t153.5 -28.5
q129 0 244 104l14 -16q-144 -140 -344 -140zM2066 389h-741v23q31 8 47.5 26.5t25.5 68.5t9 142v525q0 92 -9 142t-25.5 68.5t-47.5 26.5v23h705l18 -164l-16 -2q-36 73 -98 106t-167 33h-251v-432h155q92 0 145 14t73 36.5t28 59.5h20v-247h-20q-8 37 -28 59.5t-73 36.5
t-145 14h-155v-450q0 -82 81 -82h168q129 0 193 35t108 122l17 -2zM1569 1509q-35 0 -59.5 24.5t-24.5 59.5t24.5 59.5t59.5 24.5q36 0 60 -24t24 -60q0 -35 -24.5 -59.5t-59.5 -24.5z" />
    <glyph glyph-name="K_Egrave" horiz-adv-x="2164" 
d="M1591 -29q-89 0 -164.5 28t-130.5 75.5t-103 109t-89 129l-82 135t-88.5 127.5t-101.5 105.5t-128 70.5t-161 21l-41 -2l-193 -197v-313q0 -92 9 -142t25.5 -68.5t47.5 -26.5v-23h-278v23q31 8 47.5 26.5t25.5 68.5t9 142v914q0 92 -9 142t-25.5 68.5t-47.5 26.5v23h278
v-23q-31 -8 -47.5 -26.5t-25.5 -68.5t-9 -142v-564l578 592q196 199 90 217v15h246v-23q-31 -9 -45 -14t-49.5 -21.5t-75 -48.5t-86.5 -80l-437 -448l41 4q101 8 186.5 -13.5t147.5 -65t116.5 -102t99.5 -125t88.5 -133.5t91 -128t100 -108.5t123 -76t153.5 -28.5
q129 0 244 104l14 -16q-144 -140 -344 -140zM2066 389h-741v23q31 8 47.5 26.5t25.5 68.5t9 142v525q0 92 -9 142t-25.5 68.5t-47.5 26.5v23h705l18 -164l-16 -2q-36 73 -98 106t-167 33h-251v-432h155q92 0 145 14t73 36.5t28 59.5h20v-247h-20q-8 37 -28 59.5t-73 36.5
t-145 14h-155v-450q0 -82 81 -82h168q129 0 193 35t108 122l17 -2zM1432 1618q-48 17 -48 41q0 17 26.5 33t51.5 16q30 0 74 -33l203 -153l-8 -11z" />
    <glyph glyph-name="K_O" horiz-adv-x="2394" 
d="M1591 -29q-89 0 -164.5 28t-130.5 75.5t-103 109t-89 129l-82 135t-88.5 127.5t-101.5 105.5t-128 70.5t-161 21l-41 -2l-193 -197v-313q0 -92 9 -142t25.5 -68.5t47.5 -26.5v-23h-278v23q31 8 47.5 26.5t25.5 68.5t9 142v914q0 92 -9 142t-25.5 68.5t-47.5 26.5v23h278
v-23q-31 -8 -47.5 -26.5t-25.5 -68.5t-9 -142v-564l578 592q196 199 90 217v15h246v-23q-31 -9 -45 -14t-49.5 -21.5t-75 -48.5t-86.5 -80l-437 -448l41 4q101 8 186.5 -13.5t147.5 -65t116.5 -102t99.5 -125t88.5 -133.5t91 -128t100 -108.5t123 -76t153.5 -28.5
q129 0 244 104l14 -16q-144 -140 -344 -140zM1808 389q-78 0 -152.5 20t-142.5 62.5t-119 103.5t-81.5 150t-30.5 195q0 150 73 272.5t193 189t260 66.5q98 0 189.5 -32t167.5 -94.5t122 -167t46 -236.5q0 -101 -31.5 -189t-84 -149t-120.5 -105t-141.5 -65t-147.5 -21z
M1860 428q173 0 272.5 115t99.5 293q0 80 -22 162.5t-64.5 156.5t-98.5 132t-130 92t-154 34q-177 0 -275.5 -116t-98.5 -300q0 -141 59.5 -271t169.5 -214t242 -84z" />
    <glyph glyph-name="K_Oacute" horiz-adv-x="2394" 
d="M1591 -29q-89 0 -164.5 28t-130.5 75.5t-103 109t-89 129l-82 135t-88.5 127.5t-101.5 105.5t-128 70.5t-161 21l-41 -2l-193 -197v-313q0 -92 9 -142t25.5 -68.5t47.5 -26.5v-23h-278v23q31 8 47.5 26.5t25.5 68.5t9 142v914q0 92 -9 142t-25.5 68.5t-47.5 26.5v23h278
v-23q-31 -8 -47.5 -26.5t-25.5 -68.5t-9 -142v-564l578 592q196 199 90 217v15h246v-23q-31 -9 -45 -14t-49.5 -21.5t-75 -48.5t-86.5 -80l-437 -448l41 4q101 8 186.5 -13.5t147.5 -65t116.5 -102t99.5 -125t88.5 -133.5t91 -128t100 -108.5t123 -76t153.5 -28.5
q129 0 244 104l14 -16q-144 -140 -344 -140zM1808 389q-78 0 -152.5 20t-142.5 62.5t-119 103.5t-81.5 150t-30.5 195q0 150 73 272.5t193 189t260 66.5q98 0 189.5 -32t167.5 -94.5t122 -167t46 -236.5q0 -101 -31.5 -189t-84 -149t-120.5 -105t-141.5 -65t-147.5 -21z
M1860 428q173 0 272.5 115t99.5 293q0 80 -22 162.5t-64.5 156.5t-98.5 132t-130 92t-154 34q-177 0 -275.5 -116t-98.5 -300q0 -141 59.5 -271t169.5 -214t242 -84zM2025 1618l-299 -107l-8 11l203 153q44 33 74 33q25 0 51.5 -16t26.5 -33q0 -24 -48 -41z" />
    <glyph glyph-name="K_Ocircumflex" horiz-adv-x="2394" 
d="M1591 -29q-89 0 -164.5 28t-130.5 75.5t-103 109t-89 129l-82 135t-88.5 127.5t-101.5 105.5t-128 70.5t-161 21l-41 -2l-193 -197v-313q0 -92 9 -142t25.5 -68.5t47.5 -26.5v-23h-278v23q31 8 47.5 26.5t25.5 68.5t9 142v914q0 92 -9 142t-25.5 68.5t-47.5 26.5v23h278
v-23q-31 -8 -47.5 -26.5t-25.5 -68.5t-9 -142v-564l578 592q196 199 90 217v15h246v-23q-31 -9 -45 -14t-49.5 -21.5t-75 -48.5t-86.5 -80l-437 -448l41 4q101 8 186.5 -13.5t147.5 -65t116.5 -102t99.5 -125t88.5 -133.5t91 -128t100 -108.5t123 -76t153.5 -28.5
q129 0 244 104l14 -16q-144 -140 -344 -140zM1808 389q-78 0 -152.5 20t-142.5 62.5t-119 103.5t-81.5 150t-30.5 195q0 150 73 272.5t193 189t260 66.5q98 0 189.5 -32t167.5 -94.5t122 -167t46 -236.5q0 -101 -31.5 -189t-84 -149t-120.5 -105t-141.5 -65t-147.5 -21z
M1860 428q173 0 272.5 115t99.5 293q0 80 -22 162.5t-64.5 156.5t-98.5 132t-130 92t-154 34q-177 0 -275.5 -116t-98.5 -300q0 -141 59.5 -271t169.5 -214t242 -84zM1618 1530l-10 12l217 215h12l229 -215l-10 -12l-225 117z" />
    <glyph glyph-name="K_Odieresis" horiz-adv-x="2394" 
d="M1591 -29q-89 0 -164.5 28t-130.5 75.5t-103 109t-89 129l-82 135t-88.5 127.5t-101.5 105.5t-128 70.5t-161 21l-41 -2l-193 -197v-313q0 -92 9 -142t25.5 -68.5t47.5 -26.5v-23h-278v23q31 8 47.5 26.5t25.5 68.5t9 142v914q0 92 -9 142t-25.5 68.5t-47.5 26.5v23h278
v-23q-31 -8 -47.5 -26.5t-25.5 -68.5t-9 -142v-564l578 592q196 199 90 217v15h246v-23q-31 -9 -45 -14t-49.5 -21.5t-75 -48.5t-86.5 -80l-437 -448l41 4q101 8 186.5 -13.5t147.5 -65t116.5 -102t99.5 -125t88.5 -133.5t91 -128t100 -108.5t123 -76t153.5 -28.5
q129 0 244 104l14 -16q-144 -140 -344 -140zM1808 389q-78 0 -152.5 20t-142.5 62.5t-119 103.5t-81.5 150t-30.5 195q0 150 73 272.5t193 189t260 66.5q98 0 189.5 -32t167.5 -94.5t122 -167t46 -236.5q0 -101 -31.5 -189t-84 -149t-120.5 -105t-141.5 -65t-147.5 -21z
M1860 428q173 0 272.5 115t99.5 293q0 80 -22 162.5t-64.5 156.5t-98.5 132t-130 92t-154 34q-177 0 -275.5 -116t-98.5 -300q0 -141 59.5 -271t169.5 -214t242 -84zM1995 1602q-33 0 -55.5 22t-22.5 55q0 31 23 52.5t55 21.5t54 -22t22 -54t-22 -53.5t-54 -21.5zM1651 1602
q-33 0 -54.5 22t-21.5 55q0 31 22 52.5t54 21.5q34 0 56 -22t22 -54t-22.5 -53.5t-55.5 -21.5z" />
    <glyph glyph-name="K_Ohungarumlaut" horiz-adv-x="2394" 
d="M1591 -29q-89 0 -164.5 28t-130.5 75.5t-103 109t-89 129l-82 135t-88.5 127.5t-101.5 105.5t-128 70.5t-161 21l-41 -2l-193 -197v-313q0 -92 9 -142t25.5 -68.5t47.5 -26.5v-23h-278v23q31 8 47.5 26.5t25.5 68.5t9 142v914q0 92 -9 142t-25.5 68.5t-47.5 26.5v23h278
v-23q-31 -8 -47.5 -26.5t-25.5 -68.5t-9 -142v-564l578 592q196 199 90 217v15h246v-23q-31 -9 -45 -14t-49.5 -21.5t-75 -48.5t-86.5 -80l-437 -448l41 4q101 8 186.5 -13.5t147.5 -65t116.5 -102t99.5 -125t88.5 -133.5t91 -128t100 -108.5t123 -76t153.5 -28.5
q129 0 244 104l14 -16q-144 -140 -344 -140zM1808 389q-78 0 -152.5 20t-142.5 62.5t-119 103.5t-81.5 150t-30.5 195q0 150 73 272.5t193 189t260 66.5q98 0 189.5 -32t167.5 -94.5t122 -167t46 -236.5q0 -101 -31.5 -189t-84 -149t-120.5 -105t-141.5 -65t-147.5 -21z
M1860 428q173 0 272.5 115t99.5 293q0 80 -22 162.5t-64.5 156.5t-98.5 132t-130 92t-154 34q-177 0 -275.5 -116t-98.5 -300q0 -141 59.5 -271t169.5 -214t242 -84zM1632 1513l-10 9l186 180q29 27 43 35t35 8q22 0 39 -9t17 -22q0 -22 -50 -49zM1880 1513l-8 11l184 178
q29 27 43 35t35 8q22 0 38.5 -9t16.5 -22q0 -22 -49 -49z" />
    <glyph glyph-name="K_Omacron" horiz-adv-x="2394" 
d="M1591 -29q-89 0 -164.5 28t-130.5 75.5t-103 109t-89 129l-82 135t-88.5 127.5t-101.5 105.5t-128 70.5t-161 21l-41 -2l-193 -197v-313q0 -92 9 -142t25.5 -68.5t47.5 -26.5v-23h-278v23q31 8 47.5 26.5t25.5 68.5t9 142v914q0 92 -9 142t-25.5 68.5t-47.5 26.5v23h278
v-23q-31 -8 -47.5 -26.5t-25.5 -68.5t-9 -142v-564l578 592q196 199 90 217v15h246v-23q-31 -9 -45 -14t-49.5 -21.5t-75 -48.5t-86.5 -80l-437 -448l41 4q101 8 186.5 -13.5t147.5 -65t116.5 -102t99.5 -125t88.5 -133.5t91 -128t100 -108.5t123 -76t153.5 -28.5
q129 0 244 104l14 -16q-144 -140 -344 -140zM1808 389q-78 0 -152.5 20t-142.5 62.5t-119 103.5t-81.5 150t-30.5 195q0 150 73 272.5t193 189t260 66.5q98 0 189.5 -32t167.5 -94.5t122 -167t46 -236.5q0 -101 -31.5 -189t-84 -149t-120.5 -105t-141.5 -65t-147.5 -21z
M1860 428q173 0 272.5 115t99.5 293q0 80 -22 162.5t-64.5 156.5t-98.5 132t-130 92t-154 34q-177 0 -275.5 -116t-98.5 -300q0 -141 59.5 -271t169.5 -214t242 -84zM1565 1554l-2 5l20 28q11 17 31 17h500l2 -5l-21 -28q-11 -17 -31 -17h-499z" />
    <glyph glyph-name="K_Otilde" horiz-adv-x="2394" 
d="M1591 -29q-89 0 -164.5 28t-130.5 75.5t-103 109t-89 129l-82 135t-88.5 127.5t-101.5 105.5t-128 70.5t-161 21l-41 -2l-193 -197v-313q0 -92 9 -142t25.5 -68.5t47.5 -26.5v-23h-278v23q31 8 47.5 26.5t25.5 68.5t9 142v914q0 92 -9 142t-25.5 68.5t-47.5 26.5v23h278
v-23q-31 -8 -47.5 -26.5t-25.5 -68.5t-9 -142v-564l578 592q196 199 90 217v15h246v-23q-31 -9 -45 -14t-49.5 -21.5t-75 -48.5t-86.5 -80l-437 -448l41 4q101 8 186.5 -13.5t147.5 -65t116.5 -102t99.5 -125t88.5 -133.5t91 -128t100 -108.5t123 -76t153.5 -28.5
q129 0 244 104l14 -16q-144 -140 -344 -140zM1808 389q-78 0 -152.5 20t-142.5 62.5t-119 103.5t-81.5 150t-30.5 195q0 150 73 272.5t193 189t260 66.5q98 0 189.5 -32t167.5 -94.5t122 -167t46 -236.5q0 -101 -31.5 -189t-84 -149t-120.5 -105t-141.5 -65t-147.5 -21z
M1860 428q173 0 272.5 115t99.5 293q0 80 -22 162.5t-64.5 156.5t-98.5 132t-130 92t-154 34q-177 0 -275.5 -116t-98.5 -300q0 -141 59.5 -271t169.5 -214t242 -84zM1567 1532q61 93 86 117q44 45 96 45q33 0 125 -48.5t137 -48.5q35 0 59.5 23.5t49.5 73.5l16 -6
q-41 -85 -83 -130t-95 -45q-34 0 -124.5 48.5t-131.5 48.5q-36 0 -62.5 -19.5t-58.5 -66.5z" />
    <glyph glyph-name="uni004B018F" horiz-adv-x="2340" 
d="M1710 375q-175 0 -283 98t-116 258h821q10 58 10 113q0 233 -106.5 365t-290.5 132q-131 0 -224.5 -48.5t-179.5 -143.5l-16 16q216 269 463 269q141 0 247 -65t160 -176t54 -251q0 -244 -153.5 -405.5t-385.5 -161.5zM1591 -29q-89 0 -164.5 28t-130.5 75.5t-103 109
t-89 129l-82 135t-88.5 127.5t-101.5 105.5t-128 70.5t-161 21l-41 -2l-193 -197v-313q0 -92 9 -142t25.5 -68.5t47.5 -26.5v-23h-278v23q31 8 47.5 26.5t25.5 68.5t9 142v914q0 92 -9 142t-25.5 68.5t-47.5 26.5v23h278v-23q-31 -8 -47.5 -26.5t-25.5 -68.5t-9 -142v-564
l578 592q196 199 90 217v15h246v-23q-31 -9 -45 -14t-49.5 -21.5t-75 -48.5t-86.5 -80l-437 -448l41 4q101 8 186.5 -13.5t147.5 -65t116.5 -102t99.5 -125t88.5 -133.5t91 -128t100 -108.5t123 -76t153.5 -28.5q129 0 244 104l14 -16q-144 -140 -344 -140zM1425 707
q7 -43 30.5 -90.5t64.5 -95.5t110 -79.5t152 -31.5q130 0 221.5 80t124.5 217h-703z" />
    <glyph glyph-name="K_U" horiz-adv-x="2359" 
d="M1804 389q-92 0 -170.5 23t-143 70.5t-101.5 130.5t-37 194v367q0 92 -9 142t-25.5 68.5t-47.5 26.5v23h268v-23q-31 -8 -47.5 -26.5t-25.5 -68.5t-9 -142v-330q0 -114 31 -199t86 -133t121.5 -71t146.5 -23q47 0 93 12t93.5 42t83 76t58 119.5t22.5 166.5v303
q0 103 -16 162t-40.5 81t-66.5 31v23h230v-23q-31 -8 -47.5 -26.5t-25.5 -68.5t-9 -142v-332q0 -121 -33 -211t-91.5 -141.5t-130 -76t-157.5 -24.5zM1591 -29q-89 0 -164.5 28t-130.5 75.5t-103 109t-89 129l-82 135t-88.5 127.5t-101.5 105.5t-128 70.5t-161 21l-41 -2
l-193 -197v-313q0 -92 9 -142t25.5 -68.5t47.5 -26.5v-23h-278v23q31 8 47.5 26.5t25.5 68.5t9 142v914q0 92 -9 142t-25.5 68.5t-47.5 26.5v23h278v-23q-31 -8 -47.5 -26.5t-25.5 -68.5t-9 -142v-564l578 592q196 199 90 217v15h246v-23q-31 -9 -45 -14t-49.5 -21.5
t-75 -48.5t-86.5 -80l-437 -448l41 4q101 8 186.5 -13.5t147.5 -65t116.5 -102t99.5 -125t88.5 -133.5t91 -128t100 -108.5t123 -76t153.5 -28.5q129 0 244 104l14 -16q-144 -140 -344 -140z" />
    <glyph glyph-name="L_A" horiz-adv-x="1599" 
d="M1245 0h-1132v23q31 8 47.5 26.5t25.5 68.5t9 142v914q0 92 -9 142t-25.5 68.5t-47.5 26.5v23h278v-23q-31 -8 -47.5 -26.5t-25.5 -68.5t-9 -142v-1065q0 -82 82 -82h533q135 0 201.5 39.5t113.5 140.5l18 -4zM547 387v23q24 8 43 23.5t48 64t62 131.5l273 674
q11 24 -2 55l-19 41l99 41l329 -811q49 -119 82 -162.5t66 -56.5v-23h-240v23q23 6 32.5 15t7.5 34t-15 63t-41 107l-58 141h-428l-57 -141q-27 -68 -38 -112t-6 -72t30 -35v-23h-168zM797 795h407l-205 503z" />
    <glyph glyph-name="L_E" horiz-adv-x="1568" 
d="M1122 0h-1009v23q31 8 47.5 26.5t25.5 68.5t9 142v914q0 92 -9 142t-25.5 68.5t-47.5 26.5v23h278v-23q-31 -8 -47.5 -26.5t-25.5 -68.5t-9 -142v-1065q0 -82 82 -82h410q135 0 201.5 39.5t113.5 140.5l19 -4zM1470 387h-741v23q31 8 47.5 26.5t25.5 68.5t9 142v524
q0 92 -9 142.5t-25.5 69t-47.5 26.5v23h705l18 -164l-16 -2q-36 73 -98 106t-167 33h-251v-432h155q92 0 145 14t73 36.5t28 59.5h20v-247h-20q-8 37 -28 59.5t-73 36.5t-145 14h-155v-450q0 -82 81 -82h168q129 0 193 35t108 122l17 -2z" />
    <glyph glyph-name="L_Eacute" horiz-adv-x="1568" 
d="M1122 0h-1009v23q31 8 47.5 26.5t25.5 68.5t9 142v914q0 92 -9 142t-25.5 68.5t-47.5 26.5v23h278v-23q-31 -8 -47.5 -26.5t-25.5 -68.5t-9 -142v-1065q0 -82 82 -82h410q135 0 201.5 39.5t113.5 140.5l19 -4zM1470 387h-741v23q31 8 47.5 26.5t25.5 68.5t9 142v524
q0 92 -9 142.5t-25.5 69t-47.5 26.5v23h705l18 -164l-16 -2q-36 73 -98 106t-167 33h-251v-432h155q92 0 145 14t73 36.5t28 59.5h20v-247h-20q-8 37 -28 59.5t-73 36.5t-145 14h-155v-450q0 -82 81 -82h168q129 0 193 35t108 122l17 -2zM1096 1614l-299 -107l-9 11l203 153
q44 33 74 33q25 0 51.5 -16t26.5 -33q0 -24 -47 -41z" />
    <glyph glyph-name="L_Ecaron" horiz-adv-x="1568" 
d="M1122 0h-1009v23q31 8 47.5 26.5t25.5 68.5t9 142v914q0 92 -9 142t-25.5 68.5t-47.5 26.5v23h278v-23q-31 -8 -47.5 -26.5t-25.5 -68.5t-9 -142v-1065q0 -82 82 -82h410q135 0 201.5 39.5t113.5 140.5l19 -4zM1470 387h-741v23q31 8 47.5 26.5t25.5 68.5t9 142v524
q0 92 -9 142.5t-25.5 69t-47.5 26.5v23h705l18 -164l-16 -2q-36 73 -98 106t-167 33h-251v-432h155q92 0 145 14t73 36.5t28 59.5h20v-247h-20q-8 37 -28 59.5t-73 36.5t-145 14h-155v-450q0 -82 81 -82h168q129 0 193 35t108 122l17 -2zM750 1722l213 -116l225 116l10 -12
l-229 -215h-13l-217 215z" />
    <glyph glyph-name="L_Edieresis" horiz-adv-x="1568" 
d="M1122 0h-1009v23q31 8 47.5 26.5t25.5 68.5t9 142v914q0 92 -9 142t-25.5 68.5t-47.5 26.5v23h278v-23q-31 -8 -47.5 -26.5t-25.5 -68.5t-9 -142v-1065q0 -82 82 -82h410q135 0 201.5 39.5t113.5 140.5l19 -4zM1470 387h-741v23q31 8 47.5 26.5t25.5 68.5t9 142v524
q0 92 -9 142.5t-25.5 69t-47.5 26.5v23h705l18 -164l-16 -2q-36 73 -98 106t-167 33h-251v-432h155q92 0 145 14t73 36.5t28 59.5h20v-247h-20q-8 37 -28 59.5t-73 36.5t-145 14h-155v-450q0 -82 81 -82h168q129 0 193 35t108 122l17 -2zM1147 1618q-33 0 -55.5 22.5
t-22.5 55.5q0 31 23 52t55 21t54 -21.5t22 -53.5t-22 -54t-54 -22zM803 1618q-32 0 -54 22t-22 56q0 31 22 52t54 21q34 0 56 -21.5t22 -53.5t-23 -54t-55 -22z" />
    <glyph glyph-name="L_Edotaccent" horiz-adv-x="1568" 
d="M1122 0h-1009v23q31 8 47.5 26.5t25.5 68.5t9 142v914q0 92 -9 142t-25.5 68.5t-47.5 26.5v23h278v-23q-31 -8 -47.5 -26.5t-25.5 -68.5t-9 -142v-1065q0 -82 82 -82h410q135 0 201.5 39.5t113.5 140.5l19 -4zM1470 387h-741v23q31 8 47.5 26.5t25.5 68.5t9 142v524
q0 92 -9 142.5t-25.5 69t-47.5 26.5v23h705l18 -164l-16 -2q-36 73 -98 106t-167 33h-251v-432h155q92 0 145 14t73 36.5t28 59.5h20v-247h-20q-8 37 -28 59.5t-73 36.5t-145 14h-155v-450q0 -82 81 -82h168q129 0 193 35t108 122l17 -2zM1016 1503q-35 0 -59.5 24.5
t-24.5 59.5t24.5 59.5t59.5 24.5q36 0 60 -24t24 -60q0 -35 -24.5 -59.5t-59.5 -24.5z" />
    <glyph glyph-name="L_Egrave" horiz-adv-x="1568" 
d="M1122 0h-1009v23q31 8 47.5 26.5t25.5 68.5t9 142v914q0 92 -9 142t-25.5 68.5t-47.5 26.5v23h278v-23q-31 -8 -47.5 -26.5t-25.5 -68.5t-9 -142v-1065q0 -82 82 -82h410q135 0 201.5 39.5t113.5 140.5l19 -4zM1470 387h-741v23q31 8 47.5 26.5t25.5 68.5t9 142v524
q0 92 -9 142.5t-25.5 69t-47.5 26.5v23h705l18 -164l-16 -2q-36 73 -98 106t-167 33h-251v-432h155q92 0 145 14t73 36.5t28 59.5h20v-247h-20q-8 37 -28 59.5t-73 36.5t-145 14h-155v-450q0 -82 81 -82h168q129 0 193 35t108 122l17 -2zM776 1620q-47 17 -47 41
q0 17 26.5 33t51.5 16q30 0 74 -33l202 -153l-8 -11z" />
    <glyph glyph-name="L_I" horiz-adv-x="1247" 
d="M1040 0h-927v23q31 8 47.5 26.5t25.5 68.5t9 142v914q0 92 -9 142t-25.5 68.5t-47.5 26.5v23h278v-23q-31 -8 -47.5 -26.5t-25.5 -68.5t-9 -142v-1065q0 -82 82 -82h328q135 0 201.5 39.5t113.5 140.5l19 -4zM799 389v23q31 8 47.5 26.5t25.5 68.5t9 142v525q0 92 -9 142
t-25.5 68.5t-47.5 26.5v23h270v-23q-31 -8 -47.5 -26.5t-25.5 -68.5t-9 -142v-525q0 -92 9 -142t25.5 -68.5t47.5 -26.5v-23h-270z" />
    <glyph glyph-name="L_L" horiz-adv-x="1392" 
d="M1270 0h-1157v23q31 8 47.5 26.5t25.5 68.5t9 142v914q0 92 -9 142t-25.5 68.5t-47.5 26.5v23h278v-23q-31 -8 -47.5 -26.5t-25.5 -68.5t-9 -142v-1065q0 -82 82 -82h557q135 0 202 39.5t114 140.5l18 -4zM1327 389h-723v23q31 8 47.5 26.5t25.5 68.5t9 142v525
q0 92 -9 142t-25.5 68.5t-47.5 26.5v23h273v-23q-31 -8 -47.5 -26.5t-25.5 -68.5t-9 -142v-676q0 -82 82 -82h151q86 0 145 21.5t92 57t64 95.5l17 -2z" />
    <glyph glyph-name="L_O" horiz-adv-x="1732" 
d="M1300 0h-1187v23q31 8 47.5 26.5t25.5 68.5t9 142v914q0 92 -9 142t-25.5 68.5t-47.5 26.5v23h278v-23q-31 -8 -47.5 -26.5t-25.5 -68.5t-9 -142v-1065q0 -82 82 -82h588q135 0 201.5 39.5t113.5 140.5l19 -4zM1147 387q-78 0 -152.5 20t-142.5 62.5t-119 103.5
t-81.5 150t-30.5 195q0 150 73 272.5t193 189t260 66.5q78 0 152 -19.5t142 -62t119 -103.5t81 -150t30 -196q0 -101 -31.5 -188.5t-83.5 -149t-120 -105t-141.5 -64.5t-147.5 -21zM1198 426q116 0 201.5 54.5t128.5 146t43 207.5q0 80 -22 162.5t-64.5 156.5t-98.5 132
t-130 92t-154 34q-177 0 -276 -116t-99 -300q0 -141 59.5 -271t169.5 -214t242 -84z" />
    <glyph glyph-name="L_Oacute" horiz-adv-x="1732" 
d="M1300 0h-1187v23q31 8 47.5 26.5t25.5 68.5t9 142v914q0 92 -9 142t-25.5 68.5t-47.5 26.5v23h278v-23q-31 -8 -47.5 -26.5t-25.5 -68.5t-9 -142v-1065q0 -82 82 -82h588q135 0 201.5 39.5t113.5 140.5l19 -4zM1147 387q-78 0 -152.5 20t-142.5 62.5t-119 103.5
t-81.5 150t-30.5 195q0 150 73 272.5t193 189t260 66.5q78 0 152 -19.5t142 -62t119 -103.5t81 -150t30 -196q0 -101 -31.5 -188.5t-83.5 -149t-120 -105t-141.5 -64.5t-147.5 -21zM1198 426q116 0 201.5 54.5t128.5 146t43 207.5q0 80 -22 162.5t-64.5 156.5t-98.5 132
t-130 92t-154 34q-177 0 -276 -116t-99 -300q0 -141 59.5 -271t169.5 -214t242 -84zM1403 1614l-299 -107l-8 11l202 153q44 33 74 33q25 0 51.5 -16t26.5 -33q0 -24 -47 -41z" />
    <glyph glyph-name="L_Ocircumflex" horiz-adv-x="1732" 
d="M1300 0h-1187v23q31 8 47.5 26.5t25.5 68.5t9 142v914q0 92 -9 142t-25.5 68.5t-47.5 26.5v23h278v-23q-31 -8 -47.5 -26.5t-25.5 -68.5t-9 -142v-1065q0 -82 82 -82h588q135 0 201.5 39.5t113.5 140.5l19 -4zM1147 387q-78 0 -152.5 20t-142.5 62.5t-119 103.5
t-81.5 150t-30.5 195q0 150 73 272.5t193 189t260 66.5q78 0 152 -19.5t142 -62t119 -103.5t81 -150t30 -196q0 -101 -31.5 -188.5t-83.5 -149t-120 -105t-141.5 -64.5t-147.5 -21zM1198 426q116 0 201.5 54.5t128.5 146t43 207.5q0 80 -22 162.5t-64.5 156.5t-98.5 132
t-130 92t-154 34q-177 0 -276 -116t-99 -300q0 -141 59.5 -271t169.5 -214t242 -84zM995 1526l-10 12l217 215h12l230 -215l-10 -12l-226 116z" />
    <glyph glyph-name="L_Odieresis" horiz-adv-x="1732" 
d="M1300 0h-1187v23q31 8 47.5 26.5t25.5 68.5t9 142v914q0 92 -9 142t-25.5 68.5t-47.5 26.5v23h278v-23q-31 -8 -47.5 -26.5t-25.5 -68.5t-9 -142v-1065q0 -82 82 -82h588q135 0 201.5 39.5t113.5 140.5l19 -4zM1147 387q-78 0 -152.5 20t-142.5 62.5t-119 103.5
t-81.5 150t-30.5 195q0 150 73 272.5t193 189t260 66.5q78 0 152 -19.5t142 -62t119 -103.5t81 -150t30 -196q0 -101 -31.5 -188.5t-83.5 -149t-120 -105t-141.5 -64.5t-147.5 -21zM1198 426q116 0 201.5 54.5t128.5 146t43 207.5q0 80 -22 162.5t-64.5 156.5t-98.5 132
t-130 92t-154 34q-177 0 -276 -116t-99 -300q0 -141 59.5 -271t169.5 -214t242 -84zM1372 1567q-33 0 -55.5 22.5t-22.5 55.5q0 31 23 52t55 21t54 -22t22 -54t-22 -53.5t-54 -21.5zM1028 1567q-32 0 -54 22t-22 56q0 31 22 52t54 21q34 0 56 -22t22 -54t-22.5 -53.5
t-55.5 -21.5z" />
    <glyph glyph-name="L_Ohungarumlaut" horiz-adv-x="1732" 
d="M1300 0h-1187v23q31 8 47.5 26.5t25.5 68.5t9 142v914q0 92 -9 142t-25.5 68.5t-47.5 26.5v23h278v-23q-31 -8 -47.5 -26.5t-25.5 -68.5t-9 -142v-1065q0 -82 82 -82h588q135 0 201.5 39.5t113.5 140.5l19 -4zM1147 387q-78 0 -152.5 20t-142.5 62.5t-119 103.5
t-81.5 150t-30.5 195q0 150 73 272.5t193 189t260 66.5q78 0 152 -19.5t142 -62t119 -103.5t81 -150t30 -196q0 -101 -31.5 -188.5t-83.5 -149t-120 -105t-141.5 -64.5t-147.5 -21zM1198 426q116 0 201.5 54.5t128.5 146t43 207.5q0 80 -22 162.5t-64.5 156.5t-98.5 132
t-130 92t-154 34q-177 0 -276 -116t-99 -300q0 -141 59.5 -271t169.5 -214t242 -84zM1030 1513l-10 9l186 180q29 27 43 35t35 8q22 0 38.5 -9t16.5 -22q0 -22 -49 -49zM1278 1513l-8 11l184 178q29 27 43 35t35 8q22 0 38.5 -9t16.5 -22q0 -22 -49 -49z" />
    <glyph glyph-name="L_Omacron" horiz-adv-x="1732" 
d="M1300 0h-1187v23q31 8 47.5 26.5t25.5 68.5t9 142v914q0 92 -9 142t-25.5 68.5t-47.5 26.5v23h278v-23q-31 -8 -47.5 -26.5t-25.5 -68.5t-9 -142v-1065q0 -82 82 -82h588q135 0 201.5 39.5t113.5 140.5l19 -4zM1147 387q-78 0 -152.5 20t-142.5 62.5t-119 103.5
t-81.5 150t-30.5 195q0 150 73 272.5t193 189t260 66.5q78 0 152 -19.5t142 -62t119 -103.5t81 -150t30 -196q0 -101 -31.5 -188.5t-83.5 -149t-120 -105t-141.5 -64.5t-147.5 -21zM1198 426q116 0 201.5 54.5t128.5 146t43 207.5q0 80 -22 162.5t-64.5 156.5t-98.5 132
t-130 92t-154 34q-177 0 -276 -116t-99 -300q0 -141 59.5 -271t169.5 -214t242 -84zM963 1554l-2 5l20 28q11 17 31 17h499l2 -5l-20 -28q-11 -17 -31 -17h-499z" />
    <glyph glyph-name="L_Otilde" horiz-adv-x="1732" 
d="M1300 0h-1187v23q31 8 47.5 26.5t25.5 68.5t9 142v914q0 92 -9 142t-25.5 68.5t-47.5 26.5v23h278v-23q-31 -8 -47.5 -26.5t-25.5 -68.5t-9 -142v-1065q0 -82 82 -82h588q135 0 201.5 39.5t113.5 140.5l19 -4zM1147 387q-78 0 -152.5 20t-142.5 62.5t-119 103.5
t-81.5 150t-30.5 195q0 150 73 272.5t193 189t260 66.5q78 0 152 -19.5t142 -62t119 -103.5t81 -150t30 -196q0 -101 -31.5 -188.5t-83.5 -149t-120 -105t-141.5 -64.5t-147.5 -21zM1198 426q116 0 201.5 54.5t128.5 146t43 207.5q0 80 -22 162.5t-64.5 156.5t-98.5 132
t-130 92t-154 34q-177 0 -276 -116t-99 -300q0 -141 59.5 -271t169.5 -214t242 -84zM920 1538q61 93 86 117q44 45 96 45q33 0 125 -48t137 -48q35 0 59.5 23t49.5 73l16 -6q-41 -84 -83 -129t-95 -45q-34 0 -124.5 48t-131.5 48q-36 0 -62.5 -19.5t-58.5 -66.5z" />
    <glyph glyph-name="L_S" horiz-adv-x="1476" 
d="M1300 0h-1187v23q31 8 47.5 26.5t25.5 68.5t9 142v914q0 92 -9 142t-25.5 68.5t-47.5 26.5v23h278v-23q-31 -8 -47.5 -26.5t-25.5 -68.5t-9 -142v-1065q0 -82 82 -82h588q135 0 201.5 39.5t113.5 140.5l19 -4zM1067 385q-122 -1 -223 27t-154 63l-14 230l16 4
q61 -144 167.5 -217.5t248.5 -73.5q102 0 168.5 53.5t66.5 153.5q0 30 -9 57t-21 46t-37 38t-42.5 30.5t-52 25.5t-52.5 20.5t-57 19t-52 17.5q-144 48 -195 78q-110 65 -122 183q-1 15 -1 31q0 123 99.5 198t247.5 75q184 0 321 -60l8 -192l-16 -4q-44 111 -136 171
t-202 60q-114 0 -180 -49t-66 -139q0 -42 19 -78t45.5 -60t71 -46.5t77.5 -35t84 -28.5q11 -4 35 -11q41 -13 62.5 -20t60 -22.5t60 -28.5t49.5 -35t43 -46t25.5 -57t10.5 -71q0 -140 -101.5 -222.5t-252.5 -84.5z" />
    <glyph glyph-name="uni004C018F" horiz-adv-x="1669" 
d="M1300 0h-1187v23q31 8 47.5 26.5t25.5 68.5t9 142v914q0 92 -9 142t-25.5 68.5t-47.5 26.5v23h278v-23q-31 -8 -47.5 -26.5t-25.5 -68.5t-9 -142v-1065q0 -82 82 -82h588q135 0 201.5 39.5t113.5 140.5l19 -4zM1028 393q-175 0 -283 98.5t-116 258.5h821q10 58 10 112
q0 234 -106.5 366t-290.5 132q-131 0 -224.5 -49t-179.5 -144l-16 17q216 268 463 268q212 0 336.5 -138.5t124.5 -352.5q0 -244 -153.5 -406t-385.5 -162zM743 725q7 -43 30.5 -90.5t64.5 -95.5t110 -79.5t152 -31.5q130 0 221.5 80t124.5 217h-703z" />
    <glyph glyph-name="L_U" horiz-adv-x="1695" 
d="M1260 0h-1147v23q31 8 47.5 26.5t25.5 68.5t9 142v914q0 92 -9 142t-25.5 68.5t-47.5 26.5v23h278v-23q-31 -8 -47.5 -26.5t-25.5 -68.5t-9 -142v-1065q0 -82 82 -82h547q135 0 201.5 39.5t113.5 140.5l19 -4zM1141 389q-92 0 -171 23t-143.5 70.5t-101.5 130.5t-37 194
v367q0 92 -9 142t-25.5 68.5t-47.5 26.5v23h268v-23q-31 -8 -47 -26.5t-25 -68t-9 -142.5v-330q0 -114 31 -199t86 -133t121.5 -71t146.5 -23q47 0 93 12t93.5 42t83 76t58 119.5t22.5 166.5v303q0 103 -16 162t-40.5 81t-66.5 31v23h229v-23q-31 -8 -47.5 -26.5
t-25.5 -68.5t-9 -142v-332q0 -121 -33 -211t-91 -141.5t-129.5 -76t-157.5 -24.5z" />
    <glyph glyph-name="O_C" horiz-adv-x="2172" 
d="M825 -20q-107 0 -209 27.5t-195.5 87t-164 144t-112.5 207.5t-42 269q0 215 89.5 382t254.5 260t379 93q186 0 353 -86q176 84 391 84q132 0 263 -36.5t187 -68.5l9 -213l-17 -4q-60 129 -194 205t-336 76q-148 0 -275 -59q156 -92 248 -252.5t92 -384.5q0 -216 -83 -370
t-224 -245q141 -80 328 -80q168 0 295.5 80.5t189.5 245.5l21 -2l-33 -238q-69 -46 -225 -84t-304 -38q-202 0 -358 69q-153 -69 -328 -69zM879 18q129 0 241 45q-171 86 -265.5 246.5t-94.5 374.5q0 203 85.5 365t239.5 264q-151 98 -319 98q-169 0 -295.5 -76t-192 -208.5
t-65.5 -301.5q0 -154 50.5 -300.5t137.5 -258.5t212.5 -180t265.5 -68zM881 762q-2 -199 83 -375t244 -274q110 76 170 203t60 288q0 206 -88 391.5t-236 296.5q-108 -81 -170 -215.5t-63 -314.5z" />
    <glyph glyph-name="O_G" horiz-adv-x="2203" 
d="M825 -20q-107 0 -209 27.5t-195.5 87t-164 144t-112.5 207.5t-42 269q0 215 89.5 382t254.5 260t379 93q177 0 332 -76q151 74 322 74q159 0 286 -38t185 -75l8 -211l-16 -4q-27 56 -69.5 105.5t-103.5 93t-146.5 69t-184.5 25.5q-140 0 -252 -53q163 -89 261.5 -253.5
t98.5 -395.5q0 -216 -83 -370.5t-226 -246.5q145 -82 315 -82q126 0 234 65t149 148l-4 236q-2 73 -21 104.5t-83 44.5v23h215v-393q-64 -104 -218 -182t-329 -78q-190 0 -346 67q-152 -67 -324 -67zM879 18q128 0 237 45q-169 86 -262.5 248t-93.5 379q0 200 82.5 366
t226.5 267q-144 88 -303 88q-169 0 -295.5 -76t-192 -208.5t-65.5 -301.5q0 -154 50.5 -300.5t137.5 -258.5t212.5 -180t265.5 -68zM870 803q-2 -207 88 -396t250 -294q110 76 170 203t60 288q0 214 -93 404t-249 299q-105 -78 -165 -207t-61 -297z" />
    <glyph glyph-name="O_O" horiz-adv-x="2381" 
d="M825 -20q-107 0 -209 27.5t-195.5 87t-164 144t-112.5 207.5t-42 269q0 215 89.5 382t254.5 260t379 93q172 0 322 -72q150 72 336 72q106 0 208 -28t195 -88t163.5 -145.5t112.5 -208.5t42 -269q0 -149 -42 -273t-112.5 -207t-164.5 -141t-195 -84t-207 -26
q-178 0 -326 71q-151 -71 -332 -71zM879 18q136 0 245 50q-166 87 -265 250.5t-99 396.5q0 199 78.5 358.5t220.5 255.5q-141 82 -293 82q-169 0 -295.5 -76t-192 -208.5t-65.5 -301.5q0 -154 50.5 -300.5t137.5 -258.5t212.5 -180t265.5 -68zM1536 18q256 0 407.5 161.5
t151.5 424.5q0 208 -87 393t-243 299.5t-342 114.5q-136 0 -243 -49q166 -87 266 -252t100 -399q0 -214 -81 -367.5t-220 -243.5q138 -82 291 -82zM870 825q0 -215 94.5 -407t252.5 -299q106 75 163.5 200.5t57.5 284.5q0 216 -94.5 407.5t-253.5 297.5
q-106 -76 -163 -202.5t-57 -281.5z" />
    <glyph glyph-name="R_A" horiz-adv-x="2113" 
d="M1444 -29q-92 0 -171 26.5t-137.5 71.5t-109.5 103t-93 122t-82.5 128t-82.5 122t-87 103t-104 71.5t-126 26.5h-142v-485q0 -92 9 -142t25.5 -68.5t47.5 -26.5v-23h-278v23q31 8 47.5 26.5t25.5 68.5t9 142v914q0 92 -9 142t-25.5 68.5t-47.5 26.5v23h376q279 0 408 -79
t129 -233q0 -155 -115 -257t-321 -117q93 -20 171 -71t133 -115t106.5 -137.5t103 -143t109 -126t138.5 -90.5t179 -34q156 0 280 112l15 -16q-68 -66 -164.5 -111t-216.5 -45zM526 774q178 0 275.5 79t97.5 224q0 330 -487 330q-29 0 -103 -4v-629h217zM1149 389v23
q38 13 72.5 56.5t81.5 162.5l272 674q11 24 -2 55l-19 41l99 41l329 -811q49 -119 82 -162.5t66 -56.5v-23h-240v23q23 6 32.5 15t7.5 34t-15 63t-41 107l-57 141h-428l-58 -141q-27 -68 -38 -112t-6 -72t30 -35v-23h-168zM1399 797h407l-204 503z" />
    <glyph glyph-name="R_Aacute" horiz-adv-x="2113" 
d="M1444 -29q-92 0 -171 26.5t-137.5 71.5t-109.5 103t-93 122t-82.5 128t-82.5 122t-87 103t-104 71.5t-126 26.5h-142v-485q0 -92 9 -142t25.5 -68.5t47.5 -26.5v-23h-278v23q31 8 47.5 26.5t25.5 68.5t9 142v914q0 92 -9 142t-25.5 68.5t-47.5 26.5v23h376q279 0 408 -79
t129 -233q0 -155 -115 -257t-321 -117q93 -20 171 -71t133 -115t106.5 -137.5t103 -143t109 -126t138.5 -90.5t179 -34q156 0 280 112l15 -16q-68 -66 -164.5 -111t-216.5 -45zM526 774q178 0 275.5 79t97.5 224q0 330 -487 330q-29 0 -103 -4v-629h217zM1149 389v23
q38 13 72.5 56.5t81.5 162.5l272 674q11 24 -2 55l-19 41l99 41l329 -811q49 -119 82 -162.5t66 -56.5v-23h-240v23q23 6 32.5 15t7.5 34t-15 63t-41 107l-57 141h-428l-58 -141q-27 -68 -38 -112t-6 -72t30 -35v-23h-168zM1792 1622l-299 -106l-8 10l203 153q44 33 73 33
q25 0 51.5 -16t26.5 -33q0 -24 -47 -41zM1399 797h407l-204 503z" />
    <glyph glyph-name="R_Abreve" horiz-adv-x="2113" 
d="M1444 -29q-92 0 -171 26.5t-137.5 71.5t-109.5 103t-93 122t-82.5 128t-82.5 122t-87 103t-104 71.5t-126 26.5h-142v-485q0 -92 9 -142t25.5 -68.5t47.5 -26.5v-23h-278v23q31 8 47.5 26.5t25.5 68.5t9 142v914q0 92 -9 142t-25.5 68.5t-47.5 26.5v23h376q279 0 408 -79
t129 -233q0 -155 -115 -257t-321 -117q93 -20 171 -71t133 -115t106.5 -137.5t103 -143t109 -126t138.5 -90.5t179 -34q156 0 280 112l15 -16q-68 -66 -164.5 -111t-216.5 -45zM526 774q178 0 275.5 79t97.5 224q0 330 -487 330q-29 0 -103 -4v-629h217zM1149 389v23
q38 13 72.5 56.5t81.5 162.5l272 674q11 24 -2 55l-19 41l99 41l329 -811q49 -119 82 -162.5t66 -56.5v-23h-240v23q23 6 32.5 15t7.5 34t-15 63t-41 107l-57 141h-428l-58 -141q-27 -68 -38 -112t-6 -72t30 -35v-23h-168zM1645 1513q-75 0 -123.5 49t-98.5 162l15 7
q38 -62 83 -93.5t124 -31.5t124.5 32t81.5 93l13 -7q-50 -114 -97.5 -162.5t-121.5 -48.5zM1399 797h407l-204 503z" />
    </font>
</defs>
</svg>
