<?xml version="1.0" standalone="no"?>
<!DOCTYPE svg PUBLIC "-//W3C//DTD SVG 1.1//EN" "http://www.w3.org/Graphics/SVG/1.1/DTD/svg11.dtd" >
<svg xmlns="http://www.w3.org/2000/svg" xmlns:xlink="http://www.w3.org/1999/xlink" version="1.1">
<metadata>
Created by FontForge 20201107 at Wed Nov  5 09:27:28 2025
 By 
Elena Genova
</metadata>
<defs>
<font id="TheSeasons-LightItalic" horiz-adv-x="0" >
  <font-face 
    font-family="The Seasons Light"
    font-weight="300"
    font-style="italic"
    font-stretch="normal"
    units-per-em="2048"
    panose-1="0 0 0 0 0 0 0 0 0 0"
    ascent="1638"
    descent="-410"
    x-height="1038"
    cap-height="1638"
    bbox="-1077 -788 3242 2191"
    underline-thickness="102"
    underline-position="-255"
    slope="-25"
    unicode-range="U+0020-2260"
  />
<missing-glyph horiz-adv-x="1372" 
d="M1124 2191v-2744h-868v2744h868zM913 319h-454v-309h454v309zM823 229v-129h-274v129h274zM913 795h-274v-154h94v64h90v-130h-274v220h-90v-310h454v310zM913 1128h-90v-180h-364v-94h454v274zM913 1294h-454v-90h180v-102h-180v-90h274v192h180v90zM639 1561v-99h-90
v99h90zM733 1653h-274v-285h454v94h-180v191zM913 2007h-452v-90h178v-102h-180v-91h454v91h-180v102h180v90zM913 -53h-454v-90h192l-192 -129v-93h454v93h-278l190 129h88v90z" />
    <glyph glyph-name="f_f" unicode="ff" horiz-adv-x="1288" 
d="M-555 -424q-33 0 -47 7t-14 24q0 30 31 68t77 38q72 0 232 -20q48 30 83 59t83 84t99.5 144t106.5 213l346 782h-163l14 29h162q53 118 107 210t127.5 177t156 140.5t190.5 88.5t234 33q78 0 178 -13.5t172 -35.5q133 49 285 49q215 0 215 -49q0 -32 -36.5 -66.5
t-80.5 -34.5q-15 0 -30.5 1.5t-37 6t-36.5 8t-47.5 13t-51 15t-65 20t-72.5 22.5q-86 -23 -152.5 -79.5t-115.5 -136.5t-109 -214l-69 -155h268l-15 -29h-266l-286 -639q-72 -161 -171.5 -301t-210 -241.5t-230 -159.5t-228.5 -58q-62 0 -62 31q0 30 31.5 68t77.5 38
q75 0 235 -20q47 29 82.5 59t82.5 85t98 143.5t106 212.5l348 782h-510l-288 -639q-98 -216 -236 -388.5t-295 -272t-303 -99.5zM582 1004h508q79 174 168.5 302.5t205.5 211.5l-407 84q-61 -16 -110.5 -43.5t-88 -63t-75.5 -90t-66 -109.5t-66 -137z" />
    <glyph glyph-name="f_f_i" unicode="ffi" horiz-adv-x="1847" 
d="M-555 -424q-33 0 -47 7t-14 24q0 28 29.5 63t68.5 35q22 0 104 -5t138 -7q48 30 83.5 59.5t83.5 84.5t99.5 144t105.5 212l346 782h-163l14 29h162q52 117 106.5 209t127.5 177t155.5 141t191 89t234.5 33q176 0 344 -51q130 51 291 51q80 0 184 -20.5t158 -49.5
q32 -17 4 -41l-445 -371l-12 13l363 325q-269 68 -465 93q-75 -19 -133 -55t-106 -95.5t-84.5 -125t-82.5 -167.5l-69 -155h206l-14 -29h-207l-289 -639q-98 -216 -235.5 -388t-295 -272t-302.5 -100q-62 0 -62 31q0 28 30 63t69 35q22 0 103.5 -5t137.5 -7q48 30 83.5 59.5
t84 84.5t100 144t105.5 212l346 782h-510l-288 -639q-98 -216 -236 -388t-295.5 -272t-302.5 -100zM1391 -14q-52 0 -76.5 32t-24.5 72q0 64 63 186.5t139 235.5t139 222.5t63 150.5q0 26 -15 41.5t-41 15.5q-73 0 -206 -117l-15 21q100 86 186 139t134 53q49 0 72.5 -32
t23.5 -72q0 -48 -41 -132.5t-100 -175.5t-117.5 -182t-99.5 -173t-41 -128q0 -57 55 -57q75 0 203 113l14 -21q-99 -85 -185 -138.5t-130 -53.5zM582 1004h508q160 356 366 509l-399 89q-75 -19 -133 -55t-106 -95.5t-84.5 -125t-82.5 -167.5z" />
    <glyph glyph-name="f_i" unicode="fi" horiz-adv-x="1193" 
d="M-555 -424q-33 0 -47 7t-14 24q0 28 29.5 63t68.5 35q22 0 104 -5t138 -7q47 29 82.5 59t83.5 85t99.5 144t106.5 212l348 782h-163l14 29h162q53 118 107 209.5t127.5 176.5t156 141t190.5 89t234 33q78 0 172 -20.5t149 -49.5q32 -17 4 -41l-444 -371l-12 13l346 309
l-424 106q-75 -20 -133.5 -55t-107 -94t-86 -124.5t-83.5 -166.5l-71 -155h209l-15 -29h-207l-290 -639q-98 -216 -236 -388t-295.5 -272t-302.5 -100zM737 -14q-52 0 -76 31.5t-24 72.5q0 64 63 186.5t138.5 235.5t138.5 222.5t63 150.5q0 26 -14.5 41.5t-40.5 15.5
q-74 0 -207 -117l-14 21q224 192 319 192q49 0 73 -32t24 -72q0 -48 -41 -132.5t-100 -175.5l-118 -182t-100 -173t-41 -128q0 -57 56 -57q74 0 202 113l15 -21q-99 -85 -185.5 -138.5t-130.5 -53.5z" />
    <glyph glyph-name="f_l" unicode="fl" horiz-adv-x="1167" 
d="M-555 -424q-33 0 -47 7t-14 24q0 30 31 68t77 38q72 0 232 -20q48 30 83 59t83 84t99.5 144t106.5 213l346 782h-163l14 29h162q53 118 107 210t127.5 177t156 140.5t190.5 88.5t234 33q198 0 385 -66q167 66 375 66q170 0 170 -43q0 -29 -41 -68t-88 -39q-19 0 -41.5 3
t-59.5 11.5t-62.5 15.5t-88 23.5t-99.5 26.5q-149 -40 -258 -142.5t-227 -320.5l-356 -657q-119 -221 -119 -326q0 -61 61 -61q67 0 207 123l14 -21q-99 -85 -185 -138.5t-130 -53.5t-72 35.5t-28 80.5q0 125 135 365l299 539q189 341 428 495l-432 101
q-61 -16 -110.5 -43.5t-88 -63t-75.5 -90t-66 -109.5t-66 -137l-69 -155h268l-14 -29h-269l-288 -639q-98 -216 -236 -388.5t-295 -272t-303 -99.5z" />
    <glyph glyph-name=".notdef" horiz-adv-x="1372" 
d="M1124 2191v-2744h-868v2744h868zM913 319h-454v-309h454v309zM823 229v-129h-274v129h274zM913 795h-274v-154h94v64h90v-130h-274v220h-90v-310h454v310zM913 1128h-90v-180h-364v-94h454v274zM913 1294h-454v-90h180v-102h-180v-90h274v192h180v90zM639 1561v-99h-90
v99h90zM733 1653h-274v-285h454v94h-180v191zM913 2007h-452v-90h178v-102h-180v-91h454v91h-180v102h180v90zM913 -53h-454v-90h192l-192 -129v-93h454v93h-278l190 129h88v90z" />
    <glyph glyph-name=".null" 
 />
    <glyph glyph-name="nonmarkingreturn" horiz-adv-x="682" 
 />
    <glyph glyph-name="space" unicode=" " horiz-adv-x="409" 
 />
    <glyph glyph-name="space" unicode="&#xa0;" horiz-adv-x="409" 
 />
    <glyph glyph-name="exclam" unicode="!" horiz-adv-x="475" 
d="M127 350q115 242 207.5 453t132.5 313t77.5 204t37.5 103q24 60 80 60q42 0 58.5 -16t6.5 -46q-8 -25 -54.5 -106.5t-113.5 -194.5t-179 -325t-226 -451zM0 -29q-22 0 -51 23.5t-29 52.5q0 41 42.5 87t80.5 46q24 0 48 -26.5t24 -53.5q0 -39 -41.5 -84t-73.5 -45z" />
    <glyph glyph-name="quotedbl" unicode="&#x22;" horiz-adv-x="423" 
d="M266 1022l133 301q23 55 74 55q63 0 31 -59q-8 -16 -49.5 -73.5t-97.5 -133t-70 -94.5zM471 1022l133 301q23 55 74 55q63 0 31 -59q-8 -16 -49.5 -73.5t-97.5 -133t-70 -94.5z" />
    <glyph glyph-name="numbersign" unicode="#" horiz-adv-x="1402" 
d="M600 -2l246 442h-406l-245 -442h-37l245 442h-436l17 29h436l278 500h-436l14 28h437l243 437h37l-243 -437h405l244 437h37l-244 -437h438l-14 -28h-438l-279 -500h438l-16 -29h-438l-246 -442h-37zM457 469h405l279 500h-406z" />
    <glyph glyph-name="dollar" unicode="$" horiz-adv-x="940" 
d="M190 -12h-6l-57 -129l-29 2l58 129q-107 7 -168.5 56t-55.5 147q7 111 154 241l14 -10q-30 -62 -30 -123q0 -66 32.5 -122t98.5 -87l331 754q-73 157 -73 244q0 123 96 215t240 139l61 139l29 -2l-56 -127q95 27 187 27q81 0 146 -19t65 -49q0 -35 -39.5 -65.5
t-75.5 -30.5q-24 0 -54.5 6.5t-54.5 14t-88 28.5t-110 35l-193 -438q22 -50 82 -162t91.5 -193t31.5 -151q0 -133 -88 -242t-231 -168t-308 -59zM225 82q61 -23 135 -23q145 0 249 85.5t104 220.5q0 39 -8.5 80.5t-30.5 96.5t-34.5 83t-48.5 100l-44 88zM559 1208
q-8 -94 39 -211l180 410q-206 -72 -219 -199z" />
    <glyph glyph-name="percent" unicode="%" horiz-adv-x="1198" 
d="M420 813q-55 0 -94 37t-39 111q0 76 38.5 162.5t100.5 158t149 119t175 47.5q56 0 93.5 -32t37.5 -89q0 -53 -24 -121t-68 -136.5t-100 -126t-127 -94t-142 -36.5zM477 852q62 0 120.5 50.5t97.5 123t63 150t26 135.5q0 46 -23.5 74t-66.5 28q-65 0 -125 -46t-99.5 -114
t-63 -143t-23.5 -135q0 -56 26 -89.5t68 -33.5zM641 -47q-55 0 -94 36.5t-39 110.5q0 61 24.5 129.5t69 131.5t101 114t127 82t141.5 31q56 0 93.5 -32t37.5 -89q0 -53 -24 -121t-68 -136.5t-100 -126t-127 -94t-142 -36.5zM698 -8q62 0 120.5 50.5t98 123t63.5 150
t26 135.5q0 46 -24 74t-67 28q-65 0 -125 -46t-99.5 -114t-63 -143t-23.5 -135q0 -56 26 -89.5t68 -33.5zM1313 1458l20 -16l-1272 -1469l-20 17z" />
    <glyph glyph-name="ampersand" unicode="&#x26;" horiz-adv-x="1865" 
d="M1331 0q-166 0 -360 260q-105 -122 -263 -198t-278 -76q-163 0 -268 97.5t-105 260.5q0 123 83 246.5t218 214.5t289 133q-26 98 -26 180q0 107 35 197.5t93 152t134 104.5t156.5 62.5t160.5 18.5q79 0 134 -16t55 -38t-34.5 -51.5t-76.5 -29.5q-9 0 -19.5 1t-24 4
t-25 5.5t-29 8.5t-29.5 9.5t-34 11t-34 12t-38 14t-39 13.5q-46 -12 -86.5 -30.5t-82 -51t-71 -74t-48 -102.5t-18.5 -133q0 -87 30.5 -206t82 -244.5t123.5 -248.5t150 -219.5t167 -156t170 -59.5q74 0 137.5 92t95.5 215t32 235q0 143 -48 216t-167 85l-62 3h-33
q-12 0 -16.5 7t2.5 17q25 34 45 45q25 14 51 14h502q21 0 30 -3t3 -11q-36 -51 -78 -72q-25 -14 -47 -14l-291 10q213 -65 213 -262q0 -92 -38.5 -205t-100.5 -211.5t-148.5 -165.5t-173.5 -67zM178 397q0 -158 95.5 -251t248.5 -93q147 0 256 76q51 35 95.5 86.5t62.5 91.5
q-92 133 -167 293.5t-114 304.5q-126 -18 -234.5 -87.5t-175.5 -181.5t-67 -239z" />
    <glyph glyph-name="quotesingle" unicode="'" horiz-adv-x="321" 
d="M266 1022l133 301q23 55 74 55q63 0 31 -59q-8 -16 -49.5 -73.5t-97.5 -133t-70 -94.5z" />
    <glyph glyph-name="parenleft" unicode="(" horiz-adv-x="585" 
d="M203 -555q-158 234 -158 590q0 328 136.5 636t394.5 555.5t602 389.5l8 -21q-194 -79 -363.5 -210.5t-296.5 -294.5t-219.5 -352.5t-142 -390t-55.5 -400.5q-3 -65 2 -135t32.5 -174.5t77.5 -180.5z" />
    <glyph glyph-name="parenright" unicode=")" horiz-adv-x="544" 
d="M354 1610q166 -229 178 -584q12 -328 -113 -641t-374 -569t-588 -410l-10 21q191 85 356 222.5t286 305t207 359.5t129 394t42 402q0 66 -7.5 135.5t-38.5 172.5t-83 177z" />
    <glyph glyph-name="asterisk" unicode="*" horiz-adv-x="784" 
d="M770 993q-28 0 -41 24t-6 62l43 236l-182 -154q-29 -25 -57 -26t-42 24q-14 23 0.5 47t51.5 37l225 80l-225 80q-37 13 -51.5 37t-0.5 47q14 25 42 24t57 -26l182 -154l-43 236q-7 38 6 62t41 24t41 -24t6 -62l-43 -236l182 154q29 25 57 26t42 -24q14 -23 -0.5 -47
t-50.5 -37l-226 -80l226 -80q36 -13 50.5 -37t0.5 -47q-14 -25 -42 -24t-57 26l-182 154l43 -236q7 -38 -6 -62t-41 -24z" />
    <glyph glyph-name="plus" unicode="+" horiz-adv-x="831" 
d="M809 657l-10 -24h-318l-110 -301h-27l111 301h-324l10 24h322l110 301l27 3l-111 -304h320z" />
    <glyph glyph-name="comma" unicode="," horiz-adv-x="368" 
d="M-211 -195q130 90 133 148q1 23 -21.5 48.5t-23.5 47.5q-2 31 37.5 81t77.5 50q32 0 54 -35t22 -73q0 -33 -23.5 -71t-69 -78.5t-81.5 -68.5t-91 -67z" />
    <glyph glyph-name="hyphen" unicode="-" horiz-adv-x="645" 
d="M236 504q-66 0 -96.5 -12t-71.5 -46l-17 17q43 43 65.5 62t64 36t93.5 17h129q81 0 114.5 13t80.5 56l16 -16q-73 -73 -117.5 -100t-119.5 -27h-141z" />
    <glyph glyph-name="period" unicode="." horiz-adv-x="315" 
d="M-66 -29q-22 0 -50.5 23.5t-28.5 52.5q0 41 42 87t80 46q24 0 48 -26.5t24 -53.5q0 -39 -41.5 -84t-73.5 -45z" />
    <glyph glyph-name="slash" unicode="/" horiz-adv-x="579" 
d="M-520 -553l1591 2191h37l-1591 -2191h-37z" />
    <glyph glyph-name="zero" unicode="0" horiz-adv-x="1064" 
d="M207 -14q-91 0 -152 62t-61 185q0 125 44 270.5t118 282.5t174 265.5t208 223.5t225.5 152.5t221.5 57.5q92 0 150.5 -57.5t58.5 -157.5q0 -122 -43.5 -268.5t-116 -287t-172 -273.5t-207 -233.5t-225.5 -161t-223 -60.5zM303 39q75 0 163 57.5t170.5 151.5t160 218.5
t135 254t92.5 262t35 238.5q0 117 -44 167t-126 50q-73 0 -161 -56t-171 -148t-162 -213t-138 -247t-94.5 -255t-35.5 -232q0 -122 45 -185t131 -63z" />
    <glyph glyph-name="one" unicode="1" horiz-adv-x="647" 
d="M41 0q-10 0 -14.5 7t0.5 18l622 1331l-227 -105l-8 21q313 150 405 225q21 15 28 3q5 -7 -7 -15q-46 -28 -76 -92l-635 -1379q-6 -14 -23 -14h-65z" />
    <glyph glyph-name="two" unicode="2" horiz-adv-x="1163" 
d="M-115 0l-12 20l92 62q172 114 316.5 220t248.5 191t187.5 165.5t136.5 141t92 119.5t58 98.5t30 81t13 63.5t2 50q0 81 -56 133t-157 52q-185 0 -371 -189l-14 19q240 254 458 258q131 0 201 -62.5t70 -162.5q0 -148 -106.5 -303.5t-356 -362t-694.5 -506.5h557
q102 0 159.5 10.5t88 28t75.5 59.5l17 -12q-12 -13 -49 -57.5t-60 -69.5q-36 -47 -100 -47h-826z" />
    <glyph glyph-name="three" unicode="3" horiz-adv-x="985" 
d="M156 -14q-95 0 -163.5 21.5t-68.5 49.5q0 21 37.5 50.5t75.5 29.5q35 0 80.5 -13t123 -43t113.5 -42q85 17 163.5 63.5t139.5 113.5t97.5 157.5t36.5 187.5q0 102 -56.5 157.5t-171.5 55.5q-66 0 -131 -26q-58 -22 -68 -19q-4 1 -6 4q-7 10 0.5 21.5t30.5 15.5
q75 14 151.5 42.5t150 72t130.5 96t92 120t35 138.5q0 78 -52.5 125t-152.5 47q-167 0 -333 -147l-15 18q219 200 412 203q121 0 187.5 -57t66.5 -146q0 -73 -32.5 -141t-89.5 -123t-123 -98.5t-144 -79.5h10q113 0 172 -65.5t59 -162.5q0 -113 -62.5 -226.5t-164.5 -201.5
t-242.5 -143t-287.5 -55z" />
    <glyph glyph-name="four" unicode="4" horiz-adv-x="1179" 
d="M506 0q-10 0 -14.5 7t0.5 18l172 358q-32 3 -114.5 12t-135.5 14t-125.5 10t-126.5 5q-88 0 -137 -33l-11 19q4 4 11.5 10t19.5 16t23 19l1181 1018q12 12 25 12q8 0 16 -5.5t8 -11.5q0 -4 -8 -24l-477 -991q16 -2 43 -2q120 0 205 94l14 -15q-75 -79 -138 -119t-130 -40
q-19 0 -31 2l-172 -359q-6 -14 -24 -14h-74zM139 481q78 19 146 19q51 0 115 -4.5t98 -8t114 -13.5t90 -11l414 856z" />
    <glyph glyph-name="five" unicode="5" horiz-adv-x="933" 
d="M106 -14q-97 0 -163 18.5t-66 46.5q0 25 36 55.5t75 30.5q35 0 81.5 -13.5t126.5 -44t109 -40.5q176 35 303 181.5t127 340.5q1 62 -22.5 113.5t-65 88t-103.5 64.5t-132 45t-156 29l-6 10l377 574q197 -33 344 -33q145 0 225 80l16 -16q-13 -12 -40.5 -39t-41.5 -40
t-40 -32.5t-47.5 -28.5t-52.5 -16.5t-66 -7.5q-162 0 -326 37l-254 -390q252 -35 386 -124.5t134 -245.5q0 -113 -62.5 -229t-164.5 -207t-243.5 -149t-287.5 -58z" />
    <glyph glyph-name="six" unicode="6" horiz-adv-x="1134" 
d="M379 -14q-130 0 -202.5 85.5t-72.5 241.5q0 209 99 413.5t262 362.5t384.5 264t455.5 128l2 -23q-187 -19 -350.5 -87.5t-279 -162t-207 -211.5t-144.5 -229.5t-82 -222.5q156 191 333.5 314.5t317.5 123.5q94 0 151.5 -56t57.5 -165q0 -82 -35.5 -185.5t-103.5 -206.5
t-155 -189.5t-200.5 -140.5t-230.5 -54zM217 354q0 -152 61 -233.5t185 -81.5q74 0 144.5 35t124.5 92.5t99.5 130t75 148t46 145t16.5 123.5q0 116 -43.5 162.5t-126.5 46.5q-108 0 -272 -128t-296 -307q-14 -69 -14 -133z" />
    <glyph glyph-name="seven" unicode="7" horiz-adv-x="927" 
d="M115 0q-12 0 -16 7t3 18l1104 1341q-84 -12 -182 -12q-59 0 -218 17.5t-222 17.5q-129 0 -254 -142l-21 15q210 232 381 227q52 -1 230 -20t243 -19q82 0 129 27l11 -17l-1074 -1448q-7 -12 -26 -12h-88z" />
    <glyph glyph-name="eight" unicode="8" horiz-adv-x="1032" 
d="M324 -14q-54 0 -109.5 15t-106 44t-82.5 80t-32 115q0 78 32 149t82.5 125t123 103t145 84t155.5 65q-68 61 -105.5 121.5t-37.5 138.5q0 123 72.5 229.5t191 168t250.5 61.5q124 0 197.5 -59.5t73.5 -147.5q0 -320 -486 -490q45 -35 68.5 -54.5t58.5 -54t52.5 -63
t31.5 -68t14 -81.5q0 -122 -83 -233.5t-220 -179.5t-286 -68zM100 256q0 -105 76.5 -173.5t200.5 -68.5q169 0 294.5 119t125.5 283q0 32 -7 60.5t-22.5 55.5t-30 47.5t-42 46t-44 40.5t-50 42t-48.5 40q-98 -33 -177 -77.5t-142.5 -104.5t-98.5 -139t-35 -171zM479 1085
q0 -44 14.5 -83t46 -76t57.5 -61t73 -62q179 65 290 186.5t111 255.5q0 97 -61.5 151t-163.5 54q-152 0 -259.5 -106t-107.5 -259z" />
    <glyph glyph-name="nine" unicode="9" horiz-adv-x="1134" 
d="M973 1483q129 0 201.5 -86t72.5 -242q0 -167 -63 -333.5t-176.5 -307t-262 -253.5t-329.5 -184.5t-369 -88.5l-2 22q157 16 297.5 66t247.5 123.5t195.5 161.5t151.5 186.5t105 192t66 184.5q-156 -191 -333.5 -315t-317.5 -124q-94 0 -151.5 56t-57.5 166
q0 82 35.5 185.5t103.5 206.5t155 189.5t200.5 140.5t230.5 54zM383 756q0 -116 43.5 -162.5t126.5 -46.5q108 0 271.5 127.5t295.5 306.5q15 73 15 133q0 152 -61 234t-185 82q-74 0 -144.5 -35t-124.5 -92.5t-99.5 -130t-75 -148t-46 -145t-16.5 -123.5z" />
    <glyph glyph-name="colon" unicode=":" horiz-adv-x="399" 
d="M-12 -29q-22 0 -51 23.5t-29 52.5q0 41 42.5 87t80.5 46q24 0 47.5 -26.5t23.5 -53.5q0 -39 -41 -84t-73 -45zM354 776q-22 0 -51 23.5t-29 52.5q0 41 42.5 87t80.5 46q24 0 48 -26.5t24 -53.5q0 -39 -41.5 -84t-73.5 -45z" />
    <glyph glyph-name="semicolon" unicode=";" horiz-adv-x="399" 
d="M-158 -195q130 90 133 148q1 23 -21.5 48.5t-23.5 47.5q-2 31 37.5 81t77.5 50q32 0 54 -35t22 -73q0 -33 -23.5 -71t-68.5 -78.5t-81 -68.5t-91 -67zM354 776q-22 0 -51 23.5t-29 52.5q0 41 42.5 87t80.5 46q24 0 48 -26.5t24 -53.5q0 -39 -41.5 -84t-73.5 -45z" />
    <glyph glyph-name="less" unicode="&#x3c;" horiz-adv-x="929" 
d="M963 854l4 -25l-787 -200l633 -201l-8 -25l-674 213l2 25z" />
    <glyph glyph-name="equal" unicode="=" horiz-adv-x="847" 
d="M858 780l-10 -24h-668l10 24h668zM774 535l-10 -25h-668l10 25h668z" />
    <glyph glyph-name="greater" unicode="&#x3e;" horiz-adv-x="929" 
d="M61 403l-4 25l787 201l-633 200l8 25l674 -213l-2 -25z" />
    <glyph glyph-name="question" unicode="?" horiz-adv-x="774" 
d="M193 289q22 85 71 165t148 181q40 40 112.5 101t129.5 111.5t114.5 111t90 125t32.5 128.5q0 81 -56 133t-157 52q-185 0 -371 -189l-14 19q240 254 459 258q131 0 200.5 -62.5t69.5 -162.5q0 -72 -31.5 -139t-80 -117t-115.5 -103.5t-130.5 -95.5t-132.5 -96.5
t-114 -102.5q-69 -73 -95 -142t-38 -175h-92zM164 -29q-22 0 -51 23.5t-29 52.5q0 41 42.5 87t80.5 46q24 0 48 -26.5t24 -53.5q0 -39 -41.5 -84t-73.5 -45z" />
    <glyph glyph-name="at" unicode="@" horiz-adv-x="1906" 
d="M694 -350q-137 0 -255.5 39.5t-208.5 112.5t-141.5 187t-51.5 255q0 170 59 333t159.5 295t234.5 244t282 187.5t303.5 118t298.5 42.5q271 0 433.5 -132.5t162.5 -360.5q0 -116 -34 -223.5t-90.5 -190t-129.5 -154t-150.5 -121t-154 -85t-139.5 -52t-107 -16.5
q-46 0 -70 30t-24 79q0 102 96 299q-340 -416 -536 -416q-72 0 -108 54t-31 138q4 78 37.5 167t87.5 174t128.5 163.5t156.5 137.5t175.5 95t182.5 37q166 0 299 -49l34 -14q-70 -79 -157.5 -216t-158.5 -294t-71 -248q0 -36 16.5 -54.5t59.5 -18.5q40 0 94.5 19.5
t118.5 56.5t126 100t113 141.5t82 189t31 234.5q0 101 -32.5 183.5t-86 136.5t-126 91.5t-150 53.5t-160.5 16q-108 0 -222 -26t-223.5 -76.5t-211.5 -121t-188 -164.5t-149.5 -201t-99.5 -236.5t-36 -265.5t38.5 -242t102 -172.5t151.5 -108.5t179.5 -58t193.5 -13
q97 3 192 27t169.5 59.5t146 84t122 93t97.5 94.5l17 -14q-46 -56 -100 -108.5t-137.5 -112t-175 -102.5t-213.5 -72t-251 -29zM627 350q-12 -151 90 -151q85 0 211 116t299 334q81 145 192 305q-162 64 -274 64q-76 0 -147.5 -35t-125.5 -92t-99.5 -128.5t-75.5 -147
t-48 -143.5t-22 -122z" />
    <glyph glyph-name="A" unicode="A" horiz-adv-x="2203" 
d="M262 -29q-89 0 -159 29.5t-110.5 78t-61.5 106.5t-21 120q0 116 58.5 226.5t152 191t215 129.5t242.5 49q95 0 198.5 -21t164 -42t172.5 -65.5t149 -57.5q331 363 682 825l-400 -6q-53 -1 -92.5 -9t-74 -29t-55 -38t-60.5 -55l-17 14q127 141 187 189q40 32 110 32h524
q25 0 19 -24q-118 -525 -189 -913.5t-71 -485.5q0 -129 94 -129q78 0 205 115l16 -21q-214 -194 -319 -194q-50 0 -85.5 52t-27.5 167q15 171 80 512q-150 -125 -338 -125q-113 0 -238 33q-112 -120 -195 -203t-189 -175t-193 -147.5t-185 -92t-188 -36.5zM12 367
q0 -145 91 -237.5t229 -92.5q92 0 196 45.5t216.5 134t213.5 185.5t226 231q-92 26 -227.5 84.5t-246 95.5t-206.5 37q-107 0 -200.5 -41t-156.5 -109t-99 -155t-36 -178zM1290 707q153 -54 266 -54q131 0 238 99q62 327 160 751q-364 -474 -664 -796z" />
    <glyph glyph-name="B" unicode="B" horiz-adv-x="1523" 
d="M561 -14q-365 0 -559 24q-22 2 -22 15q0 14 57 45l43 28q1 1 4 3t4 3q32 24 57 58t64 104q88 154 262.5 508t267.5 514q74 132 203 215l53 35h-383q-53 -1 -92 -9t-75 -31t-54 -38.5t-61 -56.5l-17 14q127 141 187 189q40 32 108 32h600q203 0 297 -66t94 -179
q0 -132 -98.5 -242.5t-245.5 -171.5q84 -19 139.5 -79.5t55.5 -160.5q0 -111 -51.5 -223.5t-141 -206t-201.5 -167t-242 -115t-253 -41.5zM141 113q59 -9 229.5 -20t297.5 -11q291 -5 468 159t177 449q0 105 -56.5 174.5t-160.5 69.5h-269l19 29h250q94 0 186 56.5
t147.5 139t55.5 158.5q0 221 -361 221h-82q-12 -9 -23 -17.5t-21.5 -19l-17.5 -17.5t-17 -20.5t-14.5 -19t-15 -22.5t-13 -21.5t-15 -25.5t-14.5 -25q-93 -160 -265.5 -509t-256.5 -497q-38 -68 -71.5 -107t-80.5 -73z" />
    <glyph glyph-name="C" unicode="C" horiz-adv-x="1398" 
d="M680 -14q-108 0 -198 29.5t-150.5 79.5t-102 117t-60.5 140.5t-19 151.5q0 145 44.5 289.5t124 271t193.5 236t247.5 187.5t291.5 122.5t321 44.5q147 0 284.5 -38t137.5 -77q0 -32 -39 -66t-90 -34q-95 0 -510 164q-128 -20 -255.5 -79.5t-240.5 -154t-200 -212
t-138 -266t-51 -304.5q0 -102 30.5 -192.5t89 -162.5t153.5 -114t215 -41q258 0 469 196l16 -20q-132 -127 -268.5 -197.5t-294.5 -70.5z" />
    <glyph glyph-name="D" unicode="D" horiz-adv-x="1761" 
d="M627 -12q-316 0 -494 22q-22 2 -22 15q0 4 3.5 8.5t11.5 10.5t14.5 10.5t19 12t18.5 11.5l29 20l4 4q32 25 59.5 60.5t65.5 103.5q88 154 253.5 491.5t258.5 497.5q74 132 203 215l88 58l14 -21q-13 -9 -24 -17.5t-22 -19.5t-18 -17.5t-17 -20.5t-14.5 -19.5t-15.5 -23
t-13.5 -21.5t-15 -25.5t-14.5 -25.5q-93 -160 -256 -492.5t-247 -480.5q-38 -68 -71.5 -107t-80.5 -73l-74 -51h2q59 -9 209.5 -20t276.5 -11q277 0 488 101t323.5 279.5t111.5 405.5q-1 153 -53 283t-147 224.5t-237.5 148t-315.5 53.5q-238 0 -461 -156l-12 21
q291 209 598 209q172 0 315 -58t234.5 -153.5t141.5 -214.5t50 -244q0 -176 -67 -334.5t-181.5 -277t-263 -206t-317.5 -132t-338 -43.5z" />
    <glyph glyph-name="E" unicode="E" horiz-adv-x="1296" 
d="M-35 0q-22 0 -22 18q0 5 4 10.5t14.5 13.5t16 12t20.5 14l43 30q35 26 62 61.5t67 106.5q100 178 293 578h-207v28h221q133 275 217 418q82 145 203 215l57 33h-344q-31 0 -58.5 -4.5t-46 -7.5t-43 -17t-33.5 -18t-35 -27t-30.5 -27t-35.5 -34l-17 14q127 141 187 189
q40 32 110 32h998q123 0 123 -73q0 -53 -57 -112.5t-185 -156.5l-12 19q91 74 127 113.5t36 66.5q0 21 -19 32t-71 11h-555q-14 -9 -26.5 -20t-21 -19t-20 -22.5t-16.5 -20.5t-16.5 -25t-14.5 -23.5t-16.5 -28t-15.5 -27.5q-95 -162 -248 -480h664v-28h-678
q-173 -358 -254 -500q-38 -68 -71.5 -107t-80.5 -73l-92 -64h791q66 0 116.5 17.5t79 40t74.5 66.5l12 12l17 -15q-124 -137 -187 -188q-42 -33 -123 -33h-901z" />
    <glyph glyph-name="F" unicode="F" horiz-adv-x="1497" 
d="M113 0q-23 0 -23 14q0 13 53 52l43 32q35 26 62 61.5t67 106.5q87 151 295 578h-151v28h166q136 279 225 435q74 132 203 215l24 16h-323q-53 0 -92 -8t-75.5 -31.5t-54 -38.5t-61.5 -57l-16 14q6 6 28 31t31 34.5t29 31t33 34t31 29t34 29.5q40 32 111 32h997
q123 0 123 -73q0 -53 -57 -112.5t-185 -156.5l-12 19q91 75 127.5 114t36.5 66q0 21 -19 32t-71 11h-564q-12 -10 -22.5 -19.5t-21.5 -23t-17 -21t-17.5 -26t-15 -23.5t-17.5 -29t-16 -28q-93 -159 -256 -496h637v-28h-651q-186 -376 -256 -500q-39 -68 -71.5 -107.5
t-79.5 -72.5l-95 -64h23h233q17 0 17 -12q0 -9 -17.5 -32t-38.5 -42q-16 -14 -59 -14h-274z" />
    <glyph glyph-name="G" unicode="G" horiz-adv-x="1531" 
d="M668 -14q-108 0 -198 29.5t-150.5 79.5t-102.5 117t-61 140.5t-19 151.5q0 173 62.5 344t173.5 312.5t255.5 252t318.5 174t351 68.5q167 5 303 -28.5t136 -82.5q0 -27 -38 -63.5t-87 -36.5q-22 0 -55 8t-84.5 27t-91.5 35t-119.5 49t-124.5 51q-126 -23 -252.5 -84
t-239 -157t-199 -214t-137.5 -266.5t-51 -304.5q0 -101 32 -192t92 -163t156 -114t216 -41q145 0 272.5 66t249.5 233q54 124 139 338l-520 -8q-23 0 -23 14q0 28 56 80q12 10 59 10l529 -2h22q7 0 9.5 -2.5t1.5 -8t-5 -16.5q-97 -256 -189 -462.5t-135.5 -290.5
t-108.5 -201l-15 -27q-57 -105 -162 -188q-123 -95 -279 -150l-12 25q113 38 180.5 99t141.5 177q138 218 268 512q-120 -147 -264.5 -218.5t-300.5 -71.5z" />
    <glyph glyph-name="H" unicode="H" horiz-adv-x="1767" 
d="M1264 -14q-41 0 -64.5 27t-23.5 73q0 87 143 381l186 377h-760q-178 -356 -245 -475q-81 -145 -252 -258.5t-342 -122.5q-56 -2 -99 6.5t-43 30.5q0 24 36 54t85 30q42 0 240 -35q39 18 67.5 36.5t71.5 64t84 112.5q86 145 285 557h-195v28h207q160 329 234 455
q39 69 85.5 116t116.5 91l19 12l-363 -12q-70 -2 -122 -20t-80.5 -40t-79.5 -71l-17 14q127 141 187 189q40 32 108 32h461q25 0 25 -14q0 -9 -24 -33t-44 -37q-9 -6 -17.5 -13t-18.5 -19t-15.5 -19t-17 -25.5t-15.5 -25t-18.5 -31.5t-18.5 -32q-93 -160 -272 -517h762
l151 310q146 296 345.5 463t445.5 167q135 0 135 -34q0 -25 -29 -51.5t-65 -26.5q-34 0 -134.5 18t-142.5 23q-96 -35 -180 -120.5t-166 -250.5l-446 -907q-136 -276 -136 -342q0 -49 50 -49q84 0 233 155l16 -20q-221 -221 -333 -221z" />
    <glyph glyph-name="I" unicode="I" horiz-adv-x="770" 
d="M-186 0q-23 0 -23 16q0 12 24.5 38t47.5 38q16 8 47 8h143q52 39 85.5 75.5t64.5 92.5q97 162 276 535.5t266 523.5q39 69 84.5 113t118.5 84l27 14h-144q-46 0 -86 -4t-67 -8t-57 -16.5t-44 -17.5t-39 -25t-30.5 -24.5t-32 -30t-29.5 -28.5l-16 15q2 3 23.5 26.5
t27 29.5t24 26t28.5 29.5t25.5 25t29.5 28t28 23.5q20 16 35.5 24.5t63.5 17.5t119 9h479q16 0 16 -10t-18.5 -35t-38.5 -43q-14 -12 -53 -12h-191q-45 -37 -74 -68t-57 -81q-99 -170 -287 -552t-250 -493q-31 -55 -48.5 -81.5t-47.5 -57.5t-69 -53l-91 -52h152q46 0 86 4
t67 8t57 16.5t44 17.5t39 25t30.5 24.5t32 30t29.5 28.5l16 -14q-6 -6 -28 -31t-31 -34.5t-29 -31t-33 -34t-31 -29t-34 -29.5q-20 -16 -35.5 -24.5t-63 -17.5t-118.5 -9h-440z" />
    <glyph glyph-name="J" unicode="J" horiz-adv-x="1058" 
d="M-29 -365q-93 0 -153 59.5t-60 188.5q0 95 45.5 204t127.5 214t206.5 200.5t270.5 157.5l12 -22q-123 -54 -227 -144.5t-167.5 -188.5t-99 -194t-35.5 -171q0 -121 45.5 -184.5t131.5 -63.5q63 0 128.5 32.5t121 84.5t114 128.5t105 151t96.5 166.5q92 161 270.5 529.5
t270.5 527.5q38 68 85 115t117 92l41 26l-667 -6q-53 -1 -92 -9t-75 -31t-55 -39t-61 -56l-16 14q6 6 28 31t31 34.5t29 31t33 34t31 29t34 29.5q40 32 115 32l757 -2q25 0 25 -14q0 -9 -24 -33t-44 -37q-14 -9 -25.5 -18.5t-23.5 -23t-19 -21.5t-19 -27.5t-16.5 -25.5
t-19 -32t-18.5 -32q-92 -158 -270.5 -525.5t-266.5 -520.5q-84 -141 -171.5 -256.5t-192 -217.5t-221 -159.5t-232.5 -57.5z" />
    <glyph glyph-name="K" unicode="K" horiz-adv-x="1632" 
d="M-207 -12q-56 -2 -98.5 6.5t-42.5 30.5q0 24 36 54t85 30q41 0 239 -35q39 18 67.5 36.5t72 64t84.5 112.5q89 149 265 517.5t265 522.5q38 68 85.5 115.5t117.5 91.5l18 12l-362 -12q-70 -2 -122 -20t-81 -40t-80 -71l-16 14q6 6 28 31t31 34.5t29 31t33 34t31 29
t34 29.5q40 32 109 32h460q25 0 25 -14q0 -9 -24 -33t-44 -37q-11 -7 -22 -18t-18 -19t-19.5 -27.5t-17.5 -27.5t-21.5 -36t-21.5 -37q-47 -80 -104 -187.5t-95.5 -184.5l-106 -212l-94.5 -189q245 226 531.5 463t433.5 342q166 122 302.5 177t266.5 55q51 0 89 -11t38 -32
q0 -28 -37.5 -66.5t-83.5 -38.5q-65 0 -280 58q-99 -34 -279 -164q-178 -134 -485 -389q26 -256 60 -442t72.5 -292.5t78 -156t82.5 -49.5q40 0 90.5 33t128.5 102l16 -21q-221 -198 -325 -198q-46 0 -92 70t-85 193t-70 301t-46 384q-246 -208 -445 -393q-57 -112 -92 -172
q-81 -145 -252 -258.5t-342 -122.5z" />
    <glyph glyph-name="L" unicode="L" horiz-adv-x="1247" 
d="M745 -18l-356 6l-565 12q-23 0 -23 18q0 11 31 35.5t57 38.5q12 6 27 6l121 -2q80 52 146.5 140t119.5 206t91 224t88 253.5t85 235.5q54 137 129 235t167 154t194 81.5t223 25.5q135 0 232.5 -18.5t97.5 -49.5q0 -33 -39.5 -61.5t-73.5 -28.5q-62 0 -156.5 24.5
t-279.5 84.5q-41 -10 -70.5 -23t-68 -43.5t-72 -77.5t-75 -127t-85.5 -190q-198 -502 -307 -695q-128 -229 -299 -352l309 -6l355 -6q46 -1 85.5 2.5t67.5 8t57 16t44.5 18t38.5 25t31 25.5t31 30t30 29l16 -15q-2 -3 -23.5 -26.5t-27 -29.5t-24 -26t-28.5 -29.5t-25.5 -25
t-29.5 -28t-28 -23.5q-21 -17 -36 -25t-63 -17.5t-119 -8.5z" />
    <glyph glyph-name="M" unicode="M" horiz-adv-x="2236" 
d="M1808 -14q-39 0 -59 26.5t-20 65.5q0 134 167.5 571t362.5 819l-1190 -1345q-22 -22 -39 -76q-3 -13 -48 -31q-54 -21 -54 0q110 833 178 1504q-245 -446 -490 -793q-522 -731 -882 -739q-74 -2 -137.5 12t-63.5 39q0 28 35.5 60t87.5 32q22 0 57 -7.5t99 -24t112 -27.5
q269 118 666 669q282 397 502 809l-428 -12q-53 -1 -92.5 -10t-74.5 -30.5t-55 -38.5t-61 -56l-16 14q6 6 28 31t31 34.5t29 31t33 34t31 29t34 29.5q40 32 117 32h526q11 0 14.5 -5.5t3.5 -18.5q-46 -567 -163 -1473l1308 1485q9 12 25 12h61q11 0 16 -7t-1 -17
q-225 -412 -407.5 -864t-182.5 -625q0 -49 45 -49q72 0 217 151l16 -20q-106 -106 -194.5 -163.5t-143.5 -57.5z" />
    <glyph glyph-name="N" unicode="N" horiz-adv-x="1830" 
d="M1366 -23q-7 0 -10 19l-228 1511q-12 -24 -56.5 -115.5t-66 -136t-66.5 -133t-77.5 -150t-76.5 -140.5t-85 -148q-91 -150 -179 -268t-187 -218.5t-203 -155t-205 -54.5q-76 0 -138 13.5t-62 37.5q0 28 35 60t87 32q22 0 57.5 -7.5t99.5 -24t112 -27.5q250 108 559 628
q32 53 65.5 112t60 107.5t61 115.5t55 106.5t56 111.5t49 99.5t49 101.5t42.5 88l-448 -4q-53 -1 -92 -9t-75 -31t-55 -39t-61 -56l-16 14q6 6 28 31t31 34.5t29 31t33 34t31 29t34 29.5q40 32 115 32h526q22 0 25 -24l219 -1452l393 825q37 76 62 126t58 111.5t58.5 101
t58.5 85.5t62.5 74.5t66.5 59t75.5 48t84.5 33t97 21.5t110 6q166 0 166 -43q0 -26 -33 -57t-71 -31q-24 0 -67 7t-113 19.5t-132 20.5q-97 -15 -196.5 -141t-221.5 -373q-334 -682 -413 -867q-36 -83 -70 -147t-47 -64z" />
    <glyph glyph-name="O" unicode="O" horiz-adv-x="1822" 
d="M918 -14q-167 0 -300.5 55t-218 150t-129.5 219.5t-45 267.5q0 126 38.5 251.5t105 231.5t158 198t194 156.5t216 101t222.5 36.5q133 0 244 -36t189 -99.5t132 -151t79.5 -188.5t25.5 -213q0 -141 -49.5 -285.5t-137.5 -267.5t-201 -219.5t-249.5 -151.5t-273.5 -55z
M1020 57q144 0 275.5 70t223 184t145.5 260.5t54 296.5q0 206 -78 367t-228.5 254.5t-352.5 93.5q-129 0 -259.5 -61.5t-234 -164.5t-168.5 -249t-65 -303q0 -213 86.5 -383.5t244 -267.5t357.5 -97z" />
    <glyph glyph-name="P" unicode="P" horiz-adv-x="1540" 
d="M217 0q-22 0 -22 14q0 13 53 52l43 32q35 26 62 61.5t67 106.5q89 156 241 524t244 527q74 132 203 215l10 6h-393q-53 0 -92 -8t-75.5 -31.5t-54 -38.5t-61.5 -57l-16 14q6 6 28 31t31 34.5t29 31t33 34t31 29t34 29.5q40 32 109 32h520q120 0 215.5 -22t157.5 -59.5
t103.5 -90.5t59 -111t17.5 -124q0 -85 -30.5 -170.5t-91 -162t-143.5 -135.5t-196.5 -93.5t-240.5 -34.5h-371q-69 -165 -141 -291q-38 -68 -71.5 -107t-80.5 -73l-100 -70l262 6q16 0 16 -12q0 -9 -17 -32t-38 -42q-16 -14 -59 -14h-275zM733 664h344q148 0 265.5 40
t189.5 108.5t109.5 156t37.5 186.5q0 374 -508 383q-12 -11 -23.5 -23.5t-19.5 -22.5t-19 -26.5t-16.5 -26t-17.5 -30.5t-18 -31q-43 -74 -90 -172t-77 -167t-82 -195.5t-75 -179.5z" />
    <glyph glyph-name="Q" unicode="Q" horiz-adv-x="1822" 
d="M2085 -508q-66 0 -129 16t-113.5 39t-106 65.5t-94.5 78.5t-91 95.5t-83.5 99.5t-83.5 107t-81 103q-187 -110 -385 -110q-197 0 -343.5 74.5t-234.5 207.5q-18 -13 -47 -30l-10 18l45 31q-103 171 -103 391q0 126 38.5 251.5t105 231.5t158 198t194 156.5t216 101
t222.5 36.5q133 0 244 -36t189 -99.5t132 -151t79.5 -188.5t25.5 -213q0 -222 -116 -438.5t-304 -358.5q33 -39 84 -103t85 -106.5t85 -99.5t92 -95t96 -79t107 -65.5t116.5 -40t131.5 -15.5q82 0 158 33t118 75l17 -16q-71 -66 -185.5 -115t-228.5 -49zM1020 57
q136 0 264 64q-62 75 -114 127.5t-117 100.5t-137 72.5t-150 24.5q-127 0 -303 -100q94 -137 237.5 -213t319.5 -76zM332 805q0 -249 119 -438q232 137 399 137q83 0 159 -24t143.5 -70t123 -98.5t115.5 -123.5q150 114 238.5 298.5t88.5 381.5q0 206 -78 367t-228.5 254.5
t-352.5 93.5q-129 0 -259.5 -61.5t-234 -164.5t-168.5 -249t-65 -303z" />
    <glyph glyph-name="R" unicode="R" horiz-adv-x="1665" 
d="M125 0q-23 0 -23 14q0 12 54 52l43 32q35 26 62 61.5t67 106.5q89 156 241 524t244 527q74 132 203 215l10 6h-301q-53 0 -92 -8t-75.5 -31.5t-54 -38.5t-61.5 -57l-16 14q6 6 28 31t31 34.5t29 31t33 34t31 29t34 29.5q40 32 109 32h520q135 0 227.5 -18.5t145.5 -56
t75.5 -88t22.5 -121.5q0 -98 -46.5 -193t-124 -167t-185.5 -116t-223 -44h-35q56 -298 98.5 -460.5t82.5 -231t89 -68.5q32 0 68.5 21t93.5 69l16 -21q-75 -65 -105 -89.5t-69 -46t-72 -21.5q-182 0 -313 848h-274q-134 -328 -226 -490q-39 -68 -71.5 -107.5t-79.5 -72.5
l-94 -64h22h254q17 0 17 -12q0 -9 -17.5 -32t-38.5 -42q-16 -14 -59 -14h-295zM725 862h422q193 0 321.5 118.5t128.5 297.5q0 75 -33.5 127t-97.5 80.5t-142.5 40.5t-182.5 12h-62q-12 -11 -23.5 -23.5t-19.5 -22.5t-19 -26.5t-16.5 -26t-17.5 -30.5t-18 -31
q-94 -161 -240 -516z" />
    <glyph glyph-name="S" unicode="S" horiz-adv-x="1288" 
d="M406 -14q-108 0 -215 19t-172.5 48t-63.5 58t38.5 61.5t80.5 32.5q23 0 99 -23.5t212 -68.5t236 -74q97 14 181.5 47.5t153 85t108.5 128t40 169.5q0 55 -22.5 102t-56.5 80t-84 62.5t-95 50t-99 42.5q-19 7 -28 11q-49 20 -73 30.5t-70 33t-70.5 39t-58 43.5t-51 53.5
t-30 61.5t-12.5 73q0 143 122 259.5t317.5 179.5t416.5 63q167 0 258 -32t91 -87q0 -43 -59 -104t-183 -154l-12 18q91 75 123 109t32 61q0 32 -46.5 55t-118 33.5t-129 14.5t-105.5 4q-276 0 -445.5 -94t-169.5 -250q0 -42 14 -79t41.5 -66.5t59.5 -53.5t77 -47t83.5 -40
t89.5 -38q13 -5 20 -8q65 -27 108 -47.5t97.5 -55t86.5 -69t54.5 -85t22.5 -108.5q0 -147 -102.5 -271.5t-285.5 -198.5t-406 -74z" />
    <glyph glyph-name="T" unicode="T" horiz-adv-x="1175" 
d="M410 0q-23 0 -23 14q0 13 53 52l43 32q35 26 62 61.5t67 106.5q89 156 264.5 514t262.5 508q76 131 202 213l58 37h-649q-53 -1 -92 -9t-75 -31t-55 -39t-61 -56l-16 14q6 6 28 31t31 34.5t29 31t33 34t31 29t34 29.5q40 32 113 32h1286q16 0 20 -3.5t4 -10.5
q0 -21 -55 -72q-16 -14 -59 -14h-502q-13 -9 -24 -17.5t-22 -19.5t-18 -17.5t-17 -20.5t-14.5 -19.5t-15.5 -23t-13.5 -21.5t-15 -25.5t-14.5 -25.5q-88 -149 -260.5 -502t-257.5 -502q-39 -68 -71.5 -107.5t-79.5 -72.5l-101 -70l262 6q17 0 17 -12q0 -9 -17.5 -32
t-38.5 -42q-16 -14 -59 -14h-274z" />
    <glyph glyph-name="U" unicode="U" horiz-adv-x="1722" 
d="M539 -16q-124 0 -205.5 81.5t-81.5 200.5q0 82 33 180.5t85 193t115.5 192t127 190.5t115.5 176t85 159.5t33 131.5q0 50 -29 85.5t-88 35.5q-56 0 -125 -33.5t-127 -87.5l-16 18q170 146 315 146q94 0 138 -56t44 -127q0 -69 -59.5 -184.5t-144 -242.5t-169.5 -258
t-144.5 -265t-59.5 -231q0 -108 59 -168t158 -60q308 0 879 740q132 234 274 472t215 353q9 12 25 12h75q12 0 16.5 -7t-1.5 -17q-151 -240 -360 -598t-302 -553q-110 -232 -110 -303q0 -37 16.5 -55.5t44.5 -18.5q83 0 211 113l14 -21q-99 -85 -185 -138.5t-130 -53.5
q-55 0 -82 35.5t-27 82.5q0 120 101 318l125 233q-537 -671 -858 -671z" />
    <glyph glyph-name="V" unicode="V" horiz-adv-x="1748" 
d="M918 -14q-10 0 -15.5 6.5t-3.5 15.5l242 1292q8 42 10 74.5t-3 66t-20 55.5t-46 35.5t-76 12.5l-236 -6q-53 -1 -92.5 -10t-74.5 -30.5t-55 -38.5t-61 -56l-16 14q6 6 28 31t31 34.5t29 31t33 34t31 29t34 29.5q40 32 115 32h660q13 0 19 -7t-1 -17l-31 -47
q-10 -13 -24 -13l-287 -8q41 -15 69.5 -32.5t43.5 -42t22.5 -45.5t5 -59t-6 -64t-13.5 -78l-195 -1078l959 1203q15 34 43.5 99t46.5 105t40 85.5t38 70.5q56 86 147 86q23 0 36 -8.5t13 -18.5q0 -7 -3 -15.5t-13.5 -23t-17.5 -23.5t-27 -34l-279 -340l-1065 -1335
q-9 -12 -24 -12h-10z" />
    <glyph glyph-name="W" unicode="W" horiz-adv-x="2631" 
d="M860 -14q-21 0 -18 22l243 1292q10 63 11 116.5t-31 89.5t-98 38l-224 -6q-43 -1 -78.5 -9t-59 -16.5t-52.5 -29.5t-43.5 -34.5t-48.5 -45.5l-17 14q127 141 187 189q40 32 114 32h627q13 0 19.5 -7t-0.5 -17l-31 -47q-10 -13 -25 -13l-280 -8q41 -15 69.5 -32.5t44 -42
t23 -45.5t5.5 -58.5t-5.5 -64.5t-13.5 -78l-203 -1073l1073 1472q7 12 27 12h8q9 0 14.5 -6.5t3.5 -15.5l-190 -1473l966 1209q15 34 43.5 99t46.5 105t40 85.5t38 70.5q56 86 148 86q23 0 36 -8.5t13 -18.5q0 -7 -3 -15.5t-13.5 -23t-17.5 -23.5t-27 -34l-279 -340
l-1067 -1335q-9 -12 -25 -12h-10q-20 0 -20 22l205 1477l-1088 -1487q-7 -12 -27 -12h-10z" />
    <glyph glyph-name="X" unicode="X" horiz-adv-x="1353" 
d="M971 -14q-40 0 -58 28.5t-26 94.5l-70 624l-708 -725q-2 -2 -10.5 -11.5t-12 -13l-12 -12l-13 -13t-12 -11.5t-12.5 -10.5t-11 -7.5t-11 -5.5t-9 -1.5q-20 0 -31.5 22.5t-11.5 43.5q0 71 60 121l790 661l-68 621q-4 35 -7 55.5t-9.5 48t-15.5 43t-24.5 26.5t-35.5 11
q-39 0 -98.5 -43.5t-112.5 -104.5l-22 19q92 96 172.5 151.5t130.5 55.5q26 0 46.5 -9.5t34 -29.5t22.5 -39t15.5 -50.5t9 -50t5.5 -51.5l62 -561l741 815q3 3 14 15t16 17t15 15.5t16.5 15.5t14.5 11.5t14.5 9t11.5 2.5q20 0 31.5 -22t11.5 -43q0 -67 -59 -121l-823 -754
l75 -678q6 -69 45 -69q32 0 89 38t129 113l16 -20q-221 -221 -305 -221z" />
    <glyph glyph-name="Y" unicode="Y" horiz-adv-x="1400" 
d="M684 0q-22 0 -22 14q0 13 53 52l43 32q41 31 74.5 72t82.5 135q159 303 152 404q-23 346 -96 682q-7 33 -10 45.5t-11 38t-16 36t-22.5 20.5t-32.5 11l-127 -4q-53 -1 -92.5 -10t-74.5 -30.5t-55 -38.5t-61 -56l-16 14q6 6 28 31t31 34.5t29 31t33 34t31 29t34 29.5
q40 32 115 32h444q13 0 19 -7t0 -17l-31 -51q-10 -13 -25 -13l-221 -6q109 -25 135 -149q64 -277 96 -705l762 1008q66 86 95 86q20 0 31.5 -22.5t11.5 -43.5q0 -32 -7 -53t-30 -47l-873 -983q-60 -168 -114 -291q-30 -66 -63.5 -103.5t-88.5 -76.5l-88 -62l16 2h246
q25 0 25 -14q0 -24 -56 -76q-16 -14 -59 -14h-295z" />
    <glyph glyph-name="Z" unicode="Z" horiz-adv-x="1376" 
d="M-164 0q-22 0 -22 18q0 7 3.5 14.5t13 17.5t14.5 15t19 18t17 15l938 758l864 680l-872 2q-21 0 -41 -3.5t-35.5 -8t-33.5 -15t-28.5 -17t-28.5 -21.5t-25 -21.5t-25.5 -25t-24.5 -23.5l-16 14q14 15 43.5 47t47.5 51.5t44.5 45.5t50.5 45q40 32 105 32h1018
q7 0 10.5 -2.5t4 -5t0 -8t-0.5 -6.5q0 -5 -18.5 -18t-44.5 -29.5t-37 -26.5q-545 -394 -942 -711q-490 -389 -863 -729h963q24 0 45 3.5t42 13t34 15.5t34 23.5t28 23.5t30 28.5t27 26.5l16 -15q-12 -13 -43 -46.5t-48 -52t-44 -44.5t-51 -45q-42 -33 -105 -33h-1063z" />
    <glyph glyph-name="bracketleft" unicode="[" horiz-adv-x="495" 
d="M717 1579q6 16 24 16h500l-12 -22h-414q-10 0 -18 -19l-1037 -2086q-3 -8 1 -12.5t18 -4.5l401 2l-10 -22h-492q-16 0 -10 16z" />
    <glyph glyph-name="backslash" unicode="\" horiz-adv-x="579" 
d="M414 -553h-31l-215 2191h31z" />
    <glyph glyph-name="bracketright" unicode="]" horiz-adv-x="495" 
d="M-758 -569l13 22h413q11 0 19 19l1036 2087q3 8 -0.5 12t-17.5 4l-402 -2l10 22h492q16 0 10 -16l-1048 -2132q-6 -16 -25 -16h-500z" />
    <glyph glyph-name="asciicircum" unicode="^" horiz-adv-x="741" 
d="M788 1018q-45 148 -77 344l-379 -326l-17 23l449 381q20 17 27 -10q38 -200 88 -375z" />
    <glyph glyph-name="underscore" unicode="_" horiz-adv-x="706" 
d="M-182 -313l20 43h723l-16 -43h-727z" />
    <glyph glyph-name="a" unicode="a" horiz-adv-x="1150" 
d="M725 -14q-52 0 -74 31.5t-22 72.5q0 194 262 608q-295 -349 -484 -530.5t-280 -181.5q-39 0 -66.5 16t-41 42t-19.5 51t-6 50q0 101 47.5 223.5t130.5 239t185 214t222.5 157t231.5 59.5q182 0 338 -51l16 -6q30 -10 11 -35q-169 -244 -263 -416q-145 -268 -145 -387
q0 -57 55 -57q75 0 203 113l14 -21q-99 -85 -185 -138.5t-130 -53.5zM125 197q0 -53 21 -87t61 -34q68 0 275 205.5t526 592.5l20 31q-180 68 -321 68q-108 0 -217 -76t-187.5 -191t-128 -252t-49.5 -257z" />
    <glyph glyph-name="b" unicode="b" horiz-adv-x="1089" 
d="M272 -14q-73 0 -129 34.5t-83.5 88.5t-26.5 122.5t35 133.5l319 606q172 326 414.5 504t554.5 178q188 0 188 -43q0 -28 -37.5 -66.5t-83.5 -38.5q-31 0 -88 11.5t-106 24t-160 42.5q-165 -54 -275 -155t-216 -308l-379 -733q174 214 393 416q260 235 371 235
q58 0 86 -44.5t28 -106.5q0 -100 -33 -208.5t-90 -207.5t-135.5 -188t-166.5 -154.5t-187 -104t-193 -38.5zM360 41q100 0 194 53.5t164 139.5t123 190t80 210t27 195q0 119 -74 119q-78 0 -266 -164q-221 -193 -438 -471q-11 -70 3 -125t45.5 -85.5t67.5 -46t74 -15.5z" />
    <glyph glyph-name="c" unicode="c" horiz-adv-x="911" 
d="M272 -14q-106 0 -169.5 70.5t-63.5 187.5q0 82 30 174t82.5 179.5t127 168t158.5 140.5t183 96t195 36q83 0 146 -17t63 -42q0 -32 -33 -61t-71 -29q-42 0 -97.5 19t-181.5 71q-111 -22 -222.5 -142t-179 -274t-67.5 -278q0 -98 48.5 -156.5t141.5 -58.5q160 0 361 178
l14 -19q-130 -125 -255.5 -184t-209.5 -59z" />
    <glyph glyph-name="d" unicode="d" horiz-adv-x="964" 
d="M231 -8q-89 0 -140.5 65t-51.5 170q0 96 39.5 209t111.5 218t162 192t200.5 139.5t217.5 52.5q114 0 215 -24q68 229 68 393q0 182 -125 182q-132 0 -314 -170l-16 19q91 89 206.5 152t199.5 63q173 0 176 -215q1 -108 -42 -260.5t-115 -311.5t-170 -316.5t-201.5 -281
t-215 -200t-205.5 -76.5zM174 274q0 -204 141 -204q83 0 176 72.5t176 192t156 266.5t127 304q-153 68 -293 68q-78 0 -148 -36.5t-121.5 -96t-93 -134t-67.5 -153.5t-39.5 -150.5t-13.5 -128.5z" />
    <glyph glyph-name="e" unicode="e" horiz-adv-x="892" 
d="M262 -14q-111 0 -172 64t-61 171t49.5 226.5t132.5 223t182.5 188.5t207.5 134t200 49q78 0 120 -28.5t42 -81.5q0 -65 -65.5 -144.5t-242.5 -211.5t-487 -326q5 -78 50 -127t138 -49q159 0 351 170l14 -17q-131 -125 -253 -183t-206 -58zM168 274q139 87 233 149.5
t179.5 127.5t134.5 116.5t77.5 104t28.5 102.5q0 51 -33.5 75t-82.5 24q-89 0 -174 -46.5t-148.5 -122t-113 -167.5t-75 -187t-26.5 -176z" />
    <glyph glyph-name="f" unicode="f" horiz-adv-x="655" 
d="M-555 -424q-33 0 -47 7t-14 24q0 30 31 68t77 38q76 0 236 -20q47 29 82.5 59t82 85t97.5 143.5t106 212.5l348 782h-163l14 29h162q53 118 107 209.5t127.5 176.5t156 141t190.5 89t234 33q215 0 215 -49q0 -32 -36.5 -66.5t-80.5 -34.5q-15 0 -30.5 1.5t-37 6t-36.5 8
t-47.5 13t-51 15t-65 20t-72.5 22.5q-86 -23 -152.5 -79.5t-115.5 -136.5t-109 -214l-69 -155h268l-14 -29h-267l-286 -639q-72 -161 -171.5 -301t-210 -241.5t-230 -159.5t-228.5 -58z" />
    <glyph glyph-name="g" unicode="g" horiz-adv-x="1101" 
d="M-55 -565q-89 0 -148 35.5t-55 109.5q4 79 129 174l12 -10q-22 -42 -22 -86q0 -69 50.5 -113.5t145.5 -44.5q53 0 115 20.5t113 57.5q52 38 100 99.5t105 163t109 205t144 283.5t179 339l53 98q-317 -377 -525 -578.5t-303 -201.5q-39 0 -66.5 16t-41 42t-19.5 51t-6 50
q0 101 47.5 223.5t130.5 239t185 214t222.5 157t231.5 59.5q193 0 343 -49l16 -6q15 -6 6 -25l-258 -489q-217 -413 -347.5 -604t-295.5 -309q-169 -121 -350 -121zM145 197q0 -53 21 -87t61 -34q69 0 280 207t527 591l17 29q-178 70 -324 70q-108 0 -217 -76t-187.5 -191
t-128 -252t-49.5 -257z" />
    <glyph glyph-name="h" unicode="h" horiz-adv-x="1132" 
d="M-78 0q-10 0 -14.5 7t0.5 18l528 981q78 145 175.5 261t216 203.5t261.5 135t300 47.5q188 0 188 -41q0 -30 -41.5 -68.5t-95.5 -38.5q-44 0 -107 15t-231 61q-163 -44 -270.5 -146t-221.5 -315l-399 -751q150 196 334 370q141 137 263.5 218t192.5 81q51 0 74 -31
t23 -71q0 -59 -58.5 -177.5t-129 -230.5t-129 -228t-58.5 -171q0 -53 57 -53q67 0 207 123l14 -21q-96 -86 -183 -139t-132 -53q-52 0 -76 31.5t-24 72.5q0 52 39 140.5t94.5 182t111.5 185.5t95 172.5t39 122.5q0 25 -15 41t-45 16q-58 0 -143 -58.5t-203 -170.5
q-240 -227 -430 -508l-104 -197q-10 -16 -25 -16h-78z" />
    <glyph glyph-name="i" unicode="i" horiz-adv-x="579" 
d="M123 -14q-52 0 -76 31.5t-24 72.5q0 64 63 186.5t138.5 235.5t138.5 222.5t63 150.5q0 26 -14.5 41.5t-40.5 15.5q-74 0 -207 -117l-14 21q224 192 319 192q49 0 72.5 -32t23.5 -72q0 -48 -41 -132.5t-100 -175.5t-117.5 -182t-99.5 -173t-41 -128q0 -57 55 -57
q75 0 203 113l14 -21q-99 -85 -185 -138.5t-130 -53.5zM930 1536q35 33 43 33q10 0 10 -21q0 -26 -25 -45l-411 -332l-12 17z" />
    <glyph glyph-name="j" unicode="j" horiz-adv-x="538" 
d="M-551 -424q-33 0 -47 7t-14 24q0 30 31 68t77 38q62 0 238 -22q44 27 80 59.5t80.5 88.5t95.5 143.5t112 210.5q188 385 246 518t58 174q0 26 -15 41.5t-41 15.5q-74 0 -207 -117l-14 21q100 86 186 139t134 53q49 0 72.5 -32t23.5 -72q0 -28 -16.5 -78.5t-65 -155.5
t-77.5 -164.5t-110 -226.5q-157 -324 -383 -528.5t-444 -204.5zM946 1544q35 33 43 33q10 0 10 -21q0 -17 -5 -25.5t-19 -19.5l-412 -331l-12 16z" />
    <glyph glyph-name="k" unicode="k" horiz-adv-x="1130" 
d="M-78 0q-10 0 -14.5 7t0.5 18l528 981q78 145 175.5 261t216 203.5t261.5 135t300 47.5q188 0 188 -41q0 -30 -41.5 -68.5t-95.5 -38.5q-44 0 -107 15t-231 61q-163 -44 -270.5 -146t-221.5 -315l-297 -557q178 212 374.5 344t305.5 135q77 1 119.5 -31.5t42.5 -88.5
q0 -33 -17 -71.5t-61.5 -88.5t-112.5 -99t-180 -102t-254 -98q4 -11 18 -52t24.5 -70t27.5 -73t33.5 -75t35.5 -61.5t39 -46t40 -15.5q68 0 219 135l16 -21q-221 -198 -293 -198q-121 0 -254 448q-5 -1 -16.5 -4t-16.5 -4l-6 25q307 81 462 196.5t155 224.5q0 44 -29 70.5
t-74 26.5q-70 0 -204.5 -87.5t-267 -216.5t-197.5 -239l-217 -410q-10 -16 -25 -16h-78z" />
    <glyph glyph-name="l" unicode="l" horiz-adv-x="526" 
d="M86 -14q-44 0 -72 35.5t-28 80.5q0 125 135 365l299 539q66 119 135 213t157.5 177t187 138.5t223 87t266.5 31.5q170 0 170 -43q0 -29 -41 -68t-88 -39q-19 0 -41.5 3t-59.5 11.5t-62.5 15.5t-88 23.5t-99.5 26.5q-149 -40 -258 -142.5t-227 -320.5l-356 -657
q-119 -221 -119 -326q0 -61 61 -61q67 0 207 123l14 -21q-99 -85 -185 -138.5t-130 -53.5z" />
    <glyph glyph-name="m" unicode="m" horiz-adv-x="1814" 
d="M643 -2q-11 0 -15.5 7.5t-0.5 17.5q225 419 268 505q86 168 117.5 246t31.5 119q0 57 -59 57q-58 0 -143 -58.5t-203 -170.5q-214 -202 -414 -496q-79 -147 -119 -211q-8 -14 -24 -14h-76q-11 0 -14.5 7t2.5 18q412 725 412 860q0 26 -15 41.5t-41 15.5q-74 0 -207 -117
l-14 21q100 86 186 139t134 53q49 0 72.5 -32t23.5 -74q0 -99 -236 -549q158 208 316 356q141 137 263.5 218t192.5 81q51 0 74 -31t23 -71q0 -41 -35 -130t-139 -296q-7 -14 -68 -129q205 271 421.5 464t336.5 193q49 0 72.5 -32t23.5 -72q0 -52 -39.5 -138.5t-96 -178.5
t-113.5 -184t-96.5 -174.5t-39.5 -129.5q0 -53 57 -53q67 0 207 123l14 -21q-96 -86 -183 -139t-132 -53q-52 0 -76 31.5t-24 72.5q0 52 40 140t97 182t114 186t97 174t39 125q0 53 -56 53q-109 0 -333.5 -225.5t-419.5 -511.5l-103 -199q-8 -14 -24 -14z" />
    <glyph glyph-name="n" unicode="n" horiz-adv-x="1220" 
d="M6 0q-11 0 -14.5 7t2.5 18q412 725 412 860q0 26 -15 41.5t-41 15.5q-74 0 -207 -117l-14 21q100 86 186 139t134 53q49 0 72.5 -32t23.5 -74q0 -89 -238 -555q151 198 326 362q141 136 263.5 217.5t193.5 81.5q51 0 73.5 -31t22.5 -71q0 -59 -58.5 -177.5t-129 -230.5
t-129 -228t-58.5 -171q0 -53 57 -53q67 0 207 123l15 -21q-96 -85 -183.5 -138.5t-132.5 -53.5q-52 0 -76 31.5t-24 72.5q0 52 39 140.5t94.5 182t111.5 185.5t95 172.5t39 122.5q0 25 -15 41t-45 16q-58 0 -143 -58.5t-203 -170.5q-237 -224 -422 -496q-79 -147 -119 -211
q-8 -14 -24 -14h-76z" />
    <glyph glyph-name="o" unicode="o" horiz-adv-x="997" 
d="M260 -14q-97 0 -162 59t-65 184q0 75 29 165t78 179.5t119 173.5t148 148.5t168.5 103.5t176.5 39q104 0 160.5 -66t56.5 -165q0 -98 -40.5 -212.5t-111.5 -220.5t-159 -194t-193.5 -141t-204.5 -53zM371 51q80 0 156.5 51.5t132.5 131.5t99 174t65 182.5t22 154.5
q0 109 -54 168.5t-149 59.5q-82 0 -159.5 -50t-134 -128t-100 -171t-65.5 -181t-22 -156q0 -126 53 -181t156 -55z" />
    <glyph glyph-name="p" unicode="p" horiz-adv-x="1146" 
d="M-295 -553q-10 0 -14.5 7.5t0.5 17.5l530 1036q156 303 156 393q0 24 -8 35.5t-29 11.5q-28 0 -82.5 -38.5t-140.5 -112.5l-17 20q113 98 207 159.5t139 61.5q33 0 50.5 -22.5t17.5 -54.5q0 -116 -166 -437l-49 -96q203 250 418 430t311 180q58 0 86.5 -44.5t28.5 -106.5
q0 -120 -46 -250.5t-126.5 -244.5t-181 -206.5t-218.5 -146t-229 -53.5q-71 0 -125 31.5t-84 86.5l-330 -643q-6 -14 -24 -14h-74zM203 242q28 -94 93.5 -147.5t133.5 -53.5q100 0 193.5 53.5t163 139.5t122 190t79 210t26.5 195q0 119 -74 119q-87 0 -301.5 -198
t-419.5 -478z" />
    <glyph glyph-name="q" unicode="q" horiz-adv-x="1181" 
d="M455 -567q-51 0 -73 31t-22 73q0 106 191 482.5t391 709.5q-311 -367 -504.5 -555t-285.5 -188q-39 0 -67 16t-41.5 42t-19.5 51t-6 50q0 84 34.5 185t92.5 199t139 190.5t169.5 163t189 113t193.5 42.5q182 0 338 -51l20 -6q10 -3 12 -11.5t-4 -15.5
q-139 -206 -256 -424q-14 -25 -93.5 -169.5t-124 -229t-107 -208.5t-93 -207t-30.5 -126q0 -57 55 -57q75 0 203 113l14 -21q-99 -85 -185 -138.5t-130 -53.5zM150 197q0 -54 20.5 -87.5t60.5 -33.5q67 0 274.5 205.5t524.5 588.5l23 35q-173 68 -322 68q-87 0 -175.5 -49.5
t-159.5 -131.5t-127.5 -182.5t-87.5 -209t-31 -203.5z" />
    <glyph glyph-name="r" unicode="r" horiz-adv-x="933" 
d="M6 0q-11 0 -14.5 7t2.5 18q412 725 412 860q0 26 -15 41.5t-41 15.5q-74 0 -207 -117l-14 21q100 86 186 139t134 53q49 0 72.5 -32t23.5 -74q0 -64 -105 -283q56 85 113.5 150.5t129 122t158 86.5t181.5 30q96 0 96 -34q0 -39 -44.5 -79t-94.5 -40q-114 0 -246 41
q-178 -99 -403 -502q-67 -131 -133.5 -251.5t-90.5 -158.5q-8 -14 -24 -14h-76z" />
    <glyph glyph-name="s" unicode="s" horiz-adv-x="757" 
d="M102 -14q-89 0 -147.5 35.5t-54.5 109.5q4 79 129 174l12 -10q-23 -44 -23 -86q0 -70 52.5 -120t150.5 -50q99 0 170.5 59t71.5 154q0 45 -20.5 99.5t-49 105.5t-56.5 102.5t-46 105t-15 97.5q7 83 75.5 148t162.5 96.5t191 31.5q69 0 128.5 -17t59.5 -42
q0 -31 -36 -58.5t-71 -27.5q-42 0 -93 18t-175 72q-139 -49 -149 -137q-4 -47 14 -101.5t47.5 -105.5t59 -102.5t49.5 -109.5t18 -110q-5 -94 -69 -170.5t-166.5 -118.5t-219.5 -42z" />
    <glyph glyph-name="t" unicode="t" horiz-adv-x="663" 
d="M158 -14q-55 0 -82 35.5t-27 82.5q0 59 30 141.5t105 221.5l275 508h-191v24l451 289l18 -10l-147 -274h241l-14 -29h-244l-276 -512q-115 -214 -115 -309q0 -32 19 -50t47 -18q83 0 211 113l14 -21q-99 -85 -185 -138.5t-130 -53.5z" />
    <glyph glyph-name="u" unicode="u" horiz-adv-x="1232" 
d="M786 -14q-51 0 -72.5 32.5t-21.5 75.5q0 160 217 539q-146 -186 -299 -348q-279 -299 -422 -299q-55 0 -91 34t-36 91q0 56 56.5 167.5t124 217t124 217t56.5 168.5t-55 57q-75 0 -203 -113l-14 21q99 85 185 138.5t130 53.5q52 0 76 -31.5t24 -72.5q0 -47 -38.5 -134
t-93.5 -182t-110.5 -188.5t-94 -173t-38.5 -115.5q0 -71 72 -71q58 0 138 59t194 176q250 260 430 522q90 141 106 164q10 13 25 13h78q12 0 15.5 -7t-3.5 -18q-147 -233 -266 -449q-75 -139 -112.5 -241t-37.5 -146q0 -61 58 -61q67 0 200 117l15 -21q-91 -85 -180 -138.5
t-136 -53.5z" />
    <glyph glyph-name="v" unicode="v" horiz-adv-x="1054" 
d="M332 -14q-38 0 -73.5 13t-67.5 39t-51 74t-19 111q0 155 131.5 356t314.5 351q-141 6 -196 6q-78 0 -132 -32t-106 -89l-16 14q66 82 184 177q40 32 111 32q23 0 122 -7t154 -7v-18q-128 -95 -229.5 -238.5t-150 -273.5t-48.5 -224q0 -106 45.5 -159.5t122.5 -53.5
q65 0 138 46.5t141 126.5t130 178t115 208q-41 198 -30 324q4 45 42.5 71.5t77.5 26.5q35 0 35 -39q0 -72 -34 -199.5t-95 -246.5q-60 -116 -127.5 -213.5t-146 -179t-167 -128t-175.5 -46.5z" />
    <glyph glyph-name="w" unicode="w" horiz-adv-x="1529" 
d="M872 -14q-83 0 -131.5 56t-48.5 181q0 41 13 111q-96 -176 -212 -262t-217 -86q-73 0 -125.5 54t-52.5 163q0 118 73.5 256t178 253t230.5 216q-90 8 -209 8q-78 0 -132 -32t-106 -89l-16 14q66 82 184 177q40 32 111 32q21 0 123 -7t167 -7v-18q-203 -150 -341 -374.5
t-138 -402.5q0 -82 39 -128t111 -46q84 0 186.5 111t177.5 276q54 155 164 299q27 35 105 68q51 22 48 9q-1 -2 -3 -5q-72 -86 -122 -173t-73 -160t-32 -126.5t-9 -101.5q0 -100 42 -148.5t108 -48.5q106 0 232.5 160t229.5 403q-39 199 -28 322q4 45 43 71.5t78 26.5
q19 0 26.5 -9.5t7.5 -29.5q0 -63 -33.5 -184.5t-80.5 -230.5q-54 -123 -115 -225.5t-133 -189t-154.5 -135t-165.5 -48.5z" />
    <glyph glyph-name="x" unicode="x" horiz-adv-x="933" 
d="M522 -14q-41 0 -61 30t-23 93l-12 356l-465 -526q-45 -52 -67 -52q-14 0 -22.5 14t-8.5 29q0 54 39 88l522 469l-12 349q-3 100 -58 100q-33 0 -91.5 -33t-131.5 -100l-18 18q61 51 97 80t85 65.5t81.5 54t51.5 17.5q37 0 61 -36t27 -109l14 -315l357 409q44 51 67 51
q14 0 22.5 -14t8.5 -29q0 -54 -39 -88l-416 -362l19 -400q3 -69 45 -69q72 0 217 151l16 -20q-221 -221 -305 -221z" />
    <glyph glyph-name="y" unicode="y" horiz-adv-x="1077" 
d="M-328 -424q-69 0 -69 37q0 31 37 77t90 46q68 0 290 -55q70 27 117.5 70.5t83.5 117.5q60 127 120 421.5t60 485.5q0 77 -13.5 117.5t-49.5 40.5q-70 0 -193 -109l-14 21q114 98 180.5 145t108.5 47q57 0 78.5 -47.5t21.5 -134.5q0 -179 -47 -459.5t-133 -505.5
q329 292 565 709q-7 242 15 340q10 45 51.5 71.5t81.5 26.5q37 0 37 -32q0 -42 -23.5 -114.5t-68.5 -166t-107 -200.5t-143 -217.5t-172.5 -216.5t-199.5 -199.5t-219 -163.5t-237 -111t-248 -41z" />
    <glyph glyph-name="z" unicode="z" horiz-adv-x="960" 
d="M483 -14q-36 0 -82 16t-86.5 36t-102 36t-124.5 16q-123 0 -219 -61q-10 -7 -21 -16t-17 -13.5t-13 -8t-13 -3.5t-10 5t-4 11q0 5 3 10.5t13.5 14.5t23.5 18.5t38.5 27.5t52.5 37t73 52t93 67l412 312q205 155 374 311q-210 84 -387 84q-130 0 -254 -141l-20 14
q210 232 381 227q206 -4 418 -94l104 82l17 -16q-113 -94 -350 -278.5t-267 -207.5l-477 -389q118 60 203 60q43 0 93 -18t87.5 -39.5t81.5 -39.5t78 -18q98 0 217 143l20 -16q-190 -221 -336 -221z" />
    <glyph glyph-name="braceleft" unicode="{" horiz-adv-x="634" 
d="M-92 -332q4 68 42 149.5t90 156t103.5 148.5t89 149.5t41.5 136.5q4 51 -27.5 95.5t-101.5 45.5l5 29q93 0 168 55.5t116 154.5q45 99 91 297t87 293q55 123 210 192.5t366 69.5q9 0 13 -3.5t3 -10.5q-7 -20 -24 -20q-223 0 -332 -41q-102 -42 -148 -144
q-33 -77 -85.5 -300.5t-92.5 -305.5q-40 -86 -124 -156.5t-181 -99.5q57 -26 84.5 -91.5t22.5 -131.5q-4 -53 -41.5 -126.5t-89.5 -148.5t-103.5 -152.5t-90 -159.5t-42.5 -148q-6 -81 55.5 -122.5t200.5 -41.5q10 0 13 -5.5t-5 -19.5q-7 -12 -41 -12q-121 0 -200 72
t-72 196z" />
    <glyph glyph-name="bar" unicode="|" horiz-adv-x="413" 
d="M606 1642l25 -8l-783 -2048l-24 8z" />
    <glyph glyph-name="braceright" unicode="}" horiz-adv-x="634" 
d="M-561 -586q7 21 24 21q223 0 332 41q102 42 148 143q33 77 85.5 300.5t92.5 305.5q40 86 124 156.5t181 99.5q-57 26 -84.5 92t-22.5 132q4 53 41.5 126.5t89.5 148.5t103.5 152.5t90 159.5t42.5 148q6 81 -55.5 122.5t-200.5 41.5q-24 0 -8 24q7 12 41 12q121 0 200 -72
t72 -196q-4 -68 -42 -149t-90 -156t-103.5 -148.5t-89 -149t-41.5 -136.5q-2 -31 7.5 -61t38 -54t72.5 -24l-2 -29q-88 -2 -161.5 -58.5t-114.5 -154.5q-45 -99 -91 -297t-87 -293q-55 -123 -210 -192.5t-366 -69.5q-9 0 -13 3.5t-3 10.5z" />
    <glyph glyph-name="exclamdown" unicode="&#xa1;" horiz-adv-x="475" 
d="M319 674q-115 -242 -207.5 -453t-132.5 -313.5t-76.5 -203.5t-37.5 -103q-24 -60 -80 -60q-42 0 -59 16t-7 46q9 28 78.5 144.5t209.5 371.5t286 561zM446 1053q22 0 51 -23.5t29 -52.5q0 -41 -42.5 -87t-80.5 -46q-24 0 -47.5 26.5t-23.5 53.5q0 39 41 84t73 45z" />
    <glyph glyph-name="cent" unicode="&#xa2;" horiz-adv-x="892" 
d="M348 334q-104 0 -160.5 64.5t-56.5 172.5q0 90 49 197t130.5 203t198.5 170t241 96l90 205l26 -2l-88 -197q50 4 74 4q83 0 143 -16t60 -43q0 -21 -34.5 -49.5t-72.5 -28.5q-20 0 -44.5 8t-42 16.5t-52 27t-53.5 28.5l-340 -772h10q151 0 352 178l15 -18
q-230 -219 -414 -242l-84 -191l-29 2zM262 618q0 -175 125 -196l346 780l-8 4q-97 -15 -186 -81t-148 -153.5t-94 -182t-35 -171.5z" />
    <glyph glyph-name="sterling" unicode="&#xa3;" horiz-adv-x="1003" 
d="M520 -18l-356 6l-381 12q-23 0 -23 18q0 11 31 35.5t57 38.5q12 6 27 6l100 -4q89 62 170 170q42 55 78.5 134.5t55.5 137t55 179.5h-223l10 24h221q63 201 102 299q49 123 116 210.5t149.5 138.5t173.5 73.5t200 22.5q92 0 173 -17.5t81 -44.5q0 -31 -39 -62.5
t-77 -31.5q-23 0 -52.5 8t-56.5 18t-96.5 37.5t-128.5 49.5q-46 -12 -79 -29.5t-75.5 -59.5t-86 -122.5t-91.5 -202.5l-117 -287h350l-10 -24h-350q-87 -205 -147 -309q-109 -198 -265 -312l152 -6l354 -6q46 -1 85.5 2.5t67.5 8t57 16t44.5 18t38.5 25t31 25.5t31 30t30 29
l17 -15q-124 -137 -187 -188q-21 -17 -35.5 -25t-62.5 -17.5t-119 -8.5z" />
    <glyph glyph-name="yen" unicode="&#xa5;" horiz-adv-x="980" 
d="M346 0q-11 0 -15.5 7t1.5 18q125 258 192 424h-280l10 24h281q28 79 34 98h-274l10 25h270q3 12 3 20q0 186 -36 373t-87.5 300.5t-96.5 113.5q-21 0 -51.5 -28t-52.5 -56.5t-56 -76.5q-8 -11 -12 -17l-16 12q42 59 62 86t59 73.5t70 67.5t57 21q35 0 78 -65t82.5 -176
t69.5 -280.5t36 -355.5l588 828q44 59 69 59q13 0 21 -13.5t8 -29.5q0 -24 -9 -41t-34 -47l-618 -768h264l-10 -25h-273l-2 -2q-9 -24 -41 -96h275l-11 -24h-274l-199 -435q-6 -14 -22 -14h-70z" />
    <glyph glyph-name="brokenbar" unicode="&#xa6;" horiz-adv-x="407" 
d="M313 874l291 764h29l-293 -764h-27zM150 373l-302 -787l-28 -2l301 789h29z" />
    <glyph glyph-name="section" unicode="&#xa7;" horiz-adv-x="778" 
d="M135 -14q-201 0 -201 145q0 55 66 148l16 -11q-28 -38 -28 -75q0 -72 60 -113t167 -41q79 0 135 52.5t56 148.5q0 93 -78 219q-106 165 -99 250q7 92 79.5 173.5t172.5 123.5q-24 74 -24 122q0 68 43 130t106.5 102t132.5 64t125 24q101 0 101 -33q0 -26 -26.5 -49
t-59.5 -23q-39 0 -170 46q-76 -31 -118 -73t-42 -106q0 -103 88 -252q31 -54 45 -82.5t24.5 -71.5t8.5 -93q-4 -80 -73.5 -155t-168.5 -120q26 -59 23 -114q-4 -76 -39 -141.5t-88 -107t-114.5 -64.5t-119.5 -23zM324 791q-4 -40 13 -90.5t30 -74t45 -77.5q42 -74 51 -92
q76 36 122 86t46 106q0 93 -78 219q-36 58 -59 111q-73 -22 -118.5 -71.5t-51.5 -116.5z" />
    <glyph glyph-name="copyright" unicode="&#xa9;" horiz-adv-x="823" 
d="M731 954q-141 0 -241.5 100.5t-100.5 241.5t100.5 241.5t241.5 100.5t241.5 -100.5t100.5 -241.5t-100.5 -241.5t-241.5 -100.5zM731 983q130 0 219.5 91t89.5 222t-89.5 222.5t-219.5 91.5t-219.5 -91.5t-89.5 -222.5t89.5 -222t219.5 -91zM614 1118q-38 0 -57.5 25
t-19.5 57q0 98 91.5 191.5t194.5 93.5q80 0 80 -19q0 -16 -18.5 -29.5t-36.5 -13.5q-12 0 -40 14.5t-50 14.5q-54 0 -104.5 -78.5t-47.5 -152.5q3 -62 60 -62q43 0 102 51l8 -10q-94 -82 -162 -82z" />
    <glyph glyph-name="guillemotleft" unicode="&#xab;" horiz-adv-x="1191" 
d="M762 -10q-6 2 -27 45l-254 487l684 465q42 29 45 29q15 0 15 -41q0 -40 -6.5 -56t-22.5 -24l-692 -375l301 -418q12 -11 10 -29.5t-22 -54.5q-6 -13 -13 -21t-11 -8t-7 1zM352 -10q-5 2 -26 45l-254 487l684 465q42 29 45 29q14 0 14 -41q0 -40 -6.5 -56t-22.5 -24
l-692 -375l301 -418q12 -11 10 -29.5t-22 -54.5q-6 -13 -13 -21t-11 -8t-7 1z" />
    <glyph glyph-name="registered" unicode="&#xae;" horiz-adv-x="821" 
d="M731 954q-141 0 -241.5 100.5t-100.5 241.5t100.5 241.5t241.5 100.5t240.5 -99.5t99.5 -240.5t-99.5 -242.5t-240.5 -101.5zM731 983q130 0 219.5 91t89.5 222t-89.5 222.5t-219.5 91.5t-219.5 -91.5t-89.5 -222.5t89.5 -222t219.5 -91zM545 1139l143 356h64q23 3 50 1
t50 -7t37.5 -20.5t13.5 -38.5q-5 -68 -149 -134q31 -50 71 -94.5t60 -44.5q11 0 20 12l10 -8q-34 -39 -71 -39q-22 0 -44.5 14t-43 41t-33 47t-29.5 50l-4 10q61 25 95.5 63t37.5 78q1 17 -2.5 28t-21 20.5t-51.5 9.5l-138 -344h-65z" />
    <glyph glyph-name="degree" unicode="&#xb0;" horiz-adv-x="507" 
d="M528 1016q-88 0 -149.5 61.5t-61.5 149.5t61.5 149.5t149.5 61.5t149.5 -61.5t61.5 -149.5t-61.5 -149.5t-149.5 -61.5zM528 1038q78 0 132.5 55.5t54.5 133.5t-54.5 133t-132.5 55t-132 -55t-54 -133t54 -133.5t132 -55.5z" />
    <glyph glyph-name="paragraph" unicode="&#xb6;" horiz-adv-x="737" 
d="M-328 -483q-32 0 -45.5 9.5t-13.5 31.5q0 23 22.5 50t57.5 27q7 0 42 -1.5t61.5 -2t60.5 1.5q94 7 164.5 53t148 161.5t174.5 328.5l297 653q-38 2 -79 11t-86.5 30t-81 50.5t-58.5 77t-23 104.5q0 175 146 278t422 103h157l6 -13l-534 -1194q-97 -215 -236 -387.5
t-297.5 -272t-304.5 -99.5z" />
    <glyph glyph-name="periodcentered" unicode="&#xb7;" horiz-adv-x="315" 
d="M211 565q-22 0 -51 23.5t-29 52.5q0 41 42.5 87t80.5 46q24 0 48 -26.5t24 -53.5q0 -39 -41.5 -84t-73.5 -45z" />
    <glyph glyph-name="guillemotright" unicode="&#xbb;" horiz-adv-x="1191" 
d="M420 1014q5 -2 26 -45l254 -488l-684 -465q-40 -28 -45 -28q-14 0 -14 41q0 40 6.5 56t22.5 24l692 374l-301 418q-12 11 -10 29.5t22 54.5q6 13 13 21t11 8.5t7 -0.5zM829 1014q6 -2 27 -45l254 -488l-684 -465q-40 -28 -45 -28q-14 0 -14 41t6 56.5t22 23.5l692 374
l-301 418q-12 11 -10 29.5t23 54.5q6 13 13 21t10.5 8.5t6.5 -0.5z" />
    <glyph glyph-name="questiondown" unicode="&#xbf;" horiz-adv-x="768" 
d="M575 735q-22 -85 -71 -165t-148 -181q-40 -40 -112.5 -101t-129.5 -111.5t-114.5 -111t-90 -125t-32.5 -128.5q0 -81 56 -133t157 -52q185 0 371 189l14 -19q-240 -254 -459 -258q-131 0 -200.5 62.5t-69.5 162.5q0 72 31.5 139t80 117t115.5 103.5t130.5 95.5
t132.5 96.5t114 102.5q69 73 95 142t38 175h92zM604 1053q22 0 51 -23.5t29 -52.5q0 -41 -42.5 -87t-80.5 -46q-24 0 -48 26.5t-24 53.5q0 39 41.5 84t73.5 45z" />
    <glyph glyph-name="Agrave" unicode="&#xc0;" horiz-adv-x="2203" 
d="M262 -29q-89 0 -159 29.5t-110.5 78t-61.5 106.5t-21 120q0 116 58.5 226.5t152 191t215 129.5t242.5 49q95 0 198.5 -21t164 -42t172.5 -65.5t149 -57.5q331 363 682 825l-400 -6q-53 -1 -92.5 -9t-74 -29t-55 -38t-60.5 -55l-17 14q127 141 187 189q40 32 110 32h524
q25 0 19 -24q-118 -525 -189 -913.5t-71 -485.5q0 -129 94 -129q78 0 205 115l16 -21q-214 -194 -319 -194q-50 0 -85.5 52t-27.5 167q15 171 80 512q-150 -125 -338 -125q-113 0 -238 33q-112 -120 -195 -203t-189 -175t-193 -147.5t-185 -92t-188 -36.5zM1913 1931
q-16 8 -22.5 24t-6.5 56q0 41 14 41q7 0 46 -29l370 -272l-10 -14zM12 367q0 -145 91 -237.5t229 -92.5q92 0 196 45.5t216.5 134t213.5 185.5t226 231q-92 26 -227.5 84.5t-246 95.5t-206.5 37q-107 0 -200.5 -41t-156.5 -109t-99 -155t-36 -178zM1290 707q153 -54 266 -54
q131 0 238 99q62 327 160 751q-364 -474 -664 -796z" />
    <glyph glyph-name="Aacute" unicode="&#xc1;" horiz-adv-x="2203" 
d="M262 -29q-89 0 -159 29.5t-110.5 78t-61.5 106.5t-21 120q0 116 58.5 226.5t152 191t215 129.5t242.5 49q95 0 198.5 -21t164 -42t172.5 -65.5t149 -57.5q331 363 682 825l-400 -6q-53 -1 -92.5 -9t-74 -29t-55 -38t-60.5 -55l-17 14q127 141 187 189q40 32 110 32h524
q25 0 19 -24q-118 -525 -189 -913.5t-71 -485.5q0 -129 94 -129q78 0 205 115l16 -21q-214 -194 -319 -194q-50 0 -85.5 52t-27.5 167q15 171 80 512q-150 -125 -338 -125q-113 0 -238 33q-112 -120 -195 -203t-189 -175t-193 -147.5t-185 -92t-188 -36.5zM2318 1931
l-391 -194l-10 14l371 272q39 29 45 29q14 0 14 -41q0 -40 -6.5 -56t-22.5 -24zM12 367q0 -145 91 -237.5t229 -92.5q92 0 196 45.5t216.5 134t213.5 185.5t226 231q-92 26 -227.5 84.5t-246 95.5t-206.5 37q-107 0 -200.5 -41t-156.5 -109t-99 -155t-36 -178zM1290 707
q153 -54 266 -54q131 0 238 99q62 327 160 751q-364 -474 -664 -796z" />
    <glyph glyph-name="Acircumflex" unicode="&#xc2;" horiz-adv-x="2203" 
d="M262 -29q-89 0 -159 29.5t-110.5 78t-61.5 106.5t-21 120q0 116 58.5 226.5t152 191t215 129.5t242.5 49q95 0 198.5 -21t164 -42t172.5 -65.5t149 -57.5q331 363 682 825l-400 -6q-53 -1 -92.5 -9t-74 -29t-55 -38t-60.5 -55l-17 14q127 141 187 189q40 32 110 32h524
q25 0 19 -24q-118 -525 -189 -913.5t-71 -485.5q0 -129 94 -129q78 0 205 115l16 -21q-214 -194 -319 -194q-50 0 -85.5 52t-27.5 167q15 171 80 512q-150 -125 -338 -125q-113 0 -238 33q-112 -120 -195 -203t-189 -175t-193 -147.5t-185 -92t-188 -36.5zM2241 1833
q-15 0 -27 12q-54 70 -117 133q-54 -23 -125 -68t-127 -91l-18 18q87 67 192.5 130t139.5 63q23 0 79 -64.5t97 -122.5l-8 -12zM12 367q0 -145 91 -237.5t229 -92.5q92 0 196 45.5t216.5 134t213.5 185.5t226 231q-92 26 -227.5 84.5t-246 95.5t-206.5 37q-107 0 -200.5 -41
t-156.5 -109t-99 -155t-36 -178zM1290 707q153 -54 266 -54q131 0 238 99q62 327 160 751q-364 -474 -664 -796z" />
    <glyph glyph-name="Atilde" unicode="&#xc3;" horiz-adv-x="2203" 
d="M262 -29q-89 0 -159 29.5t-110.5 78t-61.5 106.5t-21 120q0 116 58.5 226.5t152 191t215 129.5t242.5 49q95 0 198.5 -21t164 -42t172.5 -65.5t149 -57.5q331 363 682 825l-400 -6q-53 -1 -92.5 -9t-74 -29t-55 -38t-60.5 -55l-17 14q127 141 187 189q40 32 110 32h524
q25 0 19 -24q-118 -525 -189 -913.5t-71 -485.5q0 -129 94 -129q78 0 205 115l16 -21q-214 -194 -319 -194q-50 0 -85.5 52t-27.5 167q15 171 80 512q-150 -125 -338 -125q-113 0 -238 33q-112 -120 -195 -203t-189 -175t-193 -147.5t-185 -92t-188 -36.5zM1712 1847
q118 170 221 170q56 0 146.5 -27.5t136.5 -27.5q44 0 73 21.5t68 70.5l17 -12q-43 -68 -102.5 -119t-117.5 -51q-41 0 -141 26.5t-135 26.5q-46 0 -80 -18.5t-67 -69.5zM12 367q0 -145 91 -237.5t229 -92.5q92 0 196 45.5t216.5 134t213.5 185.5t226 231q-92 26 -227.5 84.5
t-246 95.5t-206.5 37q-107 0 -200.5 -41t-156.5 -109t-99 -155t-36 -178zM1290 707q153 -54 266 -54q131 0 238 99q62 327 160 751q-364 -474 -664 -796z" />
    <glyph glyph-name="Adieresis" unicode="&#xc4;" horiz-adv-x="2203" 
d="M262 -29q-89 0 -159 29.5t-110.5 78t-61.5 106.5t-21 120q0 116 58.5 226.5t152 191t215 129.5t242.5 49q95 0 198.5 -21t164 -42t172.5 -65.5t149 -57.5q331 363 682 825l-400 -6q-53 -1 -92.5 -9t-74 -29t-55 -38t-60.5 -55l-17 14q127 141 187 189q40 32 110 32h524
q25 0 19 -24q-118 -525 -189 -913.5t-71 -485.5q0 -129 94 -129q78 0 205 115l16 -21q-214 -194 -319 -194q-50 0 -85.5 52t-27.5 167q15 171 80 512q-150 -125 -338 -125q-113 0 -238 33q-112 -120 -195 -203t-189 -175t-193 -147.5t-185 -92t-188 -36.5zM2195 1823
q-15 0 -31 18.5t-16 44.5q0 30 21 60q19 31 45 52t45 21q16 0 30.5 -17t14.5 -42q0 -35 -20 -64q-13 -24 -41 -48.5t-48 -24.5zM1855 1823q-15 0 -31 18.5t-16 44.5q0 30 21 60q17 30 43.5 51.5t44.5 21.5t32.5 -17t14.5 -42q0 -35 -20 -64q-13 -24 -41 -48.5t-48 -24.5z
M12 367q0 -145 91 -237.5t229 -92.5q92 0 196 45.5t216.5 134t213.5 185.5t226 231q-92 26 -227.5 84.5t-246 95.5t-206.5 37q-107 0 -200.5 -41t-156.5 -109t-99 -155t-36 -178zM1290 707q153 -54 266 -54q131 0 238 99q62 327 160 751q-364 -474 -664 -796z" />
    <glyph glyph-name="Aring" unicode="&#xc5;" horiz-adv-x="2203" 
d="M262 -29q-89 0 -159 29.5t-110.5 78t-61.5 106.5t-21 120q0 116 58.5 226.5t152 191t215 129.5t242.5 49q95 0 198.5 -21t164 -42t172.5 -65.5t149 -57.5q331 363 682 825l-400 -6q-53 -1 -92.5 -9t-74 -29t-55 -38t-60.5 -55l-17 14q127 141 187 189q40 32 110 32h524
q25 0 19 -24q-118 -525 -189 -913.5t-71 -485.5q0 -129 94 -129q78 0 205 115l16 -21q-214 -194 -319 -194q-50 0 -85.5 52t-27.5 167q15 171 80 512q-150 -125 -338 -125q-113 0 -238 33q-112 -120 -195 -203t-189 -175t-193 -147.5t-185 -92t-188 -36.5zM2073 1782
q-90 0 -144.5 56.5t-54.5 141.5q0 83 58 141t141 58q94 0 146 -56t52 -143q0 -83 -57.5 -140.5t-140.5 -57.5zM2073 1806q74 0 122 49t48 125t-48 125t-122 49t-122 -49t-48 -125t48 -125t122 -49zM12 367q0 -145 91 -237.5t229 -92.5q92 0 196 45.5t216.5 134t213.5 185.5
t226 231q-92 26 -227.5 84.5t-246 95.5t-206.5 37q-107 0 -200.5 -41t-156.5 -109t-99 -155t-36 -178zM1290 707q153 -54 266 -54q131 0 238 99q62 327 160 751q-364 -474 -664 -796z" />
    <glyph glyph-name="AE" unicode="&#xc6;" horiz-adv-x="2670" 
d="M303 -29q-89 0 -159 29.5t-110.5 78t-61.5 106.5t-21 120q0 154 98 293t252.5 221t316.5 82q75 0 147.5 -10t148 -33t121.5 -39.5t128.5 -50.5t110.5 -45l131 149q87 97 156.5 169.5t159.5 156t170 143.5t174.5 113t187.5 84h-268q-53 0 -92 -8t-75.5 -31.5t-54 -38.5
t-61.5 -57l-16 14q6 6 28 31t31 34.5t29 31t33 34t31 29t34 29.5q40 32 110 32h998q123 0 123 -73q0 -53 -57 -112.5t-185 -156.5l-12 19q91 75 127.5 114t36.5 66q0 21 -19.5 32t-71.5 11h-555q-14 -9 -26.5 -20t-21 -19t-20 -22.5t-16.5 -20.5t-16.5 -25t-14.5 -23.5
t-16.5 -28t-15.5 -27.5q-95 -162 -248 -480h664v-28h-678q-173 -358 -254 -500q-38 -68 -71.5 -107t-80.5 -73l-92 -64h791q66 0 116.5 17.5t79 40t74.5 66.5l12 12l17 -15q-124 -137 -187 -188q-42 -33 -122 -33h-902q-22 0 -22 18q0 19 57 50l41 30q35 26 62 61.5
t67 106.5q87 150 223 434q-142 -108 -317 -108q-98 0 -221 35q-78 -91 -128 -147t-124.5 -133t-129 -124.5t-127 -101t-135 -82.5t-136 -48.5t-146.5 -19.5zM53 367q0 -147 95 -239t249 -91q57 1 116.5 18.5t112.5 45t114.5 74t111.5 91.5t115 113t113.5 122t117.5 134
q-79 25 -211 84.5t-239 95t-203 35.5q-107 0 -200.5 -41t-156.5 -109t-99 -155t-36 -178zM1303 711q151 -58 253 -58q131 0 236 97q186 384 276 540q82 145 203 215l37 21q-97 -25 -195.5 -76.5t-180.5 -110.5t-177 -147t-164.5 -160.5t-163.5 -177.5z" />
    <glyph glyph-name="Ccedilla" unicode="&#xc7;" horiz-adv-x="1398" 
d="M680 -14h-27l-145 -123q90 12 141 -17t51 -86q0 -73 -77 -125.5t-166 -52.5q-41 0 -70 14.5t-29 36.5q0 14 13 25.5t26 11.5q12 0 50.5 -23.5t76.5 -23.5q53 0 86 24t33 64q0 37 -39 62.5t-98 25.5q-50 0 -111 -22l-10 12l238 199q-97 7 -176.5 40t-133.5 82.5
t-91.5 114.5t-54.5 135t-17 144q0 145 44.5 289.5t124 271t193.5 236t247.5 187.5t291.5 122.5t321 44.5q147 0 284.5 -38t137.5 -77q0 -32 -39 -66t-90 -34q-95 0 -510 164q-128 -20 -255.5 -79.5t-240.5 -154t-200 -212t-138 -266t-51 -304.5q0 -102 30.5 -192.5
t89 -162.5t153.5 -114t215 -41q258 0 469 196l16 -20q-132 -127 -268.5 -197.5t-294.5 -70.5z" />
    <glyph glyph-name="Egrave" unicode="&#xc8;" horiz-adv-x="1296" 
d="M-35 0q-22 0 -22 18q0 5 4 10.5t14.5 13.5t16 12t20.5 14l43 30q35 26 62 61.5t67 106.5q100 178 293 578h-207v28h221q133 275 217 418q82 145 203 215l57 33h-344q-31 0 -58.5 -4.5t-46 -7.5t-43 -17t-33.5 -18t-35 -27t-30.5 -27t-35.5 -34l-17 14q127 141 187 189
q40 32 110 32h998q123 0 123 -73q0 -53 -57 -112.5t-185 -156.5l-12 19q91 74 127 113.5t36 66.5q0 21 -19 32t-71 11h-555q-14 -9 -26.5 -20t-21 -19t-20 -22.5t-16.5 -20.5t-16.5 -25t-14.5 -23.5t-16.5 -28t-15.5 -27.5q-95 -162 -248 -480h664v-28h-678
q-173 -358 -254 -500q-38 -68 -71.5 -107t-80.5 -73l-92 -64h791q66 0 116.5 17.5t79 40t74.5 66.5l12 12l17 -15q-124 -137 -187 -188q-42 -33 -123 -33h-901zM936 1903q-16 8 -22.5 23.5t-6.5 55.5q0 41 15 41q7 0 45 -28l370 -273l-10 -14z" />
    <glyph glyph-name="Eacute" unicode="&#xc9;" horiz-adv-x="1296" 
d="M-35 0q-22 0 -22 18q0 5 4 10.5t14.5 13.5t16 12t20.5 14l43 30q35 26 62 61.5t67 106.5q100 178 293 578h-207v28h221q133 275 217 418q82 145 203 215l57 33h-344q-31 0 -58.5 -4.5t-46 -7.5t-43 -17t-33.5 -18t-35 -27t-30.5 -27t-35.5 -34l-17 14q127 141 187 189
q40 32 110 32h998q123 0 123 -73q0 -53 -57 -112.5t-185 -156.5l-12 19q91 74 127 113.5t36 66.5q0 21 -19 32t-71 11h-555q-14 -9 -26.5 -20t-21 -19t-20 -22.5t-16.5 -20.5t-16.5 -25t-14.5 -23.5t-16.5 -28t-15.5 -27.5q-95 -162 -248 -480h664v-28h-678
q-173 -358 -254 -500q-38 -68 -71.5 -107t-80.5 -73l-92 -64h791q66 0 116.5 17.5t79 40t74.5 66.5l12 12l17 -15q-124 -137 -187 -188q-42 -33 -123 -33h-901zM1341 1903l-391 -195l-10 14l371 273q38 28 45 28q14 0 14 -41q0 -40 -6.5 -55.5t-22.5 -23.5z" />
    <glyph glyph-name="Ecircumflex" unicode="&#xca;" horiz-adv-x="1296" 
d="M-35 0q-22 0 -22 18q0 5 4 10.5t14.5 13.5t16 12t20.5 14l43 30q35 26 62 61.5t67 106.5q100 178 293 578h-207v28h221q133 275 217 418q82 145 203 215l57 33h-344q-31 0 -58.5 -4.5t-46 -7.5t-43 -17t-33.5 -18t-35 -27t-30.5 -27t-35.5 -34l-17 14q127 141 187 189
q40 32 110 32h998q123 0 123 -73q0 -53 -57 -112.5t-185 -156.5l-12 19q91 74 127 113.5t36 66.5q0 21 -19 32t-71 11h-555q-14 -9 -26.5 -20t-21 -19t-20 -22.5t-16.5 -20.5t-16.5 -25t-14.5 -23.5t-16.5 -28t-15.5 -27.5q-95 -162 -248 -480h664v-28h-678
q-173 -358 -254 -500q-38 -68 -71.5 -107t-80.5 -73l-92 -64h791q66 0 116.5 17.5t79 40t74.5 66.5l12 12l17 -15q-124 -137 -187 -188q-42 -33 -123 -33h-901zM1264 1804q-14 0 -27 13q-54 70 -117 133q-116 -49 -252 -160l-18 18q87 67 192.5 130t139.5 63
q23 0 79.5 -64.5t96.5 -121.5l-8 -13z" />
    <glyph glyph-name="Edieresis" unicode="&#xcb;" horiz-adv-x="1296" 
d="M-35 0q-22 0 -22 18q0 5 4 10.5t14.5 13.5t16 12t20.5 14l43 30q35 26 62 61.5t67 106.5q100 178 293 578h-207v28h221q133 275 217 418q82 145 203 215l57 33h-344q-31 0 -58.5 -4.5t-46 -7.5t-43 -17t-33.5 -18t-35 -27t-30.5 -27t-35.5 -34l-17 14q127 141 187 189
q40 32 110 32h998q123 0 123 -73q0 -53 -57 -112.5t-185 -156.5l-12 19q91 74 127 113.5t36 66.5q0 21 -19 32t-71 11h-555q-14 -9 -26.5 -20t-21 -19t-20 -22.5t-16.5 -20.5t-16.5 -25t-14.5 -23.5t-16.5 -28t-15.5 -27.5q-95 -162 -248 -480h664v-28h-678
q-173 -358 -254 -500q-38 -68 -71.5 -107t-80.5 -73l-92 -64h791q66 0 116.5 17.5t79 40t74.5 66.5l12 12l17 -15q-124 -137 -187 -188q-42 -33 -123 -33h-901zM1219 1794q-15 0 -31.5 19t-16.5 45q0 29 21 59q19 31 45 52.5t45 21.5q16 0 30.5 -17.5t14.5 -42.5
q0 -34 -20 -63q-14 -25 -41 -49.5t-47 -24.5zM879 1794q-15 0 -31.5 19t-16.5 45q0 29 21 59q17 30 43.5 52t44.5 22t32.5 -17.5t14.5 -42.5q0 -34 -20 -63q-14 -25 -41 -49.5t-47 -24.5z" />
    <glyph glyph-name="Igrave" unicode="&#xcc;" horiz-adv-x="770" 
d="M-186 0q-23 0 -23 16q0 12 24.5 38t47.5 38q16 8 47 8h143q52 39 85.5 75.5t64.5 92.5q97 162 276 535.5t266 523.5q39 69 84.5 113t118.5 84l27 14h-144q-46 0 -86 -4t-67 -8t-57 -16.5t-44 -17.5t-39 -25t-30.5 -24.5t-32 -30t-29.5 -28.5l-16 15q2 3 23.5 26.5
t27 29.5t24 26t28.5 29.5t25.5 25t29.5 28t28 23.5q20 16 35.5 24.5t63.5 17.5t119 9h479q16 0 16 -10t-18.5 -35t-38.5 -43q-14 -12 -53 -12h-191q-45 -37 -74 -68t-57 -81q-99 -170 -287 -552t-250 -493q-31 -55 -48.5 -81.5t-47.5 -57.5t-69 -53l-91 -52h152q46 0 86 4
t67 8t57 16.5t44 17.5t39 25t30.5 24.5t32 30t29.5 28.5l16 -14q-6 -6 -28 -31t-31 -34.5t-29 -31t-33 -34t-31 -29t-34 -29.5q-20 -16 -35.5 -24.5t-63 -17.5t-118.5 -9h-440zM977 1903q-16 8 -22.5 23.5t-6.5 55.5q0 41 15 41q7 0 45 -28l370 -273l-10 -14z" />
    <glyph glyph-name="Iacute" unicode="&#xcd;" horiz-adv-x="770" 
d="M-186 0q-23 0 -23 16q0 12 24.5 38t47.5 38q16 8 47 8h143q52 39 85.5 75.5t64.5 92.5q97 162 276 535.5t266 523.5q39 69 84.5 113t118.5 84l27 14h-144q-46 0 -86 -4t-67 -8t-57 -16.5t-44 -17.5t-39 -25t-30.5 -24.5t-32 -30t-29.5 -28.5l-16 15q2 3 23.5 26.5
t27 29.5t24 26t28.5 29.5t25.5 25t29.5 28t28 23.5q20 16 35.5 24.5t63.5 17.5t119 9h479q16 0 16 -10t-18.5 -35t-38.5 -43q-14 -12 -53 -12h-191q-45 -37 -74 -68t-57 -81q-99 -170 -287 -552t-250 -493q-31 -55 -48.5 -81.5t-47.5 -57.5t-69 -53l-91 -52h152q46 0 86 4
t67 8t57 16.5t44 17.5t39 25t30.5 24.5t32 30t29.5 28.5l16 -14q-6 -6 -28 -31t-31 -34.5t-29 -31t-33 -34t-31 -29t-34 -29.5q-20 -16 -35.5 -24.5t-63 -17.5t-118.5 -9h-440zM1382 1903l-391 -195l-10 14l371 273q38 28 45 28q14 0 14 -41q0 -40 -6.5 -55.5t-22.5 -23.5z
" />
    <glyph glyph-name="Icircumflex" unicode="&#xce;" horiz-adv-x="770" 
d="M-186 0q-23 0 -23 16q0 12 24.5 38t47.5 38q16 8 47 8h143q52 39 85.5 75.5t64.5 92.5q97 162 276 535.5t266 523.5q39 69 84.5 113t118.5 84l27 14h-144q-46 0 -86 -4t-67 -8t-57 -16.5t-44 -17.5t-39 -25t-30.5 -24.5t-32 -30t-29.5 -28.5l-16 15q2 3 23.5 26.5
t27 29.5t24 26t28.5 29.5t25.5 25t29.5 28t28 23.5q20 16 35.5 24.5t63.5 17.5t119 9h479q16 0 16 -10t-18.5 -35t-38.5 -43q-14 -12 -53 -12h-191q-45 -37 -74 -68t-57 -81q-99 -170 -287 -552t-250 -493q-31 -55 -48.5 -81.5t-47.5 -57.5t-69 -53l-91 -52h152q46 0 86 4
t67 8t57 16.5t44 17.5t39 25t30.5 24.5t32 30t29.5 28.5l16 -14q-6 -6 -28 -31t-31 -34.5t-29 -31t-33 -34t-31 -29t-34 -29.5q-20 -16 -35.5 -24.5t-63 -17.5t-118.5 -9h-440zM1305 1804q-14 0 -27 13q-54 70 -117 133q-116 -49 -252 -160l-18 18q87 67 192.5 130t139.5 63
q23 0 79.5 -64.5t96.5 -121.5l-8 -13z" />
    <glyph glyph-name="Idieresis" unicode="&#xcf;" horiz-adv-x="770" 
d="M-186 0q-23 0 -23 16q0 12 24.5 38t47.5 38q16 8 47 8h143q52 39 85.5 75.5t64.5 92.5q97 162 276 535.5t266 523.5q39 69 84.5 113t118.5 84l27 14h-144q-46 0 -86 -4t-67 -8t-57 -16.5t-44 -17.5t-39 -25t-30.5 -24.5t-32 -30t-29.5 -28.5l-16 15q2 3 23.5 26.5
t27 29.5t24 26t28.5 29.5t25.5 25t29.5 28t28 23.5q20 16 35.5 24.5t63.5 17.5t119 9h479q16 0 16 -10t-18.5 -35t-38.5 -43q-14 -12 -53 -12h-191q-45 -37 -74 -68t-57 -81q-99 -170 -287 -552t-250 -493q-31 -55 -48.5 -81.5t-47.5 -57.5t-69 -53l-91 -52h152q46 0 86 4
t67 8t57 16.5t44 17.5t39 25t30.5 24.5t32 30t29.5 28.5l16 -14q-6 -6 -28 -31t-31 -34.5t-29 -31t-33 -34t-31 -29t-34 -29.5q-20 -16 -35.5 -24.5t-63 -17.5t-118.5 -9h-440zM1260 1794q-15 0 -31.5 19t-16.5 45q0 29 21 59q19 31 45 52.5t45 21.5q16 0 30.5 -17.5
t14.5 -42.5q0 -34 -20 -63q-14 -25 -41 -49.5t-47 -24.5zM920 1794q-15 0 -31.5 19t-16.5 45q0 29 21 59q17 30 43.5 52t44.5 22t32.5 -17.5t14.5 -42.5q0 -34 -20 -63q-14 -25 -41 -49.5t-47 -24.5z" />
    <glyph glyph-name="Eth" unicode="&#xd0;" horiz-adv-x="1761" 
d="M627 -12q-316 0 -494 22q-22 2 -22 15q0 4 3.5 8.5t11.5 10.5t14.5 10.5t19 12t18.5 11.5l29 20l4 4q32 25 59.5 60.5t65.5 103.5q28 49 56 100t59.5 113.5t50.5 101t57.5 117t52.5 105.5h-155v24h168q153 308 223 428q74 132 203 215l88 58l14 -21q-13 -9 -24 -17.5
t-22 -19.5t-18 -17.5t-17 -20.5t-14.5 -19.5t-15.5 -23t-13.5 -21.5t-15 -25.5t-14.5 -25.5q-83 -144 -254 -490h209v-24h-221q-14 -28 -56 -112.5t-62.5 -125.5t-54.5 -105.5t-64 -115.5q-38 -68 -71.5 -107t-80.5 -73l-74 -51h2q59 -9 209.5 -20t276.5 -11q277 0 488 101
t323.5 279.5t111.5 405.5q-1 153 -53 283t-147 224.5t-237.5 148t-315.5 53.5q-238 0 -461 -156l-12 21q291 209 598 209q172 0 315 -58t234.5 -153.5t141.5 -214.5t50 -244q0 -176 -67 -334.5t-181.5 -277t-263 -206t-317.5 -132t-338 -43.5z" />
    <glyph glyph-name="Ntilde" unicode="&#xd1;" horiz-adv-x="1830" 
d="M1366 -23q-7 0 -10 19l-228 1511q-12 -24 -56.5 -115.5t-66 -136t-66.5 -133t-77.5 -150t-76.5 -140.5t-85 -148q-91 -150 -179 -268t-187 -218.5t-203 -155t-205 -54.5q-76 0 -138 13.5t-62 37.5q0 28 35 60t87 32q22 0 57.5 -7.5t99.5 -24t112 -27.5q250 108 559 628
q32 53 65.5 112t60 107.5t61 115.5t55 106.5t56 111.5t49 99.5t49 101.5t42.5 88l-448 -4q-53 -1 -92 -9t-75 -31t-55 -39t-61 -56l-16 14q6 6 28 31t31 34.5t29 31t33 34t31 29t34 29.5q40 32 115 32h526q22 0 25 -24l219 -1452l393 825q37 76 62 126t58 111.5t58.5 101
t58.5 85.5t62.5 74.5t66.5 59t75.5 48t84.5 33t97 21.5t110 6q166 0 166 -43q0 -26 -33 -57t-71 -31q-24 0 -67 7t-113 19.5t-132 20.5q-97 -15 -196.5 -141t-221.5 -373q-334 -682 -413 -867q-36 -83 -70 -147t-47 -64zM1174 1819q118 170 221 170q56 0 146 -28t136 -28
q44 0 73.5 21.5t68.5 70.5l16 -12q-43 -68 -102 -119t-117 -51q-41 0 -141.5 26.5t-135.5 26.5q-46 0 -80 -18.5t-67 -69.5z" />
    <glyph glyph-name="Ograve" unicode="&#xd2;" horiz-adv-x="1822" 
d="M918 -14q-167 0 -300.5 55t-218 150t-129.5 219.5t-45 267.5q0 126 38.5 251.5t105 231.5t158 198t194 156.5t216 101t222.5 36.5q133 0 244 -36t189 -99.5t132 -151t79.5 -188.5t25.5 -213q0 -141 -49.5 -285.5t-137.5 -267.5t-201 -219.5t-249.5 -151.5t-273.5 -55z
M1020 57q144 0 275.5 70t223 184t145.5 260.5t54 296.5q0 206 -78 367t-228.5 254.5t-352.5 93.5q-129 0 -259.5 -61.5t-234 -164.5t-168.5 -249t-65 -303q0 -213 86.5 -383.5t244 -267.5t357.5 -97zM1204 1919q-16 8 -22 23.5t-6 56.5t14 41q6 0 45 -29l371 -272l-11 -15z
" />
    <glyph glyph-name="Oacute" unicode="&#xd3;" horiz-adv-x="1822" 
d="M918 -14q-167 0 -300.5 55t-218 150t-129.5 219.5t-45 267.5q0 126 38.5 251.5t105 231.5t158 198t194 156.5t216 101t222.5 36.5q133 0 244 -36t189 -99.5t132 -151t79.5 -188.5t25.5 -213q0 -141 -49.5 -285.5t-137.5 -267.5t-201 -219.5t-249.5 -151.5t-273.5 -55z
M1020 57q144 0 275.5 70t223 184t145.5 260.5t54 296.5q0 206 -78 367t-228.5 254.5t-352.5 93.5q-129 0 -259.5 -61.5t-234 -164.5t-168.5 -249t-65 -303q0 -213 86.5 -383.5t244 -267.5t357.5 -97zM1610 1919l-391 -195l-11 15l371 272q39 29 45 29q14 0 14 -41t-6 -56.5
t-22 -23.5z" />
    <glyph glyph-name="Ocircumflex" unicode="&#xd4;" horiz-adv-x="1822" 
d="M918 -14q-167 0 -300.5 55t-218 150t-129.5 219.5t-45 267.5q0 126 38.5 251.5t105 231.5t158 198t194 156.5t216 101t222.5 36.5q133 0 244 -36t189 -99.5t132 -151t79.5 -188.5t25.5 -213q0 -141 -49.5 -285.5t-137.5 -267.5t-201 -219.5t-249.5 -151.5t-273.5 -55z
M1020 57q144 0 275.5 70t223 184t145.5 260.5t54 296.5q0 206 -78 367t-228.5 254.5t-352.5 93.5q-129 0 -259.5 -61.5t-234 -164.5t-168.5 -249t-65 -303q0 -213 86.5 -383.5t244 -267.5t357.5 -97zM1532 1821q-15 0 -27 12q-57 74 -116 133q-116 -49 -252 -160l-19 19
q86 66 192 129t140 63q23 0 79.5 -64.5t96.5 -121.5l-8 -12z" />
    <glyph glyph-name="Otilde" unicode="&#xd5;" horiz-adv-x="1822" 
d="M918 -14q-167 0 -300.5 55t-218 150t-129.5 219.5t-45 267.5q0 126 38.5 251.5t105 231.5t158 198t194 156.5t216 101t222.5 36.5q133 0 244 -36t189 -99.5t132 -151t79.5 -188.5t25.5 -213q0 -141 -49.5 -285.5t-137.5 -267.5t-201 -219.5t-249.5 -151.5t-273.5 -55z
M1020 57q144 0 275.5 70t223 184t145.5 260.5t54 296.5q0 206 -78 367t-228.5 254.5t-352.5 93.5q-129 0 -259.5 -61.5t-234 -164.5t-168.5 -249t-65 -303q0 -213 86.5 -383.5t244 -267.5t357.5 -97zM1004 1835q118 170 221 170q56 0 146 -27.5t136 -27.5q44 0 73.5 21.5
t68.5 70.5l16 -12q-43 -68 -102 -119t-117 -51q-41 0 -141.5 26.5t-135.5 26.5q-46 0 -80 -18.5t-67 -69.5z" />
    <glyph glyph-name="Odieresis" unicode="&#xd6;" horiz-adv-x="1822" 
d="M918 -14q-167 0 -300.5 55t-218 150t-129.5 219.5t-45 267.5q0 126 38.5 251.5t105 231.5t158 198t194 156.5t216 101t222.5 36.5q133 0 244 -36t189 -99.5t132 -151t79.5 -188.5t25.5 -213q0 -141 -49.5 -285.5t-137.5 -267.5t-201 -219.5t-249.5 -151.5t-273.5 -55z
M1020 57q144 0 275.5 70t223 184t145.5 260.5t54 296.5q0 206 -78 367t-228.5 254.5t-352.5 93.5q-129 0 -259.5 -61.5t-234 -164.5t-168.5 -249t-65 -303q0 -213 86.5 -383.5t244 -267.5t357.5 -97zM1487 1810q-15 0 -31 19t-16 45q0 30 20 59q19 31 45 52.5t45 21.5
q16 0 30.5 -17t14.5 -42q0 -35 -20 -64q-14 -25 -41 -49.5t-47 -24.5zM1147 1810q-15 0 -31 19t-16 45q0 30 20 59q17 30 43.5 52t44.5 22t32.5 -17t14.5 -42q0 -35 -20 -64q-14 -25 -41 -49.5t-47 -24.5z" />
    <glyph glyph-name="multiply" unicode="&#xd7;" horiz-adv-x="669" 
d="M549 416l-19 -13l-145 230l-311 -230l-15 17l314 231l-144 226l21 12l141 -225l305 225l15 -17l-308 -227z" />
    <glyph glyph-name="Oslash" unicode="&#xd8;" horiz-adv-x="1822" 
d="M918 -14q-289 0 -472 159l-237 -274l-25 25l238 272q-97 94 -147 225.5t-50 284.5q0 126 38.5 251.5t105 231.5t158 198t194 156.5t216 101t222.5 36.5q259 0 436 -140l301 347l25 -25l-299 -344q102 -93 154.5 -230t52.5 -296q0 -141 -49.5 -285.5t-137.5 -267.5
t-201 -219.5t-249.5 -151.5t-273.5 -55zM1020 57q144 0 275.5 70t223 184t145.5 260.5t54 296.5q0 158 -47.5 292t-136.5 231l-993 -1139q192 -195 479 -195zM332 805q0 -157 47.5 -292.5t136.5 -236.5l993 1139q-179 168 -450 168q-129 0 -259.5 -61.5t-234 -164.5
t-168.5 -249t-65 -303z" />
    <glyph glyph-name="Ugrave" unicode="&#xd9;" horiz-adv-x="1722" 
d="M539 -16q-124 0 -205.5 81.5t-81.5 200.5q0 82 33 180.5t85 193t115.5 192t127 190.5t115.5 176t85 159.5t33 131.5q0 50 -29 85.5t-88 35.5q-56 0 -125 -33.5t-127 -87.5l-16 18q170 146 315 146q94 0 138 -56t44 -127q0 -69 -59.5 -184.5t-144 -242.5t-169.5 -258
t-144.5 -265t-59.5 -231q0 -108 59 -168t158 -60q308 0 879 740q132 234 274 472t215 353q9 12 25 12h75q12 0 16.5 -7t-1.5 -17q-151 -240 -360 -598t-302 -553q-110 -232 -110 -303q0 -37 16.5 -55.5t44.5 -18.5q83 0 211 113l14 -21q-99 -85 -185 -138.5t-130 -53.5
q-55 0 -82 35.5t-27 82.5q0 120 101 318l125 233q-537 -671 -858 -671zM1337 1903q-16 8 -22 23t-6 56t14 41q7 0 45 -28l371 -273l-10 -14z" />
    <glyph glyph-name="Uacute" unicode="&#xda;" horiz-adv-x="1722" 
d="M539 -16q-124 0 -205.5 81.5t-81.5 200.5q0 82 33 180.5t85 193t115.5 192t127 190.5t115.5 176t85 159.5t33 131.5q0 50 -29 85.5t-88 35.5q-56 0 -125 -33.5t-127 -87.5l-16 18q170 146 315 146q94 0 138 -56t44 -127q0 -69 -59.5 -184.5t-144 -242.5t-169.5 -258
t-144.5 -265t-59.5 -231q0 -108 59 -168t158 -60q308 0 879 740q132 234 274 472t215 353q9 12 25 12h75q12 0 16.5 -7t-1.5 -17q-151 -240 -360 -598t-302 -553q-110 -232 -110 -303q0 -37 16.5 -55.5t44.5 -18.5q83 0 211 113l14 -21q-99 -85 -185 -138.5t-130 -53.5
q-55 0 -82 35.5t-27 82.5q0 120 101 318l125 233q-537 -671 -858 -671zM1743 1903l-391 -195l-11 14l371 273q38 28 45 28q15 0 15 -41q0 -40 -6.5 -55.5t-22.5 -23.5z" />
    <glyph glyph-name="Ucircumflex" unicode="&#xdb;" horiz-adv-x="1722" 
d="M539 -16q-124 0 -205.5 81.5t-81.5 200.5q0 82 33 180.5t85 193t115.5 192t127 190.5t115.5 176t85 159.5t33 131.5q0 50 -29 85.5t-88 35.5q-56 0 -125 -33.5t-127 -87.5l-16 18q170 146 315 146q94 0 138 -56t44 -127q0 -69 -59.5 -184.5t-144 -242.5t-169.5 -258
t-144.5 -265t-59.5 -231q0 -108 59 -168t158 -60q308 0 879 740q132 234 274 472t215 353q9 12 25 12h75q12 0 16.5 -7t-1.5 -17q-151 -240 -360 -598t-302 -553q-110 -232 -110 -303q0 -37 16.5 -55.5t44.5 -18.5q83 0 211 113l14 -21q-99 -85 -185 -138.5t-130 -53.5
q-55 0 -82 35.5t-27 82.5q0 120 101 318l125 233q-537 -671 -858 -671zM1665 1804q-14 0 -27 13q-57 74 -116 133q-116 -49 -252 -160l-19 18q87 67 192.5 130t139.5 63q23 0 79.5 -64.5t96.5 -121.5l-8 -13z" />
    <glyph glyph-name="Udieresis" unicode="&#xdc;" horiz-adv-x="1722" 
d="M539 -16q-124 0 -205.5 81.5t-81.5 200.5q0 82 33 180.5t85 193t115.5 192t127 190.5t115.5 176t85 159.5t33 131.5q0 50 -29 85.5t-88 35.5q-56 0 -125 -33.5t-127 -87.5l-16 18q170 146 315 146q94 0 138 -56t44 -127q0 -69 -59.5 -184.5t-144 -242.5t-169.5 -258
t-144.5 -265t-59.5 -231q0 -108 59 -168t158 -60q308 0 879 740q132 234 274 472t215 353q9 12 25 12h75q12 0 16.5 -7t-1.5 -17q-151 -240 -360 -598t-302 -553q-110 -232 -110 -303q0 -37 16.5 -55.5t44.5 -18.5q83 0 211 113l14 -21q-99 -85 -185 -138.5t-130 -53.5
q-55 0 -82 35.5t-27 82.5q0 120 101 318l125 233q-537 -671 -858 -671zM1620 1794q-15 0 -31 19t-16 45q0 30 20 59q19 31 45 52.5t45 21.5q16 0 31 -17.5t15 -42.5q0 -33 -21 -63q-14 -25 -41 -49.5t-47 -24.5zM1280 1794q-15 0 -31 19t-16 45q0 30 20 59q17 30 43.5 52
t44.5 22t33 -17.5t15 -42.5q0 -33 -21 -63q-14 -25 -41 -49.5t-47 -24.5z" />
    <glyph glyph-name="Yacute" unicode="&#xdd;" horiz-adv-x="1400" 
d="M684 0q-22 0 -22 14q0 13 53 52l43 32q41 31 74.5 72t82.5 135q159 303 152 404q-23 346 -96 682q-7 33 -10 45.5t-11 38t-16 36t-22.5 20.5t-32.5 11l-127 -4q-53 -1 -92.5 -10t-74.5 -30.5t-55 -38.5t-61 -56l-16 14q6 6 28 31t31 34.5t29 31t33 34t31 29t34 29.5
q40 32 115 32h444q13 0 19 -7t0 -17l-31 -51q-10 -13 -25 -13l-221 -6q109 -25 135 -149q64 -277 96 -705l762 1008q66 86 95 86q20 0 31.5 -22.5t11.5 -43.5q0 -32 -7 -53t-30 -47l-873 -983q-60 -168 -114 -291q-30 -66 -63.5 -103.5t-88.5 -76.5l-88 -62l16 2h246
q25 0 25 -14q0 -24 -56 -76q-16 -14 -59 -14h-295zM1645 1903l-392 -195l-10 14l371 273q38 28 45 28q14 0 14 -41t-6 -56t-22 -23z" />
    <glyph glyph-name="Thorn" unicode="&#xde;" horiz-adv-x="1366" 
d="M104 0q-22 0 -22 14q0 13 53 52l43 32q35 26 62 61.5t67 106.5q88 155 246 529.5t233 517.5h-2q-87 0 -175 -22.5t-155.5 -57t-115.5 -67t-78 -62.5l-16 22q120 103 270 173t309 81l6 11q74 132 203 215l88 57l15 -21q-13 -9 -24 -17.5t-22 -19.5t-18 -17.5t-17 -20.5
t-14.5 -19.5t-15.5 -23t-13.5 -21.5t-15 -25.5t-14.5 -25.5q-21 -34 -39 -72q231 -17 366.5 -149.5t135.5 -335.5q0 -126 -56.5 -242t-145.5 -195.5t-199.5 -127t-217.5 -47.5q-96 0 -193 27.5t-149 64.5l-16 -31q-38 -68 -71.5 -107t-80.5 -73l-100 -70l262 6q17 0 17 -12
q0 -9 -17.5 -32t-38.5 -42q-16 -14 -59 -14h-275zM535 471q56 -54 153 -97.5t207 -43.5q60 0 120.5 19.5t118 60t101.5 97.5t71 138.5t27 175.5q0 208 -117 331.5t-313 152.5q-64 -130 -185 -419.5t-183 -414.5z" />
    <glyph glyph-name="germandbls" unicode="&#xdf;" horiz-adv-x="1234" 
d="M-580 -483q-32 0 -45.5 9.5t-13.5 31.5q0 23 22.5 50t57.5 27q7 0 42 -1.5t61.5 -2t60.5 1.5q95 7 158.5 46.5t134.5 142.5t174 311l420 842h-211l14 29h211q60 120 116 211.5t129.5 179.5t151.5 144.5t178 91t213 34.5q137 0 204 -58.5t67 -131.5q0 -65 -28 -119.5
t-74 -92t-105 -73t-120 -61.5t-120 -57t-105 -61t-74 -72.5t-28 -92.5q0 -47 20.5 -103t49 -109t57 -108.5t47 -119t15.5 -121.5q-4 -83 -66.5 -153t-155.5 -108t-190 -38q-201 0 -201 145q0 55 66 148l16 -11q-28 -38 -28 -75q0 -45 37.5 -81.5t88.5 -54.5t99 -18
q107 0 170 47t63 131q0 72 -28 153t-62 140.5t-62 129t-28 122.5q0 59 21.5 109t58.5 85.5t84.5 66.5t100 57t104.5 52t99.5 56.5t84.5 65t58.5 83t21.5 105.5q0 80 -60.5 133t-170.5 53q-63 0 -118.5 -16t-103 -49.5t-87 -72.5t-78 -96.5t-68.5 -110t-66 -124.5l-442 -883
q-80 -159 -179 -296.5t-207.5 -241t-225.5 -162.5t-226 -59z" />
    <glyph glyph-name="agrave" unicode="&#xe0;" horiz-adv-x="1150" 
d="M725 -14q-52 0 -74 31.5t-22 72.5q0 194 262 608q-295 -349 -484 -530.5t-280 -181.5q-39 0 -66.5 16t-41 42t-19.5 51t-6 50q0 101 47.5 223.5t130.5 239t185 214t222.5 157t231.5 59.5q182 0 338 -51l16 -6q30 -10 11 -35q-169 -244 -263 -416q-145 -268 -145 -387
q0 -57 55 -57q75 0 203 113l14 -21q-99 -85 -185 -138.5t-130 -53.5zM852 1374q-13 8 -18.5 13t-11 18.5t-5.5 34.5q0 25 9 39t20 14q12 0 35 -18l342 -291l-13 -15zM125 197q0 -53 21 -87t61 -34q68 0 275 205.5t526 592.5l20 31q-180 68 -321 68q-108 0 -217 -76
t-187.5 -191t-128 -252t-49.5 -257z" />
    <glyph glyph-name="aacute" unicode="&#xe1;" horiz-adv-x="1150" 
d="M725 -14q-52 0 -74 31.5t-22 72.5q0 194 262 608q-295 -349 -484 -530.5t-280 -181.5q-39 0 -66.5 16t-41 42t-19.5 51t-6 50q0 101 47.5 223.5t130.5 239t185 214t222.5 157t231.5 59.5q182 0 338 -51l16 -6q30 -10 11 -35q-169 -244 -263 -416q-145 -268 -145 -387
q0 -57 55 -57q75 0 203 113l14 -21q-99 -85 -185 -138.5t-130 -53.5zM1141 1374l-359 -205l-12 15l342 291q23 18 35 18q11 0 20 -14t9 -39q0 -21 -5.5 -34.5t-11 -18.5t-18.5 -13zM125 197q0 -53 21 -87t61 -34q68 0 275 205.5t526 592.5l20 31q-180 68 -321 68
q-108 0 -217 -76t-187.5 -191t-128 -252t-49.5 -257z" />
    <glyph glyph-name="acircumflex" unicode="&#xe2;" horiz-adv-x="1150" 
d="M725 -14q-52 0 -74 31.5t-22 72.5q0 194 262 608q-295 -349 -484 -530.5t-280 -181.5q-39 0 -66.5 16t-41 42t-19.5 51t-6 50q0 101 47.5 223.5t130.5 239t185 214t222.5 157t231.5 59.5q182 0 338 -51l16 -6q30 -10 11 -35q-169 -244 -263 -416q-145 -268 -145 -387
q0 -57 55 -57q75 0 203 113l14 -21q-99 -85 -185 -138.5t-130 -53.5zM1161 1190q-14 0 -26 12q-54 70 -117 133q-54 -23 -125 -68t-127 -91l-18 18q86 66 191.5 129t139.5 63q23 0 79.5 -64.5t96.5 -121.5l-8 -12zM125 197q0 -53 21 -87t61 -34q68 0 275 205.5t526 592.5
l20 31q-180 68 -321 68q-108 0 -217 -76t-187.5 -191t-128 -252t-49.5 -257z" />
    <glyph glyph-name="atilde" unicode="&#xe3;" horiz-adv-x="1150" 
d="M725 -14q-52 0 -74 31.5t-22 72.5q0 194 262 608q-295 -349 -484 -530.5t-280 -181.5q-39 0 -66.5 16t-41 42t-19.5 51t-6 50q0 101 47.5 223.5t130.5 239t185 214t222.5 157t231.5 59.5q182 0 338 -51l16 -6q30 -10 11 -35q-169 -244 -263 -416q-145 -268 -145 -387
q0 -57 55 -57q75 0 203 113l14 -21q-99 -85 -185 -138.5t-130 -53.5zM637 1204q118 170 221 170q56 0 146.5 -27.5t136.5 -27.5q44 0 73 21.5t68 70.5l16 -12q-43 -68 -102 -119t-117 -51q-41 0 -141 26.5t-135 26.5q-46 0 -80.5 -18.5t-67.5 -69.5zM125 197q0 -53 21 -87
t61 -34q68 0 275 205.5t526 592.5l20 31q-180 68 -321 68q-108 0 -217 -76t-187.5 -191t-128 -252t-49.5 -257z" />
    <glyph glyph-name="adieresis" unicode="&#xe4;" horiz-adv-x="1150" 
d="M725 -14q-52 0 -74 31.5t-22 72.5q0 194 262 608q-295 -349 -484 -530.5t-280 -181.5q-39 0 -66.5 16t-41 42t-19.5 51t-6 50q0 101 47.5 223.5t130.5 239t185 214t222.5 157t231.5 59.5q182 0 338 -51l16 -6q30 -10 11 -35q-169 -244 -263 -416q-145 -268 -145 -387
q0 -57 55 -57q75 0 203 113l14 -21q-99 -85 -185 -138.5t-130 -53.5zM1120 1180q-15 0 -31 18.5t-16 44.5q0 30 21 60q19 31 45 52t45 21q16 0 30.5 -17t14.5 -42q0 -34 -21 -64q-14 -25 -41 -49t-47 -24zM780 1180q-15 0 -31 18.5t-16 44.5q0 30 21 60q17 30 43.5 51.5
t44.5 21.5t32.5 -17t14.5 -42q0 -34 -21 -64q-14 -25 -41 -49t-47 -24zM125 197q0 -53 21 -87t61 -34q68 0 275 205.5t526 592.5l20 31q-180 68 -321 68q-108 0 -217 -76t-187.5 -191t-128 -252t-49.5 -257z" />
    <glyph glyph-name="aring" unicode="&#xe5;" horiz-adv-x="1150" 
d="M725 -14q-52 0 -74 31.5t-22 72.5q0 194 262 608q-295 -349 -484 -530.5t-280 -181.5q-39 0 -66.5 16t-41 42t-19.5 51t-6 50q0 101 47.5 223.5t130.5 239t185 214t222.5 157t231.5 59.5q182 0 338 -51l16 -6q30 -10 11 -35q-169 -244 -263 -416q-145 -268 -145 -387
q0 -57 55 -57q75 0 203 113l14 -21q-99 -85 -185 -138.5t-130 -53.5zM997 1139q-90 0 -144 56.5t-54 141.5q0 83 57.5 141t140.5 58q94 0 146.5 -56t52.5 -143q0 -83 -58 -140.5t-141 -57.5zM997 1163q74 0 122 49t48 125t-48 125t-122 49t-122 -49t-48 -125t48 -125
t122 -49zM125 197q0 -53 21 -87t61 -34q68 0 275 205.5t526 592.5l20 31q-180 68 -321 68q-108 0 -217 -76t-187.5 -191t-128 -252t-49.5 -257z" />
    <glyph glyph-name="ae" unicode="&#xe6;" horiz-adv-x="1540" 
d="M158 -14q-39 0 -67 18.5t-42 49.5t-20 61.5t-6 62.5q0 136 69 290t176.5 279t249.5 208t277 83q176 0 383 -82q149 86 270 86q78 0 120 -28.5t42 -81.5q0 -65 -65.5 -144.5t-242.5 -211.5t-487 -326q5 -78 50.5 -127t138.5 -49q158 0 350 170l14 -17q-131 -125 -253 -183
t-206 -58q-111 0 -172 64t-61 171q0 139 86 301q-254 -293 -393.5 -414.5t-210.5 -121.5zM152 238q0 -162 86 -162q116 0 636 616q81 100 181 178q-192 107 -355 107q-144 0 -273 -114t-202 -284.5t-73 -340.5zM815 274q139 87 233 149.5t179.5 127.5t134.5 116.5t77.5 104
t28.5 102.5q0 51 -33.5 75t-82.5 24q-89 0 -174 -46.5t-148.5 -122t-113 -167.5t-75 -187t-26.5 -176z" />
    <glyph glyph-name="ccedilla" unicode="&#xe7;" horiz-adv-x="911" 
d="M272 -14h-22l-146 -123q90 12 141.5 -17t51.5 -86q0 -73 -77.5 -125.5t-166.5 -52.5q-41 0 -69.5 14.5t-28.5 36.5q0 14 13 25.5t26 11.5q12 0 50.5 -23.5t76.5 -23.5q53 0 86 24t33 64q0 37 -39.5 62.5t-98.5 25.5q-49 0 -110 -22l-10 12l241 201q-85 17 -134.5 84.5
t-49.5 169.5q0 82 30 174t82.5 179.5t127 168t158.5 140.5t183 96t195 36q83 0 146 -17t63 -42q0 -32 -33 -61t-71 -29q-42 0 -97.5 19t-181.5 71q-111 -22 -222.5 -142t-179 -274t-67.5 -278q0 -98 48.5 -156.5t141.5 -58.5q160 0 361 178l14 -19q-130 -125 -255.5 -184
t-209.5 -59z" />
    <glyph glyph-name="egrave" unicode="&#xe8;" horiz-adv-x="892" 
d="M262 -14q-111 0 -172 64t-61 171t49.5 226.5t132.5 223t182.5 188.5t207.5 134t200 49q78 0 120 -28.5t42 -81.5q0 -65 -65.5 -144.5t-242.5 -211.5t-487 -326q5 -78 50 -127t138 -49q159 0 351 170l14 -17q-131 -125 -253 -183t-206 -58zM618 1374q-12 7 -18 12.5
t-11 19t-5 34.5q0 25 8.5 39t19.5 14q12 0 35 -18l342 -291l-12 -15zM168 274q139 87 233 149.5t179.5 127.5t134.5 116.5t77.5 104t28.5 102.5q0 51 -33.5 75t-82.5 24q-89 0 -174 -46.5t-148.5 -122t-113 -167.5t-75 -187t-26.5 -176z" />
    <glyph glyph-name="eacute" unicode="&#xe9;" horiz-adv-x="892" 
d="M262 -14q-111 0 -172 64t-61 171t49.5 226.5t132.5 223t182.5 188.5t207.5 134t200 49q78 0 120 -28.5t42 -81.5q0 -65 -65.5 -144.5t-242.5 -211.5t-487 -326q5 -78 50 -127t138 -49q159 0 351 170l14 -17q-131 -125 -253 -183t-206 -58zM907 1374l-358 -205l-12 15
l342 291q23 18 34 18t20 -14t9 -39q0 -21 -5.5 -34.5t-11 -18.5t-18.5 -13zM168 274q139 87 233 149.5t179.5 127.5t134.5 116.5t77.5 104t28.5 102.5q0 51 -33.5 75t-82.5 24q-89 0 -174 -46.5t-148.5 -122t-113 -167.5t-75 -187t-26.5 -176z" />
    <glyph glyph-name="ecircumflex" unicode="&#xea;" horiz-adv-x="892" 
d="M262 -14q-111 0 -172 64t-61 171t49.5 226.5t132.5 223t182.5 188.5t207.5 134t200 49q78 0 120 -28.5t42 -81.5q0 -65 -65.5 -144.5t-242.5 -211.5t-487 -326q5 -78 50 -127t138 -49q159 0 351 170l14 -17q-131 -125 -253 -183t-206 -58zM928 1190q-15 0 -27 12
q-54 70 -117 133q-54 -23 -125 -68t-127 -91l-18 18q86 66 192 129t140 63q23 0 79.5 -64.5t96.5 -121.5l-8 -12zM168 274q139 87 233 149.5t179.5 127.5t134.5 116.5t77.5 104t28.5 102.5q0 51 -33.5 75t-82.5 24q-89 0 -174 -46.5t-148.5 -122t-113 -167.5t-75 -187
t-26.5 -176z" />
    <glyph glyph-name="edieresis" unicode="&#xeb;" horiz-adv-x="892" 
d="M262 -14q-111 0 -172 64t-61 171t49.5 226.5t132.5 223t182.5 188.5t207.5 134t200 49q78 0 120 -28.5t42 -81.5q0 -65 -65.5 -144.5t-242.5 -211.5t-487 -326q5 -78 50 -127t138 -49q159 0 351 170l14 -17q-131 -125 -253 -183t-206 -58zM887 1180q-15 0 -31 18.5
t-16 44.5q0 31 20 60q19 31 45 52t45 21q16 0 30.5 -17t14.5 -42q0 -35 -20 -64q-14 -25 -41 -49t-47 -24zM547 1180q-15 0 -31 18.5t-16 44.5q0 31 20 60q17 30 43.5 51.5t44.5 21.5t32.5 -17t14.5 -42q0 -35 -20 -64q-14 -25 -41 -49t-47 -24zM168 274q139 87 233 149.5
t179.5 127.5t134.5 116.5t77.5 104t28.5 102.5q0 51 -33.5 75t-82.5 24q-89 0 -174 -46.5t-148.5 -122t-113 -167.5t-75 -187t-26.5 -176z" />
    <glyph glyph-name="igrave" unicode="&#xec;" horiz-adv-x="579" 
d="M123 -14q-52 0 -76 31.5t-24 72.5q0 64 63 186.5t138.5 235.5t138.5 222.5t63 150.5q0 26 -14.5 41.5t-40.5 15.5q-74 0 -207 -117l-14 21q224 192 319 192q49 0 72.5 -32t23.5 -72q0 -48 -41 -132.5t-100 -175.5t-117.5 -182t-99.5 -173t-41 -128q0 -57 55 -57
q75 0 203 113l14 -21q-99 -85 -185 -138.5t-130 -53.5zM465 1374q-13 8 -18.5 13t-11 18.5t-5.5 34.5q0 25 9 39t20 14q12 0 35 -18l342 -291l-13 -15z" />
    <glyph glyph-name="iacute" unicode="&#xed;" horiz-adv-x="579" 
d="M123 -14q-52 0 -76 31.5t-24 72.5q0 64 63 186.5t138.5 235.5t138.5 222.5t63 150.5q0 26 -14.5 41.5t-40.5 15.5q-74 0 -207 -117l-14 21q224 192 319 192q49 0 72.5 -32t23.5 -72q0 -48 -41 -132.5t-100 -175.5t-117.5 -182t-99.5 -173t-41 -128q0 -57 55 -57
q75 0 203 113l14 -21q-99 -85 -185 -138.5t-130 -53.5zM754 1374l-359 -205l-12 15l342 291q23 18 35 18q11 0 19.5 -14t8.5 -39q0 -31 -8 -43t-26 -23z" />
    <glyph glyph-name="icircumflex" unicode="&#xee;" horiz-adv-x="579" 
d="M123 -14q-52 0 -76 31.5t-24 72.5q0 64 63 186.5t138.5 235.5t138.5 222.5t63 150.5q0 26 -14.5 41.5t-40.5 15.5q-74 0 -207 -117l-14 21q224 192 319 192q49 0 72.5 -32t23.5 -72q0 -48 -41 -132.5t-100 -175.5t-117.5 -182t-99.5 -173t-41 -128q0 -57 55 -57
q75 0 203 113l14 -21q-99 -85 -185 -138.5t-130 -53.5zM774 1190q-14 0 -26 12q-54 70 -117 133q-54 -23 -125 -68t-127 -91l-19 18q86 66 192 129t140 63q23 0 79.5 -64.5t96.5 -121.5l-8 -12z" />
    <glyph glyph-name="idieresis" unicode="&#xef;" horiz-adv-x="579" 
d="M123 -14q-52 0 -76 31.5t-24 72.5q0 64 63 186.5t138.5 235.5t138.5 222.5t63 150.5q0 26 -14.5 41.5t-40.5 15.5q-74 0 -207 -117l-14 21q224 192 319 192q49 0 72.5 -32t23.5 -72q0 -48 -41 -132.5t-100 -175.5t-117.5 -182t-99.5 -173t-41 -128q0 -57 55 -57
q75 0 203 113l14 -21q-99 -85 -185 -138.5t-130 -53.5zM733 1180q-15 0 -31 18.5t-16 44.5q0 30 21 60q19 31 45 52t45 21q16 0 30.5 -17t14.5 -42q0 -34 -21 -64q-14 -25 -41 -49t-47 -24zM393 1180q-15 0 -31 18.5t-16 44.5q0 30 21 60q17 30 43.5 51.5t44.5 21.5
t32.5 -17t14.5 -42q0 -34 -21 -64q-14 -25 -41 -49t-47 -24z" />
    <glyph glyph-name="eth" unicode="&#xf0;" horiz-adv-x="962" 
d="M231 -8q-89 0 -140.5 65t-51.5 170q0 96 39.5 209t111.5 218t162 192t200.5 139.5t217.5 52.5q114 0 215 -24q68 229 68 393q0 23 -2 33l-189 -115l-16 25l203 120q-20 119 -121 119q-132 0 -314 -170l-16 19q91 89 206.5 152t199.5 63q122 0 161 -111l174 105l17 -25
l-185 -111q9 -35 9 -73q1 -108 -42 -260.5t-115 -311.5t-170 -316.5t-201.5 -281t-215 -200t-205.5 -76.5zM174 274q0 -204 141 -204q83 0 176 72.5t176 192t156 266.5t127 304q-153 68 -293 68q-78 0 -148 -36.5t-121.5 -96t-93 -134t-67.5 -153.5t-39.5 -150.5
t-13.5 -128.5z" />
    <glyph glyph-name="ntilde" unicode="&#xf1;" horiz-adv-x="1220" 
d="M6 0q-11 0 -14.5 7t2.5 18q412 725 412 860q0 26 -15 41.5t-41 15.5q-74 0 -207 -117l-14 21q100 86 186 139t134 53q49 0 72.5 -32t23.5 -74q0 -89 -238 -555q151 198 326 362q141 136 263.5 217.5t193.5 81.5q51 0 73.5 -31t22.5 -71q0 -59 -58.5 -177.5t-129 -230.5
t-129 -228t-58.5 -171q0 -53 57 -53q67 0 207 123l15 -21q-96 -85 -183.5 -138.5t-132.5 -53.5q-52 0 -76 31.5t-24 72.5q0 52 39 140.5t94.5 182t111.5 185.5t95 172.5t39 122.5q0 25 -15 41t-45 16q-58 0 -143 -58.5t-203 -170.5q-237 -224 -422 -496q-79 -147 -119 -211
q-8 -14 -24 -14h-76zM578 1204q118 170 221 170q56 0 146 -27.5t136 -27.5q44 0 73.5 21.5t68.5 70.5l16 -12q-43 -68 -102 -119t-117 -51q-41 0 -141.5 26.5t-135.5 26.5q-46 0 -80 -18.5t-67 -69.5z" />
    <glyph glyph-name="ograve" unicode="&#xf2;" horiz-adv-x="997" 
d="M260 -14q-97 0 -162 59t-65 184q0 75 29 165t78 179.5t119 173.5t148 148.5t168.5 103.5t176.5 39q104 0 160.5 -66t56.5 -165q0 -98 -40.5 -212.5t-111.5 -220.5t-159 -194t-193.5 -141t-204.5 -53zM371 51q80 0 156.5 51.5t132.5 131.5t99 174t65 182.5t22 154.5
q0 109 -54 168.5t-149 59.5q-82 0 -159.5 -50t-134 -128t-100 -171t-65.5 -181t-22 -156q0 -126 53 -181t156 -55zM735 1374q-13 8 -18.5 13t-11 18.5t-5.5 34.5q0 25 9 39t20 14q12 0 35 -18l342 -291l-12 -15z" />
    <glyph glyph-name="oacute" unicode="&#xf3;" horiz-adv-x="997" 
d="M260 -14q-97 0 -162 59t-65 184q0 75 29 165t78 179.5t119 173.5t148 148.5t168.5 103.5t176.5 39q104 0 160.5 -66t56.5 -165q0 -98 -40.5 -212.5t-111.5 -220.5t-159 -194t-193.5 -141t-204.5 -53zM371 51q80 0 156.5 51.5t132.5 131.5t99 174t65 182.5t22 154.5
q0 109 -54 168.5t-149 59.5q-82 0 -159.5 -50t-134 -128t-100 -171t-65.5 -181t-22 -156q0 -126 53 -181t156 -55zM1024 1374l-358 -205l-13 15l342 291q23 18 35 18q11 0 20 -14t9 -39q0 -21 -5.5 -34.5t-11 -18.5t-18.5 -13z" />
    <glyph glyph-name="ocircumflex" unicode="&#xf4;" horiz-adv-x="997" 
d="M260 -14q-97 0 -162 59t-65 184q0 75 29 165t78 179.5t119 173.5t148 148.5t168.5 103.5t176.5 39q104 0 160.5 -66t56.5 -165q0 -98 -40.5 -212.5t-111.5 -220.5t-159 -194t-193.5 -141t-204.5 -53zM371 51q80 0 156.5 51.5t132.5 131.5t99 174t65 182.5t22 154.5
q0 109 -54 168.5t-149 59.5q-82 0 -159.5 -50t-134 -128t-100 -171t-65.5 -181t-22 -156q0 -126 53 -181t156 -55zM1044 1190q-14 0 -26 12q-54 70 -117 133q-54 -23 -125 -68t-127 -91l-18 18q86 66 192 129t140 63q23 0 79.5 -64.5t96.5 -121.5l-9 -12z" />
    <glyph glyph-name="otilde" unicode="&#xf5;" horiz-adv-x="997" 
d="M260 -14q-97 0 -162 59t-65 184q0 75 29 165t78 179.5t119 173.5t148 148.5t168.5 103.5t176.5 39q104 0 160.5 -66t56.5 -165q0 -98 -40.5 -212.5t-111.5 -220.5t-159 -194t-193.5 -141t-204.5 -53zM371 51q80 0 156.5 51.5t132.5 131.5t99 174t65 182.5t22 154.5
q0 109 -54 168.5t-149 59.5q-82 0 -159.5 -50t-134 -128t-100 -171t-65.5 -181t-22 -156q0 -126 53 -181t156 -55zM520 1204q118 170 221 170q56 0 146.5 -27.5t136.5 -27.5q44 0 73 21.5t68 70.5l17 -12q-43 -68 -102 -119t-117 -51q-41 0 -141.5 26.5t-135.5 26.5
q-46 0 -80 -18.5t-67 -69.5z" />
    <glyph glyph-name="odieresis" unicode="&#xf6;" horiz-adv-x="997" 
d="M260 -14q-97 0 -162 59t-65 184q0 75 29 165t78 179.5t119 173.5t148 148.5t168.5 103.5t176.5 39q104 0 160.5 -66t56.5 -165q0 -98 -40.5 -212.5t-111.5 -220.5t-159 -194t-193.5 -141t-204.5 -53zM371 51q80 0 156.5 51.5t132.5 131.5t99 174t65 182.5t22 154.5
q0 109 -54 168.5t-149 59.5q-82 0 -159.5 -50t-134 -128t-100 -171t-65.5 -181t-22 -156q0 -126 53 -181t156 -55zM1004 1180q-15 0 -31.5 18.5t-16.5 44.5q0 30 21 60q19 31 45 52t45 21q16 0 30.5 -17t14.5 -42q0 -35 -20 -64q-14 -25 -41 -49t-47 -24zM664 1180
q-15 0 -31.5 18.5t-16.5 44.5q0 30 21 60q17 30 43.5 51.5t44.5 21.5t32.5 -17t14.5 -42q0 -35 -20 -64q-14 -25 -41 -49t-47 -24z" />
    <glyph glyph-name="divide" unicode="&#xf7;" horiz-adv-x="831" 
d="M809 657l-10 -24h-668l10 24h668zM492 741q-23 0 -37.5 17.5t-14.5 42.5q0 36 27 66t57 30q23 0 36 -16.5t13 -40.5q0 -38 -25.5 -68.5t-55.5 -30.5zM393 389q-23 0 -37 17.5t-14 42.5q0 36 27 66t57 30q22 0 35.5 -17t13.5 -41q0 -38 -26 -68t-56 -30z" />
    <glyph glyph-name="oslash" unicode="&#xf8;" horiz-adv-x="997" 
d="M260 -14q-95 0 -154 51l-229 -266l-20 20l229 266q-53 63 -53 172q0 75 29 165t78 179.5t119 173.5t148 148.5t168.5 103.5t176.5 39q85 0 139 -45l190 221l21 -20l-191 -221q58 -64 58 -166q0 -98 -40.5 -212.5t-111.5 -220.5t-159 -194t-193.5 -141t-204.5 -53zM371 51
q80 0 156.5 51.5t132.5 131.5t99 174t65 182.5t22 154.5q0 71 -25 123l-628 -731q49 -86 178 -86zM162 287q0 -71 18 -121l627 729q-54 78 -164 78q-82 0 -159.5 -50t-134 -128t-100 -171t-65.5 -181t-22 -156z" />
    <glyph glyph-name="ugrave" unicode="&#xf9;" horiz-adv-x="1232" 
d="M786 -14q-51 0 -72.5 32.5t-21.5 75.5q0 160 217 539q-146 -186 -299 -348q-279 -299 -422 -299q-55 0 -91 34t-36 91q0 56 56.5 167.5t124 217t124 217t56.5 168.5t-55 57q-75 0 -203 -113l-14 21q99 85 185 138.5t130 53.5q52 0 76 -31.5t24 -72.5q0 -47 -38.5 -134
t-93.5 -182t-110.5 -188.5t-94 -173t-38.5 -115.5q0 -71 72 -71q58 0 138 59t194 176q250 260 430 522q90 141 106 164q10 13 25 13h78q12 0 15.5 -7t-3.5 -18q-147 -233 -266 -449q-75 -139 -112.5 -241t-37.5 -146q0 -61 58 -61q67 0 200 117l15 -21q-91 -85 -180 -138.5
t-136 -53.5zM834 1374q-13 8 -18.5 13t-11 18.5t-5.5 34.5q0 25 8.5 39t19.5 14q12 0 35 -18l342 -291l-12 -15z" />
    <glyph glyph-name="uacute" unicode="&#xfa;" horiz-adv-x="1232" 
d="M786 -14q-51 0 -72.5 32.5t-21.5 75.5q0 160 217 539q-146 -186 -299 -348q-279 -299 -422 -299q-55 0 -91 34t-36 91q0 56 56.5 167.5t124 217t124 217t56.5 168.5t-55 57q-75 0 -203 -113l-14 21q99 85 185 138.5t130 53.5q52 0 76 -31.5t24 -72.5q0 -47 -38.5 -134
t-93.5 -182t-110.5 -188.5t-94 -173t-38.5 -115.5q0 -71 72 -71q58 0 138 59t194 176q250 260 430 522q90 141 106 164q10 13 25 13h78q12 0 15.5 -7t-3.5 -18q-147 -233 -266 -449q-75 -139 -112.5 -241t-37.5 -146q0 -61 58 -61q67 0 200 117l15 -21q-91 -85 -180 -138.5
t-136 -53.5zM1122 1374l-358 -205l-12 15l342 291q23 18 34 18t20 -14t9 -39q0 -21 -5.5 -34.5t-11 -18.5t-18.5 -13z" />
    <glyph glyph-name="ucircumflex" unicode="&#xfb;" horiz-adv-x="1232" 
d="M786 -14q-51 0 -72.5 32.5t-21.5 75.5q0 160 217 539q-146 -186 -299 -348q-279 -299 -422 -299q-55 0 -91 34t-36 91q0 56 56.5 167.5t124 217t124 217t56.5 168.5t-55 57q-75 0 -203 -113l-14 21q99 85 185 138.5t130 53.5q52 0 76 -31.5t24 -72.5q0 -47 -38.5 -134
t-93.5 -182t-110.5 -188.5t-94 -173t-38.5 -115.5q0 -71 72 -71q58 0 138 59t194 176q250 260 430 522q90 141 106 164q10 13 25 13h78q12 0 15.5 -7t-3.5 -18q-147 -233 -266 -449q-75 -139 -112.5 -241t-37.5 -146q0 -61 58 -61q67 0 200 117l15 -21q-91 -85 -180 -138.5
t-136 -53.5zM1143 1190q-15 0 -27 12q-54 70 -117 133q-54 -22 -124.5 -67.5t-126.5 -91.5l-19 18q86 66 192 129t140 63q23 0 79.5 -64.5t96.5 -121.5l-8 -12z" />
    <glyph glyph-name="udieresis" unicode="&#xfc;" horiz-adv-x="1232" 
d="M786 -14q-51 0 -72.5 32.5t-21.5 75.5q0 160 217 539q-146 -186 -299 -348q-279 -299 -422 -299q-55 0 -91 34t-36 91q0 56 56.5 167.5t124 217t124 217t56.5 168.5t-55 57q-75 0 -203 -113l-14 21q99 85 185 138.5t130 53.5q52 0 76 -31.5t24 -72.5q0 -47 -38.5 -134
t-93.5 -182t-110.5 -188.5t-94 -173t-38.5 -115.5q0 -71 72 -71q58 0 138 59t194 176q250 260 430 522q90 141 106 164q10 13 25 13h78q12 0 15.5 -7t-3.5 -18q-147 -233 -266 -449q-75 -139 -112.5 -241t-37.5 -146q0 -61 58 -61q67 0 200 117l15 -21q-91 -85 -180 -138.5
t-136 -53.5zM1102 1180q-15 0 -31 18.5t-16 44.5q0 31 20 60q19 31 45 52t45 21q16 0 30.5 -17t14.5 -42q0 -35 -20 -64q-14 -25 -41 -49t-47 -24zM762 1180q-15 0 -31 18.5t-16 44.5q0 31 20 60q17 30 43.5 51.5t44.5 21.5t32.5 -17t14.5 -42q0 -35 -20 -64
q-14 -25 -41 -49t-47 -24z" />
    <glyph glyph-name="yacute" unicode="&#xfd;" horiz-adv-x="1077" 
d="M-328 -424q-69 0 -69 37q0 31 37 77t90 46q68 0 290 -55q70 27 117.5 70.5t83.5 117.5q60 127 120 421.5t60 485.5q0 77 -13.5 117.5t-49.5 40.5q-70 0 -193 -109l-14 21q114 98 180.5 145t108.5 47q57 0 78.5 -47.5t21.5 -134.5q0 -179 -47 -459.5t-133 -505.5
q329 292 565 709q-7 242 15 340q10 45 51.5 71.5t81.5 26.5q37 0 37 -32q0 -42 -23.5 -114.5t-68.5 -166t-107 -200.5t-143 -217.5t-172.5 -216.5t-199.5 -199.5t-219 -163.5t-237 -111t-248 -41zM995 1374l-358 -205l-12 15l342 291q23 18 34 18t20 -14t9 -39
q0 -21 -5.5 -34.5t-11 -18.5t-18.5 -13z" />
    <glyph glyph-name="thorn" unicode="&#xfe;" horiz-adv-x="1138" 
d="M-336 -553q-10 0 -14.5 7.5t0.5 17.5q117 232 289 581.5t291.5 591t166.5 326.5q177 325 421 503.5t554 178.5q189 0 189 -43q0 -28 -37.5 -66.5t-83.5 -38.5q-31 0 -87.5 11t-107.5 24.5t-160 42.5q-165 -54 -275 -155t-216 -308q-85 -156 -375 -747q209 264 445 464.5
t344 200.5q51 0 77.5 -36.5t26.5 -94.5q0 -110 -46.5 -238.5t-128 -247.5t-182.5 -217.5t-220.5 -158t-231.5 -59.5q-67 0 -125 35.5t-88 91.5l-326 -652q-8 -14 -24 -14h-76zM143 223q21 -78 97.5 -130t150.5 -52q84 0 164 41.5t142.5 109t116 153.5t88 176t53.5 176
t18 153q0 90 -72 90q-90 0 -305.5 -196.5t-427.5 -475.5v2z" />
    <glyph glyph-name="ydieresis" unicode="&#xff;" horiz-adv-x="1077" 
d="M-328 -424q-69 0 -69 37q0 31 37 77t90 46q68 0 290 -55q70 27 117.5 70.5t83.5 117.5q60 127 120 421.5t60 485.5q0 77 -13.5 117.5t-49.5 40.5q-70 0 -193 -109l-14 21q114 98 180.5 145t108.5 47q57 0 78.5 -47.5t21.5 -134.5q0 -179 -47 -459.5t-133 -505.5
q329 292 565 709q-7 242 15 340q10 45 51.5 71.5t81.5 26.5q37 0 37 -32q0 -42 -23.5 -114.5t-68.5 -166t-107 -200.5t-143 -217.5t-172.5 -216.5t-199.5 -199.5t-219 -163.5t-237 -111t-248 -41zM975 1180q-15 0 -31 18.5t-16 44.5q0 31 20 60q19 31 45 52t45 21
q16 0 30.5 -17t14.5 -42q0 -35 -20 -64q-14 -25 -41 -49t-47 -24zM635 1180q-15 0 -31 18.5t-16 44.5q0 31 20 60q17 30 43.5 51.5t44.5 21.5t32.5 -17t14.5 -42q0 -35 -20 -64q-14 -25 -41 -49t-47 -24z" />
    <glyph glyph-name="Amacron" unicode="&#x100;" horiz-adv-x="2203" 
d="M262 -29q-89 0 -159 29.5t-110.5 78t-61.5 106.5t-21 120q0 116 58.5 226.5t152 191t215 129.5t242.5 49q95 0 198.5 -21t164 -42t172.5 -65.5t149 -57.5q331 363 682 825l-400 -6q-53 -1 -92.5 -9t-74 -29t-55 -38t-60.5 -55l-17 14q127 141 187 189q40 32 110 32h524
q25 0 19 -24q-118 -525 -189 -913.5t-71 -485.5q0 -129 94 -129q78 0 205 115l16 -21q-214 -194 -319 -194q-50 0 -85.5 52t-27.5 167q15 171 80 512q-150 -125 -338 -125q-113 0 -238 33q-112 -120 -195 -203t-189 -175t-193 -147.5t-185 -92t-188 -36.5zM1782 1858l-2 4
l20 28q11 17 31 17h500l2 -4l-21 -29q-11 -16 -31 -16h-499zM12 367q0 -145 91 -237.5t229 -92.5q92 0 196 45.5t216.5 134t213.5 185.5t226 231q-92 26 -227.5 84.5t-246 95.5t-206.5 37q-107 0 -200.5 -41t-156.5 -109t-99 -155t-36 -178zM1290 707q153 -54 266 -54
q131 0 238 99q62 327 160 751q-364 -474 -664 -796z" />
    <glyph glyph-name="amacron" unicode="&#x101;" horiz-adv-x="1150" 
d="M725 -14q-52 0 -74 31.5t-22 72.5q0 194 262 608q-295 -349 -484 -530.5t-280 -181.5q-39 0 -66.5 16t-41 42t-19.5 51t-6 50q0 101 47.5 223.5t130.5 239t185 214t222.5 157t231.5 59.5q182 0 338 -51l16 -6q30 -10 11 -35q-169 -244 -263 -416q-145 -268 -145 -387
q0 -57 55 -57q75 0 203 113l14 -21q-99 -85 -185 -138.5t-130 -53.5zM707 1214l-2 5l20 28q11 17 31 17h499l2 -4l-20 -29q-11 -17 -31 -17h-499zM125 197q0 -53 21 -87t61 -34q68 0 275 205.5t526 592.5l20 31q-180 68 -321 68q-108 0 -217 -76t-187.5 -191t-128 -252
t-49.5 -257z" />
    <glyph glyph-name="Abreve" unicode="&#x102;" horiz-adv-x="2203" 
d="M262 -29q-89 0 -159 29.5t-110.5 78t-61.5 106.5t-21 120q0 116 58.5 226.5t152 191t215 129.5t242.5 49q95 0 198.5 -21t164 -42t172.5 -65.5t149 -57.5q331 363 682 825l-400 -6q-53 -1 -92.5 -9t-74 -29t-55 -38t-60.5 -55l-17 14q127 141 187 189q40 32 110 32h524
q25 0 19 -24q-118 -525 -189 -913.5t-71 -485.5q0 -129 94 -129q78 0 205 115l16 -21q-214 -194 -319 -194q-50 0 -85.5 52t-27.5 167q15 171 80 512q-150 -125 -338 -125q-113 0 -238 33q-112 -120 -195 -203t-189 -175t-193 -147.5t-185 -92t-188 -36.5zM2009 1747
q-62 0 -108 44.5t-46 133.5q0 12 35.5 31.5t57.5 19.5q14 0 14 -10q0 -81 36.5 -126.5t104.5 -45.5q46 0 100.5 38t92.5 97q6 10 15 -3t1 -21q-144 -158 -303 -158zM12 367q0 -145 91 -237.5t229 -92.5q92 0 196 45.5t216.5 134t213.5 185.5t226 231q-92 26 -227.5 84.5
t-246 95.5t-206.5 37q-107 0 -200.5 -41t-156.5 -109t-99 -155t-36 -178zM1290 707q153 -54 266 -54q131 0 238 99q62 327 160 751q-364 -474 -664 -796z" />
    <glyph glyph-name="abreve" unicode="&#x103;" horiz-adv-x="1150" 
d="M725 -14q-52 0 -74 31.5t-22 72.5q0 194 262 608q-295 -349 -484 -530.5t-280 -181.5q-39 0 -66.5 16t-41 42t-19.5 51t-6 50q0 101 47.5 223.5t130.5 239t185 214t222.5 157t231.5 59.5q182 0 338 -51l16 -6q30 -10 11 -35q-169 -244 -263 -416q-145 -268 -145 -387
q0 -57 55 -57q75 0 203 113l14 -21q-99 -85 -185 -138.5t-130 -53.5zM973 1178q-62 0 -108 44.5t-46 133.5q0 12 35 31.5t57 19.5q15 0 15 -10q0 -81 36.5 -126.5t104.5 -45.5q46 0 100.5 38t92.5 97q6 11 15 -4q8 -14 1 -21q-143 -157 -303 -157zM125 197q0 -53 21 -87
t61 -34q68 0 275 205.5t526 592.5l20 31q-180 68 -321 68q-108 0 -217 -76t-187.5 -191t-128 -252t-49.5 -257z" />
    <glyph glyph-name="Aogonek" unicode="&#x104;" horiz-adv-x="2203" 
d="M262 -29q-89 0 -159 29.5t-110.5 78t-61.5 106.5t-21 120q0 116 58.5 226.5t152 191t215 129.5t242.5 49q95 0 198.5 -21t164 -42t172.5 -65.5t149 -57.5q331 363 682 825l-400 -6q-53 -1 -92.5 -9t-74 -29t-55 -38t-60.5 -55l-17 14q127 141 187 189q40 32 110 32h524
q25 0 19 -24q-118 -525 -189 -913.5t-71 -485.5q0 -129 94 -129q78 0 205 115l16 -21q-214 -194 -319 -194q-18 0 -33 6q-115 -112 -115 -197q0 -102 115 -102q53 0 104 33l11 -9l-48 -88q-34 -24 -94 -24q-65 0 -106 38t-41 101q0 115 153 258q-69 51 -59 203
q15 171 80 512q-150 -125 -338 -125q-113 0 -238 33q-112 -120 -195 -203t-189 -175t-193 -147.5t-185 -92t-188 -36.5zM12 367q0 -145 91 -237.5t229 -92.5q92 0 196 45.5t216.5 134t213.5 185.5t226 231q-92 26 -227.5 84.5t-246 95.5t-206.5 37q-107 0 -200.5 -41
t-156.5 -109t-99 -155t-36 -178zM1290 707q153 -54 266 -54q131 0 238 99q62 327 160 751q-364 -474 -664 -796z" />
    <glyph glyph-name="aogonek" unicode="&#x105;" horiz-adv-x="1150" 
d="M725 -14q-49 0 -74 32q-73 -70 -107 -121.5t-34 -101.5q0 -102 115 -102q53 0 104 33l10 -9l-47 -88q-34 -24 -94 -24q-65 0 -106 38t-41 101q0 128 186 287l8 -6q-16 27 -16 65q0 194 262 608q-295 -349 -484 -530.5t-280 -181.5q-39 0 -66.5 16t-41 42t-19.5 51t-6 50
q0 101 47.5 223.5t130.5 239t185 214t222.5 157t231.5 59.5q182 0 338 -51l16 -6q30 -10 11 -35q-169 -244 -263 -416q-145 -268 -145 -387q0 -57 55 -57q75 0 203 113l14 -21q-99 -85 -185 -138.5t-130 -53.5zM125 197q0 -53 21 -87t61 -34q68 0 275 205.5t526 592.5l20 31
q-180 68 -321 68q-108 0 -217 -76t-187.5 -191t-128 -252t-49.5 -257z" />
    <glyph glyph-name="Cacute" unicode="&#x106;" horiz-adv-x="1398" 
d="M680 -14q-108 0 -198 29.5t-150.5 79.5t-102 117t-60.5 140.5t-19 151.5q0 145 44.5 289.5t124 271t193.5 236t247.5 187.5t291.5 122.5t321 44.5q147 0 284.5 -38t137.5 -77q0 -32 -39 -66t-90 -34q-95 0 -510 164q-128 -20 -255.5 -79.5t-240.5 -154t-200 -212
t-138 -266t-51 -304.5q0 -102 30.5 -192.5t89 -162.5t153.5 -114t215 -41q258 0 469 196l16 -20q-132 -127 -268.5 -197.5t-294.5 -70.5zM1671 1919l-391 -195l-10 15l370 272q39 29 46 29q14 0 14 -41q0 -40 -6.5 -56t-22.5 -24z" />
    <glyph glyph-name="cacute" unicode="&#x107;" horiz-adv-x="911" 
d="M272 -14q-106 0 -169.5 70.5t-63.5 187.5q0 82 30 174t82.5 179.5t127 168t158.5 140.5t183 96t195 36q83 0 146 -17t63 -42q0 -32 -33 -61t-71 -29q-42 0 -97.5 19t-181.5 71q-111 -22 -222.5 -142t-179 -274t-67.5 -278q0 -98 48.5 -156.5t141.5 -58.5q160 0 361 178
l14 -19q-130 -125 -255.5 -184t-209.5 -59zM1081 1374l-358 -205l-12 15l342 291q23 18 34 18t20 -14t9 -39q0 -21 -5.5 -34.5t-11 -18.5t-18.5 -13z" />
    <glyph glyph-name="Cdotaccent" unicode="&#x10a;" horiz-adv-x="1398" 
d="M680 -14q-108 0 -198 29.5t-150.5 79.5t-102 117t-60.5 140.5t-19 151.5q0 145 44.5 289.5t124 271t193.5 236t247.5 187.5t291.5 122.5t321 44.5q147 0 284.5 -38t137.5 -77q0 -32 -39 -66t-90 -34q-95 0 -510 164q-128 -20 -255.5 -79.5t-240.5 -154t-200 -212
t-138 -266t-51 -304.5q0 -102 30.5 -192.5t89 -162.5t153.5 -114t215 -41q258 0 469 196l16 -20q-132 -127 -268.5 -197.5t-294.5 -70.5zM1436 1817q-21 0 -39.5 22t-18.5 55q0 35 23 76q22 39 49.5 65.5t52.5 26.5q22 0 39 -20t17 -53q0 -37 -21 -78q-18 -34 -46.5 -64
t-55.5 -30z" />
    <glyph glyph-name="cdotaccent" unicode="&#x10b;" horiz-adv-x="911" 
d="M272 -14q-106 0 -169.5 70.5t-63.5 187.5q0 82 30 174t82.5 179.5t127 168t158.5 140.5t183 96t195 36q83 0 146 -17t63 -42q0 -32 -33 -61t-71 -29q-42 0 -97.5 19t-181.5 71q-111 -22 -222.5 -142t-179 -274t-67.5 -278q0 -98 48.5 -156.5t141.5 -58.5q160 0 361 178
l14 -19q-130 -125 -255.5 -184t-209.5 -59zM961 1260q-21 0 -39.5 22t-18.5 55q0 35 23 76q22 39 49.5 65.5t52.5 26.5q22 0 38.5 -20t16.5 -53q0 -39 -20 -78q-18 -34 -46.5 -64t-55.5 -30z" />
    <glyph glyph-name="Ccaron" unicode="&#x10c;" horiz-adv-x="1398" 
d="M680 -14q-108 0 -198 29.5t-150.5 79.5t-102 117t-60.5 140.5t-19 151.5q0 145 44.5 289.5t124 271t193.5 236t247.5 187.5t291.5 122.5t321 44.5q147 0 284.5 -38t137.5 -77q0 -32 -39 -66t-90 -34q-95 0 -510 164q-128 -20 -255.5 -79.5t-240.5 -154t-200 -212
t-138 -266t-51 -304.5q0 -102 30.5 -192.5t89 -162.5t153.5 -114t215 -41q258 0 469 196l16 -20q-132 -127 -268.5 -197.5t-294.5 -70.5zM1282 1939q15 0 27 -12q57 -74 116 -133q116 49 252 160l19 -19q-86 -66 -192 -129t-140 -63q-23 0 -79.5 64.5t-96.5 121.5l8 13z" />
    <glyph glyph-name="ccaron" unicode="&#x10d;" horiz-adv-x="911" 
d="M272 -14q-106 0 -169.5 70.5t-63.5 187.5q0 82 30 174t82.5 179.5t127 168t158.5 140.5t183 96t195 36q83 0 146 -17t63 -42q0 -32 -33 -61t-71 -29q-42 0 -97.5 19t-181.5 71q-111 -22 -222.5 -142t-179 -274t-67.5 -278q0 -98 48.5 -156.5t141.5 -58.5q160 0 361 178
l14 -19q-130 -125 -255.5 -184t-209.5 -59zM616 1366q15 0 27 -12q54 -70 117 -133q54 23 125 68t127 91l18 -18q-87 -67 -192.5 -130t-139.5 -63q-23 0 -79 64.5t-97 122.5l8 12z" />
    <glyph glyph-name="Dcaron" unicode="&#x10e;" horiz-adv-x="1761" 
d="M627 -12q-316 0 -494 22q-22 2 -22 15q0 4 3.5 8.5t11.5 10.5t14.5 10.5t19 12t18.5 11.5l29 20l4 4q32 25 59.5 60.5t65.5 103.5q88 154 253.5 491.5t258.5 497.5q74 132 203 215l88 58l14 -21q-13 -9 -24 -17.5t-22 -19.5t-18 -17.5t-17 -20.5t-14.5 -19.5t-15.5 -23
t-13.5 -21.5t-15 -25.5t-14.5 -25.5q-93 -160 -256 -492.5t-247 -480.5q-38 -68 -71.5 -107t-80.5 -73l-74 -51h2q59 -9 209.5 -20t276.5 -11q277 0 488 101t323.5 279.5t111.5 405.5q-1 153 -53 283t-147 224.5t-237.5 148t-315.5 53.5q-238 0 -461 -156l-12 21
q291 209 598 209q172 0 315 -58t234.5 -153.5t141.5 -214.5t50 -244q0 -176 -67 -334.5t-181.5 -277t-263 -206t-317.5 -132t-338 -43.5zM1104 1923q14 0 26 -12q54 -70 117 -133q54 23 125 68t127 91l19 -18q-87 -67 -192.5 -130t-139.5 -63q-23 0 -79 64.5t-97 122.5l8 12
z" />
    <glyph glyph-name="dcaron" unicode="&#x10f;" horiz-adv-x="964" 
d="M231 -8q-89 0 -140.5 65t-51.5 170q0 96 39.5 209t111.5 218t162 192t200.5 139.5t217.5 52.5q114 0 215 -24q68 229 68 393q0 182 -125 182q-132 0 -314 -170l-16 19q91 89 206.5 152t199.5 63q173 0 176 -215q1 -108 -42 -260.5t-115 -311.5t-170 -316.5t-201.5 -281
t-215 -200t-205.5 -76.5zM1227 1280q60 45 85 74.5t27 56.5q1 23 -21.5 48.5t-23.5 47.5q-2 31 37.5 81t77.5 50q32 0 54 -35t22 -73q0 -15 -5 -31t-16 -33t-21.5 -31.5t-29.5 -32.5t-32 -30t-36 -30.5t-35.5 -28t-36.5 -27.5l-32 -24zM174 274q0 -204 141 -204
q83 0 176 72.5t176 192t156 266.5t127 304q-153 68 -293 68q-78 0 -148 -36.5t-121.5 -96t-93 -134t-67.5 -153.5t-39.5 -150.5t-13.5 -128.5z" />
    <glyph glyph-name="Dcroat" unicode="&#x110;" horiz-adv-x="1761" 
d="M627 -12q-316 0 -494 22q-22 2 -22 15q0 4 3.5 8.5t11.5 10.5t14.5 10.5t19 12t18.5 11.5l29 20l4 4q32 25 59.5 60.5t65.5 103.5q28 49 56 100t59.5 113.5t50.5 101t57.5 117t52.5 105.5h-155v24h168q153 308 223 428q74 132 203 215l88 58l14 -21q-13 -9 -24 -17.5
t-22 -19.5t-18 -17.5t-17 -20.5t-14.5 -19.5t-15.5 -23t-13.5 -21.5t-15 -25.5t-14.5 -25.5q-83 -144 -254 -490h209v-24h-221q-14 -28 -56 -112.5t-62.5 -125.5t-54.5 -105.5t-64 -115.5q-38 -68 -71.5 -107t-80.5 -73l-74 -51h2q59 -9 209.5 -20t276.5 -11q277 0 488 101
t323.5 279.5t111.5 405.5q-1 153 -53 283t-147 224.5t-237.5 148t-315.5 53.5q-238 0 -461 -156l-12 21q291 209 598 209q172 0 315 -58t234.5 -153.5t141.5 -214.5t50 -244q0 -176 -67 -334.5t-181.5 -277t-263 -206t-317.5 -132t-338 -43.5z" />
    <glyph glyph-name="dcroat" unicode="&#x111;" horiz-adv-x="964" 
d="M231 -8q-89 0 -140.5 65t-51.5 170q0 96 39.5 209t111.5 218t162 192t200.5 139.5t217.5 52.5q114 0 215 -24q68 229 68 393v27h-117v24h115q-17 131 -123 131q-132 0 -314 -170l-16 19q91 89 206.5 152t199.5 63q165 0 176 -195h233v-24h-233q0 -93 -31.5 -219
t-88.5 -261t-130.5 -273.5t-162 -261t-178.5 -219t-184 -152.5t-174 -56zM174 274q0 -204 141 -204q83 0 176 72.5t176 192t156 266.5t127 304q-153 68 -293 68q-78 0 -148 -36.5t-121.5 -96t-93 -134t-67.5 -153.5t-39.5 -150.5t-13.5 -128.5z" />
    <glyph glyph-name="Emacron" unicode="&#x112;" horiz-adv-x="1296" 
d="M-35 0q-22 0 -22 18q0 5 4 10.5t14.5 13.5t16 12t20.5 14l43 30q35 26 62 61.5t67 106.5q100 178 293 578h-207v28h221q133 275 217 418q82 145 203 215l57 33h-344q-31 0 -58.5 -4.5t-46 -7.5t-43 -17t-33.5 -18t-35 -27t-30.5 -27t-35.5 -34l-17 14q127 141 187 189
q40 32 110 32h998q123 0 123 -73q0 -53 -57 -112.5t-185 -156.5l-12 19q91 74 127 113.5t36 66.5q0 21 -19 32t-71 11h-555q-14 -9 -26.5 -20t-21 -19t-20 -22.5t-16.5 -20.5t-16.5 -25t-14.5 -23.5t-16.5 -28t-15.5 -27.5q-95 -162 -248 -480h664v-28h-678
q-173 -358 -254 -500q-38 -68 -71.5 -107t-80.5 -73l-92 -64h791q66 0 116.5 17.5t79 40t74.5 66.5l12 12l17 -15q-124 -137 -187 -188q-42 -33 -123 -33h-901zM805 1829l-2 4l20 29q11 16 31 16h500l2 -4l-21 -29q-11 -16 -30 -16h-500z" />
    <glyph glyph-name="emacron" unicode="&#x113;" horiz-adv-x="892" 
d="M262 -14q-111 0 -172 64t-61 171t49.5 226.5t132.5 223t182.5 188.5t207.5 134t200 49q78 0 120 -28.5t42 -81.5q0 -65 -65.5 -144.5t-242.5 -211.5t-487 -326q5 -78 50 -127t138 -49q159 0 351 170l14 -17q-131 -125 -253 -183t-206 -58zM473 1214l-2 5l21 28
q11 17 30 17h500l2 -4l-20 -29q-11 -17 -31 -17h-500zM168 274q139 87 233 149.5t179.5 127.5t134.5 116.5t77.5 104t28.5 102.5q0 51 -33.5 75t-82.5 24q-89 0 -174 -46.5t-148.5 -122t-113 -167.5t-75 -187t-26.5 -176z" />
    <glyph glyph-name="Edotaccent" unicode="&#x116;" horiz-adv-x="1296" 
d="M-35 0q-22 0 -22 18q0 5 4 10.5t14.5 13.5t16 12t20.5 14l43 30q35 26 62 61.5t67 106.5q100 178 293 578h-207v28h221q133 275 217 418q82 145 203 215l57 33h-344q-31 0 -58.5 -4.5t-46 -7.5t-43 -17t-33.5 -18t-35 -27t-30.5 -27t-35.5 -34l-17 14q127 141 187 189
q40 32 110 32h998q123 0 123 -73q0 -53 -57 -112.5t-185 -156.5l-12 19q91 74 127 113.5t36 66.5q0 21 -19 32t-71 11h-555q-14 -9 -26.5 -20t-21 -19t-20 -22.5t-16.5 -20.5t-16.5 -25t-14.5 -23.5t-16.5 -28t-15.5 -27.5q-95 -162 -248 -480h664v-28h-678
q-173 -358 -254 -500q-38 -68 -71.5 -107t-80.5 -73l-92 -64h791q66 0 116.5 17.5t79 40t74.5 66.5l12 12l17 -15q-124 -137 -187 -188q-42 -33 -123 -33h-901zM1106 1800q-20 0 -38.5 22.5t-18.5 55.5q0 37 22 76t50 65.5t53 26.5q22 0 38.5 -20.5t16.5 -53.5
q0 -38 -21 -78q-18 -34 -46.5 -64t-55.5 -30z" />
    <glyph glyph-name="edotaccent" unicode="&#x117;" horiz-adv-x="892" 
d="M262 -14q-111 0 -172 64t-61 171t49.5 226.5t132.5 223t182.5 188.5t207.5 134t200 49q78 0 120 -28.5t42 -81.5q0 -65 -65.5 -144.5t-242.5 -211.5t-487 -326q5 -78 50 -127t138 -49q159 0 351 170l14 -17q-131 -125 -253 -183t-206 -58zM786 1260q-21 0 -39 22t-18 55
q0 35 23 76q22 39 49.5 65.5t52.5 26.5q22 0 38.5 -20t16.5 -53q0 -39 -20 -78q-18 -33 -47 -63.5t-56 -30.5zM168 274q139 87 233 149.5t179.5 127.5t134.5 116.5t77.5 104t28.5 102.5q0 51 -33.5 75t-82.5 24q-89 0 -174 -46.5t-148.5 -122t-113 -167.5t-75 -187
t-26.5 -176z" />
    <glyph glyph-name="Eogonek" unicode="&#x118;" horiz-adv-x="1296" 
d="M-35 0q-22 0 -22 18q0 5 4 10.5t14.5 13.5t16 12t20.5 14l43 30q35 26 62 61.5t67 106.5q100 178 293 578h-207v28h221q133 275 217 418q82 145 203 215l57 33h-344q-31 0 -58.5 -4.5t-46 -7.5t-43 -17t-33.5 -18t-35 -27t-30.5 -27t-35.5 -34l-17 14q127 141 187 189
q40 32 110 32h998q123 0 123 -73q0 -53 -57 -112.5t-185 -156.5l-12 19q91 74 127 113.5t36 66.5q0 21 -19 32t-71 11h-555q-14 -9 -26.5 -20t-21 -19t-20 -22.5t-16.5 -20.5t-16.5 -25t-14.5 -23.5t-16.5 -28t-15.5 -27.5q-95 -162 -248 -480h664v-28h-678
q-173 -358 -254 -500q-38 -68 -71.5 -107t-80.5 -73l-92 -64h791q66 0 116.5 17.5t79 40t74.5 66.5l12 12l17 -15q-124 -137 -187 -188q-31 -25 -84 -31q-65 -63 -95 -111t-30 -96q0 -102 115 -102q53 0 104 33l11 -9l-47 -88q-34 -24 -95 -24q-65 0 -106 38t-41 101
q0 114 151 256h-6h-901z" />
    <glyph glyph-name="eogonek" unicode="&#x119;" horiz-adv-x="892" 
d="M262 -14q-111 0 -172 64t-61 171t49.5 226.5t132.5 223t182.5 188.5t207.5 134t200 49q78 0 120 -28.5t42 -81.5q0 -65 -65.5 -144.5t-242.5 -211.5t-487 -326q5 -78 50 -127t138 -49q159 0 351 170l14 -17q-159 -149 -305 -207q-74 -69 -109 -122t-35 -103
q0 -102 115 -102q54 0 105 33l10 -9l-47 -88q-34 -24 -95 -24q-65 0 -106 38t-41 101q0 117 156 260q-61 -18 -107 -18zM168 274q139 87 233 149.5t179.5 127.5t134.5 116.5t77.5 104t28.5 102.5q0 51 -33.5 75t-82.5 24q-89 0 -174 -46.5t-148.5 -122t-113 -167.5t-75 -187
t-26.5 -176z" />
    <glyph glyph-name="Ecaron" unicode="&#x11a;" horiz-adv-x="1296" 
d="M-35 0q-22 0 -22 18q0 5 4 10.5t14.5 13.5t16 12t20.5 14l43 30q35 26 62 61.5t67 106.5q100 178 293 578h-207v28h221q133 275 217 418q82 145 203 215l57 33h-344q-31 0 -58.5 -4.5t-46 -7.5t-43 -17t-33.5 -18t-35 -27t-30.5 -27t-35.5 -34l-17 14q127 141 187 189
q40 32 110 32h998q123 0 123 -73q0 -53 -57 -112.5t-185 -156.5l-12 19q91 74 127 113.5t36 66.5q0 21 -19 32t-71 11h-555q-14 -9 -26.5 -20t-21 -19t-20 -22.5t-16.5 -20.5t-16.5 -25t-14.5 -23.5t-16.5 -28t-15.5 -27.5q-95 -162 -248 -480h664v-28h-678
q-173 -358 -254 -500q-38 -68 -71.5 -107t-80.5 -73l-92 -64h791q66 0 116.5 17.5t79 40t74.5 66.5l12 12l17 -15q-124 -137 -187 -188q-42 -33 -123 -33h-901zM952 1923q15 0 27 -12q54 -70 117 -133q54 23 125 68t127 91l18 -18q-87 -67 -192.5 -130t-139.5 -63
q-23 0 -79 64.5t-97 122.5l8 12z" />
    <glyph glyph-name="ecaron" unicode="&#x11b;" horiz-adv-x="892" 
d="M262 -14q-111 0 -172 64t-61 171t49.5 226.5t132.5 223t182.5 188.5t207.5 134t200 49q78 0 120 -28.5t42 -81.5q0 -65 -65.5 -144.5t-242.5 -211.5t-487 -326q5 -78 50 -127t138 -49q159 0 351 170l14 -17q-131 -125 -253 -183t-206 -58zM442 1366q15 0 27 -12
q54 -70 117 -133q54 23 125 68t127 91l18 -18q-87 -67 -192.5 -130t-139.5 -63q-23 0 -79 64.5t-97 122.5l8 12zM168 274q139 87 233 149.5t179.5 127.5t134.5 116.5t77.5 104t28.5 102.5q0 51 -33.5 75t-82.5 24q-89 0 -174 -46.5t-148.5 -122t-113 -167.5t-75 -187
t-26.5 -176z" />
    <glyph glyph-name="Gbreve" unicode="&#x11e;" horiz-adv-x="1531" 
d="M668 -14q-108 0 -198 29.5t-150.5 79.5t-102.5 117t-61 140.5t-19 151.5q0 173 62.5 344t173.5 312.5t255.5 252t318.5 174t351 68.5q167 5 303 -28.5t136 -82.5q0 -27 -38 -63.5t-87 -36.5q-22 0 -55 8t-84.5 27t-91.5 35t-119.5 49t-124.5 51q-126 -23 -252.5 -84
t-239 -157t-199 -214t-137.5 -266.5t-51 -304.5q0 -101 32 -192t92 -163t156 -114t216 -41q145 0 272.5 66t249.5 233q54 124 139 338l-520 -8q-23 0 -23 14q0 28 56 80q12 10 59 10l529 -2h22q7 0 9.5 -2.5t1.5 -8t-5 -16.5q-97 -256 -189 -462.5t-135.5 -290.5
t-108.5 -201l-15 -27q-57 -105 -162 -188q-123 -95 -279 -150l-12 25q113 38 180.5 99t141.5 177q138 218 268 512q-120 -147 -264.5 -218.5t-300.5 -71.5zM1298 1718q-62 0 -107.5 44.5t-45.5 133.5q0 12 35 32t57 20q14 0 14 -11q0 -81 37 -126.5t105 -45.5q45 0 99 38.5
t93 97.5q6 11 16 -4q8 -14 1 -21q-144 -158 -304 -158z" />
    <glyph glyph-name="gbreve" unicode="&#x11f;" horiz-adv-x="1101" 
d="M-55 -565q-89 0 -148 35.5t-55 109.5q4 79 129 174l12 -10q-22 -42 -22 -86q0 -69 50.5 -113.5t145.5 -44.5q53 0 115 20.5t113 57.5q52 38 100 99.5t105 163t109 205t144 283.5t179 339l53 98q-317 -377 -525 -578.5t-303 -201.5q-39 0 -66.5 16t-41 42t-19.5 51t-6 50
q0 101 47.5 223.5t130.5 239t185 214t222.5 157t231.5 59.5q193 0 343 -49l16 -6q15 -6 6 -25l-258 -489q-217 -413 -347.5 -604t-295.5 -309q-169 -121 -350 -121zM1016 1178q-62 0 -108 44.5t-46 133.5q0 12 35 31.5t57 19.5q15 0 15 -10q0 -81 36.5 -126.5t104.5 -45.5
q46 0 100.5 38t92.5 97q6 11 15 -4q8 -14 1 -21q-143 -157 -303 -157zM145 197q0 -53 21 -87t61 -34q69 0 280 207t527 591l17 29q-178 70 -324 70q-108 0 -217 -76t-187.5 -191t-128 -252t-49.5 -257z" />
    <glyph glyph-name="Gdotaccent" unicode="&#x120;" horiz-adv-x="1531" 
d="M668 -14q-108 0 -198 29.5t-150.5 79.5t-102.5 117t-61 140.5t-19 151.5q0 173 62.5 344t173.5 312.5t255.5 252t318.5 174t351 68.5q167 5 303 -28.5t136 -82.5q0 -27 -38 -63.5t-87 -36.5q-22 0 -55 8t-84.5 27t-91.5 35t-119.5 49t-124.5 51q-126 -23 -252.5 -84
t-239 -157t-199 -214t-137.5 -266.5t-51 -304.5q0 -101 32 -192t92 -163t156 -114t216 -41q145 0 272.5 66t249.5 233q54 124 139 338l-520 -8q-23 0 -23 14q0 28 56 80q12 10 59 10l529 -2h22q7 0 9.5 -2.5t1.5 -8t-5 -16.5q-97 -256 -189 -462.5t-135.5 -290.5
t-108.5 -201l-15 -27q-57 -105 -162 -188q-123 -95 -279 -150l-12 25q113 38 180.5 99t141.5 177q138 218 268 512q-120 -147 -264.5 -218.5t-300.5 -71.5zM1372 1800q-20 0 -38.5 22.5t-18.5 55.5q0 37 22 76t50 65.5t53 26.5q22 0 38.5 -20.5t16.5 -53.5q0 -39 -20 -78
q-18 -33 -47 -63.5t-56 -30.5z" />
    <glyph glyph-name="gdotaccent" unicode="&#x121;" horiz-adv-x="1101" 
d="M-55 -565q-89 0 -148 35.5t-55 109.5q4 79 129 174l12 -10q-22 -42 -22 -86q0 -69 50.5 -113.5t145.5 -44.5q53 0 115 20.5t113 57.5q52 38 100 99.5t105 163t109 205t144 283.5t179 339l53 98q-317 -377 -525 -578.5t-303 -201.5q-39 0 -66.5 16t-41 42t-19.5 51t-6 50
q0 101 47.5 223.5t130.5 239t185 214t222.5 157t231.5 59.5q193 0 343 -49l16 -6q15 -6 6 -25l-258 -489q-217 -413 -347.5 -604t-295.5 -309q-169 -121 -350 -121zM1063 1260q-21 0 -39 22t-18 55q0 37 22 76t49.5 65.5t52.5 26.5q22 0 39 -20t17 -53q0 -38 -21 -78
q-18 -34 -46.5 -64t-55.5 -30zM145 197q0 -53 21 -87t61 -34q69 0 280 207t527 591l17 29q-178 70 -324 70q-108 0 -217 -76t-187.5 -191t-128 -252t-49.5 -257z" />
    <glyph glyph-name="uni0122" unicode="&#x122;" horiz-adv-x="1531" 
d="M668 -14q-108 0 -198 29.5t-150.5 79.5t-102.5 117t-61 140.5t-19 151.5q0 173 62.5 344t173.5 312.5t255.5 252t318.5 174t351 68.5q167 5 303 -28.5t136 -82.5q0 -27 -38 -63.5t-87 -36.5q-22 0 -55 8t-84.5 27t-91.5 35t-119.5 49t-124.5 51q-126 -23 -252.5 -84
t-239 -157t-199 -214t-137.5 -266.5t-51 -304.5q0 -101 32 -192t92 -163t156 -114t216 -41q145 0 272.5 66t249.5 233q54 124 139 338l-520 -8q-23 0 -23 14q0 28 56 80q12 10 59 10l529 -2h22q7 0 9.5 -2.5t1.5 -8t-5 -16.5q-97 -256 -189 -462.5t-135.5 -290.5
t-108.5 -201l-15 -27q-57 -105 -162 -188q-123 -95 -279 -150l-12 25q113 38 180.5 99t141.5 177q138 218 268 512q-120 -147 -264.5 -218.5t-300.5 -71.5zM479 -489q61 45 86 74.5t27 56.5q1 23 -21.5 48.5t-23.5 47.5q-2 31 37.5 81t77.5 50q32 0 53.5 -35t21.5 -74
q0 -15 -5 -31t-16 -33t-21.5 -31.5t-29.5 -32.5t-31.5 -30t-36 -30.5t-35 -27.5t-36.5 -27.5t-32 -24.5z" />
    <glyph glyph-name="uni0123" unicode="&#x123;" horiz-adv-x="1101" 
d="M-55 -565q-89 0 -148 35.5t-55 109.5q4 79 129 174l12 -10q-22 -42 -22 -86q0 -69 50.5 -113.5t145.5 -44.5q53 0 115 20.5t113 57.5q52 38 100 99.5t105 163t109 205t144 283.5t179 339l53 98q-317 -377 -525 -578.5t-303 -201.5q-39 0 -66.5 16t-41 42t-19.5 51t-6 50
q0 101 47.5 223.5t130.5 239t185 214t222.5 157t231.5 59.5q193 0 343 -49l16 -6q15 -6 6 -25l-258 -489q-217 -413 -347.5 -604t-295.5 -309q-169 -121 -350 -121zM1167 1470q-60 -45 -85 -74.5t-27 -56.5q-1 -23 21.5 -48.5t23.5 -47.5q2 -31 -37.5 -81t-77.5 -50
q-32 0 -54 35.5t-22 73.5q0 15 5 31t16 33t21.5 31.5t29.5 32.5t32 30t36 30.5t35.5 28t36.5 27.5l32 24zM145 197q0 -53 21 -87t61 -34q69 0 280 207t527 591l17 29q-178 70 -324 70q-108 0 -217 -76t-187.5 -191t-128 -252t-49.5 -257z" />
    <glyph glyph-name="Hbar" unicode="&#x126;" horiz-adv-x="1767" 
d="M1264 -14q-41 0 -64.5 27t-23.5 73q0 87 143 381l186 377h-760q-178 -356 -245 -475q-81 -145 -252 -258.5t-342 -122.5q-56 -2 -99 6.5t-43 30.5q0 24 36 54t85 30q42 0 240 -35q39 18 67.5 36.5t71.5 64t84 112.5q86 145 285 557h-195v28h207l123 250h-121v25h133
q50 95 99 180q39 69 85.5 116t116.5 91l19 12l-363 -12q-70 -2 -122 -20t-80.5 -40t-79.5 -71l-17 14q127 141 187 189q40 32 108 32h461q25 0 25 -14q0 -9 -24 -33t-44 -37q-9 -6 -17.5 -13t-18.5 -19t-15.5 -19t-17 -25.5t-15.5 -25t-18.5 -31.5t-18.5 -32
q-63 -112 -133 -242h758l16 35q146 296 345.5 463t445.5 167q135 0 135 -34q0 -25 -29 -51.5t-65 -26.5q-34 0 -134.5 18t-142.5 23q-96 -35 -180 -120.5t-166 -250.5l-111 -223h175v-25h-187l-323 -659q-136 -276 -136 -342q0 -49 50 -49q84 0 233 155l16 -20
q-221 -221 -333 -221zM758 872h762l122 250h-757z" />
    <glyph glyph-name="hbar" unicode="&#x127;" horiz-adv-x="1132" 
d="M-78 0q-10 0 -14.5 7t0.5 18l528 981q39 73 82 137h-143v24h160q159 229 374.5 357.5t479.5 128.5q188 0 188 -41q0 -30 -41.5 -68.5t-95.5 -38.5q-44 0 -107 15t-231 61q-154 -41 -258 -134t-207 -280h215v-24h-229l-13 -23l-399 -751q150 196 334 370
q141 137 263.5 218t192.5 81q51 0 74 -31t23 -71q0 -59 -58.5 -177.5t-129 -230.5t-129 -228t-58.5 -171q0 -53 57 -53q67 0 207 123l14 -21q-96 -86 -183 -139t-132 -53q-52 0 -76 31.5t-24 72.5q0 52 39 140.5t94.5 182t111.5 185.5t95 172.5t39 122.5q0 25 -15 41t-45 16
q-58 0 -143 -58.5t-203 -170.5q-240 -227 -430 -508l-104 -197q-10 -16 -25 -16h-78z" />
    <glyph glyph-name="Imacron" unicode="&#x12a;" horiz-adv-x="770" 
d="M-186 0q-23 0 -23 16q0 12 24.5 38t47.5 38q16 8 47 8h143q52 39 85.5 75.5t64.5 92.5q97 162 276 535.5t266 523.5q39 69 84.5 113t118.5 84l27 14h-144q-46 0 -86 -4t-67 -8t-57 -16.5t-44 -17.5t-39 -25t-30.5 -24.5t-32 -30t-29.5 -28.5l-16 15q2 3 23.5 26.5
t27 29.5t24 26t28.5 29.5t25.5 25t29.5 28t28 23.5q20 16 35.5 24.5t63.5 17.5t119 9h479q16 0 16 -10t-18.5 -35t-38.5 -43q-14 -12 -53 -12h-191q-45 -37 -74 -68t-57 -81q-99 -170 -287 -552t-250 -493q-31 -55 -48.5 -81.5t-47.5 -57.5t-69 -53l-91 -52h152q46 0 86 4
t67 8t57 16.5t44 17.5t39 25t30.5 24.5t32 30t29.5 28.5l16 -14q-6 -6 -28 -31t-31 -34.5t-29 -31t-33 -34t-31 -29t-34 -29.5q-20 -16 -35.5 -24.5t-63 -17.5t-118.5 -9h-440zM846 1829l-2 4l20 29q11 16 31 16h500l2 -4l-21 -29q-11 -16 -30 -16h-500z" />
    <glyph glyph-name="imacron" unicode="&#x12b;" horiz-adv-x="579" 
d="M123 -14q-52 0 -76 31.5t-24 72.5q0 64 63 186.5t138.5 235.5t138.5 222.5t63 150.5q0 26 -14.5 41.5t-40.5 15.5q-74 0 -207 -117l-14 21q224 192 319 192q49 0 72.5 -32t23.5 -72q0 -48 -41 -132.5t-100 -175.5t-117.5 -182t-99.5 -173t-41 -128q0 -57 55 -57
q75 0 203 113l14 -21q-99 -85 -185 -138.5t-130 -53.5zM319 1214l-2 5l21 28q11 17 31 17h499l2 -4l-20 -29q-11 -17 -31 -17h-500z" />
    <glyph glyph-name="Iogonek" unicode="&#x12e;" horiz-adv-x="770" 
d="M-186 0q-23 0 -23 16q0 12 24.5 38t47.5 38q16 8 47 8h143q52 39 85.5 75.5t64.5 92.5q97 162 276 535.5t266 523.5q39 69 84.5 113t118.5 84l27 14h-144q-46 0 -86 -4t-67 -8t-57 -16.5t-44 -17.5t-39 -25t-30.5 -24.5t-32 -30t-29.5 -28.5l-16 15q2 3 23.5 26.5
t27 29.5t24 26t28.5 29.5t25.5 25t29.5 28t28 23.5q20 16 35.5 24.5t63.5 17.5t119 9h479q16 0 16 -10t-18.5 -35t-38.5 -43q-14 -12 -53 -12h-191q-45 -37 -74 -68t-57 -81q-99 -170 -287 -552t-250 -493q-31 -55 -48.5 -81.5t-47.5 -57.5t-69 -53l-91 -52h152q46 0 86 4
t67 8t57 16.5t44 17.5t39 25t30.5 24.5t32 30t29.5 28.5l16 -14q-6 -6 -28 -31t-31 -34.5t-29 -31t-33 -34t-31 -29t-34 -29.5q-20 -16 -35.5 -24.5t-63 -17.5t-118.5 -9h-90q-123 -117 -123 -205q0 -102 115 -102q53 0 104 33l10 -9l-47 -88q-34 -24 -94 -24q-65 0 -106 38
t-41 101q0 114 151 256h-319z" />
    <glyph glyph-name="iogonek" unicode="&#x12f;" horiz-adv-x="579" 
d="M123 -14q-52 0 -76 31.5t-24 72.5q0 64 63 186.5t138.5 235.5t138.5 222.5t63 150.5q0 26 -14.5 41.5t-40.5 15.5q-74 0 -207 -117l-14 21q224 192 319 192q49 0 72.5 -32t23.5 -72q0 -48 -41 -132.5t-100 -175.5t-117.5 -182t-99.5 -173t-41 -128q0 -57 55 -57
q75 0 203 113l14 -21q-170 -146 -272 -184q-117 -114 -117 -199q0 -102 115 -102q53 0 104 33l11 -9l-48 -88q-34 -24 -94 -24q-65 0 -106 38t-41 101q0 108 137 242h-4zM930 1536q35 33 43 33q10 0 10 -21q0 -26 -25 -45l-411 -332l-12 17z" />
    <glyph glyph-name="Idotaccent" unicode="&#x130;" horiz-adv-x="770" 
d="M-186 0q-23 0 -23 16q0 12 24.5 38t47.5 38q16 8 47 8h143q52 39 85.5 75.5t64.5 92.5q97 162 276 535.5t266 523.5q39 69 84.5 113t118.5 84l27 14h-144q-46 0 -86 -4t-67 -8t-57 -16.5t-44 -17.5t-39 -25t-30.5 -24.5t-32 -30t-29.5 -28.5l-16 15q2 3 23.5 26.5
t27 29.5t24 26t28.5 29.5t25.5 25t29.5 28t28 23.5q20 16 35.5 24.5t63.5 17.5t119 9h479q16 0 16 -10t-18.5 -35t-38.5 -43q-14 -12 -53 -12h-191q-45 -37 -74 -68t-57 -81q-99 -170 -287 -552t-250 -493q-31 -55 -48.5 -81.5t-47.5 -57.5t-69 -53l-91 -52h152q46 0 86 4
t67 8t57 16.5t44 17.5t39 25t30.5 24.5t32 30t29.5 28.5l16 -14q-6 -6 -28 -31t-31 -34.5t-29 -31t-33 -34t-31 -29t-34 -29.5q-20 -16 -35.5 -24.5t-63 -17.5t-118.5 -9h-440zM1147 1800q-20 0 -38.5 22.5t-18.5 55.5q0 37 22 76t49.5 65.5t52.5 26.5q22 0 39 -20.5
t17 -53.5q0 -38 -21 -78q-18 -34 -46.5 -64t-55.5 -30z" />
    <glyph glyph-name="dotlessi" unicode="&#x131;" horiz-adv-x="579" 
d="M123 -14q-52 0 -76 31.5t-24 72.5q0 64 63 186.5t138.5 235.5t138.5 222.5t63 150.5q0 26 -14.5 41.5t-40.5 15.5q-74 0 -207 -117l-14 21q224 192 319 192q49 0 72.5 -32t23.5 -72q0 -48 -41 -132.5t-100 -175.5t-117.5 -182t-99.5 -173t-41 -128q0 -57 55 -57
q75 0 203 113l14 -21q-99 -85 -185 -138.5t-130 -53.5z" />
    <glyph glyph-name="IJ" unicode="&#x132;" horiz-adv-x="2238" 
d="M92 -12q-79 2 -144 16.5t-65 42.5q0 27 33.5 58.5t73.5 31.5q31 0 73 -9t126 -32t133 -35q52 14 113 65t116 142q97 162 276.5 535.5t266.5 523.5q39 69 85.5 116t116.5 91l23 14l-565 -10q-53 -1 -92 -9t-75 -31t-55 -39t-61 -56l-16 14q6 6 28 31t31 34.5t29 31t33 34
t31 29t34 29.5q40 32 111 32h657q25 0 25 -14q0 -9 -24 -33t-44 -37q-9 -6 -17.5 -13t-18.5 -19t-15.5 -19t-17 -25.5t-15.5 -25t-18.5 -31.5t-18.5 -32q-98 -169 -271.5 -528t-236.5 -472q-94 -166 -274 -285t-371 -116zM1151 -365q-93 0 -153 59.5t-60 188.5
q0 76 28.5 161t84.5 172t133 168t181 153t222 122l12 -22q-123 -54 -226.5 -144.5t-167.5 -188.5t-99 -194t-35 -171q0 -122 45 -185t131 -63q63 0 128.5 32.5t121 84.5t114 128.5t105 151t96.5 166.5q92 161 270.5 529.5t270.5 527.5q38 67 85.5 114.5t117.5 92.5l41 26
l-668 -6q-53 -1 -92 -9t-75 -31t-54 -38.5t-61 -56.5l-17 14q127 141 187 189q40 32 114 32l758 -2q25 0 25 -14q0 -9 -24 -33t-44 -37q-14 -9 -25.5 -18.5t-23.5 -23t-19 -21.5t-19 -27.5t-16.5 -25.5t-19 -32t-18.5 -32q-92 -158 -270.5 -525.5t-266.5 -520.5
q-84 -141 -171.5 -256.5t-192 -217.5t-221 -159.5t-232.5 -57.5z" />
    <glyph glyph-name="ij" unicode="&#x133;" horiz-adv-x="1118" 
d="M123 -14q-52 0 -76 31.5t-24 72.5q0 64 63 186.5t138.5 235.5t138.5 222.5t63 150.5q0 26 -14.5 41.5t-40.5 15.5q-74 0 -207 -117l-14 21q224 192 319 192q49 0 72.5 -32t23.5 -72q0 -48 -41 -132.5t-100 -175.5t-117.5 -182t-99.5 -173t-41 -128q0 -57 55 -57
q75 0 203 113l14 -21q-99 -85 -185 -138.5t-130 -53.5zM930 1536q35 33 43 33q10 0 10 -21q0 -26 -25 -45l-411 -332l-12 17zM29 -424q-62 0 -62 31q0 30 31.5 68t77.5 38q61 0 237 -22q59 37 107 84.5t115 151.5t147 266q187 382 245 516t58 176q0 26 -14.5 41.5
t-40.5 15.5q-74 0 -207 -117l-14 21q224 192 319 192q49 0 72.5 -32t23.5 -72q0 -28 -17.5 -80t-63 -152t-78.5 -168.5t-109 -224.5q-157 -324 -383 -528.5t-444 -204.5zM1526 1544q35 33 43 33q10 0 10 -21q0 -26 -25 -45l-411 -331l-13 16z" />
    <glyph glyph-name="uni0136" unicode="&#x136;" horiz-adv-x="1632" 
d="M-207 -12q-56 -2 -98.5 6.5t-42.5 30.5q0 24 36 54t85 30q41 0 239 -35q39 18 67.5 36.5t72 64t84.5 112.5q89 149 265 517.5t265 522.5q38 68 85.5 115.5t117.5 91.5l18 12l-362 -12q-70 -2 -122 -20t-81 -40t-80 -71l-16 14q6 6 28 31t31 34.5t29 31t33 34t31 29
t34 29.5q40 32 109 32h460q25 0 25 -14q0 -9 -24 -33t-44 -37q-11 -7 -22 -18t-18 -19t-19.5 -27.5t-17.5 -27.5t-21.5 -36t-21.5 -37q-47 -80 -104 -187.5t-95.5 -184.5l-106 -212l-94.5 -189q245 226 531.5 463t433.5 342q166 122 302.5 177t266.5 55q51 0 89 -11t38 -32
q0 -28 -37.5 -66.5t-83.5 -38.5q-65 0 -280 58q-99 -34 -279 -164q-178 -134 -485 -389q26 -256 60 -442t72.5 -292.5t78 -156t82.5 -49.5q40 0 90.5 33t128.5 102l16 -21q-221 -198 -325 -198q-46 0 -92 70t-85 193t-70 301t-46 384q-246 -208 -445 -393q-57 -112 -92 -172
q-81 -145 -252 -258.5t-342 -122.5zM254 -473q61 45 86 74.5t27 56.5q1 23 -21.5 48.5t-23.5 47.5q-2 31 37 81t77 50q32 0 54 -35t22 -73q0 -15 -5 -31t-16 -33t-21.5 -31.5t-29.5 -33t-31.5 -30t-36.5 -30.5t-35.5 -28t-36.5 -28t-32 -24z" />
    <glyph glyph-name="uni0137" unicode="&#x137;" horiz-adv-x="1130" 
d="M-78 0q-10 0 -14.5 7t0.5 18l528 981q78 145 175.5 261t216 203.5t261.5 135t300 47.5q188 0 188 -41q0 -30 -41.5 -68.5t-95.5 -38.5q-44 0 -107 15t-231 61q-163 -44 -270.5 -146t-221.5 -315l-297 -557q178 212 374.5 344t305.5 135q77 1 119.5 -31.5t42.5 -88.5
q0 -33 -17 -71.5t-61.5 -88.5t-112.5 -99t-180 -102t-254 -98q4 -11 18 -52t24.5 -70t27.5 -73t33.5 -75t35.5 -61.5t39 -46t40 -15.5q68 0 219 135l16 -21q-221 -198 -293 -198q-121 0 -254 448q-5 -1 -16.5 -4t-16.5 -4l-6 25q307 81 462 196.5t155 224.5q0 44 -29 70.5
t-74 26.5q-70 0 -204.5 -87.5t-267 -216.5t-197.5 -239l-217 -410q-10 -16 -25 -16h-78zM37 -473q61 45 86 74.5t27 56.5q1 23 -22 48.5t-24 47.5q-2 31 37.5 81t77.5 50q32 0 54 -35t22 -73q0 -15 -5 -31t-16 -33t-21.5 -31.5t-29.5 -33t-31.5 -30t-36.5 -30.5t-35.5 -28
t-36.5 -28t-32 -24z" />
    <glyph glyph-name="Lacute" unicode="&#x139;" horiz-adv-x="1247" 
d="M745 -18l-356 6l-565 12q-23 0 -23 18q0 11 31 35.5t57 38.5q12 6 27 6l121 -2q80 52 146.5 140t119.5 206t91 224t88 253.5t85 235.5q54 137 129 235t167 154t194 81.5t223 25.5q135 0 232.5 -18.5t97.5 -49.5q0 -33 -39.5 -61.5t-73.5 -28.5q-62 0 -156.5 24.5
t-279.5 84.5q-41 -10 -70.5 -23t-68 -43.5t-72 -77.5t-75 -127t-85.5 -190q-198 -502 -307 -695q-128 -229 -299 -352l309 -6l355 -6q46 -1 85.5 2.5t67.5 8t57 16t44.5 18t38.5 25t31 25.5t31 30t30 29l16 -15q-2 -3 -23.5 -26.5t-27 -29.5t-24 -26t-28.5 -29.5t-25.5 -25
t-29.5 -28t-28 -23.5q-21 -17 -36 -25t-63 -17.5t-119 -8.5zM1647 1903l-392 -195l-10 14l371 273q38 28 45 28q14 0 14 -41t-6 -56t-22 -23z" />
    <glyph glyph-name="lacute" unicode="&#x13a;" horiz-adv-x="526" 
d="M86 -14q-44 0 -72 35.5t-28 80.5q0 125 135 365l299 539q66 119 135 213t157.5 177t187 138.5t223 87t266.5 31.5q170 0 170 -43q0 -29 -41 -68t-88 -39q-19 0 -41.5 3t-59.5 11.5t-62.5 15.5t-88 23.5t-99.5 26.5q-149 -40 -258 -142.5t-227 -320.5l-356 -657
q-119 -221 -119 -326q0 -61 61 -61q67 0 207 123l14 -21q-99 -85 -185 -138.5t-130 -53.5zM1333 1896l-391 -194l-10 14l371 273q38 28 45 28q14 0 14 -41q0 -40 -6.5 -56t-22.5 -24z" />
    <glyph glyph-name="uni013B" unicode="&#x13b;" horiz-adv-x="1247" 
d="M745 -18l-356 6l-565 12q-23 0 -23 18q0 11 31 35.5t57 38.5q12 6 27 6l121 -2q80 52 146.5 140t119.5 206t91 224t88 253.5t85 235.5q54 137 129 235t167 154t194 81.5t223 25.5q135 0 232.5 -18.5t97.5 -49.5q0 -33 -39.5 -61.5t-73.5 -28.5q-62 0 -156.5 24.5
t-279.5 84.5q-41 -10 -70.5 -23t-68 -43.5t-72 -77.5t-75 -127t-85.5 -190q-198 -502 -307 -695q-128 -229 -299 -352l309 -6l355 -6q46 -1 85.5 2.5t67.5 8t57 16t44.5 18t38.5 25t31 25.5t31 30t30 29l16 -15q-2 -3 -23.5 -26.5t-27 -29.5t-24 -26t-28.5 -29.5t-25.5 -25
t-29.5 -28t-28 -23.5q-21 -17 -36 -25t-63 -17.5t-119 -8.5zM156 -473q60 45 85 74.5t27 56.5q1 23 -21.5 48.5t-23.5 47.5q-2 31 37.5 81t77.5 50q32 0 54 -35t22 -73q0 -15 -5 -31t-16 -33t-21.5 -31.5t-29.5 -33t-31.5 -30t-36.5 -30.5t-35.5 -28t-36.5 -28t-32 -24z" />
    <glyph glyph-name="uni013C" unicode="&#x13c;" horiz-adv-x="526" 
d="M86 -14q-44 0 -72 35.5t-28 80.5q0 125 135 365l299 539q66 119 135 213t157.5 177t187 138.5t223 87t266.5 31.5q170 0 170 -43q0 -29 -41 -68t-88 -39q-19 0 -41.5 3t-59.5 11.5t-62.5 15.5t-88 23.5t-99.5 26.5q-149 -40 -258 -142.5t-227 -320.5l-356 -657
q-119 -221 -119 -326q0 -61 61 -61q67 0 207 123l14 -21q-99 -85 -185 -138.5t-130 -53.5zM-244 -473q61 45 86 74.5t27 56.5q1 23 -21.5 48.5t-23.5 47.5q-2 31 37.5 81t77.5 50q32 0 53.5 -35t21.5 -73q0 -15 -4.5 -31t-16 -33t-21.5 -31t-30 -33t-31.5 -30.5t-36.5 -31
t-35 -27.5t-36.5 -28t-31.5 -24z" />
    <glyph glyph-name="Lcaron" unicode="&#x13d;" horiz-adv-x="1247" 
d="M745 -18l-356 6l-565 12q-23 0 -23 18q0 11 31 35.5t57 38.5q12 6 27 6l121 -2q80 52 146.5 140t119.5 206t91 224t88 253.5t85 235.5q54 137 129 235t167 154t194 81.5t223 25.5q135 0 232.5 -18.5t97.5 -49.5q0 -33 -39.5 -61.5t-73.5 -28.5q-62 0 -156.5 24.5
t-279.5 84.5q-41 -10 -70.5 -23t-68 -43.5t-72 -77.5t-75 -127t-85.5 -190q-198 -502 -307 -695q-128 -229 -299 -352l309 -6l355 -6q46 -1 85.5 2.5t67.5 8t57 16t44.5 18t38.5 25t31 25.5t31 30t30 29l16 -15q-2 -3 -23.5 -26.5t-27 -29.5t-24 -26t-28.5 -29.5t-25.5 -25
t-29.5 -28t-28 -23.5q-21 -17 -36 -25t-63 -17.5t-119 -8.5zM891 1049q61 45 86 74.5t27 56.5q1 23 -22 48.5t-24 47.5q-2 31 37.5 81t77.5 50q32 0 54 -35.5t22 -73.5q0 -15 -5 -31t-16 -33t-21.5 -31.5t-29.5 -32.5t-32 -30t-36 -30.5t-35.5 -28t-36.5 -27.5l-32 -24z" />
    <glyph glyph-name="lcaron" unicode="&#x13e;" horiz-adv-x="526" 
d="M86 -14q-44 0 -72 35.5t-28 80.5q0 125 135 365l299 539q66 119 135 213t157.5 177t187 138.5t223 87t266.5 31.5q170 0 170 -43q0 -29 -41 -68t-88 -39q-19 0 -41.5 3t-59.5 11.5t-62.5 15.5t-88 23.5t-99.5 26.5q-149 -40 -258 -142.5t-227 -320.5l-356 -657
q-119 -221 -119 -326q0 -61 61 -61q67 0 207 123l14 -21q-99 -85 -185 -138.5t-130 -53.5zM813 1071q61 45 86 74.5t27 56.5q1 23 -21.5 48.5t-23.5 47.5q-2 31 37 81.5t77 50.5q32 0 54 -35.5t22 -73.5q0 -15 -5 -31t-16 -33t-21.5 -31.5t-29.5 -32.5t-32 -30t-36 -30.5
t-35.5 -28t-36.5 -27.5l-32 -24z" />
    <glyph glyph-name="Lslash" unicode="&#x141;" horiz-adv-x="1247" 
d="M745 -18l-356 6l-565 12q-23 0 -23 18q0 11 31 35.5t57 38.5q12 6 27 6l121 -2q67 44 124.5 113t105 161t82.5 177.5t75 202.5l-88 -37l-12 24l112 47q97 286 131 371q54 137 129 235t167 154t194 81.5t223 25.5q135 0 232.5 -18.5t97.5 -49.5q0 -33 -39.5 -61.5
t-73.5 -28.5q-62 0 -156.5 24.5t-279.5 84.5q-41 -10 -70.5 -23t-68 -43.5t-72 -77.5t-75 -127t-85.5 -190l-121 -299l226 94l12 -25l-254 -106q-95 -225 -170 -359q-128 -229 -299 -352l309 -6l355 -6q46 -1 85.5 2.5t67.5 8t57 16t44.5 18t38.5 25t31 25.5t31 30t30 29
l16 -15q-2 -3 -23.5 -26.5t-27 -29.5t-24 -26t-28.5 -29.5t-25.5 -25t-29.5 -28t-28 -23.5q-21 -17 -36 -25t-63 -17.5t-119 -8.5z" />
    <glyph glyph-name="lslash" unicode="&#x142;" horiz-adv-x="526" 
d="M86 -14q-44 0 -72 35.5t-28 80.5q0 125 135 365l164 295l-117 -49l-12 24l149 64l115 205q66 119 135 213t157.5 177t187 138.5t223 87t266.5 31.5q170 0 170 -43q0 -29 -41 -68t-88 -39q-19 0 -41.5 3t-59.5 11.5t-62.5 15.5t-88 23.5t-99.5 26.5q-149 -40 -258 -142.5
t-227 -320.5l-139 -256l172 72l12 -25l-205 -86l-196 -362q-119 -221 -119 -326q0 -61 61 -61q67 0 207 123l14 -21q-99 -85 -185 -138.5t-130 -53.5z" />
    <glyph glyph-name="Nacute" unicode="&#x143;" horiz-adv-x="1830" 
d="M1366 -23q-7 0 -10 19l-228 1511q-12 -24 -56.5 -115.5t-66 -136t-66.5 -133t-77.5 -150t-76.5 -140.5t-85 -148q-91 -150 -179 -268t-187 -218.5t-203 -155t-205 -54.5q-76 0 -138 13.5t-62 37.5q0 28 35 60t87 32q22 0 57.5 -7.5t99.5 -24t112 -27.5q250 108 559 628
q32 53 65.5 112t60 107.5t61 115.5t55 106.5t56 111.5t49 99.5t49 101.5t42.5 88l-448 -4q-53 -1 -92 -9t-75 -31t-55 -39t-61 -56l-16 14q6 6 28 31t31 34.5t29 31t33 34t31 29t34 29.5q40 32 115 32h526q22 0 25 -24l219 -1452l393 825q37 76 62 126t58 111.5t58.5 101
t58.5 85.5t62.5 74.5t66.5 59t75.5 48t84.5 33t97 21.5t110 6q166 0 166 -43q0 -26 -33 -57t-71 -31q-24 0 -67 7t-113 19.5t-132 20.5q-97 -15 -196.5 -141t-221.5 -373q-334 -682 -413 -867q-36 -83 -70 -147t-47 -64zM1780 1903l-391 -195l-11 14l371 273q38 28 45 28
q14 0 14 -41t-6 -56t-22 -23z" />
    <glyph glyph-name="nacute" unicode="&#x144;" horiz-adv-x="1220" 
d="M6 0q-11 0 -14.5 7t2.5 18q412 725 412 860q0 26 -15 41.5t-41 15.5q-74 0 -207 -117l-14 21q100 86 186 139t134 53q49 0 72.5 -32t23.5 -74q0 -89 -238 -555q151 198 326 362q141 136 263.5 217.5t193.5 81.5q51 0 73.5 -31t22.5 -71q0 -59 -58.5 -177.5t-129 -230.5
t-129 -228t-58.5 -171q0 -53 57 -53q67 0 207 123l15 -21q-96 -85 -183.5 -138.5t-132.5 -53.5q-52 0 -76 31.5t-24 72.5q0 52 39 140.5t94.5 182t111.5 185.5t95 172.5t39 122.5q0 25 -15 41t-45 16q-58 0 -143 -58.5t-203 -170.5q-237 -224 -422 -496q-79 -147 -119 -211
q-8 -14 -24 -14h-76zM1081 1374l-358 -205l-12 15l342 291q23 18 34 18t20 -14t9 -39q0 -21 -5.5 -34.5t-11 -18.5t-18.5 -13z" />
    <glyph glyph-name="uni0145" unicode="&#x145;" horiz-adv-x="1830" 
d="M1366 -23q-7 0 -10 19l-228 1511q-12 -24 -56.5 -115.5t-66 -136t-66.5 -133t-77.5 -150t-76.5 -140.5t-85 -148q-91 -150 -179 -268t-187 -218.5t-203 -155t-205 -54.5q-76 0 -138 13.5t-62 37.5q0 28 35 60t87 32q22 0 57.5 -7.5t99.5 -24t112 -27.5q250 108 559 628
q32 53 65.5 112t60 107.5t61 115.5t55 106.5t56 111.5t49 99.5t49 101.5t42.5 88l-448 -4q-53 -1 -92 -9t-75 -31t-55 -39t-61 -56l-16 14q6 6 28 31t31 34.5t29 31t33 34t31 29t34 29.5q40 32 115 32h526q22 0 25 -24l219 -1452l393 825q37 76 62 126t58 111.5t58.5 101
t58.5 85.5t62.5 74.5t66.5 59t75.5 48t84.5 33t97 21.5t110 6q166 0 166 -43q0 -26 -33 -57t-71 -31q-24 0 -67 7t-113 19.5t-132 20.5q-97 -15 -196.5 -141t-221.5 -373q-334 -682 -413 -867q-36 -83 -70 -147t-47 -64zM432 -473q61 45 86 74.5t27 56.5q1 23 -21.5 48.5
t-23.5 47.5q-2 31 37 81t77 50q32 0 54 -35t22 -73q0 -15 -5 -31t-16 -33t-21.5 -31.5t-29.5 -33t-31.5 -30t-36.5 -30.5t-35.5 -28t-36.5 -28t-32 -24z" />
    <glyph glyph-name="uni0146" unicode="&#x146;" horiz-adv-x="1220" 
d="M6 0q-11 0 -14.5 7t2.5 18q412 725 412 860q0 26 -15 41.5t-41 15.5q-74 0 -207 -117l-14 21q100 86 186 139t134 53q49 0 72.5 -32t23.5 -74q0 -89 -238 -555q151 198 326 362q141 136 263.5 217.5t193.5 81.5q51 0 73.5 -31t22.5 -71q0 -59 -58.5 -177.5t-129 -230.5
t-129 -228t-58.5 -171q0 -53 57 -53q67 0 207 123l15 -21q-96 -85 -183.5 -138.5t-132.5 -53.5q-52 0 -76 31.5t-24 72.5q0 52 39 140.5t94.5 182t111.5 185.5t95 172.5t39 122.5q0 25 -15 41t-45 16q-58 0 -143 -58.5t-203 -170.5q-237 -224 -422 -496q-79 -147 -119 -211
q-8 -14 -24 -14h-76zM227 -473q61 45 86 74.5t27 56.5q1 23 -21.5 48.5t-23.5 47.5q-2 31 37.5 81t77.5 50q32 0 53.5 -35t21.5 -73q0 -15 -4.5 -31t-16 -33t-21.5 -31t-30 -33t-31.5 -30.5t-36.5 -31t-35 -27.5t-36.5 -28t-31.5 -24z" />
    <glyph glyph-name="Ncaron" unicode="&#x147;" horiz-adv-x="1830" 
d="M1366 -23q-7 0 -10 19l-228 1511q-12 -24 -56.5 -115.5t-66 -136t-66.5 -133t-77.5 -150t-76.5 -140.5t-85 -148q-91 -150 -179 -268t-187 -218.5t-203 -155t-205 -54.5q-76 0 -138 13.5t-62 37.5q0 28 35 60t87 32q22 0 57.5 -7.5t99.5 -24t112 -27.5q250 108 559 628
q32 53 65.5 112t60 107.5t61 115.5t55 106.5t56 111.5t49 99.5t49 101.5t42.5 88l-448 -4q-53 -1 -92 -9t-75 -31t-55 -39t-61 -56l-16 14q6 6 28 31t31 34.5t29 31t33 34t31 29t34 29.5q40 32 115 32h526q22 0 25 -24l219 -1452l393 825q37 76 62 126t58 111.5t58.5 101
t58.5 85.5t62.5 74.5t66.5 59t75.5 48t84.5 33t97 21.5t110 6q166 0 166 -43q0 -26 -33 -57t-71 -31q-24 0 -67 7t-113 19.5t-132 20.5q-97 -15 -196.5 -141t-221.5 -373q-334 -682 -413 -867q-36 -83 -70 -147t-47 -64zM1391 1923q14 0 26 -12q54 -70 117 -133
q54 23 125 68t127 91l18 -18q-87 -67 -192 -130t-139 -63q-23 0 -80 65t-97 122l9 12z" />
    <glyph glyph-name="ncaron" unicode="&#x148;" horiz-adv-x="1220" 
d="M6 0q-11 0 -14.5 7t2.5 18q412 725 412 860q0 26 -15 41.5t-41 15.5q-74 0 -207 -117l-14 21q100 86 186 139t134 53q49 0 72.5 -32t23.5 -74q0 -89 -238 -555q151 198 326 362q141 136 263.5 217.5t193.5 81.5q51 0 73.5 -31t22.5 -71q0 -59 -58.5 -177.5t-129 -230.5
t-129 -228t-58.5 -171q0 -53 57 -53q67 0 207 123l15 -21q-96 -85 -183.5 -138.5t-132.5 -53.5q-52 0 -76 31.5t-24 72.5q0 52 39 140.5t94.5 182t111.5 185.5t95 172.5t39 122.5q0 25 -15 41t-45 16q-58 0 -143 -58.5t-203 -170.5q-237 -224 -422 -496q-79 -147 -119 -211
q-8 -14 -24 -14h-76zM616 1366q15 0 27 -12q54 -70 117 -133q54 23 125 68t127 91l18 -18q-87 -67 -192.5 -130t-139.5 -63q-23 0 -79 64.5t-97 122.5l8 12z" />
    <glyph glyph-name="Omacron" unicode="&#x14c;" horiz-adv-x="1822" 
d="M918 -14q-167 0 -300.5 55t-218 150t-129.5 219.5t-45 267.5q0 126 38.5 251.5t105 231.5t158 198t194 156.5t216 101t222.5 36.5q133 0 244 -36t189 -99.5t132 -151t79.5 -188.5t25.5 -213q0 -141 -49.5 -285.5t-137.5 -267.5t-201 -219.5t-249.5 -151.5t-273.5 -55z
M1020 57q144 0 275.5 70t223 184t145.5 260.5t54 296.5q0 206 -78 367t-228.5 254.5t-352.5 93.5q-129 0 -259.5 -61.5t-234 -164.5t-168.5 -249t-65 -303q0 -213 86.5 -383.5t244 -267.5t357.5 -97zM1073 1845l-2 4l21 29q11 16 30 16h500l2 -4l-20 -28q-11 -17 -31 -17
h-500z" />
    <glyph glyph-name="omacron" unicode="&#x14d;" horiz-adv-x="997" 
d="M260 -14q-97 0 -162 59t-65 184q0 75 29 165t78 179.5t119 173.5t148 148.5t168.5 103.5t176.5 39q104 0 160.5 -66t56.5 -165q0 -98 -40.5 -212.5t-111.5 -220.5t-159 -194t-193.5 -141t-204.5 -53zM371 51q80 0 156.5 51.5t132.5 131.5t99 174t65 182.5t22 154.5
q0 109 -54 168.5t-149 59.5q-82 0 -159.5 -50t-134 -128t-100 -171t-65.5 -181t-22 -156q0 -126 53 -181t156 -55zM590 1214l-2 5l20 28q11 17 31 17h500l2 -4l-21 -29q-11 -17 -30 -17h-500z" />
    <glyph glyph-name="Ohungarumlaut" unicode="&#x150;" horiz-adv-x="1822" 
d="M918 -14q-167 0 -300.5 55t-218 150t-129.5 219.5t-45 267.5q0 126 38.5 251.5t105 231.5t158 198t194 156.5t216 101t222.5 36.5q133 0 244 -36t189 -99.5t132 -151t79.5 -188.5t25.5 -213q0 -141 -49.5 -285.5t-137.5 -267.5t-201 -219.5t-249.5 -151.5t-273.5 -55z
M1020 57q144 0 275.5 70t223 184t145.5 260.5t54 296.5q0 206 -78 367t-228.5 254.5t-352.5 93.5q-129 0 -259.5 -61.5t-234 -164.5t-168.5 -249t-65 -303q0 -213 86.5 -383.5t244 -267.5t357.5 -97zM1210 1735l-10 10l313 252q32 28 54 28q8 0 17 -5t9 -11q0 -11 -47 -43z
M1415 1735l-8 12l311 229q39 29 54 29q8 0 17 -5t9 -11q0 -12 -51 -45z" />
    <glyph glyph-name="ohungarumlaut" unicode="&#x151;" horiz-adv-x="997" 
d="M260 -14q-97 0 -162 59t-65 184q0 75 29 165t78 179.5t119 173.5t148 148.5t168.5 103.5t176.5 39q104 0 160.5 -66t56.5 -165q0 -98 -40.5 -212.5t-111.5 -220.5t-159 -194t-193.5 -141t-204.5 -53zM371 51q80 0 156.5 51.5t132.5 131.5t99 174t65 182.5t22 154.5
q0 109 -54 168.5t-149 59.5q-82 0 -159.5 -50t-134 -128t-100 -171t-65.5 -181t-22 -156q0 -126 53 -181t156 -55zM928 1475q32 30 45 30q7 0 17.5 -4.5t10.5 -9.5q0 -12 -45 -49l-331 -271h-23zM1133 1475q32 30 45 30q7 0 17.5 -4.5t10.5 -9.5q0 -12 -45 -49l-332 -271
h-22z" />
    <glyph glyph-name="OE" unicode="&#x152;" horiz-adv-x="2627" 
d="M918 -14q-167 0 -300.5 55t-218 150t-129.5 219.5t-45 267.5q0 126 38.5 251.5t105 231.5t158 198t194 156.5t216 101t222.5 36.5q87 0 160 -15l-35 15q116 0 347 -7.5t347 -7.5h959q123 0 123 -73q0 -53 -57 -112.5t-185 -156.5l-12 19q91 75 127.5 114t36.5 66
q0 21 -19.5 32t-71.5 11h-555q-14 -9 -26.5 -20t-21 -19t-20 -22.5t-16.5 -20.5t-16.5 -25t-14.5 -23.5t-16.5 -28t-15.5 -27.5q-95 -162 -248 -480h664v-28h-678q-173 -358 -254 -500q-38 -68 -71.5 -107t-80.5 -73l-92 -64h791q66 0 116.5 17.5t79 40t74.5 66.5l12 12
l17 -15q-124 -137 -187 -188q-42 -33 -122 -33h-902q-22 0 -22 18q0 19 57 50l41 30q51 38 105 125q-123 -112 -267.5 -174.5t-291.5 -62.5zM1020 57q156 0 292.5 78.5t235.5 214.5q83 157 125 244q45 137 45 274q0 206 -78 367t-228.5 254.5t-352.5 93.5
q-129 0 -259.5 -61.5t-234 -164.5t-168.5 -249t-65 -303q0 -213 86.5 -383.5t244 -267.5t357.5 -97zM1444 1602q127 -51 215 -149t129 -221.5t41 -266.5q0 -36 -2 -54q138 275 198 379q82 145 203 215l58 33h-404q-176 0 -438 64z" />
    <glyph glyph-name="oe" unicode="&#x153;" horiz-adv-x="1595" 
d="M260 -14q-97 0 -162 59t-65 184q0 75 29 165t78 179.5t119 173.5t148 148.5t168.5 103.5t176.5 39q104 0 160.5 -66t56.5 -165q0 -37 -6 -78q124 139 270 226t270 87q78 0 120 -28.5t42 -81.5q0 -65 -65.5 -144.5t-242.5 -211.5t-487 -326q5 -78 50.5 -127t138.5 -49
q158 0 350 170l14 -17q-131 -125 -252.5 -183t-205.5 -58q-112 0 -173 64t-61 171q0 27 2 39q-104 -124 -228.5 -199t-244.5 -75zM371 51q80 0 156.5 51.5t132.5 131.5t99 174t65 182.5t22 154.5q0 109 -54 168.5t-149 59.5q-82 0 -159.5 -50t-134 -128t-100 -171
t-65.5 -181t-22 -156q0 -126 53 -181t156 -55zM870 274q140 87 233.5 149t179.5 127.5t135 117t77.5 104t28.5 102.5q0 51 -34 75t-83 24q-89 0 -174 -46.5t-148.5 -122t-113 -167.5t-75 -187t-26.5 -176z" />
    <glyph glyph-name="Racute" unicode="&#x154;" horiz-adv-x="1665" 
d="M125 0q-23 0 -23 14q0 12 54 52l43 32q35 26 62 61.5t67 106.5q89 156 241 524t244 527q74 132 203 215l10 6h-301q-53 0 -92 -8t-75.5 -31.5t-54 -38.5t-61.5 -57l-16 14q6 6 28 31t31 34.5t29 31t33 34t31 29t34 29.5q40 32 109 32h520q135 0 227.5 -18.5t145.5 -56
t75.5 -88t22.5 -121.5q0 -98 -46.5 -193t-124 -167t-185.5 -116t-223 -44h-35q56 -298 98.5 -460.5t82.5 -231t89 -68.5q32 0 68.5 21t93.5 69l16 -21q-75 -65 -105 -89.5t-69 -46t-72 -21.5q-182 0 -313 848h-274q-134 -328 -226 -490q-39 -68 -71.5 -107.5t-79.5 -72.5
l-94 -64h22h254q17 0 17 -12q0 -9 -17.5 -32t-38.5 -42q-16 -14 -59 -14h-295zM1548 1903l-391 -195l-10 14l371 273q38 28 45 28q14 0 14 -41q0 -40 -6.5 -55.5t-22.5 -23.5zM725 862h422q193 0 321.5 118.5t128.5 297.5q0 75 -33.5 127t-97.5 80.5t-142.5 40.5t-182.5 12
h-62q-12 -11 -23.5 -23.5t-19.5 -22.5t-19 -26.5t-16.5 -26t-17.5 -30.5t-18 -31q-94 -161 -240 -516z" />
    <glyph glyph-name="racute" unicode="&#x155;" horiz-adv-x="933" 
d="M6 0q-11 0 -14.5 7t2.5 18q412 725 412 860q0 26 -15 41.5t-41 15.5q-74 0 -207 -117l-14 21q100 86 186 139t134 53q49 0 72.5 -32t23.5 -74q0 -64 -105 -283q56 85 113.5 150.5t129 122t158 86.5t181.5 30q96 0 96 -34q0 -39 -44.5 -79t-94.5 -40q-114 0 -246 41
q-178 -99 -403 -502q-67 -131 -133.5 -251.5t-90.5 -158.5q-8 -14 -24 -14h-76zM895 1374l-358 -205l-13 15l342 291q23 18 35 18q11 0 20 -14t9 -39q0 -21 -5.5 -34.5t-11 -18.5t-18.5 -13z" />
    <glyph glyph-name="uni0156" unicode="&#x156;" horiz-adv-x="1665" 
d="M125 0q-23 0 -23 14q0 12 54 52l43 32q35 26 62 61.5t67 106.5q89 156 241 524t244 527q74 132 203 215l10 6h-301q-53 0 -92 -8t-75.5 -31.5t-54 -38.5t-61.5 -57l-16 14q6 6 28 31t31 34.5t29 31t33 34t31 29t34 29.5q40 32 109 32h520q135 0 227.5 -18.5t145.5 -56
t75.5 -88t22.5 -121.5q0 -98 -46.5 -193t-124 -167t-185.5 -116t-223 -44h-35q56 -298 98.5 -460.5t82.5 -231t89 -68.5q32 0 68.5 21t93.5 69l16 -21q-75 -65 -105 -89.5t-69 -46t-72 -21.5q-182 0 -313 848h-274q-134 -328 -226 -490q-39 -68 -71.5 -107.5t-79.5 -72.5
l-94 -64h22h254q17 0 17 -12q0 -9 -17.5 -32t-38.5 -42q-16 -14 -59 -14h-295zM477 -473q61 45 86 74.5t27 56.5q1 23 -21.5 48.5t-23.5 47.5q-2 31 37 81t77 50q32 0 54 -35t22 -73q0 -15 -4.5 -31t-16 -33t-21.5 -31t-30 -33t-31.5 -30.5t-36.5 -31t-35 -27.5t-36.5 -28
t-31.5 -24zM725 862h422q193 0 321.5 118.5t128.5 297.5q0 75 -33.5 127t-97.5 80.5t-142.5 40.5t-182.5 12h-62q-12 -11 -23.5 -23.5t-19.5 -22.5t-19 -26.5t-16.5 -26t-17.5 -30.5t-18 -31q-94 -161 -240 -516z" />
    <glyph glyph-name="uni0157" unicode="&#x157;" horiz-adv-x="933" 
d="M6 0q-11 0 -14.5 7t2.5 18q412 725 412 860q0 26 -15 41.5t-41 15.5q-74 0 -207 -117l-14 21q100 86 186 139t134 53q49 0 72.5 -32t23.5 -74q0 -64 -105 -283q56 85 113.5 150.5t129 122t158 86.5t181.5 30q96 0 96 -34q0 -39 -44.5 -79t-94.5 -40q-114 0 -246 41
q-178 -99 -403 -502q-67 -131 -133.5 -251.5t-90.5 -158.5q-8 -14 -24 -14h-76zM-168 -473q61 45 86 74.5t27 56.5q1 23 -21.5 48.5t-23.5 47.5q-2 31 37 81t77 50q32 0 54 -35t22 -73q0 -15 -5 -31t-16 -33t-21.5 -31.5t-29.5 -33t-31.5 -30t-36.5 -30.5t-35.5 -28
t-36.5 -28t-32 -24z" />
    <glyph glyph-name="Rcaron" unicode="&#x158;" horiz-adv-x="1665" 
d="M125 0q-23 0 -23 14q0 12 54 52l43 32q35 26 62 61.5t67 106.5q89 156 241 524t244 527q74 132 203 215l10 6h-301q-53 0 -92 -8t-75.5 -31.5t-54 -38.5t-61.5 -57l-16 14q6 6 28 31t31 34.5t29 31t33 34t31 29t34 29.5q40 32 109 32h520q135 0 227.5 -18.5t145.5 -56
t75.5 -88t22.5 -121.5q0 -98 -46.5 -193t-124 -167t-185.5 -116t-223 -44h-35q56 -298 98.5 -460.5t82.5 -231t89 -68.5q32 0 68.5 21t93.5 69l16 -21q-75 -65 -105 -89.5t-69 -46t-72 -21.5q-182 0 -313 848h-274q-134 -328 -226 -490q-39 -68 -71.5 -107.5t-79.5 -72.5
l-94 -64h22h254q17 0 17 -12q0 -9 -17.5 -32t-38.5 -42q-16 -14 -59 -14h-295zM1159 1923q15 0 27 -12q54 -70 117 -133q54 22 124.5 67.5t126.5 91.5l19 -18q-87 -67 -192.5 -130t-139.5 -63q-23 0 -79 64.5t-97 122.5l8 12zM725 862h422q193 0 321.5 118.5t128.5 297.5
q0 75 -33.5 127t-97.5 80.5t-142.5 40.5t-182.5 12h-62q-12 -11 -23.5 -23.5t-19.5 -22.5t-19 -26.5t-16.5 -26t-17.5 -30.5t-18 -31q-94 -161 -240 -516z" />
    <glyph glyph-name="rcaron" unicode="&#x159;" horiz-adv-x="933" 
d="M6 0q-11 0 -14.5 7t2.5 18q412 725 412 860q0 26 -15 41.5t-41 15.5q-74 0 -207 -117l-14 21q100 86 186 139t134 53q49 0 72.5 -32t23.5 -74q0 -64 -105 -283q56 85 113.5 150.5t129 122t158 86.5t181.5 30q96 0 96 -34q0 -39 -44.5 -79t-94.5 -40q-114 0 -246 41
q-178 -99 -403 -502q-67 -131 -133.5 -251.5t-90.5 -158.5q-8 -14 -24 -14h-76zM430 1366q15 0 27 -12q57 -74 116 -133q54 23 125 68t127 91l19 -18q-87 -67 -192.5 -130t-139.5 -63q-23 0 -79 64.5t-97 122.5l8 12z" />
    <glyph glyph-name="Sacute" unicode="&#x15a;" horiz-adv-x="1288" 
d="M406 -14q-108 0 -215 19t-172.5 48t-63.5 58t38.5 61.5t80.5 32.5q23 0 99 -23.5t212 -68.5t236 -74q97 14 181.5 47.5t153 85t108.5 128t40 169.5q0 55 -22.5 102t-56.5 80t-84 62.5t-95 50t-99 42.5q-19 7 -28 11q-49 20 -73 30.5t-70 33t-70.5 39t-58 43.5t-51 53.5
t-30 61.5t-12.5 73q0 143 122 259.5t317.5 179.5t416.5 63q167 0 258 -32t91 -87q0 -43 -59 -104t-183 -154l-12 18q91 75 123 109t32 61q0 32 -46.5 55t-118 33.5t-129 14.5t-105.5 4q-276 0 -445.5 -94t-169.5 -250q0 -42 14 -79t41.5 -66.5t59.5 -53.5t77 -47t83.5 -40
t89.5 -38q13 -5 20 -8q65 -27 108 -47.5t97.5 -55t86.5 -69t54.5 -85t22.5 -108.5q0 -147 -102.5 -271.5t-285.5 -198.5t-406 -74zM1452 1903l-391 -195l-10 14l370 273q38 28 45 28q15 0 15 -41q0 -40 -6.5 -55.5t-22.5 -23.5z" />
    <glyph glyph-name="sacute" unicode="&#x15b;" horiz-adv-x="757" 
d="M102 -14q-89 0 -147.5 35.5t-54.5 109.5q4 79 129 174l12 -10q-23 -44 -23 -86q0 -70 52.5 -120t150.5 -50q99 0 170.5 59t71.5 154q0 45 -20.5 99.5t-49 105.5t-56.5 102.5t-46 105t-15 97.5q7 83 75.5 148t162.5 96.5t191 31.5q69 0 128.5 -17t59.5 -42
q0 -31 -36 -58.5t-71 -27.5q-42 0 -93 18t-175 72q-139 -49 -149 -137q-4 -47 14 -101.5t47.5 -105.5t59 -102.5t49.5 -109.5t18 -110q-5 -94 -69 -170.5t-166.5 -118.5t-219.5 -42zM842 1374l-359 -205l-12 15l342 291q23 18 35 18q11 0 20 -14t9 -39q0 -21 -5.5 -34.5
t-11 -18.5t-18.5 -13z" />
    <glyph glyph-name="Scedilla" unicode="&#x15e;" horiz-adv-x="1288" 
d="M481 -240q0 -73 -77 -125.5t-166 -52.5q-41 0 -70 14.5t-29 36.5q0 14 13 25.5t26 11.5q12 0 50.5 -23.5t76.5 -23.5q53 0 86 24t33 64q0 37 -39 62.5t-98 25.5q-50 0 -111 -22l-10 12l235 197q-107 0 -212.5 19t-170.5 48t-63 58t38.5 61.5t80.5 32.5q23 0 99 -23.5
t212 -68.5t236 -74q97 14 181.5 47.5t153 85t108.5 128t40 169.5q0 55 -22.5 102t-56.5 80t-84 62.5t-95 50t-99 42.5q-19 7 -28 11q-49 20 -73 30.5t-70 33t-70.5 39t-58 43.5t-51 53.5t-30 61.5t-12.5 73q0 143 122 259.5t317.5 179.5t416.5 63q167 0 258 -32t91 -87
q0 -43 -59 -104t-183 -154l-12 18q91 75 123 109t32 61q0 32 -46.5 55t-118 33.5t-129 14.5t-105.5 4q-276 0 -445.5 -94t-169.5 -250q0 -42 14 -79t41.5 -66.5t59.5 -53.5t77 -47t83.5 -40t89.5 -38q13 -5 20 -8q65 -27 108 -47.5t97.5 -55t86.5 -69t54.5 -85t22.5 -108.5
q0 -108 -58.5 -206.5t-159 -171.5t-243.5 -117.5t-305 -48.5l-145 -123q90 12 141 -17t51 -86z" />
    <glyph glyph-name="scedilla" unicode="&#x15f;" horiz-adv-x="757" 
d="M102 -14q-89 0 -147.5 35.5t-54.5 109.5q4 79 129 174l12 -10q-23 -44 -23 -86q0 -70 52.5 -120t150.5 -50q99 0 170.5 59t71.5 154q0 45 -20.5 99.5t-49 105.5t-56.5 102.5t-46 105t-15 97.5q7 83 75.5 148t162.5 96.5t191 31.5q69 0 128.5 -17t59.5 -42
q0 -31 -36 -58.5t-71 -27.5q-42 0 -93 18t-175 72q-139 -49 -149 -137q-4 -47 14 -101.5t47.5 -105.5t59 -102.5t49.5 -109.5t18 -110q-6 -122 -107 -210t-251 -113l-154 -131q90 12 141.5 -17t51.5 -86q0 -73 -77.5 -125.5t-166.5 -52.5q-41 0 -69.5 14.5t-28.5 36.5
q0 14 12.5 25.5t25.5 11.5q12 0 50.5 -23.5t76.5 -23.5q53 0 86 24t33 64q0 37 -39 62.5t-98 25.5q-50 0 -111 -22l-10 12l240 199q-20 -2 -60 -2z" />
    <glyph glyph-name="Scaron" unicode="&#x160;" horiz-adv-x="1288" 
d="M406 -14q-108 0 -215 19t-172.5 48t-63.5 58t38.5 61.5t80.5 32.5q23 0 99 -23.5t212 -68.5t236 -74q97 14 181.5 47.5t153 85t108.5 128t40 169.5q0 55 -22.5 102t-56.5 80t-84 62.5t-95 50t-99 42.5q-19 7 -28 11q-49 20 -73 30.5t-70 33t-70.5 39t-58 43.5t-51 53.5
t-30 61.5t-12.5 73q0 143 122 259.5t317.5 179.5t416.5 63q167 0 258 -32t91 -87q0 -43 -59 -104t-183 -154l-12 18q91 75 123 109t32 61q0 32 -46.5 55t-118 33.5t-129 14.5t-105.5 4q-276 0 -445.5 -94t-169.5 -250q0 -42 14 -79t41.5 -66.5t59.5 -53.5t77 -47t83.5 -40
t89.5 -38q13 -5 20 -8q65 -27 108 -47.5t97.5 -55t86.5 -69t54.5 -85t22.5 -108.5q0 -147 -102.5 -271.5t-285.5 -198.5t-406 -74zM1063 1923q15 0 27 -12q57 -74 116 -133q54 23 125 68t127 91l19 -18q-87 -67 -192.5 -130t-139.5 -63q-23 0 -79 64.5t-97 122.5l8 12z" />
    <glyph glyph-name="scaron" unicode="&#x161;" horiz-adv-x="757" 
d="M102 -14q-89 0 -147.5 35.5t-54.5 109.5q4 79 129 174l12 -10q-23 -44 -23 -86q0 -70 52.5 -120t150.5 -50q99 0 170.5 59t71.5 154q0 45 -20.5 99.5t-49 105.5t-56.5 102.5t-46 105t-15 97.5q7 83 75.5 148t162.5 96.5t191 31.5q69 0 128.5 -17t59.5 -42
q0 -31 -36 -58.5t-71 -27.5q-42 0 -93 18t-175 72q-139 -49 -149 -137q-4 -47 14 -101.5t47.5 -105.5t59 -102.5t49.5 -109.5t18 -110q-5 -94 -69 -170.5t-166.5 -118.5t-219.5 -42zM377 1366q14 0 26 -12q54 -70 117 -133q54 23 125 68t127 91l19 -18q-87 -67 -192.5 -130
t-139.5 -63q-23 0 -79 64.5t-97 122.5l8 12z" />
    <glyph glyph-name="uni0162" unicode="&#x162;" horiz-adv-x="1175" 
d="M410 0q-23 0 -23 14q0 13 53 52l43 32q35 26 62 61.5t67 106.5q89 156 264.5 514t262.5 508q76 131 202 213l58 37h-649q-53 -1 -92 -9t-75 -31t-55 -39t-61 -56l-16 14q6 6 28 31t31 34.5t29 31t33 34t31 29t34 29.5q40 32 113 32h1286q16 0 20 -3.5t4 -10.5
q0 -21 -55 -72q-16 -14 -59 -14h-502q-13 -9 -24 -17.5t-22 -19.5t-18 -17.5t-17 -20.5t-14.5 -19.5t-15.5 -23t-13.5 -21.5t-15 -25.5t-14.5 -25.5q-88 -149 -260.5 -502t-257.5 -502q-39 -68 -71.5 -107.5t-79.5 -72.5l-101 -70l262 6q17 0 17 -12q0 -9 -17.5 -32
t-38.5 -42q-16 -14 -59 -14h-133l-162 -137q90 12 141.5 -17t51.5 -86q0 -73 -77.5 -125.5t-166.5 -52.5q-41 0 -69.5 14.5t-28.5 36.5q0 14 13 25.5t26 11.5q12 0 50.5 -23.5t76.5 -23.5q53 0 85.5 24t32.5 64q0 37 -39 62.5t-98 25.5q-50 0 -111 -22l-10 12l252 211h-108z
" />
    <glyph glyph-name="uni0163" unicode="&#x163;" horiz-adv-x="663" 
d="M158 -14q-17 0 -23 2l-147 -125q90 12 141 -17t51 -86q0 -73 -77 -125.5t-166 -52.5q-41 0 -70 14.5t-29 36.5q0 14 13 25.5t26 11.5q12 0 50.5 -23.5t76.5 -23.5q53 0 86 24t33 64q0 37 -39 62.5t-98 25.5q-50 0 -111 -22l-10 12l246 205q-62 28 -62 110q0 59 30 141.5
t105 221.5l275 508h-191v24l451 289l18 -10l-147 -274h241l-14 -29h-244l-276 -512q-115 -214 -115 -309q0 -32 19 -50t47 -18q83 0 211 113l14 -21q-99 -85 -185 -138.5t-130 -53.5z" />
    <glyph glyph-name="Tcaron" unicode="&#x164;" horiz-adv-x="1175" 
d="M410 0q-23 0 -23 14q0 13 53 52l43 32q35 26 62 61.5t67 106.5q89 156 264.5 514t262.5 508q76 131 202 213l58 37h-649q-53 -1 -92 -9t-75 -31t-55 -39t-61 -56l-16 14q6 6 28 31t31 34.5t29 31t33 34t31 29t34 29.5q40 32 113 32h1286q16 0 20 -3.5t4 -10.5
q0 -21 -55 -72q-16 -14 -59 -14h-502q-13 -9 -24 -17.5t-22 -19.5t-18 -17.5t-17 -20.5t-14.5 -19.5t-15.5 -23t-13.5 -21.5t-15 -25.5t-14.5 -25.5q-88 -149 -260.5 -502t-257.5 -502q-39 -68 -71.5 -107.5t-79.5 -72.5l-101 -70l262 6q17 0 17 -12q0 -9 -17.5 -32
t-38.5 -42q-16 -14 -59 -14h-274zM1368 1923q15 0 27 -12q57 -74 116 -133q54 23 125 68t127 91l19 -18q-87 -67 -192.5 -130t-139.5 -63q-23 0 -79 64.5t-97 122.5l8 12z" />
    <glyph glyph-name="tcaron" unicode="&#x165;" horiz-adv-x="663" 
d="M158 -14q-55 0 -82 35.5t-27 82.5q0 59 30 141.5t105 221.5l275 508h-191v24l451 289l18 -10l-147 -274h241l-14 -29h-244l-276 -512q-115 -214 -115 -309q0 -32 19 -50t47 -18q83 0 211 113l14 -21q-99 -85 -185 -138.5t-130 -53.5zM993 1280q61 45 86 74.5t27 56.5
q1 23 -21.5 48.5t-23.5 47.5q-2 31 37.5 81t77.5 50q32 0 53.5 -35t21.5 -73q0 -15 -5 -31t-16 -33t-21.5 -31.5t-29.5 -32.5t-31.5 -30t-36 -30.5t-35 -27.5t-36.5 -27.5t-32 -24.5z" />
    <glyph glyph-name="Umacron" unicode="&#x16a;" horiz-adv-x="1722" 
d="M539 -16q-124 0 -205.5 81.5t-81.5 200.5q0 82 33 180.5t85 193t115.5 192t127 190.5t115.5 176t85 159.5t33 131.5q0 50 -29 85.5t-88 35.5q-56 0 -125 -33.5t-127 -87.5l-16 18q170 146 315 146q94 0 138 -56t44 -127q0 -69 -59.5 -184.5t-144 -242.5t-169.5 -258
t-144.5 -265t-59.5 -231q0 -108 59 -168t158 -60q308 0 879 740q132 234 274 472t215 353q9 12 25 12h75q12 0 16.5 -7t-1.5 -17q-151 -240 -360 -598t-302 -553q-110 -232 -110 -303q0 -37 16.5 -55.5t44.5 -18.5q83 0 211 113l14 -21q-99 -85 -185 -138.5t-130 -53.5
q-55 0 -82 35.5t-27 82.5q0 120 101 318l125 233q-537 -671 -858 -671zM1206 1829l-2 4l21 29q11 16 30 16h500l2 -4l-20 -29q-11 -16 -31 -16h-500z" />
    <glyph glyph-name="umacron" unicode="&#x16b;" horiz-adv-x="1232" 
d="M786 -14q-51 0 -72.5 32.5t-21.5 75.5q0 160 217 539q-146 -186 -299 -348q-279 -299 -422 -299q-55 0 -91 34t-36 91q0 56 56.5 167.5t124 217t124 217t56.5 168.5t-55 57q-75 0 -203 -113l-14 21q99 85 185 138.5t130 53.5q52 0 76 -31.5t24 -72.5q0 -47 -38.5 -134
t-93.5 -182t-110.5 -188.5t-94 -173t-38.5 -115.5q0 -71 72 -71q58 0 138 59t194 176q250 260 430 522q90 141 106 164q10 13 25 13h78q12 0 15.5 -7t-3.5 -18q-147 -233 -266 -449q-75 -139 -112.5 -241t-37.5 -146q0 -61 58 -61q67 0 200 117l15 -21q-91 -85 -180 -138.5
t-136 -53.5zM688 1214l-2 5l21 28q11 17 30 17h500l2 -4l-20 -29q-11 -17 -31 -17h-500z" />
    <glyph glyph-name="Uring" unicode="&#x16e;" horiz-adv-x="1722" 
d="M539 -16q-124 0 -205.5 81.5t-81.5 200.5q0 82 33 180.5t85 193t115.5 192t127 190.5t115.5 176t85 159.5t33 131.5q0 50 -29 85.5t-88 35.5q-56 0 -125 -33.5t-127 -87.5l-16 18q170 146 315 146q94 0 138 -56t44 -127q0 -69 -59.5 -184.5t-144 -242.5t-169.5 -258
t-144.5 -265t-59.5 -231q0 -108 59 -168t158 -60q308 0 879 740q132 234 274 472t215 353q9 12 25 12h75q12 0 16.5 -7t-1.5 -17q-151 -240 -360 -598t-302 -553q-110 -232 -110 -303q0 -37 16.5 -55.5t44.5 -18.5q83 0 211 113l14 -21q-99 -85 -185 -138.5t-130 -53.5
q-55 0 -82 35.5t-27 82.5q0 120 101 318l125 233q-537 -671 -858 -671zM1497 1753q-90 0 -144.5 57t-54.5 142q0 83 58 140.5t141 57.5q94 0 146.5 -56t52.5 -142q0 -83 -58 -141t-141 -58zM1497 1778q74 0 122 49t48 125t-48 125t-122 49t-122 -49t-48 -125t48 -125
t122 -49z" />
    <glyph glyph-name="uring" unicode="&#x16f;" horiz-adv-x="1232" 
d="M786 -14q-51 0 -72.5 32.5t-21.5 75.5q0 160 217 539q-146 -186 -299 -348q-279 -299 -422 -299q-55 0 -91 34t-36 91q0 56 56.5 167.5t124 217t124 217t56.5 168.5t-55 57q-75 0 -203 -113l-14 21q99 85 185 138.5t130 53.5q52 0 76 -31.5t24 -72.5q0 -47 -38.5 -134
t-93.5 -182t-110.5 -188.5t-94 -173t-38.5 -115.5q0 -71 72 -71q58 0 138 59t194 176q250 260 430 522q90 141 106 164q10 13 25 13h78q12 0 15.5 -7t-3.5 -18q-147 -233 -266 -449q-75 -139 -112.5 -241t-37.5 -146q0 -61 58 -61q67 0 200 117l15 -21q-91 -85 -180 -138.5
t-136 -53.5zM979 1139q-90 0 -144.5 56.5t-54.5 141.5q0 83 58 141t141 58q94 0 146.5 -56t52.5 -143q0 -83 -58 -140.5t-141 -57.5zM979 1163q74 0 122 49t48 125t-48 125t-122 49t-122 -49t-48 -125t48 -125t122 -49z" />
    <glyph glyph-name="Uhungarumlaut" unicode="&#x170;" horiz-adv-x="1722" 
d="M539 -16q-124 0 -205.5 81.5t-81.5 200.5q0 82 33 180.5t85 193t115.5 192t127 190.5t115.5 176t85 159.5t33 131.5q0 50 -29 85.5t-88 35.5q-56 0 -125 -33.5t-127 -87.5l-16 18q170 146 315 146q94 0 138 -56t44 -127q0 -69 -59.5 -184.5t-144 -242.5t-169.5 -258
t-144.5 -265t-59.5 -231q0 -108 59 -168t158 -60q308 0 879 740q132 234 274 472t215 353q9 12 25 12h75q12 0 16.5 -7t-1.5 -17q-151 -240 -360 -598t-302 -553q-110 -232 -110 -303q0 -37 16.5 -55.5t44.5 -18.5q83 0 211 113l14 -21q-99 -85 -185 -138.5t-130 -53.5
q-55 0 -82 35.5t-27 82.5q0 120 101 318l125 233q-537 -671 -858 -671zM1343 1718l-10 11l314 251q34 29 53 29q8 0 17 -5t9 -11q0 -11 -47 -43zM1548 1718l-8 13l311 229q39 29 54 29q8 0 17 -5.5t9 -11.5q0 -12 -51 -45z" />
    <glyph glyph-name="uhungarumlaut" unicode="&#x171;" horiz-adv-x="1232" 
d="M786 -14q-51 0 -72.5 32.5t-21.5 75.5q0 160 217 539q-146 -186 -299 -348q-279 -299 -422 -299q-55 0 -91 34t-36 91q0 56 56.5 167.5t124 217t124 217t56.5 168.5t-55 57q-75 0 -203 -113l-14 21q99 85 185 138.5t130 53.5q52 0 76 -31.5t24 -72.5q0 -47 -38.5 -134
t-93.5 -182t-110.5 -188.5t-94 -173t-38.5 -115.5q0 -71 72 -71q58 0 138 59t194 176q250 260 430 522q90 141 106 164q10 13 25 13h78q12 0 15.5 -7t-3.5 -18q-147 -233 -266 -449q-75 -139 -112.5 -241t-37.5 -146q0 -61 58 -61q67 0 200 117l15 -21q-91 -85 -180 -138.5
t-136 -53.5zM1026 1475q32 30 45 30q7 0 18 -4.5t11 -9.5q0 -12 -45 -49l-332 -271h-23zM1231 1475q32 30 45 30q7 0 18 -4.5t11 -9.5q0 -12 -45 -49l-332 -271h-23z" />
    <glyph glyph-name="Uogonek" unicode="&#x172;" horiz-adv-x="1722" 
d="M539 -16q-124 0 -205.5 81.5t-81.5 200.5q0 82 33 180.5t85 193t115.5 192t127 190.5t115.5 176t85 159.5t33 131.5q0 50 -29 85.5t-88 35.5q-56 0 -125 -33.5t-127 -87.5l-16 18q170 146 315 146q94 0 138 -56t44 -127q0 -69 -59.5 -184.5t-144 -242.5t-169.5 -258
t-144.5 -265t-59.5 -231q0 -108 59 -168t158 -60q308 0 879 740q132 234 274 472t215 353q9 12 25 12h75q12 0 16.5 -7t-1.5 -17q-151 -240 -360 -598t-302 -553q-110 -232 -110 -303q0 -37 16.5 -55.5t44.5 -18.5q83 0 211 113l14 -21q-174 -151 -278 -186
q-115 -112 -115 -197q0 -102 115 -102q53 0 104 33l11 -9l-48 -88q-34 -24 -94 -24q-65 0 -106 38t-41 101q0 108 137 242q-55 0 -82 35.5t-27 82.5q0 120 101 318l125 233q-537 -671 -858 -671z" />
    <glyph glyph-name="uogonek" unicode="&#x173;" horiz-adv-x="1232" 
d="M786 -14q-51 0 -72.5 32.5t-21.5 75.5q0 160 217 539q-146 -186 -299 -348q-279 -299 -422 -299q-55 0 -91 34t-36 91q0 56 56.5 167.5t124 217t124 217t56.5 168.5t-55 57q-75 0 -203 -113l-14 21q99 85 185 138.5t130 53.5q52 0 76 -31.5t24 -72.5q0 -47 -38.5 -134
t-93.5 -182t-110.5 -188.5t-94 -173t-38.5 -115.5q0 -71 72 -71q58 0 138 59t194 176q250 260 430 522q90 141 106 164q10 13 25 13h78q12 0 15.5 -7t-3.5 -18q-147 -233 -266 -449q-75 -139 -112.5 -241t-37.5 -146q0 -61 58 -61q67 0 200 117l15 -21q-140 -131 -254 -176
q-123 -123 -123 -207q0 -102 115 -102q53 0 104 33l10 -9l-47 -88q-34 -24 -94 -24q-65 0 -106 38t-41 101q0 108 139 244q-6 -2 -19 -2z" />
    <glyph glyph-name="Wcircumflex" unicode="&#x174;" horiz-adv-x="2631" 
d="M860 -14q-21 0 -18 22l243 1292q10 63 11 116.5t-31 89.5t-98 38l-224 -6q-43 -1 -78.5 -9t-59 -16.5t-52.5 -29.5t-43.5 -34.5t-48.5 -45.5l-17 14q127 141 187 189q40 32 114 32h627q13 0 19.5 -7t-0.5 -17l-31 -47q-10 -13 -25 -13l-280 -8q41 -15 69.5 -32.5t44 -42
t23 -45.5t5.5 -58.5t-5.5 -64.5t-13.5 -78l-203 -1073l1073 1472q7 12 27 12h8q9 0 14.5 -6.5t3.5 -15.5l-190 -1473l966 1209q15 34 43.5 99t46.5 105t40 85.5t38 70.5q56 86 148 86q23 0 36 -8.5t13 -18.5q0 -7 -3 -15.5t-13.5 -23t-17.5 -23.5t-27 -34l-279 -340
l-1067 -1335q-9 -12 -25 -12h-10q-20 0 -20 22l205 1477l-1088 -1487q-7 -12 -27 -12h-10zM2322 1905q-14 0 -26 12q-54 70 -117 133q-116 -49 -252 -160l-18 19q86 66 192 129t140 63q23 0 79.5 -64.5t96.5 -121.5l-9 -12z" />
    <glyph glyph-name="wcircumflex" unicode="&#x175;" horiz-adv-x="1529" 
d="M872 -14q-83 0 -131.5 56t-48.5 181q0 41 13 111q-96 -176 -212 -262t-217 -86q-73 0 -125.5 54t-52.5 163q0 118 73.5 256t178 253t230.5 216q-90 8 -209 8q-78 0 -132 -32t-106 -89l-16 14q66 82 184 177q40 32 111 32q21 0 123 -7t167 -7v-18q-203 -150 -341 -374.5
t-138 -402.5q0 -82 39 -128t111 -46q84 0 186.5 111t177.5 276q54 155 164 299q27 35 105 68q51 22 48 9q-1 -2 -3 -5q-72 -86 -122 -173t-73 -160t-32 -126.5t-9 -101.5q0 -100 42 -148.5t108 -48.5q106 0 232.5 160t229.5 403q-39 199 -28 322q4 45 43 71.5t78 26.5
q19 0 26.5 -9.5t7.5 -29.5q0 -63 -33.5 -184.5t-80.5 -230.5q-54 -123 -115 -225.5t-133 -189t-154.5 -135t-165.5 -48.5zM1286 1149q-14 0 -26 12q-54 70 -117 133q-54 -23 -125 -68t-127 -91l-19 18q87 67 192.5 130t139.5 63q23 0 79 -64.5t97 -122.5l-8 -12z" />
    <glyph glyph-name="Ycircumflex" unicode="&#x176;" horiz-adv-x="1400" 
d="M684 0q-22 0 -22 14q0 13 53 52l43 32q41 31 74.5 72t82.5 135q159 303 152 404q-23 346 -96 682q-7 33 -10 45.5t-11 38t-16 36t-22.5 20.5t-32.5 11l-127 -4q-53 -1 -92.5 -10t-74.5 -30.5t-55 -38.5t-61 -56l-16 14q6 6 28 31t31 34.5t29 31t33 34t31 29t34 29.5
q40 32 115 32h444q13 0 19 -7t0 -17l-31 -51q-10 -13 -25 -13l-221 -6q109 -25 135 -149q64 -277 96 -705l762 1008q66 86 95 86q20 0 31.5 -22.5t11.5 -43.5q0 -32 -7 -53t-30 -47l-873 -983q-60 -168 -114 -291q-30 -66 -63.5 -103.5t-88.5 -76.5l-88 -62l16 2h246
q25 0 25 -14q0 -24 -56 -76q-16 -14 -59 -14h-295zM1567 1804q-14 0 -27 13q-54 70 -117 133q-116 -49 -252 -160l-18 18q87 67 192.5 130t139.5 63q23 0 79.5 -64.5t96.5 -121.5l-8 -13z" />
    <glyph glyph-name="ycircumflex" unicode="&#x177;" horiz-adv-x="1077" 
d="M-328 -424q-69 0 -69 37q0 31 37 77t90 46q68 0 290 -55q70 27 117.5 70.5t83.5 117.5q60 127 120 421.5t60 485.5q0 77 -13.5 117.5t-49.5 40.5q-70 0 -193 -109l-14 21q114 98 180.5 145t108.5 47q57 0 78.5 -47.5t21.5 -134.5q0 -179 -47 -459.5t-133 -505.5
q329 292 565 709q-7 242 15 340q10 45 51.5 71.5t81.5 26.5q37 0 37 -32q0 -42 -23.5 -114.5t-68.5 -166t-107 -200.5t-143 -217.5t-172.5 -216.5t-199.5 -199.5t-219 -163.5t-237 -111t-248 -41zM1016 1190q-15 0 -27 12q-54 70 -117 133q-54 -22 -124.5 -67.5
t-126.5 -91.5l-19 18q86 66 192 129t140 63q23 0 79.5 -64.5t96.5 -121.5l-8 -12z" />
    <glyph glyph-name="Ydieresis" unicode="&#x178;" horiz-adv-x="1400" 
d="M684 0q-22 0 -22 14q0 13 53 52l43 32q41 31 74.5 72t82.5 135q159 303 152 404q-23 346 -96 682q-7 33 -10 45.5t-11 38t-16 36t-22.5 20.5t-32.5 11l-127 -4q-53 -1 -92.5 -10t-74.5 -30.5t-55 -38.5t-61 -56l-16 14q6 6 28 31t31 34.5t29 31t33 34t31 29t34 29.5
q40 32 115 32h444q13 0 19 -7t0 -17l-31 -51q-10 -13 -25 -13l-221 -6q109 -25 135 -149q64 -277 96 -705l762 1008q66 86 95 86q20 0 31.5 -22.5t11.5 -43.5q0 -32 -7 -53t-30 -47l-873 -983q-60 -168 -114 -291q-30 -66 -63.5 -103.5t-88.5 -76.5l-88 -62l16 2h246
q25 0 25 -14q0 -24 -56 -76q-16 -14 -59 -14h-295zM1522 1794q-15 0 -31 19t-16 45q0 30 20 59q19 31 45 52.5t45 21.5q16 0 30.5 -17.5t14.5 -42.5q0 -34 -20 -63q-14 -25 -41 -49.5t-47 -24.5zM1182 1794q-15 0 -31 19t-16 45q0 30 20 59q17 30 43.5 52t44.5 22
t32.5 -17.5t14.5 -42.5q0 -34 -20 -63q-14 -25 -41 -49.5t-47 -24.5z" />
    <glyph glyph-name="Zacute" unicode="&#x179;" horiz-adv-x="1376" 
d="M-164 0q-22 0 -22 18q0 7 3.5 14.5t13 17.5t14.5 15t19 18t17 15l938 758l864 680l-872 2q-21 0 -41 -3.5t-35.5 -8t-33.5 -15t-28.5 -17t-28.5 -21.5t-25 -21.5t-25.5 -25t-24.5 -23.5l-16 14q14 15 43.5 47t47.5 51.5t44.5 45.5t50.5 45q40 32 105 32h1018
q7 0 10.5 -2.5t4 -5t0 -8t-0.5 -6.5q0 -5 -18.5 -18t-44.5 -29.5t-37 -26.5q-545 -394 -942 -711q-490 -389 -863 -729h963q24 0 45 3.5t42 13t34 15.5t34 23.5t28 23.5t30 28.5t27 26.5l16 -15q-12 -13 -43 -46.5t-48 -52t-44 -44.5t-51 -45q-42 -33 -105 -33h-1063z
M1454 1903l-391 -195l-10 14l370 273q38 28 45 28q15 0 15 -41q0 -40 -6.5 -55.5t-22.5 -23.5z" />
    <glyph glyph-name="zacute" unicode="&#x17a;" horiz-adv-x="960" 
d="M483 -14q-36 0 -82 16t-86.5 36t-102 36t-124.5 16q-123 0 -219 -61q-10 -7 -21 -16t-17 -13.5t-13 -8t-13 -3.5t-10 5t-4 11q0 5 3 10.5t13.5 14.5t23.5 18.5t38.5 27.5t52.5 37t73 52t93 67l412 312q205 155 374 311q-210 84 -387 84q-130 0 -254 -141l-20 14
q210 232 381 227q206 -4 418 -94l104 82l17 -16q-113 -94 -350 -278.5t-267 -207.5l-477 -389q118 60 203 60q43 0 93 -18t87.5 -39.5t81.5 -39.5t78 -18q98 0 217 143l20 -16q-190 -221 -336 -221zM989 1374l-358 -205l-13 15l343 291q23 18 34 18t20 -14t9 -39
q0 -21 -5.5 -34.5t-11 -18.5t-18.5 -13z" />
    <glyph glyph-name="Zdotaccent" unicode="&#x17b;" horiz-adv-x="1376" 
d="M-164 0q-22 0 -22 18q0 7 3.5 14.5t13 17.5t14.5 15t19 18t17 15l938 758l864 680l-872 2q-21 0 -41 -3.5t-35.5 -8t-33.5 -15t-28.5 -17t-28.5 -21.5t-25 -21.5t-25.5 -25t-24.5 -23.5l-16 14q14 15 43.5 47t47.5 51.5t44.5 45.5t50.5 45q40 32 105 32h1018
q7 0 10.5 -2.5t4 -5t0 -8t-0.5 -6.5q0 -5 -18.5 -18t-44.5 -29.5t-37 -26.5q-545 -394 -942 -711q-490 -389 -863 -729h963q24 0 45 3.5t42 13t34 15.5t34 23.5t28 23.5t30 28.5t27 26.5l16 -15q-12 -13 -43 -46.5t-48 -52t-44 -44.5t-51 -45q-42 -33 -105 -33h-1063z
M1219 1800q-21 0 -39.5 22.5t-18.5 55.5q0 35 23 76q22 39 49.5 65.5t52.5 26.5q22 0 38.5 -20.5t16.5 -53.5q0 -39 -20 -78q-18 -34 -46.5 -64t-55.5 -30z" />
    <glyph glyph-name="zdotaccent" unicode="&#x17c;" horiz-adv-x="960" 
d="M483 -14q-36 0 -82 16t-86.5 36t-102 36t-124.5 16q-123 0 -219 -61q-10 -7 -21 -16t-17 -13.5t-13 -8t-13 -3.5t-10 5t-4 11q0 5 3 10.5t13.5 14.5t23.5 18.5t38.5 27.5t52.5 37t73 52t93 67l412 312q205 155 374 311q-210 84 -387 84q-130 0 -254 -141l-20 14
q210 232 381 227q206 -4 418 -94l104 82l17 -16q-113 -94 -350 -278.5t-267 -207.5l-477 -389q118 60 203 60q43 0 93 -18t87.5 -39.5t81.5 -39.5t78 -18q98 0 217 143l20 -16q-190 -221 -336 -221zM868 1260q-21 0 -39 22t-18 55q0 35 23 76q22 39 49.5 65.5t52.5 26.5
q22 0 38.5 -20t16.5 -53q0 -39 -20 -78q-18 -33 -47 -63.5t-56 -30.5z" />
    <glyph glyph-name="Zcaron" unicode="&#x17d;" horiz-adv-x="1376" 
d="M-164 0q-22 0 -22 18q0 7 3.5 14.5t13 17.5t14.5 15t19 18t17 15l938 758l864 680l-872 2q-21 0 -41 -3.5t-35.5 -8t-33.5 -15t-28.5 -17t-28.5 -21.5t-25 -21.5t-25.5 -25t-24.5 -23.5l-16 14q14 15 43.5 47t47.5 51.5t44.5 45.5t50.5 45q40 32 105 32h1018
q7 0 10.5 -2.5t4 -5t0 -8t-0.5 -6.5q0 -5 -18.5 -18t-44.5 -29.5t-37 -26.5q-545 -394 -942 -711q-490 -389 -863 -729h963q24 0 45 3.5t42 13t34 15.5t34 23.5t28 23.5t30 28.5t27 26.5l16 -15q-12 -13 -43 -46.5t-48 -52t-44 -44.5t-51 -45q-42 -33 -105 -33h-1063z
M1065 1923q15 0 27 -12q57 -74 116 -133q54 23 125 68t127 91l19 -18q-87 -67 -192.5 -130t-139.5 -63q-23 0 -79 64.5t-97 122.5l8 12z" />
    <glyph glyph-name="zcaron" unicode="&#x17e;" horiz-adv-x="960" 
d="M483 -14q-36 0 -82 16t-86.5 36t-102 36t-124.5 16q-123 0 -219 -61q-10 -7 -21 -16t-17 -13.5t-13 -8t-13 -3.5t-10 5t-4 11q0 5 3 10.5t13.5 14.5t23.5 18.5t38.5 27.5t52.5 37t73 52t93 67l412 312q205 155 374 311q-210 84 -387 84q-130 0 -254 -141l-20 14
q210 232 381 227q206 -4 418 -94l104 82l17 -16q-113 -94 -350 -278.5t-267 -207.5l-477 -389q118 60 203 60q43 0 93 -18t87.5 -39.5t81.5 -39.5t78 -18q98 0 217 143l20 -16q-190 -221 -336 -221zM524 1366q15 0 27 -12q54 -70 117 -133q54 23 125 68t127 91l18 -18
q-87 -67 -192.5 -130t-139.5 -63q-23 0 -79 64.5t-97 122.5l8 12z" />
    <glyph glyph-name="uni018F" unicode="&#x18f;" horiz-adv-x="1603" 
d="M623 -14q-103 0 -180 22.5t-120 62t-63 85t-20 98.5q0 54 25 107.5t103.5 134.5t210.5 175t359.5 226t538.5 289q-55 175 -191.5 282t-331.5 107q-125 0 -253.5 -62.5t-200.5 -142.5l-25 21q106 107 266 184.5t310 77.5q115 0 211.5 -38t161 -100t109.5 -144t65 -167.5
t20 -171.5q0 -132 -39 -264t-106.5 -246t-162.5 -214t-204 -170.5t-234 -111t-249 -40.5zM365 289q0 -105 87.5 -163t231.5 -58q161 0 298 51.5t232.5 139t163 203t99.5 243.5t32 260q0 101 -24 192q-447 -229 -689.5 -383t-336.5 -263.5t-94 -221.5z" />
    <glyph glyph-name="uni0218" unicode="&#x218;" horiz-adv-x="1288" 
d="M406 -14q-108 0 -215 19t-172.5 48t-63.5 58t38.5 61.5t80.5 32.5q23 0 99 -23.5t212 -68.5t236 -74q97 14 181.5 47.5t153 85t108.5 128t40 169.5q0 55 -22.5 102t-56.5 80t-84 62.5t-95 50t-99 42.5q-19 7 -28 11q-49 20 -73 30.5t-70 33t-70.5 39t-58 43.5t-51 53.5
t-30 61.5t-12.5 73q0 143 122 259.5t317.5 179.5t416.5 63q167 0 258 -32t91 -87q0 -43 -59 -104t-183 -154l-12 18q91 75 123 109t32 61q0 32 -46.5 55t-118 33.5t-129 14.5t-105.5 4q-276 0 -445.5 -94t-169.5 -250q0 -42 14 -79t41.5 -66.5t59.5 -53.5t77 -47t83.5 -40
t89.5 -38q13 -5 20 -8q65 -27 108 -47.5t97.5 -55t86.5 -69t54.5 -85t22.5 -108.5q0 -147 -102.5 -271.5t-285.5 -198.5t-406 -74zM207 -473q60 45 85 74.5t27 56.5q1 23 -21.5 48.5t-23.5 47.5q-2 31 37.5 81t77.5 50q32 0 54 -35t22 -73q0 -15 -5 -31t-16 -33t-21.5 -31.5
t-29.5 -33t-31.5 -30t-36.5 -30.5t-35.5 -28t-36.5 -28t-32 -24z" />
    <glyph glyph-name="uni0219" unicode="&#x219;" horiz-adv-x="757" 
d="M102 -14q-89 0 -147.5 35.5t-54.5 109.5q4 79 129 174l12 -10q-23 -44 -23 -86q0 -70 52.5 -120t150.5 -50q99 0 170.5 59t71.5 154q0 45 -20.5 99.5t-49 105.5t-56.5 102.5t-46 105t-15 97.5q7 83 75.5 148t162.5 96.5t191 31.5q69 0 128.5 -17t59.5 -42
q0 -31 -36 -58.5t-71 -27.5q-42 0 -93 18t-175 72q-139 -49 -149 -137q-4 -47 14 -101.5t47.5 -105.5t59 -102.5t49.5 -109.5t18 -110q-5 -94 -69 -170.5t-166.5 -118.5t-219.5 -42zM-37 -473q61 45 86 74.5t27 56.5q1 23 -21.5 48.5t-23.5 47.5q-2 31 37 81t77 50
q32 0 54 -35t22 -73q0 -15 -5 -31t-16 -33t-21.5 -31.5t-29.5 -33t-31.5 -30t-36.5 -30.5t-35.5 -28t-36.5 -28t-32 -24z" />
    <glyph glyph-name="uni021A" unicode="&#x21a;" horiz-adv-x="1175" 
d="M410 0q-23 0 -23 14q0 13 53 52l43 32q35 26 62 61.5t67 106.5q89 156 264.5 514t262.5 508q76 131 202 213l58 37h-649q-53 -1 -92 -9t-75 -31t-55 -39t-61 -56l-16 14q6 6 28 31t31 34.5t29 31t33 34t31 29t34 29.5q40 32 113 32h1286q16 0 20 -3.5t4 -10.5
q0 -21 -55 -72q-16 -14 -59 -14h-502q-13 -9 -24 -17.5t-22 -19.5t-18 -17.5t-17 -20.5t-14.5 -19.5t-15.5 -23t-13.5 -21.5t-15 -25.5t-14.5 -25.5q-88 -149 -260.5 -502t-257.5 -502q-39 -68 -71.5 -107.5t-79.5 -72.5l-101 -70l262 6q17 0 17 -12q0 -9 -17.5 -32
t-38.5 -42q-16 -14 -59 -14h-274zM307 -473q61 45 86 74.5t27 56.5q1 23 -21.5 48.5t-23.5 47.5q-2 31 37 81t77 50q32 0 54 -35t22 -73q0 -15 -4.5 -31t-16 -33t-21.5 -31t-30 -33t-31.5 -30.5t-36.5 -31t-35 -27.5t-36.5 -28t-31.5 -24z" />
    <glyph glyph-name="uni021B" unicode="&#x21b;" horiz-adv-x="663" 
d="M158 -14q-55 0 -82 35.5t-27 82.5q0 59 30 141.5t105 221.5l275 508h-191v24l451 289l18 -10l-147 -274h241l-14 -29h-244l-276 -512q-115 -214 -115 -309q0 -32 19 -50t47 -18q83 0 211 113l14 -21q-99 -85 -185 -138.5t-130 -53.5zM-94 -473q60 45 85 74.5t27 56.5
q1 23 -21.5 48.5t-23.5 47.5q-2 31 37.5 81t77.5 50q32 0 54 -35t22 -73q0 -15 -5 -31t-16 -33t-21.5 -31.5t-29.5 -33t-31.5 -30t-36.5 -30.5t-35.5 -28t-36.5 -28t-32 -24z" />
    <glyph glyph-name="uni0237" unicode="&#x237;" horiz-adv-x="538" 
d="M-551 -424q-33 0 -47 7t-14 24q0 30 31 68t77 38q62 0 238 -22q44 27 80 59.5t80.5 88.5t95.5 143.5t112 210.5q188 385 246 518t58 174q0 26 -15 41.5t-41 15.5q-74 0 -207 -117l-14 21q100 86 186 139t134 53q49 0 72.5 -32t23.5 -72q0 -28 -16.5 -78.5t-65 -155.5
t-77.5 -164.5t-110 -226.5q-157 -324 -383 -528.5t-444 -204.5z" />
    <glyph glyph-name="uni0259" unicode="&#x259;" horiz-adv-x="892" 
d="M631 1018q111 0 172 -64.5t61 -171.5t-49.5 -226.5t-132.5 -223t-182.5 -188.5t-207.5 -134t-200 -49q-78 0 -120 29t-42 82q0 65 65.5 144.5t242.5 211.5t487 326q-5 78 -50 127t-138 49q-159 0 -351 -170l-14 16q131 125 253 183.5t206 58.5zM72 129q0 -51 33.5 -74.5
t82.5 -23.5q89 0 174 46.5t148.5 122t113 167t75 186.5t26.5 176q-139 -87 -233 -149.5t-179.5 -127.5t-134.5 -116.5t-77.5 -104t-28.5 -102.5z" />
    <glyph glyph-name="gravecomb" unicode="&#x300;" 
d="M532 1374q-12 7 -18 12.5t-11 19t-5 34.5q0 25 8.5 39t19.5 14q12 0 35 -18l342 -291l-12 -15z" />
    <glyph glyph-name="acutecomb" unicode="&#x301;" 
d="M676 1374l-359 -205l-12 15l342 291q23 18 35 18q11 0 20 -14t9 -39q0 -21 -5.5 -34.5t-11 -18.5t-18.5 -13z" />
    <glyph glyph-name="uni0302" unicode="&#x302;" 
d="M825 1190q-14 0 -26 12q-54 70 -117 133q-54 -23 -125 -68t-127 -91l-18 18q86 66 191.5 129t139.5 63q23 0 80 -64.5t97 -121.5l-9 -12z" />
    <glyph glyph-name="tildecomb" unicode="&#x303;" 
d="M223 1204q118 170 221 170q56 0 146.5 -27.5t136.5 -27.5q44 0 73 21.5t68 70.5l17 -12q-43 -68 -102 -119t-117 -51q-41 0 -141.5 26.5t-135.5 26.5q-46 0 -80 -18.5t-67 -69.5z" />
    <glyph glyph-name="uni0304" unicode="&#x304;" 
d="M381 1214l-2 5l20 28q11 17 31 17h500l2 -4l-21 -29q-11 -17 -30 -17h-500z" />
    <glyph glyph-name="uni0306" unicode="&#x306;" 
d="M575 1178q-62 0 -107.5 44.5t-45.5 133.5q0 12 35 31.5t57 19.5q14 0 14 -10q0 -81 37 -126.5t105 -45.5q46 0 100 38t92 97q6 11 16 -4q8 -14 1 -21q-143 -157 -304 -157z" />
    <glyph glyph-name="uni0307" unicode="&#x307;" 
d="M739 1536q35 33 43 33q11 0 11 -21q0 -26 -25 -45l-412 -332l-12 17z" />
    <glyph glyph-name="uni0308" unicode="&#x308;" 
d="M709 1180q-15 0 -31 18.5t-16 44.5q0 31 20 60q19 31 45 52t45 21q16 0 30.5 -17t14.5 -42q0 -35 -20 -64q-14 -25 -41 -49t-47 -24zM369 1180q-15 0 -31 18.5t-16 44.5q0 31 20 60q17 30 43.5 51.5t44.5 21.5t32.5 -17t14.5 -42q0 -35 -20 -64q-14 -25 -41 -49t-47 -24z
" />
    <glyph glyph-name="uni030A" unicode="&#x30a;" 
d="M475 1139q-90 0 -144.5 56.5t-54.5 141.5q0 83 58 141t141 58q94 0 146.5 -56t52.5 -143q0 -83 -58 -140.5t-141 -57.5zM475 1163q74 0 122 49t48 125t-48 125t-122 49t-122 -49t-48 -125t48 -125t122 -49z" />
    <glyph glyph-name="uni030B" unicode="&#x30b;" 
d="M721 1475q32 30 45 30q8 0 18.5 -4.5t10.5 -9.5q0 -12 -45 -49l-332 -271h-23zM926 1475q32 30 45 30q7 0 17.5 -4.5t10.5 -9.5q0 -12 -45 -49l-331 -271h-23z" />
    <glyph glyph-name="uni030C" unicode="&#x30c;" 
d="M207 1366q14 0 26 -12q54 -70 117 -133q54 23 125 68t127 91l19 -18q-87 -67 -192.5 -130t-139.5 -63q-23 0 -79 64.5t-97 122.5l8 12z" />
    <glyph glyph-name="uni0312" unicode="&#x312;" 
d="M637 1470q-61 -45 -86 -74.5t-27 -56.5q-1 -23 21.5 -48.5t23.5 -47.5q2 -31 -37 -81t-77 -50q-32 0 -54 35.5t-22 73.5q0 15 5 31t16 33t21.5 31.5t29.5 32.5t32 30t36 30.5t35.5 28t36.5 27.5l32 24z" />
    <glyph glyph-name="uni0326" unicode="&#x326;" 
d="M-375 -477q61 45 86 74.5t27 56.5q1 23 -21.5 48.5t-23.5 47.5q-2 31 37 81t77 50q32 0 54 -35t22 -73q0 -15 -4.5 -31t-16 -33t-21.5 -31t-30 -33t-31.5 -30.5t-36.5 -31t-35 -27.5t-36.5 -28t-31.5 -24z" />
    <glyph glyph-name="uni0327" unicode="&#x327;" 
d="M25 -231q0 -73 -77.5 -126t-166.5 -53q-41 0 -69.5 15t-28.5 37q0 14 12.5 25t25.5 11q12 0 50.5 -23.5t76.5 -23.5q53 0 86 24t33 64q0 37 -39 62.5t-98 25.5q-50 0 -111 -22l-10 12l260 217l25 -6l-162 -137q90 12 141.5 -16.5t51.5 -85.5z" />
    <glyph glyph-name="uni0328" unicode="&#x328;" 
d="M16 -377q-34 -24 -94 -24q-65 0 -106 38t-41 101q0 128 186 287l16 -11q-74 -69 -108.5 -121.5t-34.5 -103.5q0 -102 115 -102q54 0 104 32l10 -8z" />
    <glyph glyph-name="uni0335" unicode="&#x335;" 
d="M1143 1200v-24h-477v24h477z" />
    <glyph glyph-name="uni0337" unicode="&#x337;" 
d="M498 893l12 -25l-471 -198l-12 24z" />
    <glyph glyph-name="uni0338" unicode="&#x338;" 
d="M1176 1214l20 -20l-1225 -1423l-20 20z" />
    <glyph glyph-name="Wgrave" unicode="&#x1e80;" horiz-adv-x="2631" 
d="M860 -14q-21 0 -18 22l243 1292q10 63 11 116.5t-31 89.5t-98 38l-224 -6q-43 -1 -78.5 -9t-59 -16.5t-52.5 -29.5t-43.5 -34.5t-48.5 -45.5l-17 14q127 141 187 189q40 32 114 32h627q13 0 19.5 -7t-0.5 -17l-31 -47q-10 -13 -25 -13l-280 -8q41 -15 69.5 -32.5t44 -42
t23 -45.5t5.5 -58.5t-5.5 -64.5t-13.5 -78l-203 -1073l1073 1472q7 12 27 12h8q9 0 14.5 -6.5t3.5 -15.5l-190 -1473l966 1209q15 34 43.5 99t46.5 105t40 85.5t38 70.5q56 86 148 86q23 0 36 -8.5t13 -18.5q0 -7 -3 -15.5t-13.5 -23t-17.5 -23.5t-27 -34l-279 -340
l-1067 -1335q-9 -12 -25 -12h-10q-20 0 -20 22l205 1477l-1088 -1487q-7 -12 -27 -12h-10zM1995 2003q-16 8 -22.5 24t-6.5 56q0 41 14 41q6 0 45 -29l371 -272l-10 -15z" />
    <glyph glyph-name="wgrave" unicode="&#x1e81;" horiz-adv-x="1529" 
d="M872 -14q-83 0 -131.5 56t-48.5 181q0 41 13 111q-96 -176 -212 -262t-217 -86q-73 0 -125.5 54t-52.5 163q0 118 73.5 256t178 253t230.5 216q-90 8 -209 8q-78 0 -132 -32t-106 -89l-16 14q66 82 184 177q40 32 111 32q21 0 123 -7t167 -7v-18q-203 -150 -341 -374.5
t-138 -402.5q0 -82 39 -128t111 -46q84 0 186.5 111t177.5 276q54 155 164 299q27 35 105 68q51 22 48 9q-1 -2 -3 -5q-72 -86 -122 -173t-73 -160t-32 -126.5t-9 -101.5q0 -100 42 -148.5t108 -48.5q106 0 232.5 160t229.5 403q-39 199 -28 322q4 45 43 71.5t78 26.5
q19 0 26.5 -9.5t7.5 -29.5q0 -63 -33.5 -184.5t-80.5 -230.5q-54 -123 -115 -225.5t-133 -189t-154.5 -135t-165.5 -48.5zM977 1333q-13 8 -18.5 13t-11 18.5t-5.5 34.5q0 25 9 39t20 14q12 0 35 -18l342 -291l-13 -15z" />
    <glyph glyph-name="Wacute" unicode="&#x1e82;" horiz-adv-x="2631" 
d="M860 -14q-21 0 -18 22l243 1292q10 63 11 116.5t-31 89.5t-98 38l-224 -6q-43 -1 -78.5 -9t-59 -16.5t-52.5 -29.5t-43.5 -34.5t-48.5 -45.5l-17 14q127 141 187 189q40 32 114 32h627q13 0 19.5 -7t-0.5 -17l-31 -47q-10 -13 -25 -13l-280 -8q41 -15 69.5 -32.5t44 -42
t23 -45.5t5.5 -58.5t-5.5 -64.5t-13.5 -78l-203 -1073l1073 1472q7 12 27 12h8q9 0 14.5 -6.5t3.5 -15.5l-190 -1473l966 1209q15 34 43.5 99t46.5 105t40 85.5t38 70.5q56 86 148 86q23 0 36 -8.5t13 -18.5q0 -7 -3 -15.5t-13.5 -23t-17.5 -23.5t-27 -34l-279 -340
l-1067 -1335q-9 -12 -25 -12h-10q-20 0 -20 22l205 1477l-1088 -1487q-7 -12 -27 -12h-10zM2400 2003l-391 -195l-10 15l371 272q39 29 45 29q14 0 14 -41q0 -40 -6.5 -56t-22.5 -24z" />
    <glyph glyph-name="wacute" unicode="&#x1e83;" horiz-adv-x="1529" 
d="M872 -14q-83 0 -131.5 56t-48.5 181q0 41 13 111q-96 -176 -212 -262t-217 -86q-73 0 -125.5 54t-52.5 163q0 118 73.5 256t178 253t230.5 216q-90 8 -209 8q-78 0 -132 -32t-106 -89l-16 14q66 82 184 177q40 32 111 32q21 0 123 -7t167 -7v-18q-203 -150 -341 -374.5
t-138 -402.5q0 -82 39 -128t111 -46q84 0 186.5 111t177.5 276q54 155 164 299q27 35 105 68q51 22 48 9q-1 -2 -3 -5q-72 -86 -122 -173t-73 -160t-32 -126.5t-9 -101.5q0 -100 42 -148.5t108 -48.5q106 0 232.5 160t229.5 403q-39 199 -28 322q4 45 43 71.5t78 26.5
q19 0 26.5 -9.5t7.5 -29.5q0 -63 -33.5 -184.5t-80.5 -230.5q-54 -123 -115 -225.5t-133 -189t-154.5 -135t-165.5 -48.5zM1266 1333l-359 -205l-12 15l342 291q23 18 35 18q11 0 19.5 -14t8.5 -39q0 -31 -8 -43t-26 -23z" />
    <glyph glyph-name="Wdieresis" unicode="&#x1e84;" horiz-adv-x="2631" 
d="M860 -14q-21 0 -18 22l243 1292q10 63 11 116.5t-31 89.5t-98 38l-224 -6q-43 -1 -78.5 -9t-59 -16.5t-52.5 -29.5t-43.5 -34.5t-48.5 -45.5l-17 14q127 141 187 189q40 32 114 32h627q13 0 19.5 -7t-0.5 -17l-31 -47q-10 -13 -25 -13l-280 -8q41 -15 69.5 -32.5t44 -42
t23 -45.5t5.5 -58.5t-5.5 -64.5t-13.5 -78l-203 -1073l1073 1472q7 12 27 12h8q9 0 14.5 -6.5t3.5 -15.5l-190 -1473l966 1209q15 34 43.5 99t46.5 105t40 85.5t38 70.5q56 86 148 86q23 0 36 -8.5t13 -18.5q0 -7 -3 -15.5t-13.5 -23t-17.5 -23.5t-27 -34l-279 -340
l-1067 -1335q-9 -12 -25 -12h-10q-20 0 -20 22l205 1477l-1088 -1487q-7 -12 -27 -12h-10zM2277 1894q-15 0 -31 19t-16 45q0 29 21 59q19 31 45 52.5t45 21.5q16 0 30.5 -17t14.5 -42q0 -34 -21 -64q-14 -25 -41 -49.5t-47 -24.5zM1937 1894q-15 0 -31 19t-16 45
q0 29 21 59q17 30 43.5 52t44.5 22t32.5 -17t14.5 -42q0 -34 -21 -64q-14 -25 -41 -49.5t-47 -24.5z" />
    <glyph glyph-name="wdieresis" unicode="&#x1e85;" horiz-adv-x="1529" 
d="M872 -14q-83 0 -131.5 56t-48.5 181q0 41 13 111q-96 -176 -212 -262t-217 -86q-73 0 -125.5 54t-52.5 163q0 118 73.5 256t178 253t230.5 216q-90 8 -209 8q-78 0 -132 -32t-106 -89l-16 14q66 82 184 177q40 32 111 32q21 0 123 -7t167 -7v-18q-203 -150 -341 -374.5
t-138 -402.5q0 -82 39 -128t111 -46q84 0 186.5 111t177.5 276q54 155 164 299q27 35 105 68q51 22 48 9q-1 -2 -3 -5q-72 -86 -122 -173t-73 -160t-32 -126.5t-9 -101.5q0 -100 42 -148.5t108 -48.5q106 0 232.5 160t229.5 403q-39 199 -28 322q4 45 43 71.5t78 26.5
q19 0 26.5 -9.5t7.5 -29.5q0 -63 -33.5 -184.5t-80.5 -230.5q-54 -123 -115 -225.5t-133 -189t-154.5 -135t-165.5 -48.5zM1245 1139q-15 0 -31 18.5t-16 44.5q0 30 21 60q19 31 45 52t45 21q16 0 30.5 -17t14.5 -42q0 -34 -21 -64q-14 -25 -41 -49t-47 -24zM905 1139
q-15 0 -31 18.5t-16 44.5q0 30 21 60q17 30 43.5 51.5t44.5 21.5t32.5 -17t14.5 -42q0 -34 -21 -64q-14 -25 -41 -49t-47 -24z" />
    <glyph glyph-name="uni1E9E" unicode="&#x1e9e;" horiz-adv-x="1695" 
d="M1118 -12q-80 0 -143.5 11.5t-95 28t-31.5 33.5q0 23 34 51.5t70 28.5q66 0 275 -108q47 8 95.5 32t94 63t74.5 100.5t29 133.5q0 129 -101.5 229.5t-353.5 203.5l-8 28l659 588q-71 38 -114.5 59.5t-107 49t-125.5 44.5t-128 27q-21 -18 -42.5 -45t-31.5 -43t-36 -61
l-9 -15q-98 -169 -281.5 -547t-246.5 -491q-94 -166 -274 -285t-371 -116q-79 2 -144 16.5t-65 42.5q0 27 33 58.5t73 31.5q30 0 74 -13t114 -35.5t130 -37.5q137 40 244 217q97 162 287 555t276 543q38 67 85.5 114.5t117.5 92.5l34 22q-61 7 -108 7q-337 0 -592 -230
q-19 -50 -43 -119t-37 -106.5t-33 -82t-37.5 -66.5t-43 -37t-56.5 -15q-16 0 -28.5 8.5t-12.5 22.5q0 54 92.5 194.5t175.5 217.5q288 270 711 270q311 0 606 -174l4 -31l-651 -582q215 -72 348.5 -188t126.5 -242q-4 -85 -51 -169t-118 -146t-162 -100.5t-181 -38.5z" />
    <glyph glyph-name="Ygrave" unicode="&#x1ef2;" horiz-adv-x="1400" 
d="M684 0q-22 0 -22 14q0 13 53 52l43 32q41 31 74.5 72t82.5 135q159 303 152 404q-23 346 -96 682q-7 33 -10 45.5t-11 38t-16 36t-22.5 20.5t-32.5 11l-127 -4q-53 -1 -92.5 -10t-74.5 -30.5t-55 -38.5t-61 -56l-16 14q6 6 28 31t31 34.5t29 31t33 34t31 29t34 29.5
q40 32 115 32h444q13 0 19 -7t0 -17l-31 -51q-10 -13 -25 -13l-221 -6q109 -25 135 -149q64 -277 96 -705l762 1008q66 86 95 86q20 0 31.5 -22.5t11.5 -43.5q0 -32 -7 -53t-30 -47l-873 -983q-60 -168 -114 -291q-30 -66 -63.5 -103.5t-88.5 -76.5l-88 -62l16 2h246
q25 0 25 -14q0 -24 -56 -76q-16 -14 -59 -14h-295zM1239 1903q-16 8 -22.5 23.5t-6.5 55.5q0 41 15 41q7 0 45 -28l370 -273l-10 -14z" />
    <glyph glyph-name="ygrave" unicode="&#x1ef3;" horiz-adv-x="1077" 
d="M-328 -424q-69 0 -69 37q0 31 37 77t90 46q68 0 290 -55q70 27 117.5 70.5t83.5 117.5q60 127 120 421.5t60 485.5q0 77 -13.5 117.5t-49.5 40.5q-70 0 -193 -109l-14 21q114 98 180.5 145t108.5 47q57 0 78.5 -47.5t21.5 -134.5q0 -179 -47 -459.5t-133 -505.5
q329 292 565 709q-7 242 15 340q10 45 51.5 71.5t81.5 26.5q37 0 37 -32q0 -42 -23.5 -114.5t-68.5 -166t-107 -200.5t-143 -217.5t-172.5 -216.5t-199.5 -199.5t-219 -163.5t-237 -111t-248 -41zM707 1374q-13 8 -18.5 13t-11 18.5t-5.5 34.5q0 25 8.5 39t19.5 14
q12 0 35 -18l342 -291l-12 -15z" />
    <glyph glyph-name="endash" unicode="&#x2013;" horiz-adv-x="827" 
d="M236 504q-66 0 -96.5 -12t-71.5 -46l-17 17q43 43 65.5 62t64 36t93.5 17h334q81 0 114.5 13t80.5 56l16 -16q-73 -73 -117.5 -100t-119.5 -27h-346z" />
    <glyph glyph-name="emdash" unicode="&#x2014;" horiz-adv-x="1042" 
d="M236 504q-66 0 -96.5 -12t-71.5 -46l-17 17q43 43 65.5 62t64 36t93.5 17h539q81 0 114.5 13t80.5 56l16 -16q-73 -73 -118 -100t-120 -27h-550z" />
    <glyph glyph-name="quoteleft" unicode="&#x2018;" horiz-adv-x="221" 
d="M674 1628q-129 -108 -129 -266q0 -53 -51 -62q-26 -4 -41 8.5t-15 37.5q0 67 65 150t161 142z" />
    <glyph glyph-name="quoteright" unicode="&#x2019;" horiz-adv-x="237" 
d="M455 1311q129 107 129 266q0 52 51 61q26 4 40.5 -8t14.5 -37q0 -67 -64.5 -150.5t-160.5 -142.5z" />
    <glyph glyph-name="quotesinglbase" unicode="&#x201a;" horiz-adv-x="282" 
d="M-201 -231q129 107 129 266q0 52 52 61q26 4 40.5 -8t14.5 -37q0 -67 -64.5 -150.5t-160.5 -142.5z" />
    <glyph glyph-name="quotedblleft" unicode="&#x201c;" horiz-adv-x="442" 
d="M905 1628q-129 -108 -129 -266q0 -53 -51 -62q-26 -4 -40.5 8.5t-14.5 37.5q0 67 64.5 150t160.5 142zM713 1628q-129 -108 -129 -266q0 -53 -52 -62q-26 -4 -40.5 8.5t-14.5 37.5q0 67 64.5 150t160.5 142z" />
    <glyph glyph-name="quotedblright" unicode="&#x201d;" horiz-adv-x="466" 
d="M434 1321q129 107 129 266q0 53 51 62q26 4 41 -8t15 -37q0 -67 -65 -150.5t-161 -142.5zM627 1321q129 107 129 266q0 53 51 62q26 4 40.5 -8t14.5 -37q0 -67 -64.5 -150.5t-160.5 -142.5z" />
    <glyph glyph-name="quotedblbase" unicode="&#x201e;" horiz-adv-x="497" 
d="M-201 -231q129 107 129 266q0 52 52 61q26 4 40.5 -8t14.5 -37q0 -67 -64.5 -150.5t-160.5 -142.5zM-8 -231q129 107 129 266q0 52 51 61q26 4 40.5 -8t14.5 -37q0 -67 -64.5 -150.5t-160.5 -142.5z" />
    <glyph glyph-name="dagger" unicode="&#x2020;" horiz-adv-x="653" 
d="M707 1442q6 18 20 27t53 16q43 5 43 -8q2 -7 -20 -50l-199 -368q103 -23 123 -23q46 0 80 18.5t67 69.5l19 -10q-118 -170 -221 -170q-46 0 -113 19l-190 -525q-6 -18 -20.5 -27t-53.5 -16q-43 -5 -43 8q-2 7 20 50l263 516q-101 30 -146 30q-44 0 -73 -21.5t-68 -70.5
l-17 13q43 68 102.5 119t117.5 51q41 0 127 -23z" />
    <glyph glyph-name="bullet" unicode="&#x2022;" horiz-adv-x="401" 
d="M238 500q-32 0 -74.5 34.5t-42.5 77.5q0 60 61.5 127.5t118.5 67.5q34 0 69.5 -39t35.5 -78q0 -57 -61 -123.5t-107 -66.5z" />
    <glyph glyph-name="ellipsis" unicode="&#x2026;" horiz-adv-x="911" 
d="M231 -29q-22 0 -50.5 23.5t-28.5 52.5q0 41 42 87t80 46q24 0 48 -26.5t24 -53.5q0 -39 -41.5 -84t-73.5 -45zM530 -29q-22 0 -50.5 23.5t-28.5 52.5q0 41 42 87t80 46q24 0 48 -26.5t24 -53.5q0 -39 -41.5 -84t-73.5 -45zM-66 -29q-22 0 -50.5 23.5t-28.5 52.5
q0 41 42 87t80 46q24 0 48 -26.5t24 -53.5q0 -39 -41.5 -84t-73.5 -45z" />
    <glyph glyph-name="perthousand" unicode="&#x2030;" horiz-adv-x="1812" 
d="M420 813q-55 0 -94 37t-39 111q0 76 38.5 162.5t100.5 158t149 119t175 47.5q56 0 93.5 -32t37.5 -89q0 -53 -24 -121t-68 -136.5t-100 -126t-127 -94t-142 -36.5zM477 852q62 0 120.5 50.5t97.5 123t63 150t26 135.5q0 46 -23.5 74t-66.5 28q-65 0 -125 -46t-99.5 -114
t-63 -143t-23.5 -135q0 -56 26 -89.5t68 -33.5zM641 -47q-55 0 -94 36.5t-39 110.5q0 61 24.5 129.5t69 131.5t101 114t127 82t141.5 31q56 0 93.5 -32t37.5 -89q0 -53 -24 -121t-68 -136.5t-100 -126t-127 -94t-142 -36.5zM698 -8q62 0 120.5 50.5t98 123t63.5 150
t26 135.5q0 46 -24 74t-67 28q-65 0 -125 -46t-99.5 -114t-63 -143t-23.5 -135q0 -56 26 -89.5t68 -33.5zM1313 1458l20 -16l-1272 -1469l-20 17zM1255 -47q-55 0 -94 36.5t-39 110.5q0 61 24.5 129.5t69 131.5t101 114t127 82t141.5 31q56 0 93.5 -32t37.5 -89
q0 -53 -24 -121t-68 -136.5t-100 -126t-127 -94t-142 -36.5zM1313 -8q62 0 120.5 50.5t97.5 123t63 150t26 135.5q0 46 -23.5 74t-66.5 28q-65 0 -125 -46t-99.5 -114t-63 -143t-23.5 -135q0 -56 26 -89.5t68 -33.5z" />
    <glyph glyph-name="guilsinglleft" unicode="&#x2039;" horiz-adv-x="782" 
d="M352 -10q-5 2 -26 45l-254 487l684 465q42 29 45 29q14 0 14 -41q0 -40 -6.5 -56t-22.5 -24l-692 -375l301 -418q12 -11 10 -29.5t-22 -54.5q-6 -13 -13 -21t-11 -8t-7 1z" />
    <glyph glyph-name="guilsinglright" unicode="&#x203a;" horiz-adv-x="782" 
d="M-29 -12q-14 0 -14 41q0 40 6.5 56t22.5 24l692 374l-301 418q-12 11 -10 29.5t22 54.5q6 13 13 21t11 8.5t7 -0.5q5 -2 26 -45l254 -488l-684 -465q-40 -28 -45 -28z" />
    <glyph glyph-name="Euro" unicode="&#x20ac;" horiz-adv-x="1290" 
d="M631 -16q-117 0 -208.5 42t-146 112t-82.5 154.5t-28 176.5q0 110 31 225h-127l10 25h125q11 38 37 98h-131l10 25h133q130 276 404.5 458.5t578.5 182.5q92 0 167 -16.5t75 -43.5q0 -31 -42 -60.5t-85 -29.5q-62 0 -144.5 18t-251.5 64q-189 -56 -362.5 -212
t-255.5 -361h676l-10 -25h-676q-26 -86 -29 -98h612l-10 -25h-606q-14 -66 -14 -147q1 -139 51.5 -250t153 -178.5t241.5 -67.5q111 0 203.5 40.5t187.5 129.5l15 -18q-109 -105 -237.5 -162t-264.5 -57z" />
    <glyph glyph-name="trademark" unicode="&#x2122;" horiz-adv-x="948" 
d="M1022 1022l98 326l-252 -301h-26l-56 303l-145 -326h-20l186 422h45l59 -320l269 320h59l-119 -422zM334 1024l186 403h-127l8 19h332l-8 -19h-141l-185 -403h-65z" />
    <glyph glyph-name="minus" unicode="&#x2212;" horiz-adv-x="831" 
d="M809 657l-10 -24h-668l10 24h668z" />
    <glyph glyph-name="notequal" unicode="&#x2260;" horiz-adv-x="847" 
d="M858 780l-10 -24h-299l-88 -221h313l-10 -25h-313l-263 -651l-28 2l262 649h-326l10 25h326l88 221h-340l10 24h340l281 695l27 -2l-279 -693h299z" />
    <glyph glyph-name="uni004A0301" horiz-adv-x="1058" 
d="M-29 -365q-93 0 -153 59.5t-60 188.5q0 95 45.5 204t127.5 214t206.5 200.5t270.5 157.5l12 -22q-123 -54 -227 -144.5t-167.5 -188.5t-99 -194t-35.5 -171q0 -121 45.5 -184.5t131.5 -63.5q63 0 128.5 32.5t121 84.5t114 128.5t105 151t96.5 166.5q92 161 270.5 529.5
t270.5 527.5q38 68 85 115t117 92l41 26l-667 -6q-53 -1 -92 -9t-75 -31t-55 -39t-61 -56l-16 14q6 6 28 31t31 34.5t29 31t33 34t31 29t34 29.5q40 32 115 32l757 -2q25 0 25 -14q0 -9 -24 -33t-44 -37q-14 -9 -25.5 -18.5t-23.5 -23t-19 -21.5t-19 -27.5t-16.5 -25.5
t-19 -32t-18.5 -32q-92 -158 -270.5 -525.5t-266.5 -520.5q-84 -141 -171.5 -256.5t-192 -217.5t-221 -159.5t-232.5 -57.5zM1696 1903l-391 -195l-11 14l371 273q38 28 45 28q14 0 14 -41t-6 -56t-22 -23z" />
    <glyph glyph-name="A.ss01" horiz-adv-x="2203" 
d="M242 -29q-89 1 -159 30.5t-111 78t-62 106t-21 119.5q0 116 58.5 226.5t152 191t215 129.5t242.5 49q94 0 198 -20t172.5 -42.5t183.5 -63.5t167 -58l127 143q220 245 452.5 432.5t413.5 245.5l-514 -4q-53 -1 -92.5 -9t-74 -29t-55 -38t-60.5 -55l-17 14
q127 141 187 189q40 32 110 32h801q22 0 22 -18q0 -10 -18.5 -24t-45 -30.5t-36.5 -25.5q-55 -37 -87.5 -79.5t-66.5 -110.5l-448 -887q-111 -217 -111 -313q0 -64 58 -64q74 0 202 113l15 -21q-99 -85 -185.5 -138.5t-130.5 -53.5q-52 0 -76 31.5t-24 72.5q0 63 30.5 147
t104.5 230l121 242q-153 -127 -369 -127q-130 0 -278 41q-105 -115 -189 -200t-190.5 -175t-200 -147t-201 -93.5t-210.5 -36.5zM-8 367q0 -147 95 -239t249 -91q77 0 163.5 32t168 84t175.5 132t175.5 160.5t179.5 185.5q-81 24 -191 66t-187.5 73.5t-170 55.5t-166.5 24
q-107 0 -200.5 -41t-156 -109t-98.5 -155t-36 -178zM1311 707q178 -54 323 -54q159 0 273 105l266 530q35 69 84 119.5t119 95.5l57 37h-61q-122 -20 -289 -123.5t-333 -251.5t-323 -325z" />
    <glyph glyph-name="B.ss01" horiz-adv-x="1681" 
d="M719 -14q-365 0 -559 24q-23 2 -23 15t58 45l43 28q1 1 4 3t4 3q32 24 57 58t64 104q88 154 250 483.5t255 489.5q74 132 203 215l88 57l15 -20q-14 -10 -27.5 -21t-22.5 -19t-21 -23.5t-17 -21.5t-17.5 -25.5t-15 -24t-17 -28.5t-16.5 -28q-93 -160 -253.5 -484
t-244.5 -472q-39 -68 -71.5 -107.5t-79.5 -72.5l-76 -51q59 -9 229 -20t297 -11q291 -5 468 159t177 449q0 105 -56.5 174.5t-160.5 69.5h-268l19 29h249q94 0 186 56.5t147.5 139t55.5 158.5q0 64 -28.5 113.5t-72.5 78.5t-106 47t-121 24.5t-126 6.5q-370 0 -647 -221
q-11 -28 -30 -79.5t-28.5 -76t-26 -65t-27 -60t-26 -47.5t-29 -40.5t-30.5 -27t-36 -19.5t-40 -5q-16 0 -28.5 8.5t-12.5 22.5q0 49 86.5 176.5t208.5 230.5q342 285 762 285q84 0 162.5 -14.5t151 -45.5t116 -89t43.5 -136q0 -128 -98.5 -236t-245.5 -169
q84 -19 139.5 -79.5t55.5 -160.5q0 -111 -51.5 -223.5t-141 -206t-201.5 -167t-242 -115t-253 -41.5z" />
    <glyph glyph-name="D.ss01" horiz-adv-x="1927" 
d="M793 -12q-316 0 -494 22q-23 2 -23 15q0 4 3.5 8.5t11.5 10.5t15 10.5t19.5 12t18.5 11.5l29 20l4 4q32 25 59.5 60.5t65.5 103.5q88 154 253.5 491.5t258.5 497.5q74 132 203 215l88 58l14 -21q-13 -9 -24 -17.5t-22 -19.5t-18 -17.5t-17 -20.5t-14.5 -19.5t-15.5 -23
t-13.5 -21.5t-15 -25.5t-14.5 -25.5q-93 -160 -256 -492.5t-247 -480.5q-38 -68 -71.5 -107t-80.5 -73l-74 -51h2q59 -9 209.5 -20t276.5 -11q277 0 488 101t323.5 279.5t111.5 405.5q-1 152 -52.5 282.5t-144 225t-228.5 148t-298 53.5q-336 0 -575 -191q-84 -218 -96 -246
q-56 -127 -117 -159q-27 -14 -60 -14q-16 0 -28 8t-12 22q0 49 86 177t208 231q136 114 317.5 181t381.5 67q133 -1 250.5 -39t204 -103.5t149.5 -151t95 -182.5t32 -196q0 -176 -67 -334.5t-181.5 -277t-263 -206t-317.5 -132t-338 -43.5z" />
    <glyph glyph-name="E.ss01" horiz-adv-x="1609" 
d="M279 0q-23 0 -23 18q0 5 4 10.5t14.5 13.5t16 12t20.5 14l43 30q35 26 62 61.5t67 106.5q100 178 293 578h-207v28h222q133 275 217 418q82 145 202 215l58 33h-297q-131 0 -238 -42.5t-219 -143.5q-19 -50 -43 -119t-37 -106.5t-33 -82t-37.5 -66.5t-43 -37t-56.5 -15
q-16 0 -28.5 8t-12.5 22q0 54 92.5 194.5t176.5 217.5q159 149 343 209.5t418 60.5h666q123 0 123 -73q0 -53 -57 -112.5t-185 -156.5l-12 19q91 75 127.5 114t36.5 66q0 21 -19 32t-71 11h-555q-11 -8 -21 -16t-18 -15t-17.5 -17.5t-14.5 -16t-14 -18.5t-12.5 -18
t-13 -20.5t-12 -19.5t-13 -22.5t-12.5 -22.5q-95 -162 -248 -480h664v-28h-678q-173 -358 -254 -500q-39 -68 -71.5 -107.5t-79.5 -72.5l-93 -64h791q43 0 79.5 8t58 15.5t53.5 31.5t43 34.5t49 46.5l16 -15q-2 -3 -23.5 -26.5t-27 -29.5t-24 -26t-28.5 -29.5t-25.5 -25
t-29.5 -28t-28 -23.5q-42 -33 -123 -33h-901z" />
    <glyph glyph-name="F.ss01" horiz-adv-x="1667" 
d="M283 0q-23 0 -23 14q0 13 53 52l43 32q35 26 62 61.5t67 106.5q87 151 295 578h-151v28h166q136 279 225 435q74 132 203 215l24 16h-276q-131 0 -238 -42.5t-219 -143.5q-19 -50 -43 -119t-37 -106.5t-33 -82t-37.5 -66.5t-43 -37t-56.5 -15q-16 0 -28.5 8t-12.5 22
q0 54 92.5 194.5t176.5 217.5q159 149 343 209.5t418 60.5h666q123 0 123 -73q0 -53 -57 -112.5t-185 -156.5l-12 19q91 75 127.5 114t36.5 66q0 21 -19 32t-71 11h-564q-12 -10 -22.5 -19.5t-21.5 -23t-17 -21t-17.5 -26t-15 -23.5t-17.5 -29t-16 -28q-93 -159 -256 -496
h637v-28h-651q-186 -376 -256 -500q-39 -68 -71.5 -107.5t-79.5 -72.5l-95 -64h23h233q17 0 17 -12q0 -9 -17.5 -32t-38.5 -42q-16 -14 -59 -14h-274z" />
    <glyph glyph-name="I.ss01" horiz-adv-x="995" 
d="M92 -12q-79 2 -144 16.5t-65 42.5q0 27 33.5 58.5t73.5 31.5q31 0 73 -9t126 -32t133 -35q52 14 113 65t116 142q97 162 276.5 535.5t266.5 523.5q39 69 85.5 116t116.5 91l23 14l-565 -10q-53 -1 -92 -9t-75 -31t-55 -39t-61 -56l-16 14q6 6 28 31t31 34.5t29 31t33 34
t31 29t34 29.5q40 32 111 32h657q25 0 25 -14q0 -9 -24 -33t-44 -37q-9 -6 -17.5 -13t-18.5 -19t-15.5 -19t-17 -25.5t-15.5 -25t-18.5 -31.5t-18.5 -32q-98 -169 -271.5 -528t-236.5 -472q-94 -166 -274 -285t-371 -116z" />
    <glyph glyph-name="L.ss01" horiz-adv-x="1683" 
d="M2044 -487q-69 0 -142 19t-137.5 48.5t-138 78.5t-132 95.5t-133 113t-128 118t-129.5 125t-125 118.5q-127 -169 -274 -284q-267 -207 -490 -207q-89 1 -159 30.5t-111 78t-61.5 106t-20.5 119.5q0 115 54.5 220t141 177t195 115t215.5 43q124 0 255 -67.5t282 -190.5
q50 96 97 211t114 295.5t106 279.5q54 137 129 235t167 154t194 81.5t223 25.5q134 0 231.5 -18.5t97.5 -49.5q0 -33 -39 -61.5t-73 -28.5q-62 0 -156.5 24.5t-279.5 84.5q-41 -10 -70.5 -23t-68 -43.5t-72 -77.5t-75 -127t-85.5 -190q-101 -256 -194 -452t-201 -359
q66 -56 176.5 -156.5t185 -167.5t182 -149.5t194 -132.5t192 -84.5t204.5 -34.5q168 0 256 88l17 -17q-71 -66 -185.5 -114.5t-228.5 -48.5zM-35 133q0 -147 95 -239t249 -91q178 3 379 164q146 118 256 293q-161 147 -296.5 228t-262.5 81q-192 0 -306 -124t-114 -312z" />
    <glyph glyph-name="P.ss01" horiz-adv-x="1540" 
d="M217 0q-22 0 -22 14q0 13 53 52l43 32q35 26 62 61.5t67 106.5q89 156 224.5 485t227.5 488q74 132 203 215l88 57l15 -20q-14 -10 -27.5 -21t-22.5 -19t-21 -23.5t-17 -21.5t-17.5 -25.5t-15 -24t-17 -28.5t-16.5 -28q-42 -72 -85 -161.5t-68 -148t-71.5 -171.5
t-64.5 -155h342q148 0 265.5 40t189.5 108.5t109.5 156t37.5 186.5q0 198 -156.5 315t-416.5 117q-370 0 -647 -221q-11 -28 -30 -79.5t-28.5 -76t-26 -65t-27 -60t-26 -47.5t-29 -40.5t-30.5 -27t-36 -19.5t-40 -5q-16 0 -28.5 8.5t-12.5 22.5q0 49 86.5 176.5t208.5 230.5
q342 285 762 285q148 0 265 -38t186.5 -101.5t105 -139.5t35.5 -159q0 -85 -30.5 -170.5t-91 -162t-143.5 -135.5t-196.5 -93.5t-240.5 -34.5h-371q-66 -159 -141 -291q-38 -68 -71.5 -107t-80.5 -73l-100 -70l262 6q16 0 16 -12q0 -9 -17 -32t-38 -42q-16 -14 -59 -14h-275
z" />
    <glyph glyph-name="R.ss01" horiz-adv-x="1665" 
d="M125 0q-23 0 -23 14q0 12 54 52l43 32q35 26 62 61.5t67 106.5q89 156 224.5 485t227.5 488q74 132 203 215l88 57l14 -20q-16 -11 -30 -22t-27 -26t-20.5 -23t-20.5 -29t-17 -26.5t-19.5 -32.5t-18.5 -32q-88 -152 -207 -438h422q214 0 330 110.5t116 278.5
q0 84 -45.5 149.5t-125.5 105.5t-183.5 60.5t-224.5 20.5q-370 0 -647 -221q-11 -28 -30 -79.5t-28.5 -76t-26 -65t-27 -60t-26 -47.5t-29 -40.5t-30.5 -27t-36 -19.5t-40 -5q-16 0 -28.5 8.5t-12.5 22.5q0 49 86.5 176.5t208.5 230.5q342 285 801 285q259 0 411 -94
t152 -260q0 -85 -41.5 -170t-114 -154.5t-184 -113t-239.5 -43.5h-35q56 -298 98.5 -460.5t82.5 -231t89 -68.5q32 0 68.5 21t93.5 69l16 -21q-75 -65 -105 -89.5t-69 -46t-72 -21.5q-182 0 -313 848h-274q-136 -332 -226 -490q-39 -68 -71.5 -107.5t-79.5 -72.5l-94 -64h22
h254q17 0 17 -12q0 -9 -17.5 -32t-38.5 -42q-16 -14 -59 -14h-295z" />
    </font>
</defs>
</svg>
