<?xml version="1.0" standalone="no"?>
<!DOCTYPE svg PUBLIC "-//W3C//DTD SVG 1.1//EN" "http://www.w3.org/Graphics/SVG/1.1/DTD/svg11.dtd" >
<svg xmlns="http://www.w3.org/2000/svg" xmlns:xlink="http://www.w3.org/1999/xlink" version="1.1">
<metadata>
Created by FontForge 20201107 at Wed Nov  5 09:27:29 2025
 By 
Elena Genova
</metadata>
<defs>
<font id="TheSeasons-RegularItalic" horiz-adv-x="0" >
  <font-face 
    font-family="The Seasons"
    font-weight="400"
    font-style="italic"
    font-stretch="normal"
    units-per-em="2048"
    panose-1="0 0 0 0 0 0 0 0 0 0"
    ascent="1638"
    descent="-410"
    x-height="1038"
    cap-height="1638"
    bbox="-1108 -791 3287 2191"
    underline-thickness="102"
    underline-position="-255"
    slope="-25"
    unicode-range="U+0020-2260"
  />
<missing-glyph horiz-adv-x="1372" 
d="M1124 2191v-2744h-868v2744h868zM913 319h-454v-309h454v309zM823 229v-129h-274v129h274zM913 795h-274v-154h94v64h90v-130h-274v220h-90v-310h454v310zM913 1128h-90v-180h-364v-94h454v274zM913 1294h-454v-90h180v-102h-180v-90h274v192h180v90zM639 1561v-99h-90
v99h90zM733 1653h-274v-285h454v94h-180v191zM913 2007h-452v-90h178v-102h-180v-91h454v91h-180v102h180v90zM913 -53h-454v-90h192l-192 -129v-93h454v93h-278l190 129h88v90z" />
    <glyph glyph-name="f_f" unicode="ff" horiz-adv-x="1306" 
d="M-571 -426q-66 0 -66 37q0 38 44.5 84.5t96.5 46.5q27 0 58.5 -3t90 -11t87.5 -11q41 23 72 50t75.5 80.5t96.5 147t114 228.5l340 752h-159l14 29h158q141 293 381 471t507 178q193 0 361 -56q142 56 295 56q190 0 190 -47q0 -41 -49.5 -86t-116.5 -45q-37 0 -91.5 11.5
t-96 23t-158.5 46.5q-101 -30 -190 -129.5t-172 -283.5l-62 -139h244l-14 -29h-244l-266 -600q-67 -152 -175 -298t-229.5 -256.5t-253.5 -178.5t-243 -68q-66 0 -66 37q0 38 44.5 84.5t96.5 46.5q21 0 49.5 -2.5t52 -5.5t66 -8.5t70.5 -8.5q41 24 72.5 50t75.5 79.5
t96 147.5t112 229l334 752h-467l-276 -600q-70 -152 -177.5 -297t-228.5 -256.5t-252 -179.5t-241 -68zM618 1004h465q70 150 175.5 275t234.5 212l-395 94q-138 -38 -232 -141.5t-184 -300.5z" />
    <glyph glyph-name="f_f_i" unicode="ffi" horiz-adv-x="1880" 
d="M-571 -426q-66 0 -66 37t44 82t93 45q32 0 113 -9t127 -12q41 23 72.5 50.5t76 81t96.5 147t113 227.5l340 752h-159l14 29h158q140 291 381 470t507 179q189 0 351 -54q142 54 280 54q75 0 163 -16t151 -46q32 -16 2 -43l-463 -372l-15 14l322 299q-246 61 -408 92
q-132 -35 -230.5 -140.5t-184.5 -297.5l-62 -139h205l-14 -29h-205l-266 -600q-68 -152 -176 -298t-228.5 -256.5t-252 -178.5t-242.5 -68q-66 0 -66 37t44 82t93 45q32 0 113 -9t127 -12q42 24 73 50t76.5 79.5t97.5 147.5t111 229l330 752h-461l-276 -600
q-70 -152 -177.5 -297t-228.5 -256.5t-252 -179.5t-241 -68zM1415 -16q-56 0 -84 37.5t-28 84.5q0 66 61 187t133.5 230t133.5 213.5t61 142.5q0 51 -52 51q-70 0 -200 -119l-17 20q232 209 344 209q52 0 77.5 -32.5t25.5 -73.5q0 -61 -58.5 -174t-128 -217t-128 -209.5
t-58.5 -153.5q0 -63 62 -63q73 0 176 96l16 -20q-232 -209 -336 -209zM618 1004h459q140 301 406 487l-385 94q-137 -38 -231.5 -142t-184.5 -300z" />
    <glyph glyph-name="f_i" unicode="fi" horiz-adv-x="1232" 
d="M-571 -426q-66 0 -66 37t44 82t93 45q32 0 113 -9t127 -12q41 24 73 51t77 80.5t96.5 147t111.5 227.5l332 752h-162l15 29h159q134 288 381 468.5t512 180.5q172 0 293 -58q32 -16 2 -43l-465 -376l-12 14l307 289l-383 94q-126 -34 -223 -137.5t-182 -292.5l-62 -139
h195l-14 -29h-195l-268 -600q-67 -151 -175 -297t-229 -257t-252.5 -179t-242.5 -68zM770 -16q-56 0 -84.5 37.5t-28.5 84.5q0 66 61 187t134 230t134 213.5t61 142.5q0 51 -52 51q-70 0 -200 -119l-17 20q232 209 344 209q52 0 77.5 -32.5t25.5 -73.5q0 -61 -58.5 -174
t-128 -217t-128 -209.5t-58.5 -153.5q0 -63 61 -63q74 0 177 96l16 -20q-232 -209 -336 -209z" />
    <glyph glyph-name="f_l" unicode="fl" horiz-adv-x="1222" 
d="M-571 -426q-66 0 -66 37q0 38 44.5 84.5t96.5 46.5q27 0 58.5 -3t90 -11t87.5 -11q42 24 73 50t76.5 79.5t97.5 147.5t111 229l330 752h-160l15 29h157q135 291 382.5 470t518.5 179q216 0 385 -68q176 68 361 68q168 0 168 -45q0 -39 -52 -86t-120 -47q-48 0 -114 15
t-207 53q-26 7 -40 11q-131 -46 -225.5 -144t-206.5 -306l-350 -645q-53 -97 -85 -180t-32 -123q0 -60 62 -60q61 0 190 117l17 -20q-111 -100 -198.5 -154.5t-133.5 -54.5q-57 0 -85 39t-28 90q0 124 129 354l291 520q79 147 194.5 274t256.5 220l-420 104
q-140 -39 -241.5 -144.5t-186.5 -297.5l-62 -139h289l-14 -29h-289l-266 -600q-68 -152 -176 -298t-228.5 -256.5t-252 -178.5t-242.5 -68z" />
    <glyph glyph-name=".notdef" horiz-adv-x="1372" 
d="M1124 2191v-2744h-868v2744h868zM913 319h-454v-309h454v309zM823 229v-129h-274v129h274zM913 795h-274v-154h94v64h90v-130h-274v220h-90v-310h454v310zM913 1128h-90v-180h-364v-94h454v274zM913 1294h-454v-90h180v-102h-180v-90h274v192h180v90zM639 1561v-99h-90
v99h90zM733 1653h-274v-285h454v94h-180v191zM913 2007h-452v-90h178v-102h-180v-91h454v91h-180v102h180v90zM913 -53h-454v-90h192l-192 -129v-93h454v93h-278l190 129h88v90z" />
    <glyph glyph-name=".null" 
 />
    <glyph glyph-name="nonmarkingreturn" horiz-adv-x="682" 
 />
    <glyph glyph-name="space" unicode=" " horiz-adv-x="409" 
 />
    <glyph glyph-name="space" unicode="&#xa0;" horiz-adv-x="409" 
 />
    <glyph glyph-name="exclam" unicode="!" horiz-adv-x="475" 
d="M131 350q103 221 184 418t118 304t68.5 204.5t41.5 122.5q33 80 110 80q56 0 79.5 -22.5t10.5 -63.5q-12 -37 -65.5 -124.5t-123 -195.5t-179 -307.5t-213.5 -421.5zM16 -27q-27 0 -57.5 26t-30.5 60q0 46 44 98t87 52q28 0 55 -30.5t27 -65.5q0 -41 -42.5 -90.5
t-82.5 -49.5z" />
    <glyph glyph-name="quotedbl" unicode="&#x22;" horiz-adv-x="423" 
d="M266 1022l133 301q23 55 74 55q63 0 31 -59q-8 -16 -49.5 -73.5t-97.5 -133t-70 -94.5zM471 1022l133 301q23 55 74 55q63 0 31 -59q-8 -16 -49.5 -73.5t-97.5 -133t-70 -94.5z" />
    <glyph glyph-name="numbersign" unicode="#" horiz-adv-x="1402" 
d="M600 -2l246 442h-406l-245 -442h-37l245 442h-436l17 29h436l278 500h-436l14 28h437l243 437h37l-243 -437h405l244 437h37l-244 -437h438l-14 -28h-438l-279 -500h438l-16 -29h-438l-246 -442h-37zM457 469h405l279 500h-406z" />
    <glyph glyph-name="dollar" unicode="$" horiz-adv-x="886" 
d="M170 -10q-146 0 -212 55.5t-60 151.5q13 135 223 270l10 -8q-55 -85 -55 -162q0 -71 38 -129t117 -84l293 666q-50 102 -77 175.5t-27 135.5q0 145 120 252.5t298 148.5l53 121l29 -2l-50 -111q76 13 140 13q73 0 134.5 -17t61.5 -47q0 -40 -46 -81.5t-95 -41.5
q-65 0 -242 66l-192 -436q15 -32 45.5 -91.5t49 -98.5t39 -89.5t30 -96.5t8.5 -89q-4 -123 -90 -229t-217 -168t-275 -72l-59 -133l-29 2l57 129h-20zM258 78q45 -10 88 -10q132 -2 224 79t92 209q0 53 -21 122t-40 112.5t-60 128.5zM557 1196q-5 -96 59 -235l181 409
l-70 27q-163 -60 -170 -201z" />
    <glyph glyph-name="percent" unicode="%" horiz-adv-x="1196" 
d="M414 811q-62 0 -100 39.5t-38 107.5q0 103 73 219t185.5 194.5t217.5 78.5q64 0 97.5 -36.5t33.5 -90.5q0 -78 -48 -171t-118 -167t-153.5 -124t-149.5 -50zM489 870q74 0 140 75.5t101 169.5t36 167q0 117 -92 117q-74 0 -141 -68t-103.5 -162t-34.5 -176
q0 -54 25 -88.5t69 -34.5zM635 -49q-62 0 -99.5 39.5t-37.5 107.5q0 77 44 165.5t111.5 160t154 119t165.5 47.5q64 0 97.5 -36.5t33.5 -90.5q0 -78 -48 -171t-118 -167t-153.5 -124t-149.5 -50zM711 10q56 0 109 45t88 110t56.5 134.5t22.5 122.5q0 117 -92 117
q-74 0 -141 -68t-103.5 -162t-34.5 -176q0 -54 25 -88.5t70 -34.5zM1313 1458l20 -16l-1272 -1469l-20 17z" />
    <glyph glyph-name="ampersand" unicode="&#x26;" horiz-adv-x="1929" 
d="M1311 0q-161 0 -353 258q-112 -127 -264.5 -199.5t-273.5 -72.5q-163 0 -270 95.5t-107 252.5q0 127 84 252.5t219.5 217.5t290.5 134q-27 102 -27 180q0 107 36.5 197t96 151.5t138 105t161 63.5t164.5 20q76 0 137.5 -17t61.5 -41q0 -34 -35.5 -66t-79.5 -32
q-28 0 -73.5 12t-84.5 26t-106 40q-21 8 -31 12q-254 -75 -254 -356q0 -141 64.5 -336t162.5 -370.5t227 -299t245 -123.5q53 0 96 49t69 126t40 164t14 171q0 68 -8.5 116.5t-30.5 90t-62.5 65t-101.5 29.5l-55 3h-25q-17 0 -24 10t2 24q34 55 65 72q28 16 54 16h548
q21 0 30 -3t3 -11q-15 -21 -58 -60.5t-67 -52.5q-25 -14 -49 -14l-303 12q225 -65 225 -262q0 -63 -26.5 -148t-74.5 -172t-108 -161t-135 -121t-147 -47zM199 412q0 -158 92.5 -248t245.5 -90q141 0 243 71q92 62 146 160q-93 135 -167.5 295t-113.5 303
q-188 -27 -317 -166.5t-129 -324.5z" />
    <glyph glyph-name="quotesingle" unicode="'" horiz-adv-x="321" 
d="M266 1022l133 301q23 55 74 55q63 0 31 -59q-8 -16 -49.5 -73.5t-97.5 -133t-70 -94.5z" />
    <glyph glyph-name="parenleft" unicode="(" horiz-adv-x="585" 
d="M203 -555q-77 114 -122.5 269.5t-45.5 330.5q0 247 76.5 483t220 440.5t360 372.5t486.5 275l8 -21q-194 -79 -363.5 -210.5t-296.5 -294.5t-219.5 -352.5t-142 -390t-55.5 -400.5q-3 -65 2 -135t32.5 -174.5t77.5 -180.5z" />
    <glyph glyph-name="parenright" unicode=")" horiz-adv-x="544" 
d="M354 1610q186 -256 197 -584q12 -329 -115.5 -643.5t-381.5 -571t-597 -405.5l-10 21q191 85 356 222.5t286 305t207 359.5t129 394t42 402q0 66 -7.5 135.5t-38.5 172.5t-83 177z" />
    <glyph glyph-name="asterisk" unicode="*" horiz-adv-x="786" 
d="M766 975q-33 0 -49 29t-6 73l49 226l-168 -156q-34 -31 -68 -31t-51 29q-17 28 0.5 57.5t61.5 42.5l219 70l-219 69q-44 13 -61.5 42t-0.5 57q17 31 51 30.5t68 -32.5l168 -156l-49 225q-10 45 6 75t49 30q34 0 50.5 -30t6.5 -75l-51 -225l170 156q34 32 68 32.5
t51 -30.5q17 -28 -0.5 -57t-61.5 -42l-219 -69l219 -70q44 -13 61.5 -42.5t0.5 -57.5q-17 -29 -51 -29t-68 31l-170 156l51 -226q10 -44 -6.5 -73t-50.5 -29z" />
    <glyph glyph-name="plus" unicode="+" horiz-adv-x="831" 
d="M809 657l-10 -24h-318l-110 -301h-27l111 301h-324l10 24h322l110 301l27 3l-111 -304h320z" />
    <glyph glyph-name="comma" unicode="," horiz-adv-x="399" 
d="M-221 -227q162 108 162 168q1 24 -27.5 57.5t-28.5 54.5q-2 41 44.5 98.5t88.5 57.5q38 0 62 -40.5t24 -84.5q0 -40 -26.5 -84.5t-77 -89.5t-96.5 -80t-111 -78z" />
    <glyph glyph-name="hyphen" unicode="-" horiz-adv-x="645" 
d="M225 494q-73 0 -103.5 -8.5t-64.5 -39.5l-16 17q67 67 95 86q58 39 132 39h168q73 0 103 10t71 45l17 -14q-43 -43 -59.5 -58.5t-49 -38.5t-62 -30.5t-69.5 -7.5h-162z" />
    <glyph glyph-name="period" unicode="." horiz-adv-x="325" 
d="M-49 -27q-27 0 -57.5 26t-30.5 60q0 46 44 98t87 52q28 0 55 -30.5t27 -65.5q0 -41 -42.5 -90.5t-82.5 -49.5z" />
    <glyph glyph-name="slash" unicode="/" horiz-adv-x="579" 
d="M-520 -553l1591 2191h37l-1591 -2191h-37z" />
    <glyph glyph-name="zero" unicode="0" horiz-adv-x="1075" 
d="M211 -16q-101 0 -158 65.5t-57 179.5q0 106 43 243t115 274.5t170.5 271t204.5 236.5t223.5 166t220.5 63q107 0 159 -63.5t52 -157.5q0 -112 -45 -254t-119.5 -282t-175 -275t-206.5 -238t-219 -166t-208 -63zM336 72q72 0 153 56.5t154.5 148.5t141.5 211.5t118 242.5
t79.5 244t29.5 213q0 223 -168 223q-69 0 -149.5 -55.5t-154 -145.5t-143 -207.5t-120 -239.5t-81 -244t-30.5 -218q0 -106 42.5 -167.5t127.5 -61.5z" />
    <glyph glyph-name="one" unicode="1" horiz-adv-x="632" 
d="M23 0q-18 0 -24.5 10.5t-0.5 26.5l604 1290l-223 -98l-8 22q23 11 107.5 50t135.5 64t115.5 61t97.5 63q26 20 37 8t-8 -29l-6 -4q-54 -33 -82 -92l-614 -1349q-12 -23 -37 -23h-94z" />
    <glyph glyph-name="two" unicode="2" horiz-adv-x="1187" 
d="M-117 0l-12 23l102 65q243 159 430.5 304.5t303.5 260t190.5 217t103.5 178t29 140.5q0 86 -54.5 137t-154.5 51q-186 0 -358 -180l-17 16q244 274 476 271q126 0 201 -64.5t75 -173.5q0 -70 -28.5 -144.5t-77.5 -145.5t-129.5 -153t-167 -157t-209.5 -167t-239 -172.5
t-271 -184.5h577q102 0 159.5 10t88.5 28t76 60l16 -12q-13 -15 -60 -75t-69 -85q-36 -47 -100 -47h-881z" />
    <glyph glyph-name="three" unicode="3" horiz-adv-x="983" 
d="M106 -16q-85 0 -146.5 17.5t-61.5 43.5q0 34 42 72.5t93 38.5q23 0 63 -10.5t74.5 -23t92.5 -33.5t89 -32q75 18 146.5 61.5t130 106t94 150t35.5 184.5q0 107 -54 161t-153 54q-62 0 -137 -35q-49 -22 -56 -2q-8 25 27 33q92 25 181.5 67.5t167.5 100.5t125.5 134
t47.5 157q0 73 -49 118.5t-145 45.5q-74 0 -156 -36t-156 -106l-16 19q210 213 426 213q109 0 177.5 -55t68.5 -148q0 -78 -35 -147t-95.5 -120.5t-122 -87.5t-134.5 -67h18q102 0 168 -61t66 -170q0 -115 -74.5 -233t-190 -207t-263.5 -146t-288 -57z" />
    <glyph glyph-name="four" unicode="4" horiz-adv-x="1218" 
d="M492 0q-17 0 -24.5 11t1.5 26l170 352q-25 3 -92 10.5t-106.5 11.5t-95 9t-99.5 7.5t-78 2.5q-84 0 -150 -39l-12 21l51 43l1184 1018q12 12 31 12q45 0 45 -17q0 -4 -8 -24l-467 -969q16 -2 45 -2q84 0 138 27t108 88l16 -17q-90 -97 -167.5 -147.5t-164.5 -50.5h-24
l-168 -350q-9 -23 -35 -23h-98zM154 500q96 22 182 22q125 0 352 -30l381 788z" />
    <glyph glyph-name="five" unicode="5" horiz-adv-x="933" 
d="M55 -16q-86 0 -147.5 16t-61.5 41q0 36 42.5 75.5t93.5 39.5q19 0 45.5 -6t63 -18t65 -22.5t75.5 -28t70 -26.5q79 20 151.5 64t131 105.5t93 146.5t34.5 178q0 140 -113 218.5t-348 119.5l-6 12l385 586q197 -33 354 -33q145 0 225 80l17 -16q-15 -14 -49.5 -50
t-57 -55.5t-58 -44t-76 -36t-87.5 -11.5q-154 0 -315 37l-228 -344q248 -37 383 -134t135 -241q0 -116 -73.5 -235.5t-188 -210.5t-263.5 -149t-292 -58z" />
    <glyph glyph-name="six" unicode="6" horiz-adv-x="1126" 
d="M377 -14q-131 0 -208 86t-77 241q0 208 102 413.5t269 363.5t391 264.5t459 128.5l2 -29q-184 -19 -344 -86t-271.5 -158t-199 -206.5t-138.5 -224t-79 -218.5q151 189 321 308.5t303 119.5q91 0 147 -57.5t56 -163.5q0 -84 -36.5 -188.5t-105.5 -208.5t-157 -190.5
t-202.5 -140.5t-231.5 -54zM254 365q0 -162 50.5 -244t164.5 -82q102 0 194.5 73.5t151 180.5t93 220t34.5 200q0 98 -36.5 144t-112.5 46q-101 0 -249 -112.5t-276 -286.5q-14 -71 -14 -139z" />
    <glyph glyph-name="seven" unicode="7" horiz-adv-x="954" 
d="M98 0q-19 0 -24 12t8 27l1087 1288q-83 -18 -163 -18q-62 0 -228 21.5t-229 21.5q-137 0 -234 -115l-20 14q208 238 375 238q67 0 229 -21.5t246 -21.5q88 0 151 31l11 -17l-1041 -1440q-14 -20 -39 -20h-129z" />
    <glyph glyph-name="eight" unicode="8" horiz-adv-x="1124" 
d="M358 -14q-141 0 -236 68.5t-95 187.5q0 290 510 508q-69 61 -107.5 124.5t-38.5 147.5q0 120 76.5 226.5t204 170.5t270.5 64t216 -63.5t73 -153.5q0 -151 -130.5 -272t-355.5 -195q5 -4 16 -12q45 -34 68 -52t58 -51.5t52.5 -60.5t31.5 -65.5t14 -78.5
q0 -127 -89.5 -241.5t-235 -183t-302.5 -68.5zM182 266q0 -107 68.5 -176.5t189.5 -69.5q53 0 107 16t103.5 48.5t88 76.5t61.5 105.5t23 130.5q0 37 -12 71.5t-29 60t-47.5 56t-53.5 49t-63 50t-61 49.5q-375 -175 -375 -467zM539 1104q0 -89 48 -154.5t138 -134.5
q155 60 256.5 182.5t101.5 249.5q0 92 -53 146.5t-153 54.5q-146 0 -242 -103t-96 -241z" />
    <glyph glyph-name="nine" unicode="9" horiz-adv-x="1126" 
d="M967 1481q131 0 207.5 -86.5t76.5 -241.5q0 -209 -102 -414t-268.5 -362.5t-390.5 -264t-459 -128.5l-2 28q184 19 344 86t271.5 158t199 206.5t138.5 224t79 218.5q-151 -189 -321.5 -308.5t-303.5 -119.5q-91 0 -147 57.5t-56 163.5q0 84 36.5 189t105.5 208.5
t157.5 190.5t203 141t231.5 54zM401 754q0 -191 150 -191q101 0 248.5 113t275.5 287q15 76 15 139q0 162 -51 243.5t-165 81.5q-102 0 -194.5 -73.5t-151 -180t-93 -219.5t-34.5 -200z" />
    <glyph glyph-name="colon" unicode=":" horiz-adv-x="413" 
d="M4 -27q-27 0 -57.5 26t-30.5 60q0 46 44 98t87 52q28 0 55 -30.5t27 -65.5q0 -41 -42.5 -90.5t-82.5 -49.5zM371 778q-27 0 -57.5 26t-30.5 60q0 46 44 98t87 52q28 0 55 -30.5t27 -65.5q0 -41 -42.5 -90.5t-82.5 -49.5z" />
    <glyph glyph-name="semicolon" unicode=";" horiz-adv-x="450" 
d="M-168 -227q162 108 162 168q1 24 -27 57.5t-28 54.5q-2 41 44.5 98.5t88.5 57.5q38 0 62 -40.5t24 -84.5q0 -33 -19.5 -69.5t-48 -68t-73.5 -69t-82.5 -64.5t-88.5 -61zM371 778q-27 0 -57.5 26t-30.5 60q0 46 44 98t87 52q28 0 55 -30.5t27 -65.5q0 -41 -42.5 -90.5
t-82.5 -49.5z" />
    <glyph glyph-name="less" unicode="&#x3c;" horiz-adv-x="929" 
d="M963 854l4 -25l-787 -200l633 -201l-8 -25l-674 213l2 25z" />
    <glyph glyph-name="equal" unicode="=" horiz-adv-x="847" 
d="M858 780l-10 -24h-668l10 24h668zM774 535l-10 -25h-668l10 25h668z" />
    <glyph glyph-name="greater" unicode="&#x3e;" horiz-adv-x="929" 
d="M61 403l-4 25l787 201l-633 200l8 25l674 -213l-2 -25z" />
    <glyph glyph-name="question" unicode="?" horiz-adv-x="786" 
d="M168 309q17 73 67 152t156 180q35 33 92.5 81t104 85.5t99 87.5t88.5 95t59.5 100.5t23.5 109.5q0 78 -55.5 127t-153.5 49q-186 0 -358 -180l-15 16q241 274 474 271q126 0 201 -64.5t75 -173.5q0 -68 -32.5 -132t-82.5 -112.5t-119 -100.5t-133.5 -92.5t-135.5 -93
t-117 -98.5q-33 -32 -56 -67.5t-34.5 -58t-20 -66t-10 -54.5t-6.5 -61h-111zM156 -27q-27 0 -57.5 26t-30.5 60q0 46 44 98t87 52q28 0 55 -30.5t27 -65.5q0 -41 -42.5 -90.5t-82.5 -49.5z" />
    <glyph glyph-name="at" unicode="@" horiz-adv-x="1941" 
d="M723 -348q-146 -2 -271 37.5t-218 114t-146 190.5t-53 260q0 166 61 327t164.5 292t240.5 243t287.5 188t307.5 119t299 43q178 0 317 -59.5t219 -174.5t80 -269q0 -112 -34.5 -217t-91.5 -186.5t-131 -152.5t-152 -121t-154.5 -86t-139.5 -53.5t-106 -17.5
q-63 0 -94 35.5t-31 91.5q0 91 88 274q-329 -405 -520 -405q-73 0 -108.5 55t-32.5 135q3 119 76.5 258t184.5 253.5t255 191.5t276 78q127 0 297 -56l35 -12q-109 -137 -244 -385.5t-135 -355.5q0 -40 17.5 -62t64.5 -22q28 0 67.5 12t89 38.5t98.5 65.5t96 97.5t83 128.5
t58 165.5t22 202.5q0 105 -35 190.5t-91.5 140t-131.5 91.5t-151 52.5t-154 15.5q-149 0 -303.5 -49.5t-292.5 -144.5t-246.5 -221t-172.5 -291.5t-64 -342.5q0 -114 27 -207t76 -157.5t112 -111.5t140 -73t154 -37.5t160 -9.5q118 3 227.5 33t197.5 80t155 102.5t125 114.5
l16 -14q-45 -55 -100 -107.5t-138 -111t-174.5 -101.5t-211.5 -72t-246 -30zM670 371q-4 -135 88 -135q154 0 487 440q63 106 168 260q-146 70 -276 70q-82 0 -158 -46t-130 -117.5t-95 -157.5t-62 -168t-22 -146z" />
    <glyph glyph-name="A" unicode="A" horiz-adv-x="2236" 
d="M305 -33q-172 0 -272.5 96.5t-100.5 243.5q0 154 105.5 294.5t275.5 225t351 84.5q79 0 171 -21t158 -45.5t169 -66t155 -59.5q341 368 647 788l-451 -6q-75 -1 -115.5 -24t-94.5 -82l-19 12q120 153 176 201q40 30 107 30h557q20 0 25.5 -7.5t0.5 -28.5
q-114 -510 -184 -898.5t-70 -478.5q0 -121 89 -121q36 0 78 25t106 84l16 -18q-112 -108 -192.5 -159.5t-143.5 -51.5q-55 0 -91 48t-32 144q6 152 80 533q-160 -131 -342 -131q-94 0 -211 24q-132 -139 -244.5 -243t-237 -198t-243 -144t-223.5 -50zM68 389
q0 -154 92.5 -244t230.5 -90q92 1 194 43.5t210 124t205 172t217 215.5q-85 23 -188.5 65.5t-177.5 77t-165.5 61t-169.5 26.5q-99 0 -184.5 -38.5t-142 -101.5t-89 -144t-32.5 -167zM1352 707q139 -48 247 -48q117 0 213 84q69 340 156 717q-311 -422 -616 -753z" />
    <glyph glyph-name="B" unicode="B" horiz-adv-x="1544" 
d="M522 -14q-318 0 -512 24q-22 2 -22 15q0 14 82 75l8 6l35 25q34 25 61.5 64t67.5 110q88 155 237 463.5t242 468.5q40 71 88.5 120.5t124.5 94.5l92 51h-446q-73 -1 -113 -24.5t-98 -83.5l-17 12q5 6 23.5 30t24 30.5t21 26t22.5 27.5t20.5 23.5t22 24t20 19.5t22.5 20
q38 30 105 30h622q200 0 293.5 -69.5t93.5 -177.5q0 -131 -99.5 -239.5t-248.5 -170.5q90 -18 145.5 -79.5t55.5 -153.5q-1 -137 -93.5 -277.5t-233 -245.5t-315 -172t-331.5 -67zM188 143q70 -8 235 -18.5t290 -11.5q277 -3 438.5 146.5t169.5 408.5q3 114 -53.5 189
t-161.5 75h-250l18 33h224q73 0 137.5 22t109.5 57.5t78 80.5t48.5 90.5t15.5 87.5q-1 52 -22.5 90t-53.5 58.5t-81.5 32.5t-93.5 15.5t-101 3.5h-56q-17 -11 -31.5 -23.5t-28 -28t-22.5 -26.5t-21.5 -31t-18.5 -29t-20 -34t-19 -33q-93 -159 -237.5 -461.5t-229.5 -451.5
q-38 -69 -78.5 -112t-100.5 -78z" />
    <glyph glyph-name="C" unicode="C" horiz-adv-x="1419" 
d="M698 -16q-165 0 -292 69t-195 190.5t-68 276.5q0 174 68.5 346t188.5 312t273.5 248.5t335 168.5t361.5 60q114 0 221 -18t168.5 -43t61.5 -48q0 -41 -48 -84t-110 -43q-65 0 -211 51t-315 127q-164 -37 -313 -126t-262 -213.5t-181.5 -287t-71.5 -335.5
q-5 -230 132.5 -378t377.5 -148q260 0 451 188l18 -18q-284 -295 -590 -295z" />
    <glyph glyph-name="D" unicode="D" horiz-adv-x="1822" 
d="M633 -14q-302 0 -496 24q-22 2 -22 15q0 12 78 73l43 33q10 8 20.5 17.5t17.5 16.5t17 20.5t14.5 19.5t15.5 23.5t14 22.5t16 27t16 27q88 155 238 462.5t243 467.5q43 77 91.5 128.5t121.5 90.5l139 74l14 -19q-51 -36 -85.5 -81t-75.5 -116q-6 -11 -9 -16
q-93 -160 -238.5 -461t-230.5 -450q-41 -71 -80 -113t-98 -77l-84 -52q74 -9 236 -18.5t313 -9.5q196 -1 355 55.5t264 157.5t161.5 240t55.5 304q0 204 -94.5 361t-259.5 240.5t-373 82.5q-141 0 -263.5 -43t-213.5 -108l-17 22q151 107 309.5 166.5t343.5 59.5
q158 0 295.5 -56t229.5 -147t145 -207t53 -237q0 -178 -71.5 -341t-193 -284.5t-277.5 -211.5t-331 -136.5t-347 -46.5z" />
    <glyph glyph-name="E" unicode="E" horiz-adv-x="1411" 
d="M-16 0q-17 0 -22 4.5t-5 15.5q0 14 82 78l41 33q24 18 48 47.5t39 53.5t44 73q36 63 76.5 141.5t61.5 121t71.5 147.5t60.5 127h-188v32h203q124 254 190 367q43 77 91.5 128t121.5 87l88 41h-428q-52 0 -91 -15t-60 -32.5t-62 -60.5l-16 12q13 16 45.5 58.5t47 60.5
t38.5 44.5t45 43.5q38 30 106 30h1057q119 0 119 -71q0 -54 -60.5 -120t-185.5 -161l-16 23q133 100 133 145q0 25 -22 34t-78 9h-521q-36 -25 -66 -60t-43.5 -57t-45.5 -77q-68 -115 -219 -429h667v-32h-682q-156 -329 -229 -457q-41 -71 -80 -113t-98 -77l-90 -54h870
q74 0 114.5 24t96.5 85l18 -12q-12 -15 -37 -47.5t-38 -48.5t-32.5 -39.5t-36 -40.5t-32.5 -31q-39 -31 -112 -31h-979z" />
    <glyph glyph-name="F" unicode="F" horiz-adv-x="1554" 
d="M111 0q-23 0 -23 16t88 86l33 29q35 27 64.5 67.5t66.5 106.5q93 162 272 537h-178v32h195q108 229 198 383q42 74 89.5 123.5t121.5 89.5l54 27h-465q-52 0 -90.5 -15t-58.5 -32t-62 -61l-19 12q18 22 47 59.5t46 58.5t40 46.5t43 42.5q40 30 107 30h1120q119 0 119 -71
q1 -54 -59.5 -119.5t-186.5 -161.5l-14 23q133 100 133 145q0 24 -22.5 33.5t-77.5 9.5h-535q-29 -24 -54.5 -55.5t-39.5 -54t-41 -68.5q-96 -163 -227 -445h616v-32h-633q-141 -301 -229 -457q-41 -71 -80 -113t-98 -77l-101 -60h4l283 8q21 0 21 -12q0 -11 -29 -55
t-51 -62q-16 -14 -60 -14h-327z" />
    <glyph glyph-name="G" unicode="G" horiz-adv-x="1613" 
d="M684 -16q-165 0 -292 69t-195 190.5t-68 276.5q0 146 48.5 290.5t132.5 267.5t200 230t247.5 182t279 119t290.5 46q181 1 319 -33t138 -74q0 -37 -47.5 -82t-106.5 -45q-113 0 -510 183q-163 -39 -311.5 -129.5t-261.5 -216t-181 -288t-71 -335.5q-3 -150 56.5 -268.5
t178.5 -188t279 -69.5q130 0 242.5 58t214.5 206l125 307l-508 -16q-23 0 -23 14q0 13 29 58.5t49 64.5q12 10 59 10l557 -2h27q19 0 8 -27q-104 -272 -196 -480.5t-139 -300t-109 -200.5q-62 -107 -164 -188q-38 -29 -106 -61t-105.5 -45.5t-120.5 -43.5l-12 25
q112 38 180 98.5t144 177.5q128 199 260 500q-121 -148 -260 -214t-277 -66z" />
    <glyph glyph-name="H" unicode="H" horiz-adv-x="1855" 
d="M1354 -16q-50 0 -79.5 34t-29.5 91q0 47 26.5 120.5t92.5 206.5l203 406h-723q-132 -274 -219 -434q-61 -108 -184 -205.5t-263.5 -155.5t-257.5 -61q-145 -5 -145 37q0 36 40 71t89 35q28 0 70 -6.5t106.5 -18t109.5 -18.5q60 24 111 72.5t109 148.5q29 50 56.5 102
t58 113t49.5 100.5t54.5 114.5t49.5 105h-191v32h207q113 236 203 392q43 76 93.5 126t137.5 93l58 28l-473 -12q-75 -1 -116 -24.5t-95 -81.5l-19 12q120 153 176 201q40 30 105 30h573q23 0 23 -16q0 -12 -42.5 -51t-70.5 -55q-17 -9 -33.5 -22.5t-27 -24t-26 -33.5
t-21 -31.5t-23.5 -39.5t-22 -38q-79 -134 -236 -453h725l186 373q87 172 225.5 306t292.5 204t298 70q143 0 143 -37q0 -35 -38.5 -69.5t-82.5 -34.5q-28 0 -69 7t-115.5 23.5t-102.5 22.5q-86 -32 -155 -100t-137 -205l-478 -959q-133 -269 -133 -328q0 -57 56 -57
q75 0 208 139l19 -20q-118 -116 -200.5 -170.5t-145.5 -54.5z" />
    <glyph glyph-name="I" unicode="I" horiz-adv-x="825" 
d="M-195 0q-22 0 -22 18q0 12 33 48t61 55q18 12 45 12h182q56 45 89.5 88t66.5 103q82 144 234 462t245 480q43 77 92.5 125t139.5 90l53 24h-250q-56 0 -97 -7.5t-73.5 -27.5t-49.5 -35t-50 -49l-17 13q115 147 175 198q26 21 62 31t107 10h539q19 0 19 -14
q0 -12 -28.5 -47.5t-53.5 -56.5q-21 -15 -52 -15h-168q-49 -32 -80.5 -72t-70.5 -106q-99 -169 -255 -494.5t-222 -447.5q-45 -79 -89.5 -123.5t-140.5 -91.5l-71 -37h237q56 0 97 8t73.5 27.5t50.5 35t50 48.5l16 -12q-46 -58 -65 -81.5t-50.5 -59t-58.5 -58.5
q-26 -21 -62.5 -31t-107.5 -10h-533z" />
    <glyph glyph-name="J" unicode="J" horiz-adv-x="1136" 
d="M-61 -365q-102 0 -158.5 64t-56.5 180q0 129 75.5 273.5t226.5 284t349 231.5l14 -27q-122 -59 -220 -146.5t-157 -181.5t-89.5 -187.5t-28.5 -176.5q2 -107 43.5 -168.5t125.5 -61.5q57 0 115 29.5t110 78.5t108.5 124.5t105.5 155.5t106 184q87 156 243 480.5
t251 488.5q42 75 92.5 124t138.5 93l68 34h-754q-40 0 -68.5 -6t-55.5 -23.5t-42 -31t-47 -45.5l-16 10q5 6 23.5 30t24 30.5t21 26t22.5 27.5t20.5 23.5t22 24t20 19.5t22.5 20q39 31 108 31l852 -2q25 0 25 -17q0 -11 -41.5 -51t-67.5 -57q-40 -22 -72 -54t-49.5 -58
t-44.5 -73q-5 -9 -8 -14q-92 -158 -239.5 -472t-231.5 -460q-193 -331 -442 -542.5t-444 -211.5z" />
    <glyph glyph-name="K" unicode="K" horiz-adv-x="1673" 
d="M-242 -14q-145 -5 -145 37q0 36 40 71t89 35q28 0 70 -6.5t107 -18t110 -18.5q60 23 110.5 72t108.5 149q87 152 240.5 475t246.5 484q43 76 93.5 126t138.5 93l57 28l-473 -12q-75 -1 -116 -24.5t-95 -81.5l-18 12q120 153 176 201q40 30 104 30h574q22 0 22 -16
q0 -12 -42.5 -51t-70.5 -55q-17 -9 -33.5 -22.5t-27 -24t-26 -33.5t-21 -31.5t-23.5 -39.5t-22 -38q-45 -78 -95 -174t-80.5 -157.5t-87.5 -179.5t-77 -159q232 209 492 422t403 318q355 258 602 258q47 0 87 -9.5t40 -31.5q0 -38 -45 -79.5t-96 -41.5q-85 0 -273 55
q-128 -49 -297 -178q-225 -170 -442 -352q49 -453 125.5 -692.5t167.5 -239.5q70 0 207 137l18 -18q-224 -221 -332 -221q-97 0 -181 240t-126 694q-254 -219 -393 -347q-84 -160 -86 -163q-61 -108 -184 -205.5t-263.5 -155.5t-257.5 -61z" />
    <glyph glyph-name="L" unicode="L" horiz-adv-x="1372" 
d="M807 -20q-213 0 -354 4l-578 16q-16 0 -21.5 4.5t-5.5 15.5q0 18 123 107q15 10 39 10l111 -2q74 51 131.5 131t101 188.5t76 211.5t78 249t86.5 252q51 132 134.5 229t186 151.5t210.5 80t225 25.5q145 0 246.5 -25t101.5 -57q0 -39 -45 -76t-86 -37q-22 0 -44.5 2.5
t-52.5 10.5t-51.5 14.5t-63.5 22t-64.5 24t-78.5 30.5l-84 33q-39 -9 -66.5 -20.5t-66 -42.5t-72 -79.5t-76 -133t-87.5 -201.5q-66 -171 -105.5 -270t-94.5 -218t-99 -188q-66 -104 -132 -176t-157 -133l313 -8l355 -6q45 0 84 3.5t65.5 6.5t56 14.5t42.5 15.5t37.5 22
t29 21t29.5 26t26 24l17 -14q-13 -16 -41 -49.5t-41 -49t-33.5 -38.5t-37.5 -39.5t-34 -30.5q-20 -16 -36.5 -25t-68 -18t-128.5 -8z" />
    <glyph glyph-name="M" unicode="M" horiz-adv-x="2357" 
d="M1892 -16q-50 0 -77 34t-27 88q0 146 149 562.5t355 816.5l-1170 -1327q-10 -13 -30 -95q-1 -21 -61 -46q-66 -28 -88 -16q-6 4 -5 11q107 798 172 1465q-245 -460 -510 -828q-480 -660 -858 -663q-75 -2 -142 11.5t-67 39.5q0 36 42.5 72t92.5 36q34 0 82.5 -6.5
t127.5 -19t128 -19.5q234 116 567 570q267 363 523 846l-537 -13q-75 -3 -115.5 -26t-97.5 -82l-16 12q5 6 23.5 30t24 30.5t21 26t22.5 27.5t20.5 23.5t22 24t20 19.5t22.5 20q38 30 108 30h617q19 0 25 -7.5t4 -28.5q-8 -131 -20 -269t-31.5 -319t-28.5 -264t-36 -308
t-30 -249l1253 1427q15 18 37 18h88q17 0 23.5 -11t-0.5 -28q-236 -456 -392.5 -877.5t-156.5 -571.5q0 -58 53 -58q69 0 203 137l16 -20q-225 -225 -346 -225z" />
    <glyph glyph-name="N" unicode="N" horiz-adv-x="1890" 
d="M1393 -18q-16 0 -21 32l-194 1461q-192 -437 -416 -801q-78 -126 -143 -218.5t-146.5 -185.5t-158 -151.5t-168 -95t-187.5 -37.5q-78 0 -143.5 13t-65.5 38q0 36 42.5 72t92.5 36q42 0 159 -19t177 -26q218 108 512 590q220 359 426 821l-524 -8q-75 -1 -115.5 -25
t-95.5 -83l-18 12q120 153 176 201q40 30 108 30h586q19 0 25 -7.5t8 -28.5l188 -1366l387 804q43 88 73.5 145.5t69 123.5t70.5 107t74 85t84.5 69t95 46t113.5 30t133 9q164 0 164 -41q0 -36 -40 -74.5t-83 -38.5q-32 0 -73.5 6t-122 21t-136.5 24q-81 -25 -166 -133
t-188 -319q-353 -718 -439 -912q-49 -111 -75 -158.5t-45 -47.5z" />
    <glyph glyph-name="O" unicode="O" horiz-adv-x="1814" 
d="M881 -16q-161 0 -291 55t-213.5 150t-127.5 219.5t-44 267.5q0 150 56.5 298.5t153.5 269t219 214.5t262 145.5t273 51.5q158 0 284 -54.5t205.5 -149t121.5 -219.5t41 -269q-1 -146 -54 -292.5t-145.5 -268t-210 -216.5t-256 -148.5t-274.5 -53.5zM1022 80
q144 0 268.5 65t207.5 170.5t130 239.5t47 274q1 334 -178 536t-459 202q-109 0 -214 -40t-190 -112t-150 -165.5t-100.5 -207t-35.5 -229.5q0 -216 84 -382.5t237.5 -258.5t352.5 -92z" />
    <glyph glyph-name="P" unicode="P" horiz-adv-x="1536" 
d="M145 0q-22 0 -22 16t123 115q35 30 62.5 68.5t66.5 105.5q89 156 228 488t231 491q42 74 90.5 124.5t122.5 90.5l8 4h-404q-52 0 -91 -15t-60 -32.5t-62 -60.5l-16 12q5 6 23.5 30t24 30.5t21 26t22.5 27.5t20.5 23.5t22 24t20 19.5t22.5 20q38 30 104 30h529
q128 0 228.5 -23.5t164.5 -62.5t105.5 -94t58 -113t16.5 -124q0 -99 -49 -202.5t-135.5 -189.5t-219 -141t-284.5 -55h-409q-60 -135 -123 -248q-38 -69 -78 -112t-100 -78l-109 -66l295 14q20 2 20 -12q0 -11 -29.5 -55t-50.5 -62q-16 -14 -59 -14h-328zM721 664h387
q135 0 241.5 41t170.5 110.5t96.5 154.5t32.5 179q0 179 -127 265.5t-383 88.5q-9 -9 -17.5 -19t-18 -22.5t-15 -20t-15.5 -24t-13.5 -22t-15.5 -25.5t-14 -24q-57 -98 -107.5 -208.5t-112 -260t-89.5 -213.5z" />
    <glyph glyph-name="Q" unicode="Q" horiz-adv-x="1857" 
d="M2081 -522q-69 0 -134 16.5t-117 41t-107.5 68.5t-94.5 81.5t-90 99.5t-82 103.5t-81.5 111t-78.5 106.5q-205 -122 -415 -122q-161 0 -291 55t-213.5 150t-127.5 219.5t-44 267.5q0 150 56.5 298.5t153.5 269t219 214.5t262 145.5t273 51.5q158 0 284 -54.5t205.5 -149
t121.5 -219.5t41 -269q-1 -211 -108 -413.5t-281 -346.5q42 -48 102 -123t103.5 -128.5t101.5 -118.5t110.5 -109.5t114 -84t129 -59.5t139.5 -20q80 0 154.5 36t118.5 80l16 -16q-196 -182 -440 -182zM1022 80q133 0 252 55q-56 73 -107 126.5t-113 100.5t-132.5 71
t-147.5 24q-121 0 -299 -99q89 -132 230 -205t317 -73zM348 813q0 -253 113 -432q244 145 428 145q148 0 272.5 -79t249.5 -222q124 107 194 269t70 335q1 334 -178 536t-459 202q-109 0 -214 -40t-190 -112t-150 -165.5t-100.5 -207t-35.5 -229.5z" />
    <glyph glyph-name="R" unicode="R" horiz-adv-x="1619" 
d="M57 0q-22 0 -22 16t123 115q35 30 62.5 68.5t66.5 105.5q89 156 227.5 488t230.5 491q42 74 90.5 124.5t122.5 90.5l9 4h-316q-52 0 -91 -15t-60 -32.5t-62 -60.5l-16 12q5 6 23.5 30t24 30.5t21 26t22.5 27.5t20.5 23.5t22 24t20 19.5t22.5 20q38 30 104 30h529
q107 0 190.5 -15.5t137.5 -41.5t89 -64t49.5 -80.5t14.5 -93.5q0 -95 -44.5 -186t-122.5 -162.5t-194.5 -115t-250.5 -43.5h-2q76 -402 138.5 -575t135.5 -173q60 0 162 96l18 -20q-100 -94 -164.5 -137t-109.5 -43q-108 0 -183.5 198t-152.5 654h-237q-108 -272 -209 -451
q-38 -69 -78.5 -112t-100.5 -78l-98 -60h2l293 8q18 0 18 -12q0 -11 -28 -55t-49 -62q-16 -14 -60 -14h-338zM717 866h401q110 0 196 32.5t137.5 88t78 124.5t26.5 146q-1 71 -33 120.5t-92.5 76t-134 38t-170.5 11.5h-75q-9 -9 -17.5 -19t-18 -22.5t-15 -20t-15.5 -24
t-13.5 -22t-15.5 -25.5t-14 -24q-42 -71 -87 -166t-65.5 -142t-72.5 -172z" />
    <glyph glyph-name="S" unicode="S" horiz-adv-x="1300" 
d="M401 -12q-174 0 -322.5 42.5t-146.5 88.5q2 36 53.5 76.5t104.5 40.5q19 0 55.5 -10t92.5 -30.5t107.5 -40.5t134.5 -53t141 -55q68 12 133.5 35.5t126 60.5t106 83t73 107.5t27.5 129.5q0 37 -13.5 72t-32 61t-52.5 53t-61.5 44.5t-73 39t-72 32.5t-73.5 30l-15 6
q-45 18 -71.5 29t-70.5 32t-71 39t-60 45t-51 54.5t-31 64t-13 76.5q0 104 73 199.5t193.5 164t282 109.5t333.5 41q124 0 204.5 -16.5t111 -40t30.5 -54.5q0 -49 -61 -115t-184 -159l-15 22q70 53 99.5 85t29.5 57q0 54 -119.5 90.5t-289.5 36.5q-247 0 -407.5 -88.5
t-160.5 -231.5q0 -56 25 -100.5t81.5 -83.5t117.5 -68t164 -69q44 -18 76 -32t74 -35.5t72 -42t62 -48t51.5 -56.5t32 -65t12.5 -76q0 -147 -110.5 -280.5t-299 -215t-403.5 -81.5z" />
    <glyph glyph-name="T" unicode="T" horiz-adv-x="1189" 
d="M328 0q-23 0 -23 16t123 115q67 64 129 174q94 165 244.5 478.5t228.5 453.5q43 74 91 124t122 89l88 45h-661q-52 0 -91 -14.5t-60 -32.5t-60 -59l-19 12q5 6 21.5 27t21.5 27.5t19.5 25t21 26t19 22.5t20.5 23t18.5 19.5t20 20t19.5 16.5q38 30 106 30h1276
q25 0 25 -14q0 -12 -34.5 -49.5t-64.5 -65.5q-16 -14 -59 -14h-481q-29 -20 -51 -40.5t-44 -52t-31.5 -46.5t-35.5 -60q-83 -144 -228 -450t-233 -461q-39 -70 -78.5 -112.5t-99.5 -77.5l-109 -66l295 14q21 0 21 -12q0 -11 -29 -55t-51 -62q-16 -14 -60 -14h-327z" />
    <glyph glyph-name="U" unicode="U" horiz-adv-x="1730" 
d="M500 -16q-122 0 -201.5 83.5t-79.5 204.5q0 112 61 254.5t148 275t174 258.5t148 240t61 185q0 41 -25 68.5t-69 27.5q-49 0 -118 -37.5t-134 -99.5l-21 24q98 87 194 137t173 50q88 0 133 -51.5t45 -114.5q0 -75 -60.5 -194t-147 -247.5t-173 -260t-147 -264
t-60.5 -226.5q0 -108 56.5 -160.5t140.5 -52.5q286 0 840 717l473 815q14 22 39 22h106q19 0 25 -11t-4 -28q-508 -864 -623 -1107q-104 -213 -104 -291q0 -43 21 -63.5t54 -20.5q76 0 179 96l16 -20q-109 -100 -198 -154.5t-142 -54.5q-60 0 -94.5 44t-34.5 105
q0 125 102 326l99 184q-277 -344 -489.5 -501.5t-362.5 -157.5z" />
    <glyph glyph-name="V" unicode="V" horiz-adv-x="1714" 
d="M870 -6q-35 0 -28 33l225 1214q51 273 -123 268l-272 -6q-75 -3 -114 -25.5t-97 -82.5l-19 12q10 12 37.5 46.5t38.5 48t31.5 37t36.5 39.5t32 30q40 30 109 30h643q31 0 14 -26l-51 -76q-12 -18 -47 -18l-235 -7q83 -33 121.5 -80t42.5 -113.5t-15 -158.5l-180 -977
l942 1147q19 46 56.5 140.5t60.5 146.5t45 86q65 98 168 98q32 0 50.5 -11t18.5 -26q0 -24 -67 -100q-30 -34 -89 -101.5t-113 -129.5t-103 -121l-1071 -1301q-13 -16 -39 -16h-9z" />
    <glyph glyph-name="W" unicode="W" horiz-adv-x="2582" 
d="M858 -6q-32 0 -29 33l224 1214q10 56 11.5 100t-8 85t-40.5 62.5t-82 20.5l-275 -6q-75 -3 -115.5 -26t-94.5 -82l-19 12q120 153 176 201q40 30 109 30h641q14 0 19 -6t-1 -16l-57 -82q-11 -16 -45 -16l-242 -7q87 -38 126.5 -83.5t44.5 -110.5t-13 -158l-174 -948
l1022 1407q14 20 39 20h10q14 0 22 -9.5t7 -24.5l-168 -1422l907 1147q14 36 43 110.5t43.5 110t35.5 80.5t38 72q65 98 168 98q32 0 50.5 -11t18.5 -26q0 -23 -65 -100q-23 -26 -89.5 -99.5t-118 -132.5t-100.5 -120l-1030 -1301q-16 -16 -39 -16h-8q-31 0 -28 33l182 1423
l-1047 -1440q-13 -16 -41 -16h-8z" />
    <glyph glyph-name="X" unicode="X" horiz-adv-x="1558" 
d="M1139 -16q-50 0 -72.5 32.5t-30.5 100.5l-75 588l-687 -723q-10 -11 -26 -28.5t-25 -27t-20.5 -20t-21 -15t-17.5 -4.5q-23 1 -38 27.5t-15 56.5q0 81 49 121l796 645l-79 613q-6 50 -11.5 79.5t-16.5 58.5t-27.5 41.5t-41.5 12.5q-42 0 -102.5 -40.5t-122.5 -110.5
l-25 18q34 37 73.5 74t90 78.5t100.5 67.5t87 26q32 0 56 -13.5t39 -34.5t27 -58t18 -72t13 -88l66 -521l729 832q63 71 83 85q14 9 25 9q25 -1 40.5 -28t15.5 -56q0 -77 -49 -121l-838 -760l84 -659q5 -41 15.5 -59.5t31.5 -18.5q62 0 203 144l16 -21q-231 -231 -317 -231z
" />
    <glyph glyph-name="Y" unicode="Y" horiz-adv-x="1458" 
d="M629 0q-23 0 -23 16q0 15 78 80l6 4l37 31q45 43 74 83t65 110q57 109 101 225.5t47 179.5q-3 235 -84 578q-9 40 -15.5 64t-18 53t-24 44.5t-32.5 26.5t-45 12l-158 -4q-75 -3 -116 -26.5t-95 -81.5l-18 12q120 153 176 201q38 30 108 30h500q30 0 16 -26l-51 -78
q-14 -18 -47 -18l-225 -7q150 -34 188 -172q28 -104 56 -270.5t36 -341.5l711 975q70 95 104 92q24 0 39 -26.5t15 -57.5q0 -70 -37 -111l-834 -923q-7 -20 -29 -86t-38.5 -109.5t-38.5 -93.5q-33 -72 -70 -113t-98 -77l-88 -54l311 2q25 2 25 -12q0 -13 -29 -55.5
t-51 -61.5q-16 -14 -60 -14h-368z" />
    <glyph glyph-name="Z" unicode="Z" horiz-adv-x="1417" 
d="M-98 0q-17 0 -22 4.5t-5 15.5q0 5 7.5 15t20.5 23t25.5 24.5t29 26.5t24.5 22l907 731q425 334 776 633l-883 2q-33 0 -59 -7t-52 -26.5t-38 -31t-43 -43.5l-17 12q18 22 47 59.5t46 58.5t40 46.5t44 42.5q38 30 102 30h1053q9 -1 13.5 -4.5t4.5 -5.5v-10q0 -6 -7 -14.5
t-21 -20t-28 -22t-35 -26t-34 -26.5q-508 -367 -895 -678q-494 -394 -799 -688h955q33 0 59.5 7t51 25.5t38 31.5t41.5 43l19 -12q-18 -22 -47 -59.5t-46 -58.5t-40 -46.5t-43 -42.5q-39 -31 -103 -31h-1087z" />
    <glyph glyph-name="bracketleft" unicode="[" horiz-adv-x="505" 
d="M707 1579q6 16 24 16h520l-12 -22h-414q-10 0 -18 -19l-1026 -2086q-3 -8 0.5 -12.5t17.5 -4.5l402 2l-11 -22h-512q-16 0 -10 16z" />
    <glyph glyph-name="backslash" unicode="\" horiz-adv-x="579" 
d="M414 -553h-31l-215 2191h31z" />
    <glyph glyph-name="bracketright" unicode="]" horiz-adv-x="528" 
d="M-719 -569l12 22h414q11 0 19 19l1026 2087q3 8 -1 12t-18 4l-401 -2l10 22h512q16 0 10 -16l-1036 -2132q-6 -16 -25 -16h-522z" />
    <glyph glyph-name="asciicircum" unicode="^" horiz-adv-x="741" 
d="M788 1018q-45 148 -77 344l-379 -326l-17 23l449 381q20 17 27 -10q38 -200 88 -375z" />
    <glyph glyph-name="underscore" unicode="_" horiz-adv-x="706" 
d="M-182 -313l20 43h723l-16 -43h-727z" />
    <glyph glyph-name="a" unicode="a" horiz-adv-x="1196" 
d="M762 -16q-59 0 -85 36t-26 82q0 186 230 560q-271 -325 -458 -502t-280 -176q-68 3 -100.5 53.5t-32.5 122.5q1 107 49.5 231t132.5 237t188.5 206.5t228.5 149.5t241 56q68 0 161.5 -12.5t166.5 -36.5l26 -8q17 -5 21 -16.5t-6 -26.5q-168 -250 -256 -418
q-132 -256 -132 -362q0 -60 56 -60q68 0 190 113l17 -20q-232 -209 -332 -209zM180 213q0 -47 16.5 -82t53.5 -35q70 0 266 195.5t488 558.5l26 39q-193 76 -328 76q-104 0 -204 -80.5t-167.5 -197.5t-109 -245.5t-41.5 -228.5z" />
    <glyph glyph-name="b" unicode="b" horiz-adv-x="1126" 
d="M295 -14q-84 0 -145 35.5t-89 94.5t-21.5 139t50.5 165l293 551q102 192 256.5 344.5t354.5 245t407 92.5q178 0 178 -45q0 -38 -50.5 -85.5t-117.5 -47.5q-33 0 -85.5 10t-90 19.5t-141.5 37.5l-45 12q-139 -54 -235.5 -151t-201.5 -299l-352 -676q183 218 354 373
q255 240 379 237q57 0 90 -47.5t33 -113.5q0 -114 -48.5 -241.5t-133 -241t-188 -206.5t-223 -147.5t-228.5 -54.5zM424 61q89 0 173 51.5t146.5 133.5t110 181t72 198t24.5 180q0 127 -73 127q-37 0 -102.5 -40.5t-143.5 -111.5q-204 -185 -418 -450q-12 -69 3.5 -123
t49 -84.5t74.5 -46t84 -15.5z" />
    <glyph glyph-name="c" unicode="c" horiz-adv-x="907" 
d="M274 -14q-116 -1 -178.5 72.5t-62.5 177.5q0 130 70.5 273.5t181.5 260t259 192.5t292 76q75 0 136.5 -14.5t61.5 -40.5q0 -45 -40.5 -83t-84.5 -38q-45 0 -109.5 21.5t-195.5 74.5q-95 -25 -188.5 -134.5t-150.5 -255t-54 -269.5q2 -94 51 -148.5t139 -54.5
q149 0 320 154l18 -19q-129 -119 -255.5 -182t-209.5 -63z" />
    <glyph glyph-name="d" unicode="d" horiz-adv-x="995" 
d="M244 -12q-95 0 -153 69.5t-58 175.5q0 122 70.5 266t178.5 262.5t249 198.5t270 80q101 0 184 -20q57 208 57 369q0 174 -120 174q-115 0 -285 -166l-16 18q111 111 220 175.5t193 64.5q94 0 138.5 -59.5t44.5 -159.5q1 -107 -44 -259.5t-119.5 -311.5t-176 -317.5
t-207.5 -282t-219 -200.5t-207 -77zM209 281q0 -90 36 -144.5t107 -54.5q80 0 167 68.5t164 182.5t144 253.5t117 290.5q-156 75 -297 75q-81 0 -154 -44.5t-124.5 -116t-89 -160t-55 -179.5t-15.5 -171z" />
    <glyph glyph-name="e" unicode="e" horiz-adv-x="897" 
d="M266 -14q-118 -1 -179.5 69.5t-61.5 169.5q0 88 36 186t96 186.5t140.5 170.5t167 141.5t178 95t170.5 35.5q78 0 119 -31.5t41 -86.5q0 -69 -65 -147t-229.5 -198.5t-473.5 -314.5q9 -76 56.5 -120t133.5 -44q149 0 316 150l16 -19q-128 -118 -253 -180.5t-208 -62.5z
M203 291q331 207 463.5 331t132.5 234q0 50 -33.5 78.5t-85.5 28.5q-94 0 -185 -67t-154.5 -167t-101.5 -217.5t-36 -218.5v-2z" />
    <glyph glyph-name="f" unicode="f" horiz-adv-x="667" 
d="M-571 -426q-66 0 -66 37q0 38 44.5 84.5t96.5 46.5q21 0 49.5 -2.5t52 -5.5t66 -8.5t70.5 -8.5q41 24 72.5 50t75.5 79.5t96 147.5t112 229l334 752h-166l15 29h163q136 291 385 470t527 179q190 0 190 -47q0 -41 -49.5 -86t-116.5 -45q-37 0 -91.5 11.5t-96 23
t-158.5 46.5q-101 -30 -190 -129.5t-172 -283.5l-62 -139h244l-14 -29h-244l-266 -600q-67 -152 -175 -298t-229.5 -256.5t-253.5 -178.5t-243 -68z" />
    <glyph glyph-name="g" unicode="g" horiz-adv-x="1134" 
d="M-57 -567q-109 0 -162.5 41.5t-48.5 107.5q3 47 48 102t130 105l14 -12q-39 -60 -39 -113q0 -68 50 -112t155 -44q56 0 119 23t108 57q62 48 125.5 147.5t115.5 210t151.5 314t195.5 379.5l47 88q-292 -357 -490.5 -550.5t-295.5 -192.5q-69 3 -101 53t-32 123
q1 90 36 192t93.5 198.5t140.5 186t173 156.5t194.5 107t201.5 40q69 0 167 -12t171 -35l13 -4q29 -10 12 -41l-272 -518q-188 -359 -330 -551.5t-301 -312.5q-182 -133 -389 -133zM203 213q0 -47 16 -82t53 -35q69 0 261 193.5t485 558.5l24 47q-75 29 -164 49.5t-153 20.5
q-85 0 -167 -53t-144.5 -137t-111 -184t-74 -199.5t-25.5 -178.5z" />
    <glyph glyph-name="h" unicode="h" horiz-adv-x="1173" 
d="M-57 0q-17 0 -24 11t1 26l514 950q73 136 180 255.5t237 211.5t284.5 145.5t310.5 53.5q176 0 176 -43q0 -40 -52.5 -87.5t-123.5 -47.5q-16 0 -32 1.5t-37.5 5.5t-38.5 7t-49.5 11.5t-53 14t-67.5 17.5t-76 20q-139 -47 -234 -145t-203 -303l-374 -713q156 204 321 361
q136 133 256 210.5t193 77.5q51 0 77.5 -33t26.5 -79q0 -62 -56 -179t-123 -225.5t-123 -216.5t-56 -155q0 -56 57 -56q64 0 193 117l16 -20q-110 -100 -197.5 -154.5t-134.5 -54.5q-41 0 -68 20t-36 45t-9 53q0 71 56.5 190t124 224t124 210t56.5 151q0 57 -55 57
q-52 0 -126.5 -51.5t-179.5 -151.5q-227 -215 -419 -498l-111 -208q-12 -25 -37 -25h-108z" />
    <glyph glyph-name="i" unicode="i" horiz-adv-x="595" 
d="M133 -16q-56 0 -84.5 37.5t-28.5 84.5q0 66 61 187t134 230t134 213.5t61 142.5q0 51 -52 51q-70 0 -200 -119l-17 20q232 209 344 209q52 0 77.5 -32.5t25.5 -73.5q0 -61 -58.5 -174t-128 -217t-128 -209.5t-58.5 -153.5q0 -63 61 -63q74 0 177 96l16 -20
q-232 -209 -336 -209zM928 1524q48 45 59 45q14 0 14 -27q0 -26 -8 -38.5t-35 -33.5l-389 -303l-12 17z" />
    <glyph glyph-name="j" unicode="j" horiz-adv-x="534" 
d="M-571 -426q-66 0 -66 37q0 38 45 84.5t98 46.5q25 0 60.5 -4t87.5 -10.5t92 -10.5q51 29 93 71.5t108.5 150t150.5 284.5q238 496 267 566q24 61 24 88q0 53 -53 53q-71 0 -201 -119l-16 20q232 209 342 209q53 0 77.5 -31.5t26.5 -74.5q0 -53 -53 -175.5t-186 -396.5
q-73 -150 -180.5 -293t-227 -252.5t-249.5 -176t-240 -66.5zM903 1528q48 45 60 45q14 0 14 -27q0 -25 -8 -37.5t-35 -33.5l-389 -304l-13 17z" />
    <glyph glyph-name="k" unicode="k" horiz-adv-x="1138" 
d="M-57 0q-17 0 -24 11t1 26l514 950q73 136 180 255.5t237 211.5t284.5 145.5t310.5 53.5q176 0 176 -43q0 -40 -52.5 -87.5t-123.5 -47.5q-16 0 -32 1.5t-37.5 5.5t-38.5 7t-49.5 11.5t-53 14t-67.5 17.5t-76 20q-139 -47 -234 -145t-203 -303l-272 -516
q119 137 254 243.5t241 157.5t173 53q77 1 119 -31t42 -89q0 -32 -16 -69.5t-59.5 -86.5t-110.5 -97t-179 -102t-255 -100q10 -34 15 -50.5t18 -56t22.5 -62.5t24 -58.5t28 -56.5t29.5 -43t33.5 -32t34.5 -10q69 0 186 117l18 -18q-213 -213 -301 -213q-33 0 -66 33
t-57.5 77t-50.5 112t-40 114t-31 106q-7 -2 -20.5 -5t-20.5 -5l-6 26q174 45 302.5 100t199.5 110.5t104 107t33 100.5q0 41 -27.5 66.5t-69.5 25.5q-70 0 -196 -79t-250.5 -198t-194.5 -229l-221 -421q-12 -25 -37 -25h-108z" />
    <glyph glyph-name="l" unicode="l" horiz-adv-x="565" 
d="M102 -16q-57 0 -84.5 39t-27.5 90q0 124 129 354l291 520q76 138 180 256t232 211t285.5 146t322.5 53q167 0 167 -45q0 -39 -52 -86t-120 -47q-70 0 -315 67q-29 8 -45 12q-131 -46 -225.5 -144t-206.5 -306l-350 -645q-53 -97 -85 -180t-32 -123q0 -60 61 -60
q62 0 191 117l16 -20q-111 -100 -198.5 -154.5t-133.5 -54.5z" />
    <glyph glyph-name="m" unicode="m" horiz-adv-x="1814" 
d="M627 0q-18 0 -24.5 10t1.5 27l281 522q131 259 131 320q0 55 -53 55q-51 0 -125 -51t-181 -152q-201 -189 -401 -487q-92 -165 -129 -221q-14 -23 -37 -23h-98q-17 0 -22.5 11t3.5 28q142 244 276 504t134 334q0 53 -53 53q-71 0 -201 -119l-16 20q232 209 342 209
q53 0 78.5 -32t25.5 -74q0 -106 -215 -522q143 189 297 340q138 134 258 211t193 77q49 0 75.5 -33.5t26.5 -78.5q0 -42 -31.5 -122t-126.5 -269q-32 -65 -63 -119q207 272 407.5 447t317.5 175q48 0 75 -33.5t27 -78.5q0 -64 -56.5 -181t-124.5 -224.5t-124.5 -215.5
t-56.5 -155q0 -56 59 -56q63 0 189 117l16 -20q-110 -101 -196.5 -155t-133.5 -54q-60 0 -87.5 36.5t-27.5 81.5q0 58 38 146.5t91.5 178t107.5 176t91.5 161.5t36.5 115q0 55 -53 55q-93 0 -298.5 -208.5t-391.5 -479.5q-77 -146 -115 -223q-12 -23 -37 -23h-100z" />
    <glyph glyph-name="n" unicode="n" horiz-adv-x="1224" 
d="M-8 0q-17 0 -22.5 11t3.5 28q142 244 276 504t134 334q0 53 -53 53q-71 0 -201 -119l-16 20q232 209 342 209q53 0 78.5 -32t25.5 -74q0 -108 -219 -528q143 184 311 346q136 133 256 210.5t193 77.5q51 0 77.5 -33t26.5 -79q0 -62 -56 -179t-123 -225.5t-123 -216.5
t-56 -155q0 -56 57 -56q64 0 193 117l16 -20q-110 -100 -197.5 -154.5t-134.5 -54.5q-59 0 -85.5 36t-26.5 82q0 58 37 146.5t90 178t106 176t90 161.5t37 113q0 57 -55 57q-52 0 -125.5 -51t-179.5 -152q-231 -218 -412 -487q-92 -165 -129 -221q-14 -23 -37 -23h-98z" />
    <glyph glyph-name="o" unicode="o" horiz-adv-x="1009" 
d="M262 -16q-103 0 -168 66t-65 183q0 122 72 266.5t179 263t240.5 198t247.5 79.5q59 0 102.5 -21.5t67 -57t34.5 -74.5t11 -82q0 -113 -49 -235.5t-128.5 -224.5t-173.5 -184.5t-192.5 -129.5t-177.5 -47zM391 68q74 0 143 48.5t119 124t88 166t57 177t19 153.5
q0 107 -48.5 162t-137.5 55q-92 0 -175.5 -67t-138 -167t-86.5 -210.5t-32 -202.5q0 -110 46 -174.5t146 -64.5z" />
    <glyph glyph-name="p" unicode="p" horiz-adv-x="1181" 
d="M-287 -553q-18 0 -25 11t1 26l530 1022q148 287 148 377q0 25 -9 37t-32 12q-58 0 -205 -144l-17 21q234 231 340 231q45 0 70 -30t25 -72q0 -116 -166 -438l-43 -84q223 271 421.5 447t311.5 175q58 0 90.5 -47.5t32.5 -113.5q0 -114 -48.5 -241.5t-132.5 -241
t-187 -206.5t-221 -147.5t-226 -54.5q-68 0 -119 33.5t-80 84.5l-324 -634q-12 -23 -36 -23h-99zM256 272q31 -94 100.5 -152.5t141.5 -58.5q89 0 172.5 51.5t145.5 133.5t109 181t71 198t24 180q0 127 -72 127q-83 0 -282 -190.5t-402 -456.5z" />
    <glyph glyph-name="q" unicode="q" horiz-adv-x="1196" 
d="M465 -569q-56 0 -82.5 37.5t-26.5 85.5q0 112 172.5 447t378.5 673q-277 -332 -466 -511.5t-283 -178.5q-68 3 -100.5 53.5t-32.5 122.5q1 90 36 192t93.5 198.5t140.5 186t173 156.5t194.5 107t201.5 40q68 0 161.5 -12.5t166.5 -36.5l33 -10q15 -4 18 -16t-6 -25
q-89 -134 -250 -418q-7 -12 -82.5 -143t-121 -214t-109.5 -205.5t-96.5 -208t-32.5 -130.5q0 -59 53 -59q68 0 174 98l16 -20q-232 -209 -323 -209zM195 213q0 -47 16 -82t53 -35q68 0 262.5 192.5t481.5 547.5l32 55q-75 30 -166 52t-157 22q-104 0 -204 -80.5
t-167.5 -197.5t-109 -245.5t-41.5 -228.5z" />
    <glyph glyph-name="r" unicode="r" horiz-adv-x="958" 
d="M-8 0q-17 0 -22.5 11t3.5 28q142 244 276 504t134 334q0 53 -53 53q-71 0 -201 -119l-16 20q232 209 342 209q53 0 78.5 -32t25.5 -74q0 -66 -90 -268q76 114 152.5 192.5t177.5 130t211 51.5q45 0 82.5 -10.5t37.5 -32.5q0 -40 -46.5 -87.5t-100.5 -47.5q-101 0 -258 47
q-83 -53 -179 -178t-188 -291q-156 -306 -231 -417q-14 -23 -37 -23h-98z" />
    <glyph glyph-name="s" unicode="s" horiz-adv-x="755" 
d="M109 -14q-108 0 -161 40.5t-48 108.5q6 95 174 195l14 -13q-37 -57 -37 -112q0 -66 45 -112.5t135 -47.5q89 0 151 56t62 145q0 53 -28.5 121.5t-62.5 124t-61.5 122t-25.5 117.5q3 87 71.5 158.5t171 110t210.5 38.5q68 0 129 -15.5t61 -41.5q0 -41 -38.5 -79t-88.5 -38
q-14 0 -28.5 2t-34 8.5t-33.5 11.5t-40.5 16.5t-41.5 18.5t-49.5 23.5t-52.5 24.5q-96 -39 -103 -125q-3 -56 26 -126t64.5 -126.5t64.5 -129.5t26 -134q-5 -91 -77 -171t-179 -125.5t-215 -45.5z" />
    <glyph glyph-name="t" unicode="t" horiz-adv-x="688" 
d="M156 -16q-58 0 -90.5 43t-32.5 102q0 127 162 412l243 436h-172v24l475 291l21 -12l-150 -276h250l-14 -29h-252l-258 -475q-123 -230 -123 -318q0 -39 19 -59.5t49 -20.5q78 0 198 111l17 -20q-232 -209 -342 -209z" />
    <glyph glyph-name="u" unicode="u" horiz-adv-x="1259" 
d="M797 -16q-59 0 -85 37t-26 83q0 161 188 500q-132 -171 -268 -317q-283 -303 -426 -303q-55 0 -97 37t-42 96q0 57 57.5 168.5t126 216t126 213.5t57.5 162q0 51 -50 51q-73 0 -198 -117l-17 20q109 100 198 154.5t142 54.5q55 0 81 -32t26 -74q0 -62 -57 -178.5
t-125.5 -224t-125.5 -216t-57 -155.5q0 -28 16.5 -47t51.5 -19q92 0 293 211q197 206 407 500l109 178q16 23 37 23l106 -2q19 0 24.5 -11t-5.5 -26q-173 -275 -263 -445q-135 -258 -135 -362q0 -62 56 -62q64 0 188 115l16 -20q-105 -99 -193 -154t-136 -55z" />
    <glyph glyph-name="v" unicode="v" horiz-adv-x="1069" 
d="M352 -16q-99 0 -161 64t-62 177q0 155 125.5 342t302.5 328q-214 8 -246 6q-62 -1 -107 -24.5t-85 -73.5l-19 14q29 39 65 76t55 53.5t63 52.5q39 31 106 31q24 0 139 -3t179 -3l4 -18q-136 -105 -232 -238.5t-138 -253t-42 -221.5q0 -104 44.5 -161.5t127.5 -57.5
q58 -1 125 43t129.5 116.5t118 157t100.5 174.5q-34 255 -18 359q6 50 50.5 83t96.5 33q43 0 43 -41q0 -60 -44 -191.5t-97 -238.5q-55 -113 -124 -215t-149.5 -186t-171.5 -133.5t-178 -50.5z" />
    <glyph glyph-name="w" unicode="w" horiz-adv-x="1542" 
d="M877 -16q-93 0 -142 61t-49 170q0 49 12 107q-93 -167 -205 -251.5t-212 -86.5q-90 0 -145.5 58.5t-55.5 162.5q0 86 41.5 183t112.5 187.5t151 170t170 149.5q-194 8 -250 6q-63 -1 -102.5 -25t-85.5 -75l-17 12q88 121 174 195q40 30 107 30q24 0 140.5 -7t185.5 -7
l4 -18q-210 -162 -337.5 -375.5t-127.5 -384.5q0 -78 37 -126t108 -48q82 -2 174.5 99.5t173.5 283.5q60 162 160 299q24 31 117 67q77 30 77 14q0 -2 -3 -6q-119 -159 -178.5 -317t-57.5 -262q0 -79 34 -128t105 -50q98 0 217 145.5t209 347.5q-31 272 -18 359
q6 50 51.5 83t95.5 33q43 0 43 -41q0 -56 -42 -179.5t-91 -235.5q-53 -119 -115.5 -221.5t-136 -189.5t-159 -137.5t-170.5 -51.5z" />
    <glyph glyph-name="x" unicode="x" horiz-adv-x="970" 
d="M528 -16q-42 0 -63.5 30t-24.5 80l-18 336l-438 -485q-53 -64 -76 -64q-20 0 -29.5 18t-9.5 40q0 65 55 108l496 410l-21 377q-3 92 -53 92q-66 0 -207 -133l-18 18q247 229 323 229q40 0 64 -33.5t27 -88.5l20 -334l338 395q52 63 78 63q19 0 28 -18t9 -41
q0 -63 -54 -109l-397 -325l23 -379q3 -78 47 -78q61 0 202 144l17 -21q-231 -231 -318 -231z" />
    <glyph glyph-name="y" unicode="y" horiz-adv-x="1079" 
d="M-326 -426q-47 0 -80.5 13t-33.5 40q0 35 41.5 83t91.5 48q66 0 323 -73q95 36 138.5 91t85.5 187q55 154 101.5 411.5t43.5 413.5q-3 130 -61 130q-65 0 -183 -107l-16 20q121 109 192.5 159t116.5 50q107 0 107 -166q2 -152 -42.5 -430.5t-125.5 -523.5
q301 275 526 653q-13 271 2 351q10 50 58 83t98 33q45 0 45 -39q0 -41 -20.5 -106.5t-58 -147t-93 -175.5t-122 -191.5t-148.5 -195.5t-170 -187.5t-188 -167t-201 -134.5t-211 -89.5t-216 -32.5z" />
    <glyph glyph-name="z" unicode="z" horiz-adv-x="976" 
d="M504 -14q-36 0 -81 16t-83.5 36t-99 36t-123.5 16q-59 0 -108 -11.5t-105 -47.5q-18 -11 -33.5 -25t-24 -20t-18.5 -6q-8 0 -14.5 6.5t-6.5 13.5q0 10 6.5 18.5t30 25t53 35t91 61t129.5 91.5q148 108 389 304q232 187 352 305q-193 69 -377 69q-142 0 -268 -143l-20 14
q112 124 211 191.5t200 66.5q210 -3 424 -94l105 82l16 -18q-102 -85 -315.5 -249.5t-309.5 -242.5q-80 -66 -223.5 -190t-167.5 -144q77 39 146 39q54 0 116 -27t119.5 -54t101.5 -27q101 0 203 120l21 -16q-200 -231 -336 -231z" />
    <glyph glyph-name="braceleft" unicode="{" horiz-adv-x="634" 
d="M-113 -332q4 68 42.5 149.5t90 156t103.5 148.5t89.5 149.5t41.5 136.5q3 57 -22.5 98.5t-86.5 42.5l5 29q176 0 264 210q45 99 91 297t87 293q54 122 218 192t378 70q9 0 13 -3.5t3 -10.5q-7 -20 -24 -20q-223 0 -332 -41q-102 -42 -148 -144q-33 -77 -85.5 -300.5
t-92.5 -305.5q-40 -86 -124 -156.5t-181 -99.5q57 -26 84.5 -91.5t22.5 -131.5q-4 -53 -41.5 -126.5t-89.5 -148.5t-103.5 -152.5t-90 -159.5t-42.5 -148q-6 -81 55.5 -122.5t200.5 -41.5q10 0 13 -5.5t-5 -19.5q-7 -12 -41 -12q-79 0 -146.5 30.5t-109.5 93t-37 144.5z" />
    <glyph glyph-name="bar" unicode="|" horiz-adv-x="413" 
d="M606 1642l25 -8l-783 -2048l-24 8z" />
    <glyph glyph-name="braceright" unicode="}" horiz-adv-x="634" 
d="M-561 -586q7 21 24 21q223 0 332 41q102 42 148 143q33 77 85.5 300.5t92.5 305.5q40 86 124 156.5t181 99.5q-57 26 -84.5 92t-22.5 132q4 53 41.5 126.5t89.5 148.5t103.5 152.5t90 159.5t42.5 148q6 81 -55.5 122.5t-200.5 41.5q-24 0 -8 24q7 12 41 12
q79 0 146.5 -30.5t109.5 -93t37 -144.5q-4 -68 -42.5 -149t-90 -156t-103.5 -148.5t-89.5 -149t-41.5 -136.5q-10 -139 98 -139l-2 -29q-168 -3 -256 -213q-45 -99 -91 -297t-87 -293q-54 -122 -218 -192t-378 -70q-9 0 -13 3.5t-3 10.5z" />
    <glyph glyph-name="exclamdown" unicode="&#xa1;" horiz-adv-x="475" 
d="M315 674q-133 -285 -222 -512t-136.5 -376t-52.5 -161q-33 -80 -111 -80q-56 0 -79.5 22.5t-10.5 63.5q12 37 65.5 124.5t123.5 195.5t179.5 307t213.5 422zM430 1051q27 0 57.5 -26t30.5 -60q0 -46 -44 -98t-87 -52q-28 0 -55 30.5t-27 65.5q0 41 42.5 90.5t82.5 49.5z
" />
    <glyph glyph-name="cent" unicode="&#xa2;" horiz-adv-x="878" 
d="M324 334q-104 0 -156.5 62.5t-52.5 162.5q0 92 49.5 200t131.5 204.5t199.5 171.5t241.5 100l92 207l27 -2l-88 -201q41 6 80 6q66 0 121 -14.5t55 -40.5q0 -33 -37 -66.5t-80 -33.5q-40 0 -182 55l-309 -703q8 -2 28 -2q135 0 304 150l16 -19q-226 -207 -395 -233
l-84 -193l-29 2l82 187h-14zM279 627q4 -151 110 -181l311 707l-55 21q-78 -18 -149 -80t-118 -141.5t-74 -166.5t-25 -159z" />
    <glyph glyph-name="sterling" unicode="&#xa3;" horiz-adv-x="1013" 
d="M508 -20q-261 0 -356 4l-361 16q-15 1 -19.5 5t-4.5 15q0 20 120 107q19 13 39 10l80 -4q86 59 154 152q28 38 51 85t44 111t33.5 108t33.5 126h-211l10 24h207q55 212 94 312q46 117 120 204t162 135t177.5 70.5t183.5 22.5q111 0 191.5 -18.5t80.5 -45.5
q0 -35 -42 -70.5t-83 -35.5q-12 0 -24 1.5t-27.5 5t-27 7t-32 11.5t-33.5 13t-39.5 17t-42 19t-50 22.5t-53.5 24.5q-30 -8 -52 -18.5t-55 -38.5t-62 -71t-67 -119t-78 -179q-85 -223 -104 -269h323l-10 -24h-323q-85 -208 -152 -312q-56 -90 -114.5 -153.5t-137.5 -118.5
l135 -6q84 -4 213 -5t142 -1q39 0 73 1.5t63.5 7.5t50 9.5t43.5 15t34.5 16t31 20t25 19.5t26 22.5t23.5 21.5l17 -14q-9 -11 -34.5 -41.5t-35 -41.5t-29.5 -34t-31.5 -35t-27 -27.5t-29.5 -27.5q-20 -16 -37 -25t-68.5 -18t-127.5 -8z" />
    <glyph glyph-name="yen" unicode="&#xa5;" horiz-adv-x="1071" 
d="M360 0q-17 0 -23.5 11t1.5 26q159 327 205 444h-281l10 25h281q30 91 31 98h-271l11 25h266q0 3 1 9t1 9q5 135 -29.5 312t-86 302t-93.5 125q-18 0 -45 -22.5t-46 -44.5t-48 -59l-19 14q12 13 41.5 47t41 47t35.5 38t37 35.5t31 24t33 18.5t29 5q26 0 58 -34.5
t65.5 -106.5t63 -169.5t52 -236t31.5 -293.5l531 774q51 76 80 76q32 -3 32 -59q0 -7 -1 -14t-2 -11.5t-4 -11t-4.5 -9.5t-6.5 -10.5t-7 -10t-9 -11.5t-9 -12l-575 -721h266l-10 -25h-276l-41 -98h276l-10 -25h-277q-82 -202 -209 -458q-11 -23 -34 -23h-93z" />
    <glyph glyph-name="brokenbar" unicode="&#xa6;" horiz-adv-x="407" 
d="M313 874l291 764h29l-293 -764h-27zM150 373l-302 -787l-28 -2l301 789h29z" />
    <glyph glyph-name="section" unicode="&#xa7;" horiz-adv-x="788" 
d="M94 -14q-76 0 -126 32t-50 95q0 39 20 78t62 98l16 -10q-24 -41 -24 -86q0 -65 57 -105.5t150 -40.5q81 0 133.5 53t52.5 140q0 93 -78 219q-35 55 -53.5 87.5t-34 79.5t-12.5 87q8 83 85.5 159t176.5 123q-27 76 -27 129q0 68 43.5 130.5t109 103.5t139.5 65.5t136 24.5
q109 0 109 -39q0 -27 -31.5 -55.5t-70.5 -28.5q-42 0 -185 57q-61 -23 -96 -60.5t-35 -100.5q0 -100 92 -256q5 -8 21 -35.5t20.5 -35.5t16 -30.5t15 -34.5t9.5 -31.5t7.5 -37t0.5 -37.5q-4 -81 -77.5 -155.5t-176.5 -123.5q25 -59 23 -114q-4 -71 -46.5 -137t-105 -110
t-133.5 -70.5t-133 -26.5zM338 801q-1 -16 0.5 -31.5t5.5 -32t7.5 -29t11.5 -31t12 -27.5t15 -28.5t14 -25t15 -25.5t13 -22q5 -10 22.5 -39t24.5 -45q63 35 99 82.5t36 101.5q0 94 -75 215q-41 63 -58 107q-63 -24 -101 -67.5t-42 -102.5z" />
    <glyph glyph-name="copyright" unicode="&#xa9;" horiz-adv-x="823" 
d="M731 954q-141 0 -241.5 100.5t-100.5 241.5t100.5 241.5t241.5 100.5t241.5 -100.5t100.5 -241.5t-100.5 -241.5t-241.5 -100.5zM731 983q130 0 219.5 91t89.5 222t-89.5 222.5t-219.5 91.5t-219.5 -91.5t-89.5 -222.5t89.5 -222t219.5 -91zM614 1118q-38 0 -57.5 25
t-19.5 57q0 98 91.5 191.5t194.5 93.5q80 0 80 -19q0 -16 -18.5 -29.5t-36.5 -13.5q-12 0 -40 14.5t-50 14.5q-54 0 -104.5 -78.5t-47.5 -152.5q3 -62 60 -62q43 0 102 51l8 -10q-94 -82 -162 -82z" />
    <glyph glyph-name="guillemotleft" unicode="&#xab;" horiz-adv-x="1216" 
d="M774 -16q-12 4 -37 59l-241 481l669 471q49 37 60 37q18 0 18 -37q0 -72 -7.5 -94t-39.5 -39l-674 -344l307 -373q16 -18 17.5 -34.5t-7 -37.5t-34.5 -67q-17 -33 -31 -22zM354 -16q-12 4 -37 59l-241 481l669 471q49 37 60 37q18 0 18 -37q0 -72 -7.5 -94t-39.5 -39
l-674 -344l308 -373q16 -18 17 -34.5t-7.5 -37t-34.5 -67.5q-17 -33 -31 -22z" />
    <glyph glyph-name="registered" unicode="&#xae;" horiz-adv-x="821" 
d="M731 954q-141 0 -241.5 100.5t-100.5 241.5t100.5 241.5t241.5 100.5t240.5 -99.5t99.5 -240.5t-99.5 -242.5t-240.5 -101.5zM731 983q130 0 219.5 91t89.5 222t-89.5 222.5t-219.5 91.5t-219.5 -91.5t-89.5 -222.5t89.5 -222t219.5 -91zM545 1139l143 356h64q23 3 50 1
t50 -7t37.5 -20.5t13.5 -38.5q-5 -68 -149 -134q31 -50 71 -94.5t60 -44.5q11 0 20 12l10 -8q-34 -39 -71 -39q-22 0 -44.5 14t-43 41t-33 47t-29.5 50l-4 10q61 25 95.5 63t37.5 78q1 17 -2.5 28t-21 20.5t-51.5 9.5l-138 -344h-65z" />
    <glyph glyph-name="degree" unicode="&#xb0;" horiz-adv-x="507" 
d="M528 1016q-88 0 -149.5 61.5t-61.5 149.5t61.5 149.5t149.5 61.5t149.5 -61.5t61.5 -149.5t-61.5 -149.5t-149.5 -61.5zM528 1038q78 0 132.5 55.5t54.5 133.5t-54.5 133t-132.5 55t-132 -55t-54 -133t54 -133.5t132 -55.5z" />
    <glyph glyph-name="paragraph" unicode="&#xb6;" horiz-adv-x="780" 
d="M-336 -496q-32 0 -48.5 8t-16.5 31q0 35 39.5 75t82.5 40q4 0 72.5 -4t112.5 -2q84 5 145.5 49t129 152.5t161.5 318.5l299 657q-38 2 -79 11t-86.5 30t-81 50.5t-58.5 77t-23 104.5q0 175 146 278t422 103h200l6 -13l-522 -1165q-68 -153 -176 -299t-229.5 -256.5
t-253 -178t-242.5 -67.5z" />
    <glyph glyph-name="periodcentered" unicode="&#xb7;" horiz-adv-x="325" 
d="M227 567q-27 0 -57.5 26t-30.5 60q0 46 44 98t87 52q28 0 55 -30.5t27 -65.5q0 -41 -42.5 -90.5t-82.5 -49.5z" />
    <glyph glyph-name="guillemotright" unicode="&#xbb;" horiz-adv-x="1214" 
d="M432 1020q12 -4 37 -59l242 -482l-670 -471q-49 -37 -59 -37q-19 0 -19 37q0 72 7.5 94t39.5 39l674 344l-307 373q-16 18 -17.5 34.5t7 37.5t34.5 67q17 33 31 23zM852 1020q12 -4 37 -59l241 -482l-669 -471q-49 -37 -60 -37q-18 0 -18 37q0 72 7.5 94t39.5 39l674 344
l-307 373q-16 18 -17.5 34.5t7 37.5t34.5 67q17 33 31 23z" />
    <glyph glyph-name="questiondown" unicode="&#xbf;" horiz-adv-x="792" 
d="M616 715q-17 -73 -67 -152t-156 -180q-35 -33 -92.5 -81t-104 -85.5t-99 -87.5t-88.5 -95t-59.5 -100.5t-23.5 -109.5q0 -78 55.5 -127t153.5 -49q187 0 359 180l14 -16q-241 -274 -473 -271q-126 0 -201.5 64.5t-75.5 173.5q0 68 32.5 132t82.5 112.5t119 100.5
t134 92.5t136 93t117 98.5q33 32 56 67.5t34.5 58t20 66t10 54.5t6.5 61h110zM629 1051q27 0 57.5 -26t30.5 -60q0 -46 -44 -98t-87 -52q-28 0 -55 30.5t-27 65.5q0 41 42.5 90.5t82.5 49.5z" />
    <glyph glyph-name="Agrave" unicode="&#xc0;" horiz-adv-x="2236" 
d="M305 -33q-172 0 -272.5 96.5t-100.5 243.5q0 154 105.5 294.5t275.5 225t351 84.5q79 0 171 -21t158 -45.5t169 -66t155 -59.5q341 368 647 788l-451 -6q-75 -1 -115.5 -24t-94.5 -82l-19 12q120 153 176 201q40 30 107 30h557q20 0 25.5 -7.5t0.5 -28.5
q-114 -510 -184 -898.5t-70 -478.5q0 -121 89 -121q36 0 78 25t106 84l16 -18q-112 -108 -192.5 -159.5t-143.5 -51.5q-55 0 -91 48t-32 144q6 152 80 533q-160 -131 -342 -131q-94 0 -211 24q-132 -139 -244.5 -243t-237 -198t-243 -144t-223.5 -50zM1991 1882
q-31 12 -38 34.5t-7 96.5q0 37 16 37q12 0 59 -35l361 -276l-12 -15zM68 389q0 -154 92.5 -244t230.5 -90q92 1 194 43.5t210 124t205 172t217 215.5q-85 23 -188.5 65.5t-177.5 77t-165.5 61t-169.5 26.5q-99 0 -184.5 -38.5t-142 -101.5t-89 -144t-32.5 -167zM1352 707
q139 -48 247 -48q117 0 213 84q69 340 156 717q-311 -422 -616 -753z" />
    <glyph glyph-name="Aacute" unicode="&#xc1;" horiz-adv-x="2236" 
d="M305 -33q-172 0 -272.5 96.5t-100.5 243.5q0 154 105.5 294.5t275.5 225t351 84.5q79 0 171 -21t158 -45.5t169 -66t155 -59.5q341 368 647 788l-451 -6q-75 -1 -115.5 -24t-94.5 -82l-19 12q120 153 176 201q40 30 107 30h557q20 0 25.5 -7.5t0.5 -28.5
q-114 -510 -184 -898.5t-70 -478.5q0 -121 89 -121q36 0 78 25t106 84l16 -18q-112 -108 -192.5 -159.5t-143.5 -51.5q-55 0 -91 48t-32 144q6 152 80 533q-160 -131 -342 -131q-94 0 -211 24q-132 -139 -244.5 -243t-237 -198t-243 -144t-223.5 -50zM2374 1882l-379 -158
l-13 15l361 276q47 35 59 35q17 0 17 -37q0 -74 -7 -96.5t-38 -34.5zM68 389q0 -154 92.5 -244t230.5 -90q92 1 194 43.5t210 124t205 172t217 215.5q-85 23 -188.5 65.5t-177.5 77t-165.5 61t-169.5 26.5q-99 0 -184.5 -38.5t-142 -101.5t-89 -144t-32.5 -167zM1352 707
q139 -48 247 -48q117 0 213 84q69 340 156 717q-311 -422 -616 -753z" />
    <glyph glyph-name="Acircumflex" unicode="&#xc2;" horiz-adv-x="2236" 
d="M305 -33q-172 0 -272.5 96.5t-100.5 243.5q0 154 105.5 294.5t275.5 225t351 84.5q79 0 171 -21t158 -45.5t169 -66t155 -59.5q341 368 647 788l-451 -6q-75 -1 -115.5 -24t-94.5 -82l-19 12q120 153 176 201q40 30 107 30h557q20 0 25.5 -7.5t0.5 -28.5
q-114 -510 -184 -898.5t-70 -478.5q0 -121 89 -121q36 0 78 25t106 84l16 -18q-112 -108 -192.5 -159.5t-143.5 -51.5q-55 0 -91 48t-32 144q6 152 80 533q-160 -131 -342 -131q-94 0 -211 24q-132 -139 -244.5 -243t-237 -198t-243 -144t-223.5 -50zM2277 1761
q-25 0 -39 19q-70 91 -110 129q-115 -51 -244 -158l-18 18q95 75 198 137t148 62q23 0 84.5 -67.5t101.5 -128.5l-8 -13zM68 389q0 -154 92.5 -244t230.5 -90q92 1 194 43.5t210 124t205 172t217 215.5q-85 23 -188.5 65.5t-177.5 77t-165.5 61t-169.5 26.5
q-99 0 -184.5 -38.5t-142 -101.5t-89 -144t-32.5 -167zM1352 707q139 -48 247 -48q117 0 213 84q69 340 156 717q-311 -422 -616 -753z" />
    <glyph glyph-name="Atilde" unicode="&#xc3;" horiz-adv-x="2236" 
d="M305 -33q-172 0 -272.5 96.5t-100.5 243.5q0 154 105.5 294.5t275.5 225t351 84.5q79 0 171 -21t158 -45.5t169 -66t155 -59.5q341 368 647 788l-451 -6q-75 -1 -115.5 -24t-94.5 -82l-19 12q120 153 176 201q40 30 107 30h557q20 0 25.5 -7.5t0.5 -28.5
q-114 -510 -184 -898.5t-70 -478.5q0 -121 89 -121q36 0 78 25t106 84l16 -18q-112 -108 -192.5 -159.5t-143.5 -51.5q-55 0 -91 48t-32 144q6 152 80 533q-160 -131 -342 -131q-94 0 -211 24q-132 -139 -244.5 -243t-237 -198t-243 -144t-223.5 -50zM1794 1819
q63 97 117 139.5t119 42.5q46 0 148 -28.5t146 -28.5q47 0 80 23.5t66 72.5l16 -10q-43 -80 -105 -133.5t-128 -53.5q-45 0 -151 27.5t-148 27.5q-46 0 -79.5 -20t-64.5 -70zM68 389q0 -154 92.5 -244t230.5 -90q92 1 194 43.5t210 124t205 172t217 215.5
q-85 23 -188.5 65.5t-177.5 77t-165.5 61t-169.5 26.5q-99 0 -184.5 -38.5t-142 -101.5t-89 -144t-32.5 -167zM1352 707q139 -48 247 -48q117 0 213 84q69 340 156 717q-311 -422 -616 -753z" />
    <glyph glyph-name="Adieresis" unicode="&#xc4;" horiz-adv-x="2236" 
d="M305 -33q-172 0 -272.5 96.5t-100.5 243.5q0 154 105.5 294.5t275.5 225t351 84.5q79 0 171 -21t158 -45.5t169 -66t155 -59.5q341 368 647 788l-451 -6q-75 -1 -115.5 -24t-94.5 -82l-19 12q120 153 176 201q40 30 107 30h557q20 0 25.5 -7.5t0.5 -28.5
q-114 -510 -184 -898.5t-70 -478.5q0 -121 89 -121q36 0 78 25t106 84l16 -18q-112 -108 -192.5 -159.5t-143.5 -51.5q-55 0 -91 48t-32 144q6 152 80 533q-160 -131 -342 -131q-94 0 -211 24q-132 -139 -244.5 -243t-237 -198t-243 -144t-223.5 -50zM2269 1784
q-22 0 -42.5 21.5t-20.5 49.5q0 33 24 68q21 35 51.5 59.5t55.5 24.5q19 0 38 -21t19 -49q0 -30 -22 -69q-18 -29 -48.5 -56.5t-54.5 -27.5zM1927 1784q-20 0 -41.5 21.5t-21.5 49.5q0 29 24 68q21 34 52 59t55 25q20 0 38.5 -21t18.5 -49q0 -35 -22 -69q-16 -29 -47 -56.5
t-56 -27.5zM68 389q0 -154 92.5 -244t230.5 -90q92 1 194 43.5t210 124t205 172t217 215.5q-85 23 -188.5 65.5t-177.5 77t-165.5 61t-169.5 26.5q-99 0 -184.5 -38.5t-142 -101.5t-89 -144t-32.5 -167zM1352 707q139 -48 247 -48q117 0 213 84q69 340 156 717
q-311 -422 -616 -753z" />
    <glyph glyph-name="Aring" unicode="&#xc5;" horiz-adv-x="2236" 
d="M305 -33q-172 0 -272.5 96.5t-100.5 243.5q0 154 105.5 294.5t275.5 225t351 84.5q79 0 171 -21t158 -45.5t169 -66t155 -59.5q341 368 647 788l-451 -6q-75 -1 -115.5 -24t-94.5 -82l-19 12q120 153 176 201q40 30 107 30h557q20 0 25.5 -7.5t0.5 -28.5
q-114 -510 -184 -898.5t-70 -478.5q0 -121 89 -121q36 0 78 25t106 84l16 -18q-112 -108 -192.5 -159.5t-143.5 -51.5q-55 0 -91 48t-32 144q6 152 80 533q-160 -131 -342 -131q-94 0 -211 24q-132 -139 -244.5 -243t-237 -198t-243 -144t-223.5 -50zM2142 1767
q-90 0 -144 56.5t-54 142.5q0 83 57.5 141t140.5 58q94 0 146.5 -56t52.5 -143q0 -83 -58 -141t-141 -58zM2142 1794q73 0 120.5 48.5t47.5 123.5t-47.5 123.5t-120.5 48.5q-72 0 -120 -48.5t-48 -123.5t48 -123.5t120 -48.5zM68 389q0 -154 92.5 -244t230.5 -90
q92 1 194 43.5t210 124t205 172t217 215.5q-85 23 -188.5 65.5t-177.5 77t-165.5 61t-169.5 26.5q-99 0 -184.5 -38.5t-142 -101.5t-89 -144t-32.5 -167zM1352 707q139 -48 247 -48q117 0 213 84q69 340 156 717q-311 -422 -616 -753z" />
    <glyph glyph-name="AE" unicode="&#xc6;" horiz-adv-x="2672" 
d="M215 -33q-174 0 -274.5 96.5t-100.5 243.5q0 115 63 226.5t164.5 194t235 133t268.5 50.5q78 0 168.5 -21t152 -44.5t162.5 -65.5t146 -59l133 151q88 98 152 165.5t153.5 150.5t165.5 138t168.5 102.5t181.5 68.5h-333q-52 0 -90.5 -14.5t-60.5 -33.5t-60 -60l-19 12
q12 15 37 47.5t38 48.5t32.5 39.5t36 40.5t32.5 31q40 30 107 30h1057q118 0 118 -71q1 -54 -59 -120t-186 -161l-15 23q69 54 101 87.5t32 57.5t-22.5 33.5t-77.5 9.5h-522q-36 -25 -66 -59.5t-45 -58t-45 -76.5q-68 -115 -219 -429h668v-32h-682q-151 -319 -230 -457
q-38 -69 -78 -112t-100 -78l-88 -54h871q39 0 67.5 6.5t54.5 24t41.5 31.5t47.5 47l16 -12q-15 -18 -46 -58.5t-46 -60t-38.5 -45.5t-43.5 -43q-42 -31 -113 -31h-981q-16 0 -20 4.5t-4 15.5q0 16 79 78l43 33q57 46 130 174q81 141 206 404q-161 -131 -342 -131
q-84 0 -194 28q-76 -87 -127 -143t-124 -130.5t-129 -121.5t-127.5 -98t-135.5 -79.5t-137.5 -47.5t-147.5 -19zM-25 389q0 -155 98 -244.5t255 -89.5q57 0 116 16.5t111.5 41.5t112 68.5t108 85.5t111 105.5t109.5 115.5t114 128q-83 26 -222 87t-252 99t-210 38
q-132 0 -237 -65.5t-159.5 -167.5t-54.5 -218zM1231 709q145 -50 242 -50q124 0 231 103q153 322 244 479q93 164 227 225l23 11q-92 -18 -186 -63.5t-171.5 -100t-169.5 -139t-157.5 -153.5t-157.5 -171z" />
    <glyph glyph-name="Ccedilla" unicode="&#xc7;" horiz-adv-x="1419" 
d="M698 -16q-53 0 -118 10l-131 -113q103 14 161 -21t58 -93q0 -88 -87 -155t-192 -67q-56 0 -91.5 21t-35.5 47q0 19 20 36t42 17q20 0 43 -17t52.5 -34.5t63.5 -17.5q50 0 81.5 27.5t31.5 68.5q0 42 -43 72t-119 30q-52 0 -117 -18l-10 12l246 209q-189 43 -299.5 183.5
t-110.5 338.5q0 174 68.5 346t188.5 312t273.5 248.5t335 168.5t361.5 60q114 0 221 -18t168.5 -43t61.5 -48q0 -41 -48 -84t-110 -43q-65 0 -211 51t-315 127q-164 -37 -313 -126t-262 -213.5t-181.5 -287t-71.5 -335.5q-5 -230 132.5 -378t377.5 -148q260 0 451 188
l18 -18q-284 -295 -590 -295z" />
    <glyph glyph-name="Egrave" unicode="&#xc8;" horiz-adv-x="1411" 
d="M-16 0q-17 0 -22 4.5t-5 15.5q0 14 82 78l41 33q24 18 48 47.5t39 53.5t44 73q36 63 76.5 141.5t61.5 121t71.5 147.5t60.5 127h-188v32h203q124 254 190 367q43 77 91.5 128t121.5 87l88 41h-428q-52 0 -91 -15t-60 -32.5t-62 -60.5l-16 12q13 16 45.5 58.5t47 60.5
t38.5 44.5t45 43.5q38 30 106 30h1057q119 0 119 -71q0 -54 -60.5 -120t-185.5 -161l-16 23q133 100 133 145q0 25 -22 34t-78 9h-521q-36 -25 -66 -60t-43.5 -57t-45.5 -77q-68 -115 -219 -429h667v-32h-682q-156 -329 -229 -457q-41 -71 -80 -113t-98 -77l-90 -54h870
q74 0 114.5 24t96.5 85l18 -12q-12 -15 -37 -47.5t-38 -48.5t-32.5 -39.5t-36 -40.5t-32.5 -31q-39 -31 -112 -31h-979zM1030 1868q-31 12 -38 34.5t-7 96.5q0 37 16 37q13 0 60 -35l360 -277l-12 -14z" />
    <glyph glyph-name="Eacute" unicode="&#xc9;" horiz-adv-x="1411" 
d="M-16 0q-17 0 -22 4.5t-5 15.5q0 14 82 78l41 33q24 18 48 47.5t39 53.5t44 73q36 63 76.5 141.5t61.5 121t71.5 147.5t60.5 127h-188v32h203q124 254 190 367q43 77 91.5 128t121.5 87l88 41h-428q-52 0 -91 -15t-60 -32.5t-62 -60.5l-16 12q13 16 45.5 58.5t47 60.5
t38.5 44.5t45 43.5q38 30 106 30h1057q119 0 119 -71q0 -54 -60.5 -120t-185.5 -161l-16 23q133 100 133 145q0 25 -22 34t-78 9h-521q-36 -25 -66 -60t-43.5 -57t-45.5 -77q-68 -115 -219 -429h667v-32h-682q-156 -329 -229 -457q-41 -71 -80 -113t-98 -77l-90 -54h870
q74 0 114.5 24t96.5 85l18 -12q-12 -15 -37 -47.5t-38 -48.5t-32.5 -39.5t-36 -40.5t-32.5 -31q-39 -31 -112 -31h-979zM1413 1868l-379 -158l-12 14l360 277q47 35 60 35q16 0 16 -37q0 -74 -7 -96.5t-38 -34.5z" />
    <glyph glyph-name="Ecircumflex" unicode="&#xca;" horiz-adv-x="1411" 
d="M-16 0q-17 0 -22 4.5t-5 15.5q0 14 82 78l41 33q24 18 48 47.5t39 53.5t44 73q36 63 76.5 141.5t61.5 121t71.5 147.5t60.5 127h-188v32h203q124 254 190 367q43 77 91.5 128t121.5 87l88 41h-428q-52 0 -91 -15t-60 -32.5t-62 -60.5l-16 12q13 16 45.5 58.5t47 60.5
t38.5 44.5t45 43.5q38 30 106 30h1057q119 0 119 -71q0 -54 -60.5 -120t-185.5 -161l-16 23q133 100 133 145q0 25 -22 34t-78 9h-521q-36 -25 -66 -60t-43.5 -57t-45.5 -77q-68 -115 -219 -429h667v-32h-682q-156 -329 -229 -457q-41 -71 -80 -113t-98 -77l-90 -54h870
q74 0 114.5 24t96.5 85l18 -12q-12 -15 -37 -47.5t-38 -48.5t-32.5 -39.5t-36 -40.5t-32.5 -31q-39 -31 -112 -31h-979zM1317 1749q-26 0 -39 18q-67 87 -111 129q-115 -51 -243 -157l-19 18q95 75 198 137t148 62q23 0 85 -68t102 -129l-8 -12z" />
    <glyph glyph-name="Edieresis" unicode="&#xcb;" horiz-adv-x="1411" 
d="M-16 0q-17 0 -22 4.5t-5 15.5q0 14 82 78l41 33q24 18 48 47.5t39 53.5t44 73q36 63 76.5 141.5t61.5 121t71.5 147.5t60.5 127h-188v32h203q124 254 190 367q43 77 91.5 128t121.5 87l88 41h-428q-52 0 -91 -15t-60 -32.5t-62 -60.5l-16 12q13 16 45.5 58.5t47 60.5
t38.5 44.5t45 43.5q38 30 106 30h1057q119 0 119 -71q0 -54 -60.5 -120t-185.5 -161l-16 23q133 100 133 145q0 25 -22 34t-78 9h-521q-36 -25 -66 -60t-43.5 -57t-45.5 -77q-68 -115 -219 -429h667v-32h-682q-156 -329 -229 -457q-41 -71 -80 -113t-98 -77l-90 -54h870
q74 0 114.5 24t96.5 85l18 -12q-12 -15 -37 -47.5t-38 -48.5t-32.5 -39.5t-36 -40.5t-32.5 -31q-39 -31 -112 -31h-979zM1309 1769q-22 0 -43 22t-21 50q0 32 25 68q21 35 51 59.5t55 24.5q19 0 38.5 -21.5t19.5 -48.5q0 -29 -23 -70q-18 -29 -48 -56.5t-54 -27.5zM967 1769
q-20 0 -42 22t-22 50q0 27 25 68q21 35 51.5 59.5t54.5 24.5q20 0 39 -21t19 -49q0 -34 -23 -70q-16 -29 -46.5 -56.5t-55.5 -27.5z" />
    <glyph glyph-name="Igrave" unicode="&#xcc;" horiz-adv-x="825" 
d="M-195 0q-22 0 -22 18q0 12 33 48t61 55q18 12 45 12h182q56 45 89.5 88t66.5 103q82 144 234 462t245 480q43 77 92.5 125t139.5 90l53 24h-250q-56 0 -97 -7.5t-73.5 -27.5t-49.5 -35t-50 -49l-17 13q115 147 175 198q26 21 62 31t107 10h539q19 0 19 -14
q0 -12 -28.5 -47.5t-53.5 -56.5q-21 -15 -52 -15h-168q-49 -32 -80.5 -72t-70.5 -106q-99 -169 -255 -494.5t-222 -447.5q-45 -79 -89.5 -123.5t-140.5 -91.5l-71 -37h237q56 0 97 8t73.5 27.5t50.5 35t50 48.5l16 -12q-46 -58 -65 -81.5t-50.5 -59t-58.5 -58.5
q-26 -21 -62.5 -31t-107.5 -10h-533zM817 1868q-31 12 -38 34.5t-7 96.5q0 37 16 37q13 0 60 -35l360 -277l-12 -14z" />
    <glyph glyph-name="Iacute" unicode="&#xcd;" horiz-adv-x="825" 
d="M-195 0q-22 0 -22 18q0 12 33 48t61 55q18 12 45 12h182q56 45 89.5 88t66.5 103q82 144 234 462t245 480q43 77 92.5 125t139.5 90l53 24h-250q-56 0 -97 -7.5t-73.5 -27.5t-49.5 -35t-50 -49l-17 13q115 147 175 198q26 21 62 31t107 10h539q19 0 19 -14
q0 -12 -28.5 -47.5t-53.5 -56.5q-21 -15 -52 -15h-168q-49 -32 -80.5 -72t-70.5 -106q-99 -169 -255 -494.5t-222 -447.5q-45 -79 -89.5 -123.5t-140.5 -91.5l-71 -37h237q56 0 97 8t73.5 27.5t50.5 35t50 48.5l16 -12q-46 -58 -65 -81.5t-50.5 -59t-58.5 -58.5
q-26 -21 -62.5 -31t-107.5 -10h-533zM1200 1868l-379 -158l-12 14l360 277q47 35 60 35q16 0 16 -37q0 -74 -7 -96.5t-38 -34.5z" />
    <glyph glyph-name="Icircumflex" unicode="&#xce;" horiz-adv-x="825" 
d="M-195 0q-22 0 -22 18q0 12 33 48t61 55q18 12 45 12h182q56 45 89.5 88t66.5 103q82 144 234 462t245 480q43 77 92.5 125t139.5 90l53 24h-250q-56 0 -97 -7.5t-73.5 -27.5t-49.5 -35t-50 -49l-17 13q115 147 175 198q26 21 62 31t107 10h539q19 0 19 -14
q0 -12 -28.5 -47.5t-53.5 -56.5q-21 -15 -52 -15h-168q-49 -32 -80.5 -72t-70.5 -106q-99 -169 -255 -494.5t-222 -447.5q-45 -79 -89.5 -123.5t-140.5 -91.5l-71 -37h237q56 0 97 8t73.5 27.5t50.5 35t50 48.5l16 -12q-46 -58 -65 -81.5t-50.5 -59t-58.5 -58.5
q-26 -21 -62.5 -31t-107.5 -10h-533zM1104 1749q-26 0 -39 18q-67 87 -111 129q-115 -51 -243 -157l-19 18q95 75 198 137t148 62q23 0 85 -68t102 -129l-8 -12z" />
    <glyph glyph-name="Idieresis" unicode="&#xcf;" horiz-adv-x="825" 
d="M-195 0q-22 0 -22 18q0 12 33 48t61 55q18 12 45 12h182q56 45 89.5 88t66.5 103q82 144 234 462t245 480q43 77 92.5 125t139.5 90l53 24h-250q-56 0 -97 -7.5t-73.5 -27.5t-49.5 -35t-50 -49l-17 13q115 147 175 198q26 21 62 31t107 10h539q19 0 19 -14
q0 -12 -28.5 -47.5t-53.5 -56.5q-21 -15 -52 -15h-168q-49 -32 -80.5 -72t-70.5 -106q-99 -169 -255 -494.5t-222 -447.5q-45 -79 -89.5 -123.5t-140.5 -91.5l-71 -37h237q56 0 97 8t73.5 27.5t50.5 35t50 48.5l16 -12q-46 -58 -65 -81.5t-50.5 -59t-58.5 -58.5
q-26 -21 -62.5 -31t-107.5 -10h-533zM1096 1769q-22 0 -43 22t-21 50q0 32 25 68q21 35 51 59.5t55 24.5q19 0 38.5 -21.5t19.5 -48.5q0 -29 -23 -70q-18 -29 -48 -56.5t-54 -27.5zM754 1769q-20 0 -42 22t-22 50q0 27 25 68q21 35 51.5 59.5t54.5 24.5q20 0 39 -21t19 -49
q0 -34 -23 -70q-16 -29 -46.5 -56.5t-55.5 -27.5z" />
    <glyph glyph-name="Eth" unicode="&#xd0;" horiz-adv-x="1822" 
d="M633 -14q-302 0 -496 24q-22 2 -22 15q0 12 78 73l43 33q10 8 20.5 17.5t17.5 16.5t17 20.5t14.5 19.5t15.5 23.5t14 22.5t16 27t16 27q88 155 238 462.5t243 467.5q43 77 91.5 128.5t121.5 90.5l139 74l14 -19q-51 -36 -85.5 -81t-75.5 -116q-6 -11 -9 -16
q-95 -163 -241 -467h336v-28h-351q-130 -269 -213 -416q-41 -71 -80 -113t-98 -77l-84 -52q74 -9 236 -18.5t313 -9.5q196 -1 355 55.5t264 157.5t161.5 240t55.5 304q0 204 -94.5 361t-259.5 240.5t-373 82.5q-141 0 -263.5 -43t-213.5 -108l-17 22q151 107 309.5 166.5
t343.5 59.5q158 0 295.5 -56t229.5 -147t145 -207t53 -237q0 -178 -71.5 -341t-193 -284.5t-277.5 -211.5t-331 -136.5t-347 -46.5z" />
    <glyph glyph-name="Ntilde" unicode="&#xd1;" horiz-adv-x="1890" 
d="M1393 -18q-16 0 -21 32l-194 1461q-192 -437 -416 -801q-78 -126 -143 -218.5t-146.5 -185.5t-158 -151.5t-168 -95t-187.5 -37.5q-78 0 -143.5 13t-65.5 38q0 36 42.5 72t92.5 36q42 0 159 -19t177 -26q218 108 512 590q220 359 426 821l-524 -8q-75 -1 -115.5 -25
t-95.5 -83l-18 12q120 153 176 201q40 30 108 30h586q19 0 25 -7.5t8 -28.5l188 -1366l387 804q43 88 73.5 145.5t69 123.5t70.5 107t74 85t84.5 69t95 46t113.5 30t133 9q164 0 164 -41q0 -36 -40 -74.5t-83 -38.5q-32 0 -73.5 6t-122 21t-136.5 24q-81 -25 -166 -133
t-188 -319q-353 -718 -439 -912q-49 -111 -75 -158.5t-45 -47.5zM1391 1804q63 97 116.5 140t118.5 43q46 0 149 -29t146 -29q47 0 79.5 23t65.5 73l17 -10q-43 -80 -105.5 -133t-128.5 -53q-45 0 -151 27.5t-148 27.5q-45 0 -78.5 -20t-64.5 -70z" />
    <glyph glyph-name="Ograve" unicode="&#xd2;" horiz-adv-x="1814" 
d="M881 -16q-161 0 -291 55t-213.5 150t-127.5 219.5t-44 267.5q0 150 56.5 298.5t153.5 269t219 214.5t262 145.5t273 51.5q158 0 284 -54.5t205.5 -149t121.5 -219.5t41 -269q-1 -146 -54 -292.5t-145.5 -268t-210 -216.5t-256 -148.5t-274.5 -53.5zM1022 80
q144 0 268.5 65t207.5 170.5t130 239.5t47 274q1 334 -178 536t-459 202q-109 0 -214 -40t-190 -112t-150 -165.5t-100.5 -207t-35.5 -229.5q0 -216 84 -382.5t237.5 -258.5t352.5 -92zM1292 1876q-31 12 -38 34.5t-7 96.5q0 37 17 37q12 0 59 -35l360 -276l-12 -15z" />
    <glyph glyph-name="Oacute" unicode="&#xd3;" horiz-adv-x="1814" 
d="M881 -16q-161 0 -291 55t-213.5 150t-127.5 219.5t-44 267.5q0 150 56.5 298.5t153.5 269t219 214.5t262 145.5t273 51.5q158 0 284 -54.5t205.5 -149t121.5 -219.5t41 -269q-1 -146 -54 -292.5t-145.5 -268t-210 -216.5t-256 -148.5t-274.5 -53.5zM1022 80
q144 0 268.5 65t207.5 170.5t130 239.5t47 274q1 334 -178 536t-459 202q-109 0 -214 -40t-190 -112t-150 -165.5t-100.5 -207t-35.5 -229.5q0 -216 84 -382.5t237.5 -258.5t352.5 -92zM1675 1876l-379 -158l-12 15l361 276q47 35 59 35q16 0 16 -37q0 -74 -7 -96.5
t-38 -34.5z" />
    <glyph glyph-name="Ocircumflex" unicode="&#xd4;" horiz-adv-x="1814" 
d="M881 -16q-161 0 -291 55t-213.5 150t-127.5 219.5t-44 267.5q0 150 56.5 298.5t153.5 269t219 214.5t262 145.5t273 51.5q158 0 284 -54.5t205.5 -149t121.5 -219.5t41 -269q-1 -146 -54 -292.5t-145.5 -268t-210 -216.5t-256 -148.5t-274.5 -53.5zM1022 80
q144 0 268.5 65t207.5 170.5t130 239.5t47 274q1 334 -178 536t-459 202q-109 0 -214 -40t-190 -112t-150 -165.5t-100.5 -207t-35.5 -229.5q0 -216 84 -382.5t237.5 -258.5t352.5 -92zM1579 1757q-25 0 -39 19q-70 91 -110 129q-115 -51 -244 -158l-19 18q95 75 198 137
t148 62q23 0 85 -68t102 -129l-8 -12z" />
    <glyph glyph-name="Otilde" unicode="&#xd5;" horiz-adv-x="1814" 
d="M881 -16q-161 0 -291 55t-213.5 150t-127.5 219.5t-44 267.5q0 150 56.5 298.5t153.5 269t219 214.5t262 145.5t273 51.5q158 0 284 -54.5t205.5 -149t121.5 -219.5t41 -269q-1 -146 -54 -292.5t-145.5 -268t-210 -216.5t-256 -148.5t-274.5 -53.5zM1022 80
q144 0 268.5 65t207.5 170.5t130 239.5t47 274q1 334 -178 536t-459 202q-109 0 -214 -40t-190 -112t-150 -165.5t-100.5 -207t-35.5 -229.5q0 -216 84 -382.5t237.5 -258.5t352.5 -92zM1094 1812q63 97 116.5 140t118.5 43q47 0 149 -29t146 -29q47 0 79 23.5t66 73.5
l17 -11q-43 -80 -105.5 -133t-128.5 -53q-44 0 -151 27.5t-148 27.5q-45 0 -78.5 -20t-64.5 -70z" />
    <glyph glyph-name="Odieresis" unicode="&#xd6;" horiz-adv-x="1814" 
d="M881 -16q-161 0 -291 55t-213.5 150t-127.5 219.5t-44 267.5q0 150 56.5 298.5t153.5 269t219 214.5t262 145.5t273 51.5q158 0 284 -54.5t205.5 -149t121.5 -219.5t41 -269q-1 -146 -54 -292.5t-145.5 -268t-210 -216.5t-256 -148.5t-274.5 -53.5zM1022 80
q144 0 268.5 65t207.5 170.5t130 239.5t47 274q1 334 -178 536t-459 202q-109 0 -214 -40t-190 -112t-150 -165.5t-100.5 -207t-35.5 -229.5q0 -216 84 -382.5t237.5 -258.5t352.5 -92zM1571 1778q-22 0 -43 21.5t-21 49.5q0 32 25 68q21 35 51 59.5t55 24.5
q19 0 38.5 -21.5t19.5 -48.5q0 -28 -23 -69q-18 -29 -48 -56.5t-54 -27.5zM1229 1778q-21 0 -42.5 22t-21.5 49t25 68q21 35 51.5 59.5t54.5 24.5q20 0 39 -21t19 -49q0 -33 -23 -69q-16 -29 -46.5 -56.5t-55.5 -27.5z" />
    <glyph glyph-name="multiply" unicode="&#xd7;" horiz-adv-x="669" 
d="M549 416l-19 -13l-145 230l-311 -230l-15 17l314 231l-144 226l21 12l141 -225l305 225l15 -17l-308 -227z" />
    <glyph glyph-name="Oslash" unicode="&#xd8;" horiz-adv-x="1814" 
d="M881 -16q-267 0 -447 149l-229 -262l-27 25l230 262q-100 94 -151.5 228t-51.5 290q0 150 56.5 298.5t153.5 269t219 214.5t262 145.5t273 51.5q258 0 422 -139l299 344l27 -25l-299 -342q100 -95 152.5 -232t50.5 -298q-1 -146 -54 -292.5t-145.5 -268t-210 -216.5
t-256 -148.5t-274.5 -53.5zM1022 80q144 0 268.5 65t207.5 170.5t130 239.5t47 274q0 331 -172 531l-954 -1094q183 -186 473 -186zM348 813q0 -319 176 -520l955 1093q-175 181 -441 181q-109 0 -214 -40t-190 -112t-150 -165.5t-100.5 -207t-35.5 -229.5z" />
    <glyph glyph-name="Ugrave" unicode="&#xd9;" horiz-adv-x="1730" 
d="M500 -16q-122 0 -201.5 83.5t-79.5 204.5q0 112 61 254.5t148 275t174 258.5t148 240t61 185q0 41 -25 68.5t-69 27.5q-49 0 -118 -37.5t-134 -99.5l-21 24q98 87 194 137t173 50q88 0 133 -51.5t45 -114.5q0 -75 -60.5 -194t-147 -247.5t-173 -260t-147 -264
t-60.5 -226.5q0 -108 56.5 -160.5t140.5 -52.5q286 0 840 717l473 815q14 22 39 22h106q19 0 25 -11t-4 -28q-508 -864 -623 -1107q-104 -213 -104 -291q0 -43 21 -63.5t54 -20.5q76 0 179 96l16 -20q-109 -100 -198 -154.5t-142 -54.5q-60 0 -94.5 44t-34.5 105
q0 125 102 326l99 184q-277 -344 -489.5 -501.5t-362.5 -157.5zM1317 1868q-31 12 -38 34.5t-7 96.5q0 37 16 37q13 0 60 -35l360 -277l-12 -14z" />
    <glyph glyph-name="Uacute" unicode="&#xda;" horiz-adv-x="1730" 
d="M500 -16q-122 0 -201.5 83.5t-79.5 204.5q0 112 61 254.5t148 275t174 258.5t148 240t61 185q0 41 -25 68.5t-69 27.5q-49 0 -118 -37.5t-134 -99.5l-21 24q98 87 194 137t173 50q88 0 133 -51.5t45 -114.5q0 -75 -60.5 -194t-147 -247.5t-173 -260t-147 -264
t-60.5 -226.5q0 -108 56.5 -160.5t140.5 -52.5q286 0 840 717l473 815q14 22 39 22h106q19 0 25 -11t-4 -28q-508 -864 -623 -1107q-104 -213 -104 -291q0 -43 21 -63.5t54 -20.5q76 0 179 96l16 -20q-109 -100 -198 -154.5t-142 -54.5q-60 0 -94.5 44t-34.5 105
q0 125 102 326l99 184q-277 -344 -489.5 -501.5t-362.5 -157.5zM1700 1868l-379 -158l-12 14l360 277q47 35 60 35q16 0 16 -37q0 -74 -7 -96.5t-38 -34.5z" />
    <glyph glyph-name="Ucircumflex" unicode="&#xdb;" horiz-adv-x="1730" 
d="M500 -16q-122 0 -201.5 83.5t-79.5 204.5q0 112 61 254.5t148 275t174 258.5t148 240t61 185q0 41 -25 68.5t-69 27.5q-49 0 -118 -37.5t-134 -99.5l-21 24q98 87 194 137t173 50q88 0 133 -51.5t45 -114.5q0 -75 -60.5 -194t-147 -247.5t-173 -260t-147 -264
t-60.5 -226.5q0 -108 56.5 -160.5t140.5 -52.5q286 0 840 717l473 815q14 22 39 22h106q19 0 25 -11t-4 -28q-508 -864 -623 -1107q-104 -213 -104 -291q0 -43 21 -63.5t54 -20.5q76 0 179 96l16 -20q-109 -100 -198 -154.5t-142 -54.5q-60 0 -94.5 44t-34.5 105
q0 125 102 326l99 184q-277 -344 -489.5 -501.5t-362.5 -157.5zM1602 1749q-26 0 -39 18q-67 87 -111 129q-117 -52 -244 -157l-18 18q95 75 198 137t148 62q23 0 84.5 -68t101.5 -129l-8 -12z" />
    <glyph glyph-name="Udieresis" unicode="&#xdc;" horiz-adv-x="1730" 
d="M500 -16q-122 0 -201.5 83.5t-79.5 204.5q0 112 61 254.5t148 275t174 258.5t148 240t61 185q0 41 -25 68.5t-69 27.5q-49 0 -118 -37.5t-134 -99.5l-21 24q98 87 194 137t173 50q88 0 133 -51.5t45 -114.5q0 -75 -60.5 -194t-147 -247.5t-173 -260t-147 -264
t-60.5 -226.5q0 -108 56.5 -160.5t140.5 -52.5q286 0 840 717l473 815q14 22 39 22h106q19 0 25 -11t-4 -28q-508 -864 -623 -1107q-104 -213 -104 -291q0 -43 21 -63.5t54 -20.5q76 0 179 96l16 -20q-109 -100 -198 -154.5t-142 -54.5q-60 0 -94.5 44t-34.5 105
q0 125 102 326l99 184q-277 -344 -489.5 -501.5t-362.5 -157.5zM1595 1769q-21 0 -42 22t-21 50q0 33 24 68q21 35 51.5 59.5t55.5 24.5q19 0 38 -21t19 -49q0 -31 -22 -70q-18 -29 -48.5 -56.5t-54.5 -27.5zM1253 1769q-20 0 -41.5 22t-21.5 50q0 29 24 68q21 34 52 59
t55 25q20 0 38.5 -21t18.5 -49q0 -36 -22 -70q-16 -29 -47 -56.5t-56 -27.5z" />
    <glyph glyph-name="Yacute" unicode="&#xdd;" horiz-adv-x="1458" 
d="M629 0q-23 0 -23 16q0 15 78 80l6 4l37 31q45 43 74 83t65 110q57 109 101 225.5t47 179.5q-3 235 -84 578q-9 40 -15.5 64t-18 53t-24 44.5t-32.5 26.5t-45 12l-158 -4q-75 -3 -116 -26.5t-95 -81.5l-18 12q120 153 176 201q38 30 108 30h500q30 0 16 -26l-51 -78
q-14 -18 -47 -18l-225 -7q150 -34 188 -172q28 -104 56 -270.5t36 -341.5l711 975q70 95 104 92q24 0 39 -26.5t15 -57.5q0 -70 -37 -111l-834 -923q-7 -20 -29 -86t-38.5 -109.5t-38.5 -93.5q-33 -72 -70 -113t-98 -77l-88 -54l311 2q25 2 25 -12q0 -13 -29 -55.5
t-51 -61.5q-16 -14 -60 -14h-368zM1624 1868l-379 -158l-12 14l360 277q47 35 60 35q16 0 16 -37q0 -74 -7 -96.5t-38 -34.5z" />
    <glyph glyph-name="Thorn" unicode="&#xde;" horiz-adv-x="1431" 
d="M92 0q-22 0 -22 16q0 15 77 80l7 4l36 31q62 52 132 174q89 155 240 502.5t224 484.5q-147 -7 -271.5 -56.5t-213.5 -117.5l-16 23q271 207 551 239q41 72 88 121.5t118 87.5l138 70l12 -23q-37 -24 -68.5 -58.5t-45 -55t-44.5 -73.5q-5 -9 -8 -13l-29 -52
q120 -7 218 -46.5t161.5 -103t98 -144t34.5 -170.5q0 -112 -42.5 -215t-112.5 -179.5t-157.5 -134t-180 -86.5t-176.5 -29q-96 0 -184 23.5t-142 56.5q-36 -57 -72.5 -94t-89.5 -67l-110 -66l297 14q18 2 18 -12q0 -11 -29 -55t-51 -62q-16 -14 -59 -14h-326zM578 473
q70 -55 165.5 -94t196.5 -39q82 0 158 33t135 92t94 148.5t35 193.5q0 102 -33.5 186.5t-91.5 142t-132 94.5t-161 52q-59 -118 -178.5 -398t-187.5 -411z" />
    <glyph glyph-name="germandbls" unicode="&#xdf;" horiz-adv-x="1247" 
d="M-604 -496q-66 0 -66 39q0 34 40.5 74.5t84.5 40.5q5 0 72 -4t111 -2q51 3 88.5 18t74 45t76.5 91t82.5 139t106.5 207l405 823h-205l15 29h204l4 10q151 307 353.5 476t455.5 169q126 0 212.5 -57.5t86.5 -147.5q0 -69 -35.5 -125t-92 -94t-124.5 -71t-136.5 -63
t-125 -62.5t-92 -78t-35.5 -100.5q0 -45 21.5 -98.5t51.5 -104.5t59.5 -103.5t49 -113t17.5 -116.5q-3 -68 -50 -132t-116.5 -108t-151.5 -71t-155 -27q-84 0 -135 32t-51 95q0 75 79 186l17 -10q-25 -43 -25 -86q0 -63 67.5 -106.5t153.5 -43.5q102 0 167 45t65 131
q0 66 -31 140.5t-68.5 132t-68.5 132t-31 140.5q0 50 21 93.5t56.5 76.5t81 63.5t96 58t101.5 55.5t96.5 61t81 70t56.5 86t21 106q0 82 -55.5 130t-149.5 48q-67 0 -129.5 -26t-112.5 -68t-99.5 -106.5t-87.5 -129.5t-81 -149l-420 -838q-102 -203 -253.5 -384.5
t-326.5 -299t-321 -117.5z" />
    <glyph glyph-name="agrave" unicode="&#xe0;" horiz-adv-x="1196" 
d="M762 -16q-59 0 -85 36t-26 82q0 186 230 560q-271 -325 -458 -502t-280 -176q-68 3 -100.5 53.5t-32.5 122.5q1 107 49.5 231t132.5 237t188.5 206.5t228.5 149.5t241 56q68 0 161.5 -12.5t166.5 -36.5l26 -8q17 -5 21 -16.5t-6 -26.5q-168 -250 -256 -418
q-132 -256 -132 -362q0 -60 56 -60q68 0 190 113l17 -20q-232 -209 -332 -209zM915 1327q-59 24 -59 100q0 32 11 56t30 24t43 -22l326 -297l-11 -19zM180 213q0 -47 16.5 -82t53.5 -35q70 0 266 195.5t488 558.5l26 39q-193 76 -328 76q-104 0 -204 -80.5t-167.5 -197.5
t-109 -245.5t-41.5 -228.5z" />
    <glyph glyph-name="aacute" unicode="&#xe1;" horiz-adv-x="1196" 
d="M762 -16q-59 0 -85 36t-26 82q0 186 230 560q-271 -325 -458 -502t-280 -176q-68 3 -100.5 53.5t-32.5 122.5q1 107 49.5 231t132.5 237t188.5 206.5t228.5 149.5t241 56q68 0 161.5 -12.5t166.5 -36.5l26 -8q17 -5 21 -16.5t-6 -26.5q-168 -250 -256 -418
q-132 -256 -132 -362q0 -60 56 -60q68 0 190 113l17 -20q-232 -209 -332 -209zM1217 1327l-340 -158l-11 19l326 297q24 22 43 22t30 -24t11 -56q0 -76 -59 -100zM180 213q0 -47 16.5 -82t53.5 -35q70 0 266 195.5t488 558.5l26 39q-193 76 -328 76q-104 0 -204 -80.5
t-167.5 -197.5t-109 -245.5t-41.5 -228.5z" />
    <glyph glyph-name="acircumflex" unicode="&#xe2;" horiz-adv-x="1196" 
d="M762 -16q-59 0 -85 36t-26 82q0 186 230 560q-271 -325 -458 -502t-280 -176q-68 3 -100.5 53.5t-32.5 122.5q1 107 49.5 231t132.5 237t188.5 206.5t228.5 149.5t241 56q68 0 161.5 -12.5t166.5 -36.5l26 -8q17 -5 21 -16.5t-6 -26.5q-168 -250 -256 -418
q-132 -256 -132 -362q0 -60 56 -60q68 0 190 113l17 -20q-232 -209 -332 -209zM1182 1178q-26 0 -39 18q-67 87 -111 129q-115 -51 -244 -158l-18 19q94 74 197 136t149 62q23 0 85.5 -67.5t101.5 -128.5l-9 -12zM180 213q0 -47 16.5 -82t53.5 -35q70 0 266 195.5t488 558.5
l26 39q-193 76 -328 76q-104 0 -204 -80.5t-167.5 -197.5t-109 -245.5t-41.5 -228.5z" />
    <glyph glyph-name="atilde" unicode="&#xe3;" horiz-adv-x="1196" 
d="M762 -16q-59 0 -85 36t-26 82q0 186 230 560q-271 -325 -458 -502t-280 -176q-68 3 -100.5 53.5t-32.5 122.5q1 107 49.5 231t132.5 237t188.5 206.5t228.5 149.5t241 56q68 0 161.5 -12.5t166.5 -36.5l26 -8q17 -5 21 -16.5t-6 -26.5q-168 -250 -256 -418
q-132 -256 -132 -362q0 -60 56 -60q68 0 190 113l17 -20q-232 -209 -332 -209zM678 1190q63 97 116.5 139.5t118.5 42.5q47 0 149 -28.5t146 -28.5q47 0 80 23.5t66 72.5l16 -10q-43 -80 -105 -133.5t-128 -53.5q-45 0 -151.5 28t-147.5 28q-46 0 -79.5 -20t-64.5 -70z
M180 213q0 -47 16.5 -82t53.5 -35q70 0 266 195.5t488 558.5l26 39q-193 76 -328 76q-104 0 -204 -80.5t-167.5 -197.5t-109 -245.5t-41.5 -228.5z" />
    <glyph glyph-name="adieresis" unicode="&#xe4;" horiz-adv-x="1196" 
d="M762 -16q-59 0 -85 36t-26 82q0 186 230 560q-271 -325 -458 -502t-280 -176q-68 3 -100.5 53.5t-32.5 122.5q1 107 49.5 231t132.5 237t188.5 206.5t228.5 149.5t241 56q68 0 161.5 -12.5t166.5 -36.5l26 -8q17 -5 21 -16.5t-6 -26.5q-168 -250 -256 -418
q-132 -256 -132 -362q0 -60 56 -60q68 0 190 113l17 -20q-232 -209 -332 -209zM1155 1155q-21 0 -42 22t-21 50q0 33 24 67q21 35 51.5 59.5t55.5 24.5q19 0 38 -20.5t19 -48.5q0 -29 -23 -70q-18 -29 -48 -56.5t-54 -27.5zM813 1155q-20 0 -41.5 22t-21.5 50t24 67
q21 34 52 59t55 25q20 0 38.5 -20.5t18.5 -48.5q0 -34 -23 -70q-16 -29 -46.5 -56.5t-55.5 -27.5zM180 213q0 -47 16.5 -82t53.5 -35q70 0 266 195.5t488 558.5l26 39q-193 76 -328 76q-104 0 -204 -80.5t-167.5 -197.5t-109 -245.5t-41.5 -228.5z" />
    <glyph glyph-name="aring" unicode="&#xe5;" horiz-adv-x="1196" 
d="M762 -16q-59 0 -85 36t-26 82q0 186 230 560q-271 -325 -458 -502t-280 -176q-68 3 -100.5 53.5t-32.5 122.5q1 107 49.5 231t132.5 237t188.5 206.5t228.5 149.5t241 56q68 0 161.5 -12.5t166.5 -36.5l26 -8q17 -5 21 -16.5t-6 -26.5q-168 -250 -256 -418
q-132 -256 -132 -362q0 -60 56 -60q68 0 190 113l17 -20q-232 -209 -332 -209zM1026 1139q-90 0 -144.5 56.5t-54.5 141.5q0 83 58 141t141 58q94 0 146.5 -56t52.5 -143q0 -83 -58 -140.5t-141 -57.5zM1026 1165q73 0 120.5 48.5t47.5 123.5t-47.5 123.5t-120.5 48.5
q-72 0 -120 -48.5t-48 -123.5t48 -123.5t120 -48.5zM180 213q0 -47 16.5 -82t53.5 -35q70 0 266 195.5t488 558.5l26 39q-193 76 -328 76q-104 0 -204 -80.5t-167.5 -197.5t-109 -245.5t-41.5 -228.5z" />
    <glyph glyph-name="ae" unicode="&#xe6;" horiz-adv-x="1546" 
d="M164 -16q-73 0 -109.5 60.5t-36.5 141.5q1 92 36 194t93.5 195.5t139.5 179t170.5 148t190.5 100t196 37.5q147 0 350 -82q148 82 268 82q78 0 119 -31.5t41 -86.5q0 -69 -65 -147t-229.5 -198.5t-473.5 -314.5q9 -76 56.5 -120t133.5 -44q149 0 316 150l16 -19
q-128 -118 -253 -180.5t-208 -62.5q-118 -1 -179.5 69.5t-61.5 169.5q0 123 69 264q-206 -245 -350 -375t-229 -130zM190 250q0 -154 82 -154q120 0 570 555l2 -2q92 122 198 207q-200 111 -344 111q-103 0 -199.5 -70t-162.5 -177t-106 -232.5t-40 -237.5zM852 291
q331 207 463.5 331t132.5 234q0 50 -33.5 78.5t-85.5 28.5q-94 0 -185 -67t-154.5 -167t-101.5 -217.5t-36 -218.5v-2z" />
    <glyph glyph-name="ccedilla" unicode="&#xe7;" horiz-adv-x="907" 
d="M274 -14q-31 0 -45 2l-127 -107q103 14 161.5 -21t58.5 -93q0 -88 -87 -155t-192 -67q-56 0 -91.5 21t-35.5 47q0 19 19.5 36t41.5 17q20 0 43.5 -17t53 -34.5t63.5 -17.5q50 0 81.5 27.5t31.5 68.5q0 42 -43 72t-119 30q-52 0 -117 -18l-10 12l240 205q-81 22 -124.5 90
t-43.5 152q0 130 70.5 273.5t181.5 260t259 192.5t292 76q75 0 136.5 -14.5t61.5 -40.5q0 -45 -40.5 -83t-84.5 -38q-45 0 -109.5 21.5t-195.5 74.5q-95 -25 -188.5 -134.5t-150.5 -255t-54 -269.5q2 -94 51 -148.5t139 -54.5q149 0 320 154l18 -19q-129 -119 -255.5 -182
t-209.5 -63z" />
    <glyph glyph-name="egrave" unicode="&#xe8;" horiz-adv-x="897" 
d="M266 -14q-118 -1 -179.5 69.5t-61.5 169.5q0 88 36 186t96 186.5t140.5 170.5t167 141.5t178 95t170.5 35.5q78 0 119 -31.5t41 -86.5q0 -69 -65 -147t-229.5 -198.5t-473.5 -314.5q9 -76 56.5 -120t133.5 -44q149 0 316 150l16 -19q-128 -118 -253 -180.5t-208 -62.5z
M698 1327q-59 24 -59 100q0 32 11 56t30 24t43 -22l326 -297l-11 -19zM203 291q331 207 463.5 331t132.5 234q0 50 -33.5 78.5t-85.5 28.5q-94 0 -185 -67t-154.5 -167t-101.5 -217.5t-36 -218.5v-2z" />
    <glyph glyph-name="eacute" unicode="&#xe9;" horiz-adv-x="897" 
d="M266 -14q-118 -1 -179.5 69.5t-61.5 169.5q0 88 36 186t96 186.5t140.5 170.5t167 141.5t178 95t170.5 35.5q78 0 119 -31.5t41 -86.5q0 -69 -65 -147t-229.5 -198.5t-473.5 -314.5q9 -76 56.5 -120t133.5 -44q149 0 316 150l16 -19q-128 -118 -253 -180.5t-208 -62.5z
M999 1327l-340 -158l-10 19l326 297q24 22 43 22t30 -24t11 -56q0 -76 -60 -100zM203 291q331 207 463.5 331t132.5 234q0 50 -33.5 78.5t-85.5 28.5q-94 0 -185 -67t-154.5 -167t-101.5 -217.5t-36 -218.5v-2z" />
    <glyph glyph-name="ecircumflex" unicode="&#xea;" horiz-adv-x="897" 
d="M266 -14q-118 -1 -179.5 69.5t-61.5 169.5q0 88 36 186t96 186.5t140.5 170.5t167 141.5t178 95t170.5 35.5q78 0 119 -31.5t41 -86.5q0 -69 -65 -147t-229.5 -198.5t-473.5 -314.5q9 -76 56.5 -120t133.5 -44q149 0 316 150l16 -19q-128 -118 -253 -180.5t-208 -62.5z
M963 1178q-26 0 -39 18q-67 87 -111 129q-115 -51 -244 -158l-18 19q94 74 197 136t149 62q23 0 84.5 -67.5t101.5 -128.5l-8 -12zM203 291q331 207 463.5 331t132.5 234q0 50 -33.5 78.5t-85.5 28.5q-94 0 -185 -67t-154.5 -167t-101.5 -217.5t-36 -218.5v-2z" />
    <glyph glyph-name="edieresis" unicode="&#xeb;" horiz-adv-x="897" 
d="M266 -14q-118 -1 -179.5 69.5t-61.5 169.5q0 88 36 186t96 186.5t140.5 170.5t167 141.5t178 95t170.5 35.5q78 0 119 -31.5t41 -86.5q0 -69 -65 -147t-229.5 -198.5t-473.5 -314.5q9 -76 56.5 -120t133.5 -44q149 0 316 150l16 -19q-128 -118 -253 -180.5t-208 -62.5z
M936 1155q-22 0 -43 22t-21 50q0 31 25 67q21 35 51.5 59.5t55.5 24.5q19 0 38 -20.5t19 -48.5q0 -29 -23 -70q-18 -29 -48 -56.5t-54 -27.5zM594 1155q-20 0 -42 22t-22 50q0 26 25 67q21 34 52 59t55 25q20 0 38.5 -20.5t18.5 -48.5q0 -34 -23 -70q-16 -29 -46.5 -56.5
t-55.5 -27.5zM203 291q331 207 463.5 331t132.5 234q0 50 -33.5 78.5t-85.5 28.5q-94 0 -185 -67t-154.5 -167t-101.5 -217.5t-36 -218.5v-2z" />
    <glyph glyph-name="igrave" unicode="&#xec;" horiz-adv-x="595" 
d="M133 -16q-56 0 -84.5 37.5t-28.5 84.5q0 66 61 187t134 230t134 213.5t61 142.5q0 51 -52 51q-70 0 -200 -119l-17 20q232 209 344 209q52 0 77.5 -32.5t25.5 -73.5q0 -61 -58.5 -174t-128 -217t-128 -209.5t-58.5 -153.5q0 -63 61 -63q74 0 177 96l16 -20
q-232 -209 -336 -209zM504 1327q-60 24 -60 100q0 32 11 56t30 24t43 -22l326 -297l-10 -19z" />
    <glyph glyph-name="iacute" unicode="&#xed;" horiz-adv-x="595" 
d="M133 -16q-56 0 -84.5 37.5t-28.5 84.5q0 66 61 187t134 230t134 213.5t61 142.5q0 51 -52 51q-70 0 -200 -119l-17 20q232 209 344 209q52 0 77.5 -32.5t25.5 -73.5q0 -61 -58.5 -174t-128 -217t-128 -209.5t-58.5 -153.5q0 -63 61 -63q74 0 177 96l16 -20
q-232 -209 -336 -209zM805 1327l-340 -158l-10 19l325 297q24 22 43 22t30 -24t11 -56q0 -76 -59 -100z" />
    <glyph glyph-name="icircumflex" unicode="&#xee;" horiz-adv-x="595" 
d="M133 -16q-56 0 -84.5 37.5t-28.5 84.5q0 66 61 187t134 230t134 213.5t61 142.5q0 51 -52 51q-70 0 -200 -119l-17 20q232 209 344 209q52 0 77.5 -32.5t25.5 -73.5q0 -61 -58.5 -174t-128 -217t-128 -209.5t-58.5 -153.5q0 -63 61 -63q74 0 177 96l16 -20
q-232 -209 -336 -209zM770 1178q-26 0 -39 18q-70 91 -110 129q-115 -51 -244 -158l-19 19q94 74 197.5 136t149.5 62q23 0 84.5 -67.5t101.5 -128.5l-8 -12z" />
    <glyph glyph-name="idieresis" unicode="&#xef;" horiz-adv-x="595" 
d="M133 -16q-56 0 -84.5 37.5t-28.5 84.5q0 66 61 187t134 230t134 213.5t61 142.5q0 51 -52 51q-70 0 -200 -119l-17 20q232 209 344 209q52 0 77.5 -32.5t25.5 -73.5q0 -61 -58.5 -174t-128 -217t-128 -209.5t-58.5 -153.5q0 -63 61 -63q74 0 177 96l16 -20
q-232 -209 -336 -209zM743 1155q-21 0 -42 22t-21 50q0 31 25 67q21 35 51 59.5t55 24.5q19 0 38 -20.5t19 -48.5q0 -31 -22 -70q-18 -29 -48.5 -56.5t-54.5 -27.5zM401 1155q-20 0 -41.5 22t-21.5 50t24 67q21 34 52 59t55 25q20 0 38.5 -20.5t18.5 -48.5q0 -36 -22 -70
q-16 -29 -47 -56.5t-56 -27.5z" />
    <glyph glyph-name="eth" unicode="&#xf0;" horiz-adv-x="993" 
d="M244 -12q-95 0 -153 69.5t-58 175.5q0 122 70.5 266t178.5 262.5t249 198.5t270 80q101 0 184 -20q57 208 57 369q0 26 -2 36l-168 -100l-16 25l180 108q-20 105 -114 105q-115 0 -285 -166l-16 18q111 111 220 175.5t193 64.5q117 0 162 -101l154 93l16 -25l-160 -96
q11 -50 11 -90q1 -107 -44 -259.5t-119.5 -311.5t-176 -317.5t-207.5 -282t-219 -200.5t-207 -77zM209 281q0 -90 36 -144.5t107 -54.5q80 0 167 68.5t164 182.5t144 253.5t117 290.5q-156 75 -297 75q-81 0 -154 -44.5t-124.5 -116t-89 -160t-55 -179.5t-15.5 -171z" />
    <glyph glyph-name="ntilde" unicode="&#xf1;" horiz-adv-x="1224" 
d="M-8 0q-17 0 -22.5 11t3.5 28q142 244 276 504t134 334q0 53 -53 53q-71 0 -201 -119l-16 20q232 209 342 209q53 0 78.5 -32t25.5 -74q0 -108 -219 -528q143 184 311 346q136 133 256 210.5t193 77.5q51 0 77.5 -33t26.5 -79q0 -62 -56 -179t-123 -225.5t-123 -216.5
t-56 -155q0 -56 57 -56q64 0 193 117l16 -20q-110 -100 -197.5 -154.5t-134.5 -54.5q-59 0 -85.5 36t-26.5 82q0 58 37 146.5t90 178t106 176t90 161.5t37 113q0 57 -55 57q-52 0 -125.5 -51t-179.5 -152q-231 -218 -412 -487q-92 -165 -129 -221q-14 -23 -37 -23h-98z
M551 1190q63 97 116.5 139.5t118.5 42.5q46 0 149 -28.5t146 -28.5q47 0 80 23.5t66 72.5l16 -10q-43 -80 -105 -133.5t-128 -53.5q-45 0 -151.5 28t-147.5 28q-46 0 -79.5 -20t-64.5 -70z" />
    <glyph glyph-name="ograve" unicode="&#xf2;" horiz-adv-x="1009" 
d="M262 -16q-103 0 -168 66t-65 183q0 122 72 266.5t179 263t240.5 198t247.5 79.5q59 0 102.5 -21.5t67 -57t34.5 -74.5t11 -82q0 -113 -49 -235.5t-128.5 -224.5t-173.5 -184.5t-192.5 -129.5t-177.5 -47zM391 68q74 0 143 48.5t119 124t88 166t57 177t19 153.5
q0 107 -48.5 162t-137.5 55q-92 0 -175.5 -67t-138 -167t-86.5 -210.5t-32 -202.5q0 -110 46 -174.5t146 -64.5zM760 1327q-60 24 -60 100q0 32 11 56t30 24t43 -22l326 -297l-10 -19z" />
    <glyph glyph-name="oacute" unicode="&#xf3;" horiz-adv-x="1009" 
d="M262 -16q-103 0 -168 66t-65 183q0 122 72 266.5t179 263t240.5 198t247.5 79.5q59 0 102.5 -21.5t67 -57t34.5 -74.5t11 -82q0 -113 -49 -235.5t-128.5 -224.5t-173.5 -184.5t-192.5 -129.5t-177.5 -47zM391 68q74 0 143 48.5t119 124t88 166t57 177t19 153.5
q0 107 -48.5 162t-137.5 55q-92 0 -175.5 -67t-138 -167t-86.5 -210.5t-32 -202.5q0 -110 46 -174.5t146 -64.5zM1061 1327l-340 -158l-10 19l325 297q24 22 43 22t30 -24t11 -56q0 -76 -59 -100z" />
    <glyph glyph-name="ocircumflex" unicode="&#xf4;" horiz-adv-x="1009" 
d="M262 -16q-103 0 -168 66t-65 183q0 122 72 266.5t179 263t240.5 198t247.5 79.5q59 0 102.5 -21.5t67 -57t34.5 -74.5t11 -82q0 -113 -49 -235.5t-128.5 -224.5t-173.5 -184.5t-192.5 -129.5t-177.5 -47zM391 68q74 0 143 48.5t119 124t88 166t57 177t19 153.5
q0 107 -48.5 162t-137.5 55q-92 0 -175.5 -67t-138 -167t-86.5 -210.5t-32 -202.5q0 -110 46 -174.5t146 -64.5zM1026 1178q-26 0 -39 18q-70 91 -110 129q-115 -51 -244 -158l-19 19q94 74 197.5 136t149.5 62q23 0 84.5 -67.5t101.5 -128.5l-8 -12z" />
    <glyph glyph-name="otilde" unicode="&#xf5;" horiz-adv-x="1009" 
d="M262 -16q-103 0 -168 66t-65 183q0 122 72 266.5t179 263t240.5 198t247.5 79.5q59 0 102.5 -21.5t67 -57t34.5 -74.5t11 -82q0 -113 -49 -235.5t-128.5 -224.5t-173.5 -184.5t-192.5 -129.5t-177.5 -47zM391 68q74 0 143 48.5t119 124t88 166t57 177t19 153.5
q0 107 -48.5 162t-137.5 55q-92 0 -175.5 -67t-138 -167t-86.5 -210.5t-32 -202.5q0 -110 46 -174.5t146 -64.5zM522 1190q63 97 117 139.5t119 42.5q46 0 149 -28.5t146 -28.5q47 0 79.5 23t65.5 73l16 -10q-43 -80 -105 -133.5t-128 -53.5q-45 0 -151 28t-148 28
q-45 0 -78.5 -20t-64.5 -70z" />
    <glyph glyph-name="odieresis" unicode="&#xf6;" horiz-adv-x="1009" 
d="M262 -16q-103 0 -168 66t-65 183q0 122 72 266.5t179 263t240.5 198t247.5 79.5q59 0 102.5 -21.5t67 -57t34.5 -74.5t11 -82q0 -113 -49 -235.5t-128.5 -224.5t-173.5 -184.5t-192.5 -129.5t-177.5 -47zM391 68q74 0 143 48.5t119 124t88 166t57 177t19 153.5
q0 107 -48.5 162t-137.5 55q-92 0 -175.5 -67t-138 -167t-86.5 -210.5t-32 -202.5q0 -110 46 -174.5t146 -64.5zM999 1155q-21 0 -42 22t-21 50q0 31 25 67q21 35 51 59.5t55 24.5q19 0 38 -20.5t19 -48.5q0 -31 -22 -70q-18 -29 -48.5 -56.5t-54.5 -27.5zM657 1155
q-20 0 -41.5 22t-21.5 50t24 67q21 34 52 59t55 25q20 0 38.5 -20.5t18.5 -48.5q0 -36 -22 -70q-16 -29 -47 -56.5t-56 -27.5z" />
    <glyph glyph-name="divide" unicode="&#xf7;" horiz-adv-x="831" 
d="M809 657l-10 -24h-668l10 24h668zM492 741q-23 0 -37.5 17.5t-14.5 42.5q0 36 27 66t57 30q23 0 36 -16.5t13 -40.5q0 -38 -25.5 -68.5t-55.5 -30.5zM393 389q-23 0 -37 17.5t-14 42.5q0 36 27 66t57 30q22 0 35.5 -17t13.5 -41q0 -38 -26 -68t-56 -30z" />
    <glyph glyph-name="oslash" unicode="&#xf8;" horiz-adv-x="1009" 
d="M262 -16q-88 0 -151 51l-228 -264l-24 20l229 266q-59 65 -59 176q0 122 72 266.5t179 263t240.5 198t247.5 79.5q83 0 131 -39l184 213l25 -20l-184 -215q59 -64 59 -174q0 -113 -49 -235.5t-128.5 -224.5t-173.5 -184.5t-192.5 -129.5t-177.5 -47zM391 68
q74 0 143 48.5t119 124t88 166t57 177t19 153.5q0 62 -14 103l-580 -674q48 -98 168 -98zM199 307q0 -57 12 -106l577 669q-46 84 -157 84q-92 0 -175.5 -67t-138 -167t-86.5 -210.5t-32 -202.5z" />
    <glyph glyph-name="ugrave" unicode="&#xf9;" horiz-adv-x="1259" 
d="M797 -16q-59 0 -85 37t-26 83q0 161 188 500q-132 -171 -268 -317q-283 -303 -426 -303q-55 0 -97 37t-42 96q0 57 57.5 168.5t126 216t126 213.5t57.5 162q0 51 -50 51q-73 0 -198 -117l-17 20q109 100 198 154.5t142 54.5q55 0 81 -32t26 -74q0 -62 -57 -178.5
t-125.5 -224t-125.5 -216t-57 -155.5q0 -28 16.5 -47t51.5 -19q92 0 293 211q197 206 407 500l109 178q16 23 37 23l106 -2q19 0 24.5 -11t-5.5 -26q-173 -275 -263 -445q-135 -258 -135 -362q0 -62 56 -62q64 0 188 115l16 -20q-105 -99 -193 -154t-136 -55zM840 1327
q-60 24 -60 100q0 32 11 56t30 24t43 -22l326 -297l-10 -19z" />
    <glyph glyph-name="uacute" unicode="&#xfa;" horiz-adv-x="1259" 
d="M797 -16q-59 0 -85 37t-26 83q0 161 188 500q-132 -171 -268 -317q-283 -303 -426 -303q-55 0 -97 37t-42 96q0 57 57.5 168.5t126 216t126 213.5t57.5 162q0 51 -50 51q-73 0 -198 -117l-17 20q109 100 198 154.5t142 54.5q55 0 81 -32t26 -74q0 -62 -57 -178.5
t-125.5 -224t-125.5 -216t-57 -155.5q0 -28 16.5 -47t51.5 -19q92 0 293 211q197 206 407 500l109 178q16 23 37 23l106 -2q19 0 24.5 -11t-5.5 -26q-173 -275 -263 -445q-135 -258 -135 -362q0 -62 56 -62q64 0 188 115l16 -20q-105 -99 -193 -154t-136 -55zM1141 1327
l-340 -158l-10 19l325 297q24 22 43 22t30 -24t11 -56q0 -76 -59 -100z" />
    <glyph glyph-name="ucircumflex" unicode="&#xfb;" horiz-adv-x="1259" 
d="M797 -16q-59 0 -85 37t-26 83q0 161 188 500q-132 -171 -268 -317q-283 -303 -426 -303q-55 0 -97 37t-42 96q0 57 57.5 168.5t126 216t126 213.5t57.5 162q0 51 -50 51q-73 0 -198 -117l-17 20q109 100 198 154.5t142 54.5q55 0 81 -32t26 -74q0 -62 -57 -178.5
t-125.5 -224t-125.5 -216t-57 -155.5q0 -28 16.5 -47t51.5 -19q92 0 293 211q197 206 407 500l109 178q16 23 37 23l106 -2q19 0 24.5 -11t-5.5 -26q-173 -275 -263 -445q-135 -258 -135 -362q0 -62 56 -62q64 0 188 115l16 -20q-105 -99 -193 -154t-136 -55zM1104 1178
q-26 0 -39 18q-67 87 -111 129q-112 -50 -243 -158l-19 19q94 74 197 136t149 62q23 0 85.5 -67.5t101.5 -128.5l-8 -12z" />
    <glyph glyph-name="udieresis" unicode="&#xfc;" horiz-adv-x="1259" 
d="M797 -16q-59 0 -85 37t-26 83q0 161 188 500q-132 -171 -268 -317q-283 -303 -426 -303q-55 0 -97 37t-42 96q0 57 57.5 168.5t126 216t126 213.5t57.5 162q0 51 -50 51q-73 0 -198 -117l-17 20q109 100 198 154.5t142 54.5q55 0 81 -32t26 -74q0 -62 -57 -178.5
t-125.5 -224t-125.5 -216t-57 -155.5q0 -28 16.5 -47t51.5 -19q92 0 293 211q197 206 407 500l109 178q16 23 37 23l106 -2q19 0 24.5 -11t-5.5 -26q-173 -275 -263 -445q-135 -258 -135 -362q0 -62 56 -62q64 0 188 115l16 -20q-105 -99 -193 -154t-136 -55zM1079 1155
q-21 0 -42 22t-21 50q0 33 24 67q21 35 51.5 59.5t55.5 24.5q19 0 38 -20.5t19 -48.5q0 -31 -22 -70q-18 -29 -48.5 -56.5t-54.5 -27.5zM737 1155q-20 0 -41.5 22t-21.5 50t24 67q21 34 52 59t55 25q20 0 38.5 -20.5t18.5 -48.5q0 -36 -22 -70q-16 -29 -47 -56.5t-56 -27.5z
" />
    <glyph glyph-name="yacute" unicode="&#xfd;" horiz-adv-x="1079" 
d="M-326 -426q-47 0 -80.5 13t-33.5 40q0 35 41.5 83t91.5 48q66 0 323 -73q95 36 138.5 91t85.5 187q55 154 101.5 411.5t43.5 413.5q-3 130 -61 130q-65 0 -183 -107l-16 20q121 109 192.5 159t116.5 50q107 0 107 -166q2 -152 -42.5 -430.5t-125.5 -523.5
q301 275 526 653q-13 271 2 351q10 50 58 83t98 33q45 0 45 -39q0 -41 -20.5 -106.5t-58 -147t-93 -175.5t-122 -191.5t-148.5 -195.5t-170 -187.5t-188 -167t-201 -134.5t-211 -89.5t-216 -32.5zM1047 1327l-340 -158l-11 19l326 297q24 22 43 22t30 -24t11 -56
q0 -76 -59 -100z" />
    <glyph glyph-name="thorn" unicode="&#xfe;" horiz-adv-x="1175" 
d="M-328 -553q-17 0 -23.5 11t1.5 26l743 1487q78 143 187.5 266t240 216t284.5 146.5t310 53.5q178 0 178 -45q0 -38 -50.5 -85.5t-117.5 -47.5q-33 0 -85.5 10t-90 19.5t-141.5 37.5l-45 12q-139 -54 -235 -151t-201 -299q-94 -173 -338 -680q134 158 267 290.5
t269.5 228.5t218.5 95q53 0 84 -41.5t31 -103.5q0 -141 -78 -304t-196 -295t-269.5 -220t-287.5 -88q-65 0 -119 28.5t-86 71.5l-299 -616q-13 -23 -37 -23h-115zM195 231q28 -77 99 -127.5t157 -50.5q91 0 176 55.5t147 142.5t109.5 190.5t71 204t22.5 179.5q0 46 -20 71.5
t-52 25.5q-83 0 -276.5 -177t-390.5 -423z" />
    <glyph glyph-name="ydieresis" unicode="&#xff;" horiz-adv-x="1079" 
d="M-326 -426q-47 0 -80.5 13t-33.5 40q0 35 41.5 83t91.5 48q66 0 323 -73q95 36 138.5 91t85.5 187q55 154 101.5 411.5t43.5 413.5q-3 130 -61 130q-65 0 -183 -107l-16 20q121 109 192.5 159t116.5 50q107 0 107 -166q2 -152 -42.5 -430.5t-125.5 -523.5
q301 275 526 653q-13 271 2 351q10 50 58 83t98 33q45 0 45 -39q0 -41 -20.5 -106.5t-58 -147t-93 -175.5t-122 -191.5t-148.5 -195.5t-170 -187.5t-188 -167t-201 -134.5t-211 -89.5t-216 -32.5zM985 1155q-21 0 -42 22t-21 50q0 33 24 67q21 35 51.5 59.5t55.5 24.5
q19 0 38 -20.5t19 -48.5q0 -29 -23 -70q-18 -29 -48 -56.5t-54 -27.5zM643 1155q-20 0 -41.5 22t-21.5 50t24 67q21 34 52 59t55 25q20 0 38.5 -20.5t18.5 -48.5q0 -34 -23 -70q-16 -29 -46.5 -56.5t-55.5 -27.5z" />
    <glyph glyph-name="Amacron" unicode="&#x100;" horiz-adv-x="2236" 
d="M305 -33q-172 0 -272.5 96.5t-100.5 243.5q0 154 105.5 294.5t275.5 225t351 84.5q79 0 171 -21t158 -45.5t169 -66t155 -59.5q341 368 647 788l-451 -6q-75 -1 -115.5 -24t-94.5 -82l-19 12q120 153 176 201q40 30 107 30h557q20 0 25.5 -7.5t0.5 -28.5
q-114 -510 -184 -898.5t-70 -478.5q0 -121 89 -121q36 0 78 25t106 84l16 -18q-112 -108 -192.5 -159.5t-143.5 -51.5q-55 0 -91 48t-32 144q6 152 80 533q-160 -131 -342 -131q-94 0 -211 24q-132 -139 -244.5 -243t-237 -198t-243 -144t-223.5 -50zM1870 1833l-4 6l35 47
q18 23 47 23h481l4 -6l-35 -48q-17 -22 -47 -22h-481zM68 389q0 -154 92.5 -244t230.5 -90q92 1 194 43.5t210 124t205 172t217 215.5q-85 23 -188.5 65.5t-177.5 77t-165.5 61t-169.5 26.5q-99 0 -184.5 -38.5t-142 -101.5t-89 -144t-32.5 -167zM1352 707q139 -48 247 -48
q117 0 213 84q69 340 156 717q-311 -422 -616 -753z" />
    <glyph glyph-name="amacron" unicode="&#x101;" horiz-adv-x="1196" 
d="M762 -16q-59 0 -85 36t-26 82q0 186 230 560q-271 -325 -458 -502t-280 -176q-68 3 -100.5 53.5t-32.5 122.5q1 107 49.5 231t132.5 237t188.5 206.5t228.5 149.5t241 56q68 0 161.5 -12.5t166.5 -36.5l26 -8q17 -5 21 -16.5t-6 -26.5q-168 -250 -256 -418
q-132 -256 -132 -362q0 -60 56 -60q68 0 190 113l17 -20q-232 -209 -332 -209zM754 1204l-4 6l34 47q18 23 47 23h482l4 -6l-35 -47q-18 -23 -47 -23h-481zM180 213q0 -47 16.5 -82t53.5 -35q70 0 266 195.5t488 558.5l26 39q-193 76 -328 76q-104 0 -204 -80.5
t-167.5 -197.5t-109 -245.5t-41.5 -228.5z" />
    <glyph glyph-name="Abreve" unicode="&#x102;" horiz-adv-x="2236" 
d="M305 -33q-172 0 -272.5 96.5t-100.5 243.5q0 154 105.5 294.5t275.5 225t351 84.5q79 0 171 -21t158 -45.5t169 -66t155 -59.5q341 368 647 788l-451 -6q-75 -1 -115.5 -24t-94.5 -82l-19 12q120 153 176 201q40 30 107 30h557q20 0 25.5 -7.5t0.5 -28.5
q-114 -510 -184 -898.5t-70 -478.5q0 -121 89 -121q36 0 78 25t106 84l16 -18q-112 -108 -192.5 -159.5t-143.5 -51.5q-55 0 -91 48t-32 144q6 152 80 533q-160 -131 -342 -131q-94 0 -211 24q-132 -139 -244.5 -243t-237 -198t-243 -144t-223.5 -50zM2095 1731
q-73 0 -116.5 47t-43.5 131q0 17 40.5 39t72.5 22q18 0 18 -16q2 -72 35 -117t99 -45q51 0 106 40t94 103q5 7 14.5 4.5t17 -11.5t1.5 -15q-87 -85 -176 -133.5t-162 -48.5zM68 389q0 -154 92.5 -244t230.5 -90q92 1 194 43.5t210 124t205 172t217 215.5q-85 23 -188.5 65.5
t-177.5 77t-165.5 61t-169.5 26.5q-99 0 -184.5 -38.5t-142 -101.5t-89 -144t-32.5 -167zM1352 707q139 -48 247 -48q117 0 213 84q69 340 156 717q-311 -422 -616 -753z" />
    <glyph glyph-name="abreve" unicode="&#x103;" horiz-adv-x="1196" 
d="M762 -16q-59 0 -85 36t-26 82q0 186 230 560q-271 -325 -458 -502t-280 -176q-68 3 -100.5 53.5t-32.5 122.5q1 107 49.5 231t132.5 237t188.5 206.5t228.5 149.5t241 56q68 0 161.5 -12.5t166.5 -36.5l26 -8q17 -5 21 -16.5t-6 -26.5q-168 -250 -256 -418
q-132 -256 -132 -362q0 -60 56 -60q68 0 190 113l17 -20q-232 -209 -332 -209zM1008 1176q-73 0 -116.5 47t-43.5 131q0 17 40.5 39t72.5 22q18 0 18 -16q2 -72 34.5 -117t98.5 -45q51 0 106.5 40t94.5 103q5 7 14.5 4.5t17 -11.5t1.5 -15q-87 -85 -176 -133.5t-162 -48.5z
M180 213q0 -47 16.5 -82t53.5 -35q70 0 266 195.5t488 558.5l26 39q-193 76 -328 76q-104 0 -204 -80.5t-167.5 -197.5t-109 -245.5t-41.5 -228.5z" />
    <glyph glyph-name="Aogonek" unicode="&#x104;" horiz-adv-x="2236" 
d="M305 -33q-172 0 -272.5 96.5t-100.5 243.5q0 154 105.5 294.5t275.5 225t351 84.5q79 0 171 -21t158 -45.5t169 -66t155 -59.5q341 368 647 788l-451 -6q-75 -1 -115.5 -24t-94.5 -82l-19 12q120 153 176 201q40 30 107 30h557q20 0 25.5 -7.5t0.5 -28.5
q-114 -510 -184 -898.5t-70 -478.5q0 -121 89 -121q36 0 78 25t106 84l16 -18q-112 -108 -192.5 -159.5t-143.5 -51.5q-24 0 -43 8q-104 -104 -104 -185q0 -51 30.5 -75.5t77.5 -24.5q56 0 107 33l8 -8l-63 -105q-34 -24 -95 -24q-65 0 -107 38.5t-42 102.5q0 105 168 260
q-66 48 -60 172q6 152 80 533q-160 -131 -342 -131q-94 0 -211 24q-132 -139 -244.5 -243t-237 -198t-243 -144t-223.5 -50zM68 389q0 -154 92.5 -244t230.5 -90q92 1 194 43.5t210 124t205 172t217 215.5q-85 23 -188.5 65.5t-177.5 77t-165.5 61t-169.5 26.5
q-99 0 -184.5 -38.5t-142 -101.5t-89 -144t-32.5 -167zM1352 707q139 -48 247 -48q117 0 213 84q69 340 156 717q-311 -422 -616 -753z" />
    <glyph glyph-name="aogonek" unicode="&#x105;" horiz-adv-x="1196" 
d="M762 -16h-17q-96 -99 -96 -177q0 -51 31 -75.5t78 -24.5q55 0 106 33l8 -8l-63 -105q-34 -24 -94 -24q-65 0 -107.5 38.5t-42.5 102.5q0 102 154 246q-36 12 -52 43.5t-16 68.5q0 186 230 560q-271 -325 -458 -502t-280 -176q-68 3 -100.5 53.5t-32.5 122.5
q1 107 49.5 231t132.5 237t188.5 206.5t228.5 149.5t241 56q68 0 161.5 -12.5t166.5 -36.5l26 -8q17 -5 21 -16.5t-6 -26.5q-168 -250 -256 -418q-132 -256 -132 -362q0 -60 56 -60q68 0 190 113l17 -20q-232 -209 -332 -209zM180 213q0 -47 16.5 -82t53.5 -35
q70 0 266 195.5t488 558.5l26 39q-193 76 -328 76q-104 0 -204 -80.5t-167.5 -197.5t-109 -245.5t-41.5 -228.5z" />
    <glyph glyph-name="Cacute" unicode="&#x106;" horiz-adv-x="1419" 
d="M698 -16q-165 0 -292 69t-195 190.5t-68 276.5q0 174 68.5 346t188.5 312t273.5 248.5t335 168.5t361.5 60q114 0 221 -18t168.5 -43t61.5 -48q0 -41 -48 -84t-110 -43q-65 0 -211 51t-315 127q-164 -37 -313 -126t-262 -213.5t-181.5 -287t-71.5 -335.5
q-5 -230 132.5 -378t377.5 -148q260 0 451 188l18 -18q-284 -295 -590 -295zM1569 1876l-379 -158l-12 15l360 276q47 35 59 35q17 0 17 -37q0 -74 -7 -96.5t-38 -34.5z" />
    <glyph glyph-name="cacute" unicode="&#x107;" horiz-adv-x="907" 
d="M274 -14q-116 -1 -178.5 72.5t-62.5 177.5q0 130 70.5 273.5t181.5 260t259 192.5t292 76q75 0 136.5 -14.5t61.5 -40.5q0 -45 -40.5 -83t-84.5 -38q-45 0 -109.5 21.5t-195.5 74.5q-95 -25 -188.5 -134.5t-150.5 -255t-54 -269.5q2 -94 51 -148.5t139 -54.5
q149 0 320 154l18 -19q-129 -119 -255.5 -182t-209.5 -63zM1096 1327l-340 -158l-11 19l326 297q24 22 43 22t30 -24t11 -56q0 -76 -59 -100z" />
    <glyph glyph-name="Cdotaccent" unicode="&#x10a;" horiz-adv-x="1419" 
d="M698 -16q-165 0 -292 69t-195 190.5t-68 276.5q0 174 68.5 346t188.5 312t273.5 248.5t335 168.5t361.5 60q114 0 221 -18t168.5 -43t61.5 -48q0 -41 -48 -84t-110 -43q-65 0 -211 51t-315 127q-164 -37 -313 -126t-262 -213.5t-181.5 -287t-71.5 -335.5
q-5 -230 132.5 -378t377.5 -148q260 0 451 188l18 -18q-284 -295 -590 -295zM1350 1802q-26 0 -51 25t-25 63q0 40 26 90q26 45 59.5 77t63.5 32q25 0 48.5 -25t23.5 -63q0 -43 -27 -92q-20 -36 -54 -71.5t-64 -35.5z" />
    <glyph glyph-name="cdotaccent" unicode="&#x10b;" horiz-adv-x="907" 
d="M274 -14q-116 -1 -178.5 72.5t-62.5 177.5q0 130 70.5 273.5t181.5 260t259 192.5t292 76q75 0 136.5 -14.5t61.5 -40.5q0 -45 -40.5 -83t-84.5 -38q-45 0 -109.5 21.5t-195.5 74.5q-95 -25 -188.5 -134.5t-150.5 -255t-54 -269.5q2 -94 51 -148.5t139 -54.5
q149 0 320 154l18 -19q-129 -119 -255.5 -182t-209.5 -63zM946 1237q-26 0 -51 25t-25 63t27 90q26 45 59.5 77t63.5 32q25 0 48.5 -25t23.5 -63q0 -44 -27 -93q-19 -36 -54 -71t-65 -35z" />
    <glyph glyph-name="Ccaron" unicode="&#x10c;" horiz-adv-x="1419" 
d="M698 -16q-165 0 -292 69t-195 190.5t-68 276.5q0 174 68.5 346t188.5 312t273.5 248.5t335 168.5t361.5 60q114 0 221 -18t168.5 -43t61.5 -48q0 -41 -48 -84t-110 -43q-65 0 -211 51t-315 127q-164 -37 -313 -126t-262 -213.5t-181.5 -287t-71.5 -335.5
q-5 -230 132.5 -378t377.5 -148q260 0 451 188l18 -18q-284 -295 -590 -295zM1217 1964q22 0 36 -20q52 -67 111 -129q124 55 244 159l20 -20q-98 -76 -200.5 -137.5t-147.5 -61.5q-23 0 -84 67.5t-102 129.5l10 12h113z" />
    <glyph glyph-name="ccaron" unicode="&#x10d;" horiz-adv-x="907" 
d="M274 -14q-116 -1 -178.5 72.5t-62.5 177.5q0 130 70.5 273.5t181.5 260t259 192.5t292 76q75 0 136.5 -14.5t61.5 -40.5q0 -45 -40.5 -83t-84.5 -38q-45 0 -109.5 21.5t-195.5 74.5q-95 -25 -188.5 -134.5t-150.5 -255t-54 -269.5q2 -94 51 -148.5t139 -54.5
q149 0 320 154l18 -19q-129 -119 -255.5 -182t-209.5 -63zM713 1407q26 0 39 -18q70 -91 110 -129q110 49 244 157l18 -18q-99 -77 -200 -138t-146 -61q-23 0 -84.5 68t-101.5 129l8 12z" />
    <glyph glyph-name="Dcaron" unicode="&#x10e;" horiz-adv-x="1822" 
d="M633 -14q-302 0 -496 24q-22 2 -22 15q0 12 78 73l43 33q10 8 20.5 17.5t17.5 16.5t17 20.5t14.5 19.5t15.5 23.5t14 22.5t16 27t16 27q88 155 238 462.5t243 467.5q43 77 91.5 128.5t121.5 90.5l139 74l14 -19q-51 -36 -85.5 -81t-75.5 -116q-6 -11 -9 -16
q-93 -160 -238.5 -461t-230.5 -450q-41 -71 -80 -113t-98 -77l-84 -52q74 -9 236 -18.5t313 -9.5q196 -1 355 55.5t264 157.5t161.5 240t55.5 304q0 204 -94.5 361t-259.5 240.5t-373 82.5q-141 0 -263.5 -43t-213.5 -108l-17 22q151 107 309.5 166.5t343.5 59.5
q158 0 295.5 -56t229.5 -147t145 -207t53 -237q0 -178 -71.5 -341t-193 -284.5t-277.5 -211.5t-331 -136.5t-347 -46.5zM1153 1956q22 0 37 -21q56 -73 110 -129q122 54 244 160l21 -20q-98 -76 -200.5 -137.5t-147.5 -61.5q-23 0 -84.5 68t-102.5 129l10 12h113z" />
    <glyph glyph-name="dcaron" unicode="&#x10f;" horiz-adv-x="995" 
d="M244 -12q-95 0 -153 69.5t-58 175.5q0 122 70.5 266t178.5 262.5t249 198.5t270 80q101 0 184 -20q57 208 57 369q0 174 -120 174q-115 0 -285 -166l-16 18q111 111 220 175.5t193 64.5q94 0 138.5 -59.5t44.5 -159.5q1 -107 -44 -259.5t-119.5 -311.5t-176 -317.5
t-207.5 -282t-219 -200.5t-207 -77zM1290 1243q60 44 86 73t27 56q0 25 -28 58.5t-29 52.5q0 42 45.5 98.5t87.5 56.5q38 0 63 -40.5t25 -84.5q0 -20 -8.5 -42t-18.5 -40t-32 -41.5t-36 -37t-43.5 -37.5t-41.5 -33t-43.5 -32t-36.5 -27zM209 281q0 -90 36 -144.5t107 -54.5
q80 0 167 68.5t164 182.5t144 253.5t117 290.5q-156 75 -297 75q-81 0 -154 -44.5t-124.5 -116t-89 -160t-55 -179.5t-15.5 -171z" />
    <glyph glyph-name="Dcroat" unicode="&#x110;" horiz-adv-x="1822" 
d="M633 -14q-302 0 -496 24q-22 2 -22 15q0 12 78 73l43 33q10 8 20.5 17.5t17.5 16.5t17 20.5t14.5 19.5t15.5 23.5t14 22.5t16 27t16 27q88 155 238 462.5t243 467.5q43 77 91.5 128.5t121.5 90.5l139 74l14 -19q-51 -36 -85.5 -81t-75.5 -116q-6 -11 -9 -16
q-95 -163 -241 -467h336v-28h-351q-130 -269 -213 -416q-41 -71 -80 -113t-98 -77l-84 -52q74 -9 236 -18.5t313 -9.5q196 -1 355 55.5t264 157.5t161.5 240t55.5 304q0 204 -94.5 361t-259.5 240.5t-373 82.5q-141 0 -263.5 -43t-213.5 -108l-17 22q151 107 309.5 166.5
t343.5 59.5q158 0 295.5 -56t229.5 -147t145 -207t53 -237q0 -178 -71.5 -341t-193 -284.5t-277.5 -211.5t-331 -136.5t-347 -46.5z" />
    <glyph glyph-name="dcroat" unicode="&#x111;" horiz-adv-x="995" 
d="M244 -12q-95 0 -153 69.5t-58 175.5q0 122 70.5 266t178.5 262.5t249 198.5t270 80q101 0 184 -20q46 175 55 303h-131v29h133v37q0 174 -120 174q-115 0 -285 -166l-16 18q111 111 220 175.5t193 64.5q94 0 138.5 -59.5t44.5 -159.5q0 -30 -7 -84h176v-29h-180
q-19 -118 -73 -265t-130 -294t-172.5 -288t-194.5 -248.5t-202 -173.5t-190 -66zM209 281q0 -90 36 -144.5t107 -54.5q80 0 167 68.5t164 182.5t144 253.5t117 290.5q-156 75 -297 75q-81 0 -154 -44.5t-124.5 -116t-89 -160t-55 -179.5t-15.5 -171z" />
    <glyph glyph-name="Emacron" unicode="&#x112;" horiz-adv-x="1411" 
d="M-16 0q-17 0 -22 4.5t-5 15.5q0 14 82 78l41 33q24 18 48 47.5t39 53.5t44 73q36 63 76.5 141.5t61.5 121t71.5 147.5t60.5 127h-188v32h203q124 254 190 367q43 77 91.5 128t121.5 87l88 41h-428q-52 0 -91 -15t-60 -32.5t-62 -60.5l-16 12q13 16 45.5 58.5t47 60.5
t38.5 44.5t45 43.5q38 30 106 30h1057q119 0 119 -71q0 -54 -60.5 -120t-185.5 -161l-16 23q133 100 133 145q0 25 -22 34t-78 9h-521q-36 -25 -66 -60t-43.5 -57t-45.5 -77q-68 -115 -219 -429h667v-32h-682q-156 -329 -229 -457q-41 -71 -80 -113t-98 -77l-90 -54h870
q74 0 114.5 24t96.5 85l18 -12q-12 -15 -37 -47.5t-38 -48.5t-32.5 -39.5t-36 -40.5t-32.5 -31q-39 -31 -112 -31h-979zM909 1819l-4 6l35 47q17 22 47 22h481l5 -6l-35 -47q-17 -22 -47 -22h-482z" />
    <glyph glyph-name="emacron" unicode="&#x113;" horiz-adv-x="897" 
d="M266 -14q-118 -1 -179.5 69.5t-61.5 169.5q0 88 36 186t96 186.5t140.5 170.5t167 141.5t178 95t170.5 35.5q78 0 119 -31.5t41 -86.5q0 -69 -65 -147t-229.5 -198.5t-473.5 -314.5q9 -76 56.5 -120t133.5 -44q149 0 316 150l16 -19q-128 -118 -253 -180.5t-208 -62.5z
M537 1204l-5 6l35 47q18 23 47 23h482l4 -6l-35 -47q-18 -23 -47 -23h-481zM203 291q331 207 463.5 331t132.5 234q0 50 -33.5 78.5t-85.5 28.5q-94 0 -185 -67t-154.5 -167t-101.5 -217.5t-36 -218.5v-2z" />
    <glyph glyph-name="Edotaccent" unicode="&#x116;" horiz-adv-x="1411" 
d="M-16 0q-17 0 -22 4.5t-5 15.5q0 14 82 78l41 33q24 18 48 47.5t39 53.5t44 73q36 63 76.5 141.5t61.5 121t71.5 147.5t60.5 127h-188v32h203q124 254 190 367q43 77 91.5 128t121.5 87l88 41h-428q-52 0 -91 -15t-60 -32.5t-62 -60.5l-16 12q13 16 45.5 58.5t47 60.5
t38.5 44.5t45 43.5q38 30 106 30h1057q119 0 119 -71q0 -54 -60.5 -120t-185.5 -161l-16 23q133 100 133 145q0 25 -22 34t-78 9h-521q-36 -25 -66 -60t-43.5 -57t-45.5 -77q-68 -115 -219 -429h667v-32h-682q-156 -329 -229 -457q-41 -71 -80 -113t-98 -77l-90 -54h870
q74 0 114.5 24t96.5 85l18 -12q-12 -15 -37 -47.5t-38 -48.5t-32.5 -39.5t-36 -40.5t-32.5 -31q-39 -31 -112 -31h-979zM1194 1794q-26 0 -51 25t-25 63t27 90q26 45 59.5 77t63.5 32q25 0 48 -25t23 -63q0 -44 -26 -92q-19 -36 -54 -71.5t-65 -35.5z" />
    <glyph glyph-name="edotaccent" unicode="&#x117;" horiz-adv-x="897" 
d="M266 -14q-118 -1 -179.5 69.5t-61.5 169.5q0 88 36 186t96 186.5t140.5 170.5t167 141.5t178 95t170.5 35.5q78 0 119 -31.5t41 -86.5q0 -69 -65 -147t-229.5 -198.5t-473.5 -314.5q9 -76 56.5 -120t133.5 -44q149 0 316 150l16 -19q-128 -118 -253 -180.5t-208 -62.5z
M850 1237q-26 0 -51 25t-25 63t27 90q26 45 59.5 77t63.5 32q25 0 48 -25t23 -63q0 -45 -26 -93q-19 -36 -54 -71t-65 -35zM203 291q331 207 463.5 331t132.5 234q0 50 -33.5 78.5t-85.5 28.5q-94 0 -185 -67t-154.5 -167t-101.5 -217.5t-36 -218.5v-2z" />
    <glyph glyph-name="Eogonek" unicode="&#x118;" horiz-adv-x="1411" 
d="M-16 0q-17 0 -22 4.5t-5 15.5q0 14 82 78l41 33q24 18 48 47.5t39 53.5t44 73q36 63 76.5 141.5t61.5 121t71.5 147.5t60.5 127h-188v32h203q124 254 190 367q43 77 91.5 128t121.5 87l88 41h-428q-52 0 -91 -15t-60 -32.5t-62 -60.5l-16 12q13 16 45.5 58.5t47 60.5
t38.5 44.5t45 43.5q38 30 106 30h1057q119 0 119 -71q0 -54 -60.5 -120t-185.5 -161l-16 23q133 100 133 145q0 25 -22 34t-78 9h-521q-36 -25 -66 -60t-43.5 -57t-45.5 -77q-68 -115 -219 -429h667v-32h-682q-156 -329 -229 -457q-41 -71 -80 -113t-98 -77l-90 -54h870
q74 0 114.5 24t96.5 85l18 -12q-12 -15 -37 -47.5t-38 -48.5t-32.5 -39.5t-36 -40.5t-32.5 -31q-28 -23 -74 -29q-114 -108 -114 -195q0 -51 30.5 -75.5t77.5 -24.5q56 0 107 33l8 -8l-63 -105q-34 -24 -95 -24q-65 0 -107 38.5t-42 102.5q0 105 164 256h-4h-979z" />
    <glyph glyph-name="eogonek" unicode="&#x119;" horiz-adv-x="897" 
d="M266 -14q-118 -1 -179.5 69.5t-61.5 169.5q0 88 36 186t96 186.5t140.5 170.5t167 141.5t178 95t170.5 35.5q78 0 119 -31.5t41 -86.5q0 -69 -65 -147t-229.5 -198.5t-473.5 -314.5q9 -76 56.5 -120t133.5 -44q149 0 316 150l16 -19q-156 -144 -315 -211
q-131 -122 -131 -211q0 -51 30.5 -75.5t77.5 -24.5q56 0 107 33l8 -8l-64 -105q-34 -24 -94 -24q-65 0 -107 38.5t-42 102.5q0 107 168 258q-59 -16 -99 -16zM203 291q331 207 463.5 331t132.5 234q0 50 -33.5 78.5t-85.5 28.5q-94 0 -185 -67t-154.5 -167t-101.5 -217.5
t-36 -218.5v-2z" />
    <glyph glyph-name="Ecaron" unicode="&#x11a;" horiz-adv-x="1411" 
d="M-16 0q-17 0 -22 4.5t-5 15.5q0 14 82 78l41 33q24 18 48 47.5t39 53.5t44 73q36 63 76.5 141.5t61.5 121t71.5 147.5t60.5 127h-188v32h203q124 254 190 367q43 77 91.5 128t121.5 87l88 41h-428q-52 0 -91 -15t-60 -32.5t-62 -60.5l-16 12q13 16 45.5 58.5t47 60.5
t38.5 44.5t45 43.5q38 30 106 30h1057q119 0 119 -71q0 -54 -60.5 -120t-185.5 -161l-16 23q133 100 133 145q0 25 -22 34t-78 9h-521q-36 -25 -66 -60t-43.5 -57t-45.5 -77q-68 -115 -219 -429h667v-32h-682q-156 -329 -229 -457q-41 -71 -80 -113t-98 -77l-90 -54h870
q74 0 114.5 24t96.5 85l18 -12q-12 -15 -37 -47.5t-38 -48.5t-32.5 -39.5t-36 -40.5t-32.5 -31q-39 -31 -112 -31h-979zM1061 1956q22 0 37 -21q56 -73 110 -129q122 54 244 160l21 -20q-97 -76 -200.5 -137.5t-148.5 -61.5q-23 0 -84 67.5t-102 129.5l10 12h113z" />
    <glyph glyph-name="ecaron" unicode="&#x11b;" horiz-adv-x="897" 
d="M266 -14q-118 -1 -179.5 69.5t-61.5 169.5q0 88 36 186t96 186.5t140.5 170.5t167 141.5t178 95t170.5 35.5q78 0 119 -31.5t41 -86.5q0 -69 -65 -147t-229.5 -198.5t-473.5 -314.5q9 -76 56.5 -120t133.5 -44q149 0 316 150l16 -19q-128 -118 -253 -180.5t-208 -62.5z
M614 1407q26 0 39 -18q67 -87 111 -129q110 49 244 157l18 -18q-99 -77 -200 -138t-146 -61q-23 0 -84.5 68t-101.5 129l8 12zM203 291q331 207 463.5 331t132.5 234q0 50 -33.5 78.5t-85.5 28.5q-94 0 -185 -67t-154.5 -167t-101.5 -217.5t-36 -218.5v-2z" />
    <glyph glyph-name="Gbreve" unicode="&#x11e;" horiz-adv-x="1613" 
d="M684 -16q-165 0 -292 69t-195 190.5t-68 276.5q0 146 48.5 290.5t132.5 267.5t200 230t247.5 182t279 119t290.5 46q181 1 319 -33t138 -74q0 -37 -47.5 -82t-106.5 -45q-113 0 -510 183q-163 -39 -311.5 -129.5t-261.5 -216t-181 -288t-71 -335.5q-3 -150 56.5 -268.5
t178.5 -188t279 -69.5q130 0 242.5 58t214.5 206l125 307l-508 -16q-23 0 -23 14q0 13 29 58.5t49 64.5q12 10 59 10l557 -2h27q19 0 8 -27q-104 -272 -196 -480.5t-139 -300t-109 -200.5q-62 -107 -164 -188q-38 -29 -106 -61t-105.5 -45.5t-120.5 -43.5l-12 25
q112 38 180 98.5t144 177.5q128 199 260 500q-121 -148 -260 -214t-277 -66zM1303 1716q-73 0 -116.5 47t-43.5 131q0 17 40 39.5t72 22.5q9 0 14 -5t5 -12q2 -72 34.5 -116.5t98.5 -44.5q51 0 106.5 40t94.5 103q5 7 14.5 4t16.5 -12t1 -15q-87 -86 -175.5 -134t-161.5 -48
z" />
    <glyph glyph-name="gbreve" unicode="&#x11f;" horiz-adv-x="1134" 
d="M-57 -567q-109 0 -162.5 41.5t-48.5 107.5q3 47 48 102t130 105l14 -12q-39 -60 -39 -113q0 -68 50 -112t155 -44q56 0 119 23t108 57q62 48 125.5 147.5t115.5 210t151.5 314t195.5 379.5l47 88q-292 -357 -490.5 -550.5t-295.5 -192.5q-69 3 -101 53t-32 123
q1 90 36 192t93.5 198.5t140.5 186t173 156.5t194.5 107t201.5 40q69 0 167 -12t171 -35l13 -4q29 -10 12 -41l-272 -518q-188 -359 -330 -551.5t-301 -312.5q-182 -133 -389 -133zM1044 1176q-73 0 -116 47t-43 131q0 17 40 39t72 22q19 0 19 -16q2 -72 34.5 -117t98.5 -45
q51 0 106.5 40t94.5 103q5 7 14.5 4.5t16.5 -11.5t1 -15q-87 -85 -176 -133.5t-162 -48.5zM203 213q0 -47 16 -82t53 -35q69 0 261 193.5t485 558.5l24 47q-75 29 -164 49.5t-153 20.5q-85 0 -167 -53t-144.5 -137t-111 -184t-74 -199.5t-25.5 -178.5z" />
    <glyph glyph-name="Gdotaccent" unicode="&#x120;" horiz-adv-x="1613" 
d="M684 -16q-165 0 -292 69t-195 190.5t-68 276.5q0 146 48.5 290.5t132.5 267.5t200 230t247.5 182t279 119t290.5 46q181 1 319 -33t138 -74q0 -37 -47.5 -82t-106.5 -45q-113 0 -510 183q-163 -39 -311.5 -129.5t-261.5 -216t-181 -288t-71 -335.5q-3 -150 56.5 -268.5
t178.5 -188t279 -69.5q130 0 242.5 58t214.5 206l125 307l-508 -16q-23 0 -23 14q0 13 29 58.5t49 64.5q12 10 59 10l557 -2h27q19 0 8 -27q-104 -272 -196 -480.5t-139 -300t-109 -200.5q-62 -107 -164 -188q-38 -29 -106 -61t-105.5 -45.5t-120.5 -43.5l-12 25
q112 38 180 98.5t144 177.5q128 199 260 500q-121 -148 -260 -214t-277 -66zM1364 1794q-26 0 -51 25t-25 63t27 90q26 45 59.5 77t63.5 32q25 0 48 -25t23 -63q0 -44 -26 -92q-19 -36 -54 -71.5t-65 -35.5z" />
    <glyph glyph-name="gdotaccent" unicode="&#x121;" horiz-adv-x="1134" 
d="M-57 -567q-109 0 -162.5 41.5t-48.5 107.5q3 47 48 102t130 105l14 -12q-39 -60 -39 -113q0 -68 50 -112t155 -44q56 0 119 23t108 57q62 48 125.5 147.5t115.5 210t151.5 314t195.5 379.5l47 88q-292 -357 -490.5 -550.5t-295.5 -192.5q-69 3 -101 53t-32 123
q1 90 36 192t93.5 198.5t140.5 186t173 156.5t194.5 107t201.5 40q69 0 167 -12t171 -35l13 -4q29 -10 12 -41l-272 -518q-188 -359 -330 -551.5t-301 -312.5q-182 -133 -389 -133zM1104 1237q-26 0 -51 25t-25 63t27 90q26 45 59.5 77t63.5 32q25 0 48 -25t23 -63
q0 -45 -26 -93q-19 -36 -54 -71t-65 -35zM203 213q0 -47 16 -82t53 -35q69 0 261 193.5t485 558.5l24 47q-75 29 -164 49.5t-153 20.5q-85 0 -167 -53t-144.5 -137t-111 -184t-74 -199.5t-25.5 -178.5z" />
    <glyph glyph-name="uni0122" unicode="&#x122;" horiz-adv-x="1613" 
d="M684 -16q-165 0 -292 69t-195 190.5t-68 276.5q0 146 48.5 290.5t132.5 267.5t200 230t247.5 182t279 119t290.5 46q181 1 319 -33t138 -74q0 -37 -47.5 -82t-106.5 -45q-113 0 -510 183q-163 -39 -311.5 -129.5t-261.5 -216t-181 -288t-71 -335.5q-3 -150 56.5 -268.5
t178.5 -188t279 -69.5q130 0 242.5 58t214.5 206l125 307l-508 -16q-23 0 -23 14q0 13 29 58.5t49 64.5q12 10 59 10l557 -2h27q19 0 8 -27q-104 -272 -196 -480.5t-139 -300t-109 -200.5q-62 -107 -164 -188q-38 -29 -106 -61t-105.5 -45.5t-120.5 -43.5l-12 25
q112 38 180 98.5t144 177.5q128 199 260 500q-121 -148 -260 -214t-277 -66zM418 -518q109 77 112 127q0 24 -28 57.5t-29 54.5q0 41 45.5 98.5t87.5 57.5q38 0 63 -41t25 -84q0 -18 -5.5 -36.5t-17.5 -37.5t-23.5 -35t-32.5 -36t-34.5 -32.5t-39 -32.5t-37 -29t-38 -28.5
t-32.5 -23.5z" />
    <glyph glyph-name="uni0123" unicode="&#x123;" horiz-adv-x="1134" 
d="M-57 -567q-109 0 -162.5 41.5t-48.5 107.5q3 47 48 102t130 105l14 -12q-39 -60 -39 -113q0 -68 50 -112t155 -44q56 0 119 23t108 57q62 48 125.5 147.5t115.5 210t151.5 314t195.5 379.5l47 88q-292 -357 -490.5 -550.5t-295.5 -192.5q-69 3 -101 53t-32 123
q1 90 36 192t93.5 198.5t140.5 186t173 156.5t194.5 107t201.5 40q69 0 167 -12t171 -35l13 -4q29 -10 12 -41l-272 -518q-188 -359 -330 -551.5t-301 -312.5q-182 -133 -389 -133zM1206 1511q-59 -45 -84.5 -73.5t-25.5 -55.5q0 -25 28 -58t29 -52q0 -42 -46.5 -99
t-88.5 -57q-37 0 -61.5 40.5t-24.5 84.5q0 18 5.5 36.5t17.5 37.5t23.5 35t32.5 36t34.5 32.5t39 32.5t37 29t38 28.5t32.5 23.5zM203 213q0 -47 16 -82t53 -35q69 0 261 193.5t485 558.5l24 47q-75 29 -164 49.5t-153 20.5q-85 0 -167 -53t-144.5 -137t-111 -184
t-74 -199.5t-25.5 -178.5z" />
    <glyph glyph-name="Hbar" unicode="&#x126;" horiz-adv-x="1855" 
d="M1354 -16q-50 0 -79.5 34t-29.5 91q0 47 26.5 120.5t92.5 206.5l203 406h-723q-132 -274 -219 -434q-61 -108 -184 -205.5t-263.5 -155.5t-257.5 -61q-145 -5 -145 37q0 36 40 71t89 35q28 0 70 -6.5t106.5 -18t109.5 -18.5q60 24 111 72.5t109 148.5q29 50 56.5 102
t58 113t49.5 100.5t54.5 114.5t49.5 105h-191v32h207q52 110 121 244h-80v29h96q28 54 66 119q43 76 93.5 126t137.5 93l58 28l-473 -12q-75 -1 -116 -24.5t-95 -81.5l-19 12q120 153 176 201q40 30 105 30h573q23 0 23 -16q0 -12 -42.5 -51t-70.5 -55q-17 -9 -33.5 -22.5
t-27 -24t-26 -33.5t-21 -31.5t-23.5 -39.5t-22 -38q-39 -65 -99 -180h725l49 100q87 172 225.5 306t292.5 204t298 70q143 0 143 -37q0 -35 -38.5 -69.5t-82.5 -34.5q-28 0 -69 7t-115.5 23.5t-102.5 22.5q-86 -32 -155 -100t-137 -205l-144 -287h148v-29h-162l-320 -643
q-133 -269 -133 -328q0 -57 56 -57q75 0 208 139l19 -20q-118 -116 -200.5 -170.5t-145.5 -54.5zM858 874h725l123 244h-727q-82 -164 -121 -244z" />
    <glyph glyph-name="hbar" unicode="&#x127;" horiz-adv-x="1173" 
d="M-57 0q-17 0 -24 11t1 26l514 950q47 85 90 143h-135v29h156q168 220 405.5 357t495.5 137q176 0 176 -43q0 -40 -52.5 -87.5t-123.5 -47.5q-16 0 -32 1.5t-37.5 5.5t-38.5 7t-49.5 11.5t-53 14t-67.5 17.5t-76 20q-130 -44 -219.5 -131t-186.5 -262h180v-29h-196
l-15 -26l-374 -713q156 204 321 361q136 133 256 210.5t193 77.5q51 0 77.5 -33t26.5 -79q0 -62 -56 -179t-123 -225.5t-123 -216.5t-56 -155q0 -56 57 -56q64 0 193 117l16 -20q-110 -100 -197.5 -154.5t-134.5 -54.5q-41 0 -68 20t-36 45t-9 53q0 71 56.5 190t124 224
t124 210t56.5 151q0 57 -55 57q-52 0 -126.5 -51.5t-179.5 -151.5q-227 -215 -419 -498l-111 -208q-12 -25 -37 -25h-108z" />
    <glyph glyph-name="Imacron" unicode="&#x12a;" horiz-adv-x="825" 
d="M-195 0q-22 0 -22 18q0 12 33 48t61 55q18 12 45 12h182q56 45 89.5 88t66.5 103q82 144 234 462t245 480q43 77 92.5 125t139.5 90l53 24h-250q-56 0 -97 -7.5t-73.5 -27.5t-49.5 -35t-50 -49l-17 13q115 147 175 198q26 21 62 31t107 10h539q19 0 19 -14
q0 -12 -28.5 -47.5t-53.5 -56.5q-21 -15 -52 -15h-168q-49 -32 -80.5 -72t-70.5 -106q-99 -169 -255 -494.5t-222 -447.5q-45 -79 -89.5 -123.5t-140.5 -91.5l-71 -37h237q56 0 97 8t73.5 27.5t50.5 35t50 48.5l16 -12q-46 -58 -65 -81.5t-50.5 -59t-58.5 -58.5
q-26 -21 -62.5 -31t-107.5 -10h-533zM696 1819l-4 6l35 47q17 22 47 22h481l5 -6l-35 -47q-17 -22 -47 -22h-482z" />
    <glyph glyph-name="imacron" unicode="&#x12b;" horiz-adv-x="595" 
d="M133 -16q-56 0 -84.5 37.5t-28.5 84.5q0 66 61 187t134 230t134 213.5t61 142.5q0 51 -52 51q-70 0 -200 -119l-17 20q232 209 344 209q52 0 77.5 -32.5t25.5 -73.5q0 -61 -58.5 -174t-128 -217t-128 -209.5t-58.5 -153.5q0 -63 61 -63q74 0 177 96l16 -20
q-232 -209 -336 -209zM342 1204l-4 6l35 47q18 23 47 23h481l4 -6l-35 -47q-18 -23 -47 -23h-481z" />
    <glyph glyph-name="Iogonek" unicode="&#x12e;" horiz-adv-x="825" 
d="M-195 0q-22 0 -22 18q0 12 33 48t61 55q18 12 45 12h182q56 45 89.5 88t66.5 103q82 144 234 462t245 480q43 77 92.5 125t139.5 90l53 24h-250q-56 0 -97 -7.5t-73.5 -27.5t-49.5 -35t-50 -49l-17 13q115 147 175 198q26 21 62 31t107 10h539q19 0 19 -14
q0 -12 -28.5 -47.5t-53.5 -56.5q-21 -15 -52 -15h-168q-49 -32 -80.5 -72t-70.5 -106q-99 -169 -255 -494.5t-222 -447.5q-45 -79 -89.5 -123.5t-140.5 -91.5l-71 -37h237q56 0 97 8t73.5 27.5t50.5 35t50 48.5l16 -12q-46 -58 -65 -81.5t-50.5 -59t-58.5 -58.5
q-26 -21 -62.5 -31t-107.5 -10h-287q-100 -103 -100 -180q0 -51 30.5 -76t77.5 -25q56 0 107 33l8 -8l-63 -104q-36 -25 -95 -25q-65 0 -107 38.5t-42 102.5q0 103 151 244h-213z" />
    <glyph glyph-name="iogonek" unicode="&#x12f;" horiz-adv-x="595" 
d="M133 -16q-56 0 -84.5 37.5t-28.5 84.5q0 66 61 187t134 230t134 213.5t61 142.5q0 51 -52 51q-70 0 -200 -119l-17 20q232 209 344 209q52 0 77.5 -32.5t25.5 -73.5q0 -61 -58.5 -174t-128 -217t-128 -209.5t-58.5 -153.5q0 -63 61 -63q74 0 177 96l16 -20
q-179 -159 -283 -199q-106 -106 -106 -187q0 -51 30.5 -75.5t77.5 -24.5q56 0 107 33l8 -8l-63 -105q-34 -24 -95 -24q-65 0 -107 38.5t-42 102.5q0 103 147 240h-10zM928 1524q48 45 59 45q14 0 14 -27q0 -26 -8 -38.5t-35 -33.5l-389 -303l-12 17z" />
    <glyph glyph-name="Idotaccent" unicode="&#x130;" horiz-adv-x="825" 
d="M-195 0q-22 0 -22 18q0 12 33 48t61 55q18 12 45 12h182q56 45 89.5 88t66.5 103q82 144 234 462t245 480q43 77 92.5 125t139.5 90l53 24h-250q-56 0 -97 -7.5t-73.5 -27.5t-49.5 -35t-50 -49l-17 13q115 147 175 198q26 21 62 31t107 10h539q19 0 19 -14
q0 -12 -28.5 -47.5t-53.5 -56.5q-21 -15 -52 -15h-168q-49 -32 -80.5 -72t-70.5 -106q-99 -169 -255 -494.5t-222 -447.5q-45 -79 -89.5 -123.5t-140.5 -91.5l-71 -37h237q56 0 97 8t73.5 27.5t50.5 35t50 48.5l16 -12q-46 -58 -65 -81.5t-50.5 -59t-58.5 -58.5
q-26 -21 -62.5 -31t-107.5 -10h-533zM981 1794q-26 0 -51 25t-25 63t27 90q26 45 59.5 77t63.5 32q25 0 48 -25t23 -63q0 -44 -26 -92q-19 -36 -54 -71.5t-65 -35.5z" />
    <glyph glyph-name="dotlessi" unicode="&#x131;" horiz-adv-x="595" 
d="M133 -16q-56 0 -84.5 37.5t-28.5 84.5q0 66 61 187t134 230t134 213.5t61 142.5q0 51 -52 51q-70 0 -200 -119l-17 20q232 209 344 209q52 0 77.5 -32.5t25.5 -73.5q0 -61 -58.5 -174t-128 -217t-128 -209.5t-58.5 -153.5q0 -63 61 -63q74 0 177 96l16 -20
q-232 -209 -336 -209z" />
    <glyph glyph-name="IJ" unicode="&#x132;" horiz-adv-x="2392" 
d="M82 -14q-70 0 -140.5 13t-70.5 40q0 35 41.5 73t85.5 38q31 0 79.5 -9.5t136.5 -29.5t142 -31q116 32 224 219q91 159 246 483.5t247 483.5q43 76 93.5 126t138.5 93l57 28l-645 -10q-73 -1 -113 -24.5t-98 -83.5l-17 12q122 156 175 201q40 30 108 30h739q25 0 25 -16
q0 -12 -42.5 -51t-70.5 -55q-17 -9 -33.5 -22.5t-27 -24t-26 -33.5t-21 -31.5t-23.5 -39.5t-22 -38q-98 -168 -245.5 -478.5t-213.5 -430.5q-63 -114 -188 -214.5t-271 -159.5t-270 -58zM1192 -365q-102 0 -158.5 64t-56.5 180q0 129 75.5 273.5t226.5 284t349 231.5l14 -27
q-122 -59 -220 -146.5t-157 -181.5t-89.5 -187.5t-28.5 -176.5q2 -106 44 -168t126 -62q57 0 115 29.5t110 78.5t108.5 124.5t105.5 155.5t106 184q87 157 242.5 481t250.5 488q42 75 93 124t139 93l67 34h-753q-40 0 -68.5 -6t-55.5 -23.5t-42 -31t-47 -45.5l-17 10
q5 6 23.5 30t24 30.5t21 26t22.5 27.5t20.5 23.5t22 24t20 19.5t22.5 20q39 31 109 31l852 -2q24 0 24 -17q0 -11 -41.5 -51.5t-66.5 -56.5q-40 -22 -72 -54t-49.5 -58t-44.5 -73q-5 -9 -8 -14q-92 -158 -239.5 -472t-231.5 -460q-192 -331 -442 -542.5t-445 -211.5z" />
    <glyph glyph-name="ij" unicode="&#x133;" horiz-adv-x="1132" 
d="M133 -16q-56 0 -84.5 37.5t-28.5 84.5q0 66 61 187t134 230t134 213.5t61 142.5q0 51 -52 51q-70 0 -200 -119l-17 20q232 209 344 209q52 0 77.5 -32.5t25.5 -73.5q0 -61 -58.5 -174t-128 -217t-128 -209.5t-58.5 -153.5q0 -63 61 -63q74 0 177 96l16 -20
q-232 -209 -336 -209zM928 1524q48 45 59 45q14 0 14 -27q0 -26 -8 -38.5t-35 -33.5l-389 -303l-12 17zM25 -426q-66 0 -66 37q0 38 45 84.5t98 46.5q25 0 60.5 -4t87.5 -10.5t92 -10.5q51 29 93 71.5t108.5 150t150.5 284.5q238 496 267 566q24 61 24 88q0 53 -53 53
q-71 0 -201 -119l-16 20q232 209 342 209q53 0 77.5 -31.5t26.5 -74.5q0 -53 -53 -175.5t-186 -396.5q-73 -150 -180.5 -293t-227 -252.5t-249.5 -176t-240 -66.5zM1499 1528q48 45 60 45q14 0 14 -27q0 -25 -8 -37.5t-35 -33.5l-389 -304l-13 17z" />
    <glyph glyph-name="uni0136" unicode="&#x136;" horiz-adv-x="1673" 
d="M-242 -14q-145 -5 -145 37q0 36 40 71t89 35q28 0 70 -6.5t107 -18t110 -18.5q60 23 110.5 72t108.5 149q87 152 240.5 475t246.5 484q43 76 93.5 126t138.5 93l57 28l-473 -12q-75 -1 -116 -24.5t-95 -81.5l-18 12q120 153 176 201q40 30 104 30h574q22 0 22 -16
q0 -12 -42.5 -51t-70.5 -55q-17 -9 -33.5 -22.5t-27 -24t-26 -33.5t-21 -31.5t-23.5 -39.5t-22 -38q-45 -78 -95 -174t-80.5 -157.5t-87.5 -179.5t-77 -159q232 209 492 422t403 318q355 258 602 258q47 0 87 -9.5t40 -31.5q0 -38 -45 -79.5t-96 -41.5q-85 0 -273 55
q-128 -49 -297 -178q-225 -170 -442 -352q49 -453 125.5 -692.5t167.5 -239.5q70 0 207 137l18 -18q-224 -221 -332 -221q-97 0 -181 240t-126 694q-254 -219 -393 -347q-84 -160 -86 -163q-61 -108 -184 -205.5t-263.5 -155.5t-257.5 -61zM322 -510q109 77 112 127
q0 24 -28.5 58t-28.5 55q-2 41 44.5 98t88.5 57q38 0 62 -40.5t24 -84.5q0 -21 -8 -43t-18.5 -40t-32 -41t-35.5 -37t-43 -37.5t-41 -33t-43 -32t-37 -26.5z" />
    <glyph glyph-name="uni0137" unicode="&#x137;" horiz-adv-x="1138" 
d="M-57 0q-17 0 -24 11t1 26l514 950q73 136 180 255.5t237 211.5t284.5 145.5t310.5 53.5q176 0 176 -43q0 -40 -52.5 -87.5t-123.5 -47.5q-16 0 -32 1.5t-37.5 5.5t-38.5 7t-49.5 11.5t-53 14t-67.5 17.5t-76 20q-139 -47 -234 -145t-203 -303l-272 -516
q119 137 254 243.5t241 157.5t173 53q77 1 119 -31t42 -89q0 -32 -16 -69.5t-59.5 -86.5t-110.5 -97t-179 -102t-255 -100q10 -34 15 -50.5t18 -56t22.5 -62.5t24 -58.5t28 -56.5t29.5 -43t33.5 -32t34.5 -10q69 0 186 117l18 -18q-213 -213 -301 -213q-33 0 -66 33
t-57.5 77t-50.5 112t-40 114t-31 106q-7 -2 -20.5 -5t-20.5 -5l-6 26q174 45 302.5 100t199.5 110.5t104 107t33 100.5q0 41 -27.5 66.5t-69.5 25.5q-70 0 -196 -79t-250.5 -198t-194.5 -229l-221 -421q-12 -25 -37 -25h-108zM94 -510q59 41 85.5 71t27.5 56q0 24 -28.5 58
t-28.5 55q-2 41 44.5 98t88.5 57q38 0 62 -40.5t24 -84.5q0 -21 -8 -43t-18.5 -40t-32 -41t-35.5 -37t-43 -37.5t-41 -33t-43 -32t-37 -26.5z" />
    <glyph glyph-name="Lacute" unicode="&#x139;" horiz-adv-x="1372" 
d="M807 -20q-213 0 -354 4l-578 16q-16 0 -21.5 4.5t-5.5 15.5q0 18 123 107q15 10 39 10l111 -2q74 51 131.5 131t101 188.5t76 211.5t78 249t86.5 252q51 132 134.5 229t186 151.5t210.5 80t225 25.5q145 0 246.5 -25t101.5 -57q0 -39 -45 -76t-86 -37q-22 0 -44.5 2.5
t-52.5 10.5t-51.5 14.5t-63.5 22t-64.5 24t-78.5 30.5l-84 33q-39 -9 -66.5 -20.5t-66 -42.5t-72 -79.5t-76 -133t-87.5 -201.5q-66 -171 -105.5 -270t-94.5 -218t-99 -188q-66 -104 -132 -176t-157 -133l313 -8l355 -6q45 0 84 3.5t65.5 6.5t56 14.5t42.5 15.5t37.5 22
t29 21t29.5 26t26 24l17 -14q-13 -16 -41 -49.5t-41 -49t-33.5 -38.5t-37.5 -39.5t-34 -30.5q-20 -16 -36.5 -25t-68 -18t-128.5 -8zM1581 1868l-379 -158l-12 14l360 277q47 35 60 35q16 0 16 -37q0 -74 -7 -96.5t-38 -34.5z" />
    <glyph glyph-name="lacute" unicode="&#x13a;" horiz-adv-x="565" 
d="M102 -16q-57 0 -84.5 39t-27.5 90q0 124 129 354l291 520q76 138 180 256t232 211t285.5 146t322.5 53q167 0 167 -45q0 -39 -52 -86t-120 -47q-70 0 -315 67q-29 8 -45 12q-131 -46 -225.5 -144t-206.5 -306l-350 -645q-53 -97 -85 -180t-32 -123q0 -60 61 -60
q62 0 191 117l16 -20q-111 -100 -198.5 -154.5t-133.5 -54.5zM1174 1866l-379 -158l-13 14l361 277q47 35 59 35q17 0 17 -37q0 -74 -7 -96.5t-38 -34.5z" />
    <glyph glyph-name="uni013B" unicode="&#x13b;" horiz-adv-x="1372" 
d="M807 -20q-213 0 -354 4l-578 16q-16 0 -21.5 4.5t-5.5 15.5q0 18 123 107q15 10 39 10l111 -2q74 51 131.5 131t101 188.5t76 211.5t78 249t86.5 252q51 132 134.5 229t186 151.5t210.5 80t225 25.5q145 0 246.5 -25t101.5 -57q0 -39 -45 -76t-86 -37q-22 0 -44.5 2.5
t-52.5 10.5t-51.5 14.5t-63.5 22t-64.5 24t-78.5 30.5l-84 33q-39 -9 -66.5 -20.5t-66 -42.5t-72 -79.5t-76 -133t-87.5 -201.5q-66 -171 -105.5 -270t-94.5 -218t-99 -188q-66 -104 -132 -176t-157 -133l313 -8l355 -6q45 0 84 3.5t65.5 6.5t56 14.5t42.5 15.5t37.5 22
t29 21t29.5 26t26 24l17 -14q-13 -16 -41 -49.5t-41 -49t-33.5 -38.5t-37.5 -39.5t-34 -30.5q-20 -16 -36.5 -25t-68 -18t-128.5 -8zM205 -510q109 77 112 127q0 24 -28.5 58t-28.5 55q-2 41 44.5 98t88.5 57q38 0 62 -40.5t24 -84.5q0 -21 -8 -43t-18.5 -40t-32 -41
t-35.5 -37t-43 -37.5t-41 -33t-43 -32t-37 -26.5z" />
    <glyph glyph-name="uni013C" unicode="&#x13c;" horiz-adv-x="565" 
d="M102 -16q-57 0 -84.5 39t-27.5 90q0 124 129 354l291 520q76 138 180 256t232 211t285.5 146t322.5 53q167 0 167 -45q0 -39 -52 -86t-120 -47q-70 0 -315 67q-29 8 -45 12q-131 -46 -225.5 -144t-206.5 -306l-350 -645q-53 -97 -85 -180t-32 -123q0 -60 61 -60
q62 0 191 117l16 -20q-111 -100 -198.5 -154.5t-133.5 -54.5zM-207 -510q59 41 85.5 71t27.5 56q0 24 -29 58t-29 55q-2 41 45 98t89 57q38 0 62 -40.5t24 -84.5q0 -21 -8 -43t-18.5 -40t-32 -41t-35.5 -37t-43 -37.5t-41 -33t-43 -32t-37 -26.5z" />
    <glyph glyph-name="Lcaron" unicode="&#x13d;" horiz-adv-x="1372" 
d="M807 -20q-213 0 -354 4l-578 16q-16 0 -21.5 4.5t-5.5 15.5q0 18 123 107q15 10 39 10l111 -2q74 51 131.5 131t101 188.5t76 211.5t78 249t86.5 252q51 132 134.5 229t186 151.5t210.5 80t225 25.5q145 0 246.5 -25t101.5 -57q0 -39 -45 -76t-86 -37q-22 0 -44.5 2.5
t-52.5 10.5t-51.5 14.5t-63.5 22t-64.5 24t-78.5 30.5l-84 33q-39 -9 -66.5 -20.5t-66 -42.5t-72 -79.5t-76 -133t-87.5 -201.5q-66 -171 -105.5 -270t-94.5 -218t-99 -188q-66 -104 -132 -176t-157 -133l313 -8l355 -6q45 0 84 3.5t65.5 6.5t56 14.5t42.5 15.5t37.5 22
t29 21t29.5 26t26 24l17 -14q-13 -16 -41 -49.5t-41 -49t-33.5 -38.5t-37.5 -39.5t-34 -30.5q-20 -16 -36.5 -25t-68 -18t-128.5 -8zM1022 1010q60 44 86 73t27 56q0 25 -28.5 58t-29.5 52q0 42 45.5 99t87.5 57q38 0 63 -40.5t25 -84.5q0 -18 -5.5 -36.5t-17.5 -37.5
t-23.5 -35t-32.5 -36t-34.5 -32.5t-39 -32.5t-37 -29t-38 -28.5t-32.5 -23.5z" />
    <glyph glyph-name="lcaron" unicode="&#x13e;" horiz-adv-x="565" 
d="M102 -16q-57 0 -84.5 39t-27.5 90q0 124 129 354l291 520q76 138 180 256t232 211t285.5 146t322.5 53q167 0 167 -45q0 -39 -52 -86t-120 -47q-70 0 -315 67q-29 8 -45 12q-131 -46 -225.5 -144t-206.5 -306l-350 -645q-53 -97 -85 -180t-32 -123q0 -60 61 -60
q62 0 191 117l16 -20q-111 -100 -198.5 -154.5t-133.5 -54.5zM842 1032q59 43 85 72.5t27 56.5q0 25 -28 58.5t-29 52.5q0 42 45.5 98.5t87.5 56.5q38 0 63 -40t25 -84q0 -18 -5.5 -36.5t-17.5 -37.5t-23.5 -35t-32.5 -36t-34.5 -32.5t-39 -32.5t-37 -29t-38 -28.5
t-32.5 -23.5z" />
    <glyph glyph-name="Lslash" unicode="&#x141;" horiz-adv-x="1372" 
d="M807 -20q-213 0 -354 4l-578 16q-16 0 -21.5 4.5t-5.5 15.5q0 18 123 107q15 10 39 10l111 -2q61 42 110.5 103t89.5 145t67.5 160t62.5 190l-91 -39l-12 29l115 47q89 291 131 397q51 132 134.5 229t186 151.5t210.5 80t225 25.5q145 0 246.5 -25t101.5 -57
q0 -39 -45 -76t-86 -37q-22 0 -44.5 2.5t-52.5 10.5t-51.5 14.5t-63.5 22t-64.5 24t-78.5 30.5l-84 33q-39 -9 -66.5 -20.5t-66 -42.5t-72 -79.5t-76 -133t-87.5 -201.5l-105 -266l252 106l13 -26l-281 -119q-102 -251 -178 -371q-66 -104 -132 -176t-157 -133l313 -8
l355 -6q45 0 84 3.5t65.5 6.5t56 14.5t42.5 15.5t37.5 22t29 21t29.5 26t26 24l17 -14q-13 -16 -41 -49.5t-41 -49t-33.5 -38.5t-37.5 -39.5t-34 -30.5q-20 -16 -36.5 -25t-68 -18t-128.5 -8z" />
    <glyph glyph-name="lslash" unicode="&#x142;" horiz-adv-x="565" 
d="M102 -16q-57 0 -84.5 39t-27.5 90q0 124 129 354l168 303l-142 -61l-12 28l178 76l99 174q76 138 180 256t232 211t285.5 146t322.5 53q167 0 167 -45q0 -39 -52 -86t-120 -47q-70 0 -315 67q-29 8 -45 12q-131 -46 -225.5 -144t-206.5 -306l-111 -203l170 72l13 -27
l-205 -86l-217 -401q-53 -97 -85 -180t-32 -123q0 -60 61 -60q62 0 191 117l16 -20q-111 -100 -198.5 -154.5t-133.5 -54.5z" />
    <glyph glyph-name="Nacute" unicode="&#x143;" horiz-adv-x="1890" 
d="M1393 -18q-16 0 -21 32l-194 1461q-192 -437 -416 -801q-78 -126 -143 -218.5t-146.5 -185.5t-158 -151.5t-168 -95t-187.5 -37.5q-78 0 -143.5 13t-65.5 38q0 36 42.5 72t92.5 36q42 0 159 -19t177 -26q218 108 512 590q220 359 426 821l-524 -8q-75 -1 -115.5 -25
t-95.5 -83l-18 12q120 153 176 201q40 30 108 30h586q19 0 25 -7.5t8 -28.5l188 -1366l387 804q43 88 73.5 145.5t69 123.5t70.5 107t74 85t84.5 69t95 46t113.5 30t133 9q164 0 164 -41q0 -36 -40 -74.5t-83 -38.5q-32 0 -73.5 6t-122 21t-136.5 24q-81 -25 -166 -133
t-188 -319q-353 -718 -439 -912q-49 -111 -75 -158.5t-45 -47.5zM1970 1868l-379 -158l-12 14l360 277q47 35 60 35q16 0 16 -37q0 -74 -7 -96.5t-38 -34.5z" />
    <glyph glyph-name="nacute" unicode="&#x144;" horiz-adv-x="1224" 
d="M-8 0q-17 0 -22.5 11t3.5 28q142 244 276 504t134 334q0 53 -53 53q-71 0 -201 -119l-16 20q232 209 342 209q53 0 78.5 -32t25.5 -74q0 -108 -219 -528q143 184 311 346q136 133 256 210.5t193 77.5q51 0 77.5 -33t26.5 -79q0 -62 -56 -179t-123 -225.5t-123 -216.5
t-56 -155q0 -56 57 -56q64 0 193 117l16 -20q-110 -100 -197.5 -154.5t-134.5 -54.5q-59 0 -85.5 36t-26.5 82q0 58 37 146.5t90 178t106 176t90 161.5t37 113q0 57 -55 57q-52 0 -125.5 -51t-179.5 -152q-231 -218 -412 -487q-92 -165 -129 -221q-14 -23 -37 -23h-98z
M1090 1327l-340 -158l-11 19l326 297q24 22 43 22t30 -24t11 -56q0 -76 -59 -100z" />
    <glyph glyph-name="uni0145" unicode="&#x145;" horiz-adv-x="1890" 
d="M1393 -18q-16 0 -21 32l-194 1461q-192 -437 -416 -801q-78 -126 -143 -218.5t-146.5 -185.5t-158 -151.5t-168 -95t-187.5 -37.5q-78 0 -143.5 13t-65.5 38q0 36 42.5 72t92.5 36q42 0 159 -19t177 -26q218 108 512 590q220 359 426 821l-524 -8q-75 -1 -115.5 -25
t-95.5 -83l-18 12q120 153 176 201q40 30 108 30h586q19 0 25 -7.5t8 -28.5l188 -1366l387 804q43 88 73.5 145.5t69 123.5t70.5 107t74 85t84.5 69t95 46t113.5 30t133 9q164 0 164 -41q0 -36 -40 -74.5t-83 -38.5q-32 0 -73.5 6t-122 21t-136.5 24q-81 -25 -166 -133
t-188 -319q-353 -718 -439 -912q-49 -111 -75 -158.5t-45 -47.5zM700 -510q59 41 85.5 71t27.5 56q0 24 -28.5 58t-28.5 55q-2 41 44.5 98t88.5 57q38 0 62 -40.5t24 -84.5q0 -21 -8 -43t-18.5 -40t-32 -41t-35.5 -37t-43 -37.5t-41 -33t-43 -32t-37 -26.5z" />
    <glyph glyph-name="uni0146" unicode="&#x146;" horiz-adv-x="1224" 
d="M-8 0q-17 0 -22.5 11t3.5 28q142 244 276 504t134 334q0 53 -53 53q-71 0 -201 -119l-16 20q232 209 342 209q53 0 78.5 -32t25.5 -74q0 -108 -219 -528q143 184 311 346q136 133 256 210.5t193 77.5q51 0 77.5 -33t26.5 -79q0 -62 -56 -179t-123 -225.5t-123 -216.5
t-56 -155q0 -56 57 -56q64 0 193 117l16 -20q-110 -100 -197.5 -154.5t-134.5 -54.5q-59 0 -85.5 36t-26.5 82q0 58 37 146.5t90 178t106 176t90 161.5t37 113q0 57 -55 57q-52 0 -125.5 -51t-179.5 -152q-231 -218 -412 -487q-92 -165 -129 -221q-14 -23 -37 -23h-98z
M125 -510q59 41 85.5 71t27.5 56q0 24 -29 58t-29 55q-2 41 44.5 98t88.5 57q38 0 62 -40.5t24 -84.5q0 -21 -8 -43t-18.5 -40t-32 -41t-35.5 -37t-43 -37.5t-41 -33t-43 -32t-37 -26.5z" />
    <glyph glyph-name="Ncaron" unicode="&#x147;" horiz-adv-x="1890" 
d="M1393 -18q-16 0 -21 32l-194 1461q-192 -437 -416 -801q-78 -126 -143 -218.5t-146.5 -185.5t-158 -151.5t-168 -95t-187.5 -37.5q-78 0 -143.5 13t-65.5 38q0 36 42.5 72t92.5 36q42 0 159 -19t177 -26q218 108 512 590q220 359 426 821l-524 -8q-75 -1 -115.5 -25
t-95.5 -83l-18 12q120 153 176 201q40 30 108 30h586q19 0 25 -7.5t8 -28.5l188 -1366l387 804q43 88 73.5 145.5t69 123.5t70.5 107t74 85t84.5 69t95 46t113.5 30t133 9q164 0 164 -41q0 -36 -40 -74.5t-83 -38.5q-32 0 -73.5 6t-122 21t-136.5 24q-81 -25 -166 -133
t-188 -319q-353 -718 -439 -912q-49 -111 -75 -158.5t-45 -47.5zM1618 1956q22 0 37 -21q56 -73 110 -129q122 54 244 160l21 -20q-97 -76 -200.5 -137.5t-148.5 -61.5q-23 0 -84 67.5t-102 129.5l10 12h113z" />
    <glyph glyph-name="ncaron" unicode="&#x148;" horiz-adv-x="1224" 
d="M-8 0q-17 0 -22.5 11t3.5 28q142 244 276 504t134 334q0 53 -53 53q-71 0 -201 -119l-16 20q232 209 342 209q53 0 78.5 -32t25.5 -74q0 -108 -219 -528q143 184 311 346q136 133 256 210.5t193 77.5q51 0 77.5 -33t26.5 -79q0 -62 -56 -179t-123 -225.5t-123 -216.5
t-56 -155q0 -56 57 -56q64 0 193 117l16 -20q-110 -100 -197.5 -154.5t-134.5 -54.5q-59 0 -85.5 36t-26.5 82q0 58 37 146.5t90 178t106 176t90 161.5t37 113q0 57 -55 57q-52 0 -125.5 -51t-179.5 -152q-231 -218 -412 -487q-92 -165 -129 -221q-14 -23 -37 -23h-98z
M705 1407q25 0 38 -18q67 -87 111 -129q110 49 244 157l18 -18q-99 -77 -200 -138t-146 -61q-23 0 -84.5 68t-101.5 129l8 12z" />
    <glyph glyph-name="Omacron" unicode="&#x14c;" horiz-adv-x="1814" 
d="M881 -16q-161 0 -291 55t-213.5 150t-127.5 219.5t-44 267.5q0 150 56.5 298.5t153.5 269t219 214.5t262 145.5t273 51.5q158 0 284 -54.5t205.5 -149t121.5 -219.5t41 -269q-1 -146 -54 -292.5t-145.5 -268t-210 -216.5t-256 -148.5t-274.5 -53.5zM1022 80
q144 0 268.5 65t207.5 170.5t130 239.5t47 274q1 334 -178 536t-459 202q-109 0 -214 -40t-190 -112t-150 -165.5t-100.5 -207t-35.5 -229.5q0 -216 84 -382.5t237.5 -258.5t352.5 -92zM1171 1827l-4 6l35 47q18 23 47 23h482l4 -7l-35 -47q-17 -22 -47 -22h-482z" />
    <glyph glyph-name="omacron" unicode="&#x14d;" horiz-adv-x="1009" 
d="M262 -16q-103 0 -168 66t-65 183q0 122 72 266.5t179 263t240.5 198t247.5 79.5q59 0 102.5 -21.5t67 -57t34.5 -74.5t11 -82q0 -113 -49 -235.5t-128.5 -224.5t-173.5 -184.5t-192.5 -129.5t-177.5 -47zM391 68q74 0 143 48.5t119 124t88 166t57 177t19 153.5
q0 107 -48.5 162t-137.5 55q-92 0 -175.5 -67t-138 -167t-86.5 -210.5t-32 -202.5q0 -110 46 -174.5t146 -64.5zM600 1204l-4 6l35 47q18 23 47 23h481l4 -6l-35 -47q-18 -23 -47 -23h-481z" />
    <glyph glyph-name="Ohungarumlaut" unicode="&#x150;" horiz-adv-x="1814" 
d="M881 -16q-161 0 -291 55t-213.5 150t-127.5 219.5t-44 267.5q0 150 56.5 298.5t153.5 269t219 214.5t262 145.5t273 51.5q158 0 284 -54.5t205.5 -149t121.5 -219.5t41 -269q-1 -146 -54 -292.5t-145.5 -268t-210 -216.5t-256 -148.5t-274.5 -53.5zM1022 80
q144 0 268.5 65t207.5 170.5t130 239.5t47 274q1 334 -178 536t-459 202q-109 0 -214 -40t-190 -112t-150 -165.5t-100.5 -207t-35.5 -229.5q0 -216 84 -382.5t237.5 -258.5t352.5 -92zM1247 1724l-10 11l301 245q60 48 80 48q11 0 27 -11.5t16 -21.5t-12 -21t-47 -32z
M1495 1724l-8 13l297 225q54 41 69 45q5 2 11 2q11 0 28 -11.5t17 -21.5q0 -19 -64 -55z" />
    <glyph glyph-name="ohungarumlaut" unicode="&#x151;" horiz-adv-x="1009" 
d="M262 -16q-103 0 -168 66t-65 183q0 122 72 266.5t179 263t240.5 198t247.5 79.5q59 0 102.5 -21.5t67 -57t34.5 -74.5t11 -82q0 -113 -49 -235.5t-128.5 -224.5t-173.5 -184.5t-192.5 -129.5t-177.5 -47zM391 68q74 0 143 48.5t119 124t88 166t57 177t19 153.5
q0 107 -48.5 162t-137.5 55q-92 0 -175.5 -67t-138 -167t-86.5 -210.5t-32 -202.5q0 -110 46 -174.5t146 -64.5zM934 1477q29 29 40.5 38t22.5 9q12 0 27.5 -8.5t15.5 -16.5q0 -21 -57 -63l-350 -269h-23zM1182 1477q40 40 50 44q6 3 13 3q12 0 27.5 -8.5t15.5 -16.5
q0 -21 -57 -63l-350 -269h-23z" />
    <glyph glyph-name="OE" unicode="&#x152;" horiz-adv-x="2729" 
d="M881 -16q-161 0 -291 55t-213.5 150t-127.5 219.5t-44 267.5q0 150 56.5 298.5t153.5 269t219 214.5t262 145.5t273 51.5q103 0 195 -25l-21 25q93 0 308 -8.5t334 -8.5h1003q119 0 119 -71q1 -54 -59.5 -119.5t-186.5 -161.5l-14 23q133 100 133 145q0 24 -23 33.5
t-78 9.5h-520q-36 -25 -66 -59t-46 -59t-45 -76q-73 -125 -220 -429h670v-32h-684q-156 -329 -229 -457q-39 -70 -78.5 -112.5t-99.5 -77.5l-88 -54h870q74 0 114.5 24t96.5 85l18 -12q-12 -15 -37 -47.5t-38 -48.5t-32.5 -39.5t-36 -40.5t-32.5 -31q-42 -31 -112 -31h-979
q-17 0 -22 4.5t-5 15.5q0 15 96 91l27 20q47 36 117 150q-136 -137 -302.5 -217t-334.5 -80zM1022 80q144 0 268.5 65t207.5 170.5t130 239.5t47 274q1 334 -178 536t-459 202q-109 0 -214 -40t-190 -112t-150 -165.5t-100.5 -207t-35.5 -229.5q0 -216 84 -382.5
t237.5 -258.5t352.5 -92zM1532 1561q142 -89 216.5 -246.5t72.5 -351.5q0 -47 -6 -93q108 225 192 371q43 77 91 128t120 87l88 41h-369q-149 0 -405 64z" />
    <glyph glyph-name="oe" unicode="&#x153;" horiz-adv-x="1599" 
d="M262 -16q-103 0 -168 66t-65 183q0 122 72 266.5t179 263t240.5 198t247.5 79.5q59 0 102.5 -21.5t67 -57t34.5 -74.5t11 -82q0 -9 -1 -28t-1 -29q121 130 266.5 211t268.5 81q78 0 118.5 -31.5t40.5 -86.5q0 -69 -65 -147t-229.5 -198.5t-473.5 -314.5q9 -76 57 -120
t134 -44q148 0 315 150l17 -19q-128 -118 -253 -180.5t-208 -62.5q-118 -1 -180 69.5t-62 169.5v27q-111 -121 -238 -194.5t-227 -73.5zM391 68q74 0 143 48.5t119 124t88 166t57 177t19 153.5q0 107 -48.5 162t-137.5 55q-92 0 -175.5 -67t-138 -167t-86.5 -210.5
t-32 -202.5q0 -110 46 -174.5t146 -64.5zM905 291q331 207 463.5 331t132.5 234q0 50 -33.5 78.5t-85.5 28.5q-94 0 -185 -67t-154.5 -167t-101.5 -217.5t-36 -218.5v-2z" />
    <glyph glyph-name="Racute" unicode="&#x154;" horiz-adv-x="1619" 
d="M57 0q-22 0 -22 16t123 115q35 30 62.5 68.5t66.5 105.5q89 156 227.5 488t230.5 491q42 74 90.5 124.5t122.5 90.5l9 4h-316q-52 0 -91 -15t-60 -32.5t-62 -60.5l-16 12q5 6 23.5 30t24 30.5t21 26t22.5 27.5t20.5 23.5t22 24t20 19.5t22.5 20q38 30 104 30h529
q107 0 190.5 -15.5t137.5 -41.5t89 -64t49.5 -80.5t14.5 -93.5q0 -95 -44.5 -186t-122.5 -162.5t-194.5 -115t-250.5 -43.5h-2q76 -402 138.5 -575t135.5 -173q60 0 162 96l18 -20q-100 -94 -164.5 -137t-109.5 -43q-108 0 -183.5 198t-152.5 654h-237q-108 -272 -209 -451
q-38 -69 -78.5 -112t-100.5 -78l-98 -60h2l293 8q18 0 18 -12q0 -11 -28 -55t-49 -62q-16 -14 -60 -14h-338zM1583 1868l-379 -158l-12 14l360 277q47 35 60 35q16 0 16 -37q0 -74 -7 -96.5t-38 -34.5zM717 866h401q110 0 196 32.5t137.5 88t78 124.5t26.5 146
q-1 71 -33 120.5t-92.5 76t-134 38t-170.5 11.5h-75q-9 -9 -17.5 -19t-18 -22.5t-15 -20t-15.5 -24t-13.5 -22t-15.5 -25.5t-14 -24q-42 -71 -87 -166t-65.5 -142t-72.5 -172z" />
    <glyph glyph-name="racute" unicode="&#x155;" horiz-adv-x="958" 
d="M-8 0q-17 0 -22.5 11t3.5 28q142 244 276 504t134 334q0 53 -53 53q-71 0 -201 -119l-16 20q232 209 342 209q53 0 78.5 -32t25.5 -74q0 -66 -90 -268q76 114 152.5 192.5t177.5 130t211 51.5q45 0 82.5 -10.5t37.5 -32.5q0 -40 -46.5 -87.5t-100.5 -47.5q-101 0 -258 47
q-83 -53 -179 -178t-188 -291q-156 -306 -231 -417q-14 -23 -37 -23h-98zM899 1327l-340 -158l-10 19l325 297q24 22 44 22q19 0 29.5 -24t10.5 -56q0 -76 -59 -100z" />
    <glyph glyph-name="uni0156" unicode="&#x156;" horiz-adv-x="1619" 
d="M57 0q-22 0 -22 16t123 115q35 30 62.5 68.5t66.5 105.5q89 156 227.5 488t230.5 491q42 74 90.5 124.5t122.5 90.5l9 4h-316q-52 0 -91 -15t-60 -32.5t-62 -60.5l-16 12q5 6 23.5 30t24 30.5t21 26t22.5 27.5t20.5 23.5t22 24t20 19.5t22.5 20q38 30 104 30h529
q107 0 190.5 -15.5t137.5 -41.5t89 -64t49.5 -80.5t14.5 -93.5q0 -95 -44.5 -186t-122.5 -162.5t-194.5 -115t-250.5 -43.5h-2q76 -402 138.5 -575t135.5 -173q60 0 162 96l18 -20q-100 -94 -164.5 -137t-109.5 -43q-108 0 -183.5 198t-152.5 654h-237q-108 -272 -209 -451
q-38 -69 -78.5 -112t-100.5 -78l-98 -60h2l293 8q18 0 18 -12q0 -11 -28 -55t-49 -62q-16 -14 -60 -14h-338zM446 -510q59 41 85.5 71t27.5 56q0 24 -28.5 58t-28.5 55q-2 41 44.5 98t88.5 57q38 0 62 -40.5t24 -84.5q0 -21 -8 -43t-18.5 -40t-32 -41t-35.5 -37t-43 -37.5
t-41 -33t-43 -32t-37 -26.5zM717 866h401q110 0 196 32.5t137.5 88t78 124.5t26.5 146q-1 71 -33 120.5t-92.5 76t-134 38t-170.5 11.5h-75q-9 -9 -17.5 -19t-18 -22.5t-15 -20t-15.5 -24t-13.5 -22t-15.5 -25.5t-14 -24q-42 -71 -87 -166t-65.5 -142t-72.5 -172z" />
    <glyph glyph-name="uni0157" unicode="&#x157;" horiz-adv-x="958" 
d="M-8 0q-17 0 -22.5 11t3.5 28q142 244 276 504t134 334q0 53 -53 53q-71 0 -201 -119l-16 20q232 209 342 209q53 0 78.5 -32t25.5 -74q0 -66 -90 -268q76 114 152.5 192.5t177.5 130t211 51.5q45 0 82.5 -10.5t37.5 -32.5q0 -40 -46.5 -87.5t-100.5 -47.5q-101 0 -258 47
q-83 -53 -179 -178t-188 -291q-156 -306 -231 -417q-14 -23 -37 -23h-98zM-113 -510q59 41 85.5 71t27.5 56q0 24 -28.5 58t-28.5 55q-2 41 44.5 98t88.5 57q38 0 62 -40.5t24 -84.5q0 -21 -8 -43t-18.5 -40t-32 -41t-35.5 -37t-43 -37.5t-41 -33t-43 -32t-37 -26.5z" />
    <glyph glyph-name="Rcaron" unicode="&#x158;" horiz-adv-x="1619" 
d="M57 0q-22 0 -22 16t123 115q35 30 62.5 68.5t66.5 105.5q89 156 227.5 488t230.5 491q42 74 90.5 124.5t122.5 90.5l9 4h-316q-52 0 -91 -15t-60 -32.5t-62 -60.5l-16 12q5 6 23.5 30t24 30.5t21 26t22.5 27.5t20.5 23.5t22 24t20 19.5t22.5 20q38 30 104 30h529
q107 0 190.5 -15.5t137.5 -41.5t89 -64t49.5 -80.5t14.5 -93.5q0 -95 -44.5 -186t-122.5 -162.5t-194.5 -115t-250.5 -43.5h-2q76 -402 138.5 -575t135.5 -173q60 0 162 96l18 -20q-100 -94 -164.5 -137t-109.5 -43q-108 0 -183.5 198t-152.5 654h-237q-108 -272 -209 -451
q-38 -69 -78.5 -112t-100.5 -78l-98 -60h2l293 8q18 0 18 -12q0 -11 -28 -55t-49 -62q-16 -14 -60 -14h-338zM1231 1956q22 0 37 -21q56 -73 110 -129q122 54 244 160l20 -20q-98 -76 -200.5 -137.5t-147.5 -61.5q-23 0 -84 67.5t-102 129.5l10 12h113zM717 866h401
q110 0 196 32.5t137.5 88t78 124.5t26.5 146q-1 71 -33 120.5t-92.5 76t-134 38t-170.5 11.5h-75q-9 -9 -17.5 -19t-18 -22.5t-15 -20t-15.5 -24t-13.5 -22t-15.5 -25.5t-14 -24q-42 -71 -87 -166t-65.5 -142t-72.5 -172z" />
    <glyph glyph-name="rcaron" unicode="&#x159;" horiz-adv-x="958" 
d="M-8 0q-17 0 -22.5 11t3.5 28q142 244 276 504t134 334q0 53 -53 53q-71 0 -201 -119l-16 20q232 209 342 209q53 0 78.5 -32t25.5 -74q0 -66 -90 -268q76 114 152.5 192.5t177.5 130t211 51.5q45 0 82.5 -10.5t37.5 -32.5q0 -40 -46.5 -87.5t-100.5 -47.5q-101 0 -258 47
q-83 -53 -179 -178t-188 -291q-156 -306 -231 -417q-14 -23 -37 -23h-98zM514 1407q26 0 39 -18q67 -87 111 -129q108 48 243 157l19 -18q-99 -77 -200 -138t-146 -61q-23 0 -85 68t-102 129l8 12z" />
    <glyph glyph-name="Sacute" unicode="&#x15a;" horiz-adv-x="1300" 
d="M401 -12q-174 0 -322.5 42.5t-146.5 88.5q2 36 53.5 76.5t104.5 40.5q19 0 55.5 -10t92.5 -30.5t107.5 -40.5t134.5 -53t141 -55q68 12 133.5 35.5t126 60.5t106 83t73 107.5t27.5 129.5q0 37 -13.5 72t-32 61t-52.5 53t-61.5 44.5t-73 39t-72 32.5t-73.5 30l-15 6
q-45 18 -71.5 29t-70.5 32t-71 39t-60 45t-51 54.5t-31 64t-13 76.5q0 104 73 199.5t193.5 164t282 109.5t333.5 41q124 0 204.5 -16.5t111 -40t30.5 -54.5q0 -49 -61 -115t-184 -159l-15 22q70 53 99.5 85t29.5 57q0 54 -119.5 90.5t-289.5 36.5q-247 0 -407.5 -88.5
t-160.5 -231.5q0 -56 25 -100.5t81.5 -83.5t117.5 -68t164 -69q44 -18 76 -32t74 -35.5t72 -42t62 -48t51.5 -56.5t32 -65t12.5 -76q0 -147 -110.5 -280.5t-299 -215t-403.5 -81.5zM1460 1868l-379 -158l-12 14l361 277q47 35 59 35q16 0 16 -37q0 -74 -7 -96.5t-38 -34.5z
" />
    <glyph glyph-name="sacute" unicode="&#x15b;" horiz-adv-x="755" 
d="M109 -14q-108 0 -161 40.5t-48 108.5q6 95 174 195l14 -13q-37 -57 -37 -112q0 -66 45 -112.5t135 -47.5q89 0 151 56t62 145q0 53 -28.5 121.5t-62.5 124t-61.5 122t-25.5 117.5q3 87 71.5 158.5t171 110t210.5 38.5q68 0 129 -15.5t61 -41.5q0 -41 -38.5 -79t-88.5 -38
q-14 0 -28.5 2t-34 8.5t-33.5 11.5t-40.5 16.5t-41.5 18.5t-49.5 23.5t-52.5 24.5q-96 -39 -103 -125q-3 -56 26 -126t64.5 -126.5t64.5 -129.5t26 -134q-5 -91 -77 -171t-179 -125.5t-215 -45.5zM891 1327l-340 -158l-10 19l325 297q24 22 43 22t30 -24t11 -56
q0 -76 -59 -100z" />
    <glyph glyph-name="Scedilla" unicode="&#x15e;" horiz-adv-x="1300" 
d="M401 -12q-174 0 -322.5 42.5t-146.5 88.5q2 36 53.5 76.5t104.5 40.5q19 0 55.5 -10t92.5 -30.5t107.5 -40.5t134.5 -53t141 -55q68 12 133.5 35.5t126 60.5t106 83t73 107.5t27.5 129.5q0 37 -13.5 72t-32 61t-52.5 53t-61.5 44.5t-73 39t-72 32.5t-73.5 30l-15 6
q-45 18 -71.5 29t-70.5 32t-71 39t-60 45t-51 54.5t-31 64t-13 76.5q0 104 73 199.5t193.5 164t282 109.5t333.5 41q124 0 204.5 -16.5t111 -40t30.5 -54.5q0 -49 -61 -115t-184 -159l-15 22q70 53 99.5 85t29.5 57q0 54 -119.5 90.5t-289.5 36.5q-247 0 -407.5 -88.5
t-160.5 -231.5q0 -56 25 -100.5t81.5 -83.5t117.5 -68t164 -69q44 -18 76 -32t74 -35.5t72 -42t62 -48t51.5 -56.5t32 -65t12.5 -76q0 -140 -100 -268t-272.5 -211t-374.5 -96l-127 -109q103 14 161 -21t58 -93q0 -88 -86.5 -155t-191.5 -67q-56 0 -91.5 21t-35.5 47
q0 19 19.5 36t41.5 17q20 0 43.5 -17t53 -34.5t63.5 -17.5q50 0 81 27.5t31 68.5q0 42 -42.5 72t-118.5 30q-52 0 -117 -18l-10 12l233 199h-31z" />
    <glyph glyph-name="scedilla" unicode="&#x15f;" horiz-adv-x="755" 
d="M109 -14q-108 0 -161 40.5t-48 108.5q6 95 174 195l14 -13q-37 -57 -37 -112q0 -66 45 -112.5t135 -47.5q89 0 151 56t62 145q0 53 -28.5 121.5t-62.5 124t-61.5 122t-25.5 117.5q3 87 71.5 158.5t171 110t210.5 38.5q68 0 129 -15.5t61 -41.5q0 -41 -38.5 -79t-88.5 -38
q-14 0 -28.5 2t-34 8.5t-33.5 11.5t-40.5 16.5t-41.5 18.5t-49.5 23.5t-52.5 24.5q-96 -39 -103 -125q-3 -56 26 -126t64.5 -126.5t64.5 -129.5t26 -134q-6 -117 -119 -212t-260 -122l-133 -113q103 14 161 -21t58 -93q0 -88 -87 -155t-192 -67q-56 0 -91.5 21t-35.5 47
q0 19 20 36t42 17q20 0 43 -17t52.5 -34.5t63.5 -17.5q50 0 81.5 27.5t31.5 68.5q0 42 -43 72t-119 30q-51 0 -116 -18l-11 12l234 199q-16 -2 -51 -2z" />
    <glyph glyph-name="Scaron" unicode="&#x160;" horiz-adv-x="1300" 
d="M401 -12q-174 0 -322.5 42.5t-146.5 88.5q2 36 53.5 76.5t104.5 40.5q19 0 55.5 -10t92.5 -30.5t107.5 -40.5t134.5 -53t141 -55q68 12 133.5 35.5t126 60.5t106 83t73 107.5t27.5 129.5q0 37 -13.5 72t-32 61t-52.5 53t-61.5 44.5t-73 39t-72 32.5t-73.5 30l-15 6
q-45 18 -71.5 29t-70.5 32t-71 39t-60 45t-51 54.5t-31 64t-13 76.5q0 104 73 199.5t193.5 164t282 109.5t333.5 41q124 0 204.5 -16.5t111 -40t30.5 -54.5q0 -49 -61 -115t-184 -159l-15 22q70 53 99.5 85t29.5 57q0 54 -119.5 90.5t-289.5 36.5q-247 0 -407.5 -88.5
t-160.5 -231.5q0 -56 25 -100.5t81.5 -83.5t117.5 -68t164 -69q44 -18 76 -32t74 -35.5t72 -42t62 -48t51.5 -56.5t32 -65t12.5 -76q0 -147 -110.5 -280.5t-299 -215t-403.5 -81.5zM1108 1956q22 0 37 -21q56 -73 110 -129q122 54 244 160l21 -20q-97 -76 -200.5 -137.5
t-148.5 -61.5q-23 0 -84 67.5t-102 129.5l10 12h113z" />
    <glyph glyph-name="scaron" unicode="&#x161;" horiz-adv-x="755" 
d="M109 -14q-108 0 -161 40.5t-48 108.5q6 95 174 195l14 -13q-37 -57 -37 -112q0 -66 45 -112.5t135 -47.5q89 0 151 56t62 145q0 53 -28.5 121.5t-62.5 124t-61.5 122t-25.5 117.5q3 87 71.5 158.5t171 110t210.5 38.5q68 0 129 -15.5t61 -41.5q0 -41 -38.5 -79t-88.5 -38
q-14 0 -28.5 2t-34 8.5t-33.5 11.5t-40.5 16.5t-41.5 18.5t-49.5 23.5t-52.5 24.5q-96 -39 -103 -125q-3 -56 26 -126t64.5 -126.5t64.5 -129.5t26 -134q-5 -91 -77 -171t-179 -125.5t-215 -45.5zM506 1407q26 0 39 -18q70 -91 110 -129q110 49 244 157l19 -18
q-98 -76 -200 -137.5t-147 -61.5q-23 0 -84.5 68t-101.5 129l8 12z" />
    <glyph glyph-name="uni0162" unicode="&#x162;" horiz-adv-x="1189" 
d="M328 0q-23 0 -23 16t123 115q67 64 129 174q94 165 244.5 478.5t228.5 453.5q43 74 91 124t122 89l88 45h-661q-52 0 -91 -14.5t-60 -32.5t-60 -59l-19 12q5 6 21.5 27t21.5 27.5t19.5 25t21 26t19 22.5t20.5 23t18.5 19.5t20 20t19.5 16.5q38 30 106 30h1276
q25 0 25 -14q0 -12 -34.5 -49.5t-64.5 -65.5q-16 -14 -59 -14h-481q-29 -20 -51 -40.5t-44 -52t-31.5 -46.5t-35.5 -60q-83 -144 -228 -450t-233 -461q-39 -70 -78.5 -112.5t-99.5 -77.5l-109 -66l295 14q21 0 21 -12q0 -11 -29 -55t-51 -62q-16 -14 -60 -14h-188l-139 -119
q103 14 161 -21t58 -93q0 -88 -87 -155t-192 -67q-56 0 -91.5 21t-35.5 47q0 19 20 36t42 17q20 0 43 -17t52.5 -34.5t63.5 -17.5q50 0 81.5 27.5t31.5 68.5q0 42 -43 72t-119 30q-51 0 -116 -18l-11 12l246 211h-104z" />
    <glyph glyph-name="uni0163" unicode="&#x163;" horiz-adv-x="688" 
d="M156 -16h-9l-120 -103q103 14 161 -21t58 -93q0 -88 -87 -155t-192 -67q-56 0 -91.5 21t-35.5 47q0 19 20 36t42 17q20 0 43 -17t52.5 -34.5t63.5 -17.5q50 0 81.5 27.5t31.5 68.5q0 42 -43 72t-119 30q-51 0 -116 -18l-11 12l234 201q-41 13 -63.5 52.5t-22.5 86.5
q0 127 162 412l243 436h-172v24l475 291l21 -12l-150 -276h250l-14 -29h-252l-258 -475q-123 -230 -123 -318q0 -39 19 -59.5t49 -20.5q78 0 198 111l17 -20q-232 -209 -342 -209z" />
    <glyph glyph-name="Tcaron" unicode="&#x164;" horiz-adv-x="1189" 
d="M328 0q-23 0 -23 16t123 115q67 64 129 174q94 165 244.5 478.5t228.5 453.5q43 74 91 124t122 89l88 45h-661q-52 0 -91 -14.5t-60 -32.5t-60 -59l-19 12q5 6 21.5 27t21.5 27.5t19.5 25t21 26t19 22.5t20.5 23t18.5 19.5t20 20t19.5 16.5q38 30 106 30h1276
q25 0 25 -14q0 -12 -34.5 -49.5t-64.5 -65.5q-16 -14 -59 -14h-481q-29 -20 -51 -40.5t-44 -52t-31.5 -46.5t-35.5 -60q-83 -144 -228 -450t-233 -461q-39 -70 -78.5 -112.5t-99.5 -77.5l-109 -66l295 14q21 0 21 -12q0 -11 -29 -55t-51 -62q-16 -14 -60 -14h-327z
M1192 1956q22 0 37 -21q56 -73 110 -129q122 54 244 160l21 -20q-97 -76 -200.5 -137.5t-148.5 -61.5q-23 0 -84 67.5t-102 129.5l10 12h113z" />
    <glyph glyph-name="tcaron" unicode="&#x165;" horiz-adv-x="688" 
d="M156 -16q-58 0 -90.5 43t-32.5 102q0 127 162 412l243 436h-172v24l475 291l21 -12l-150 -276h250l-14 -29h-252l-258 -475q-123 -230 -123 -318q0 -39 19 -59.5t49 -20.5q78 0 198 111l17 -20q-232 -209 -342 -209zM768 1161q60 44 86 73t27 56q0 25 -28.5 58.5
t-29.5 52.5q0 42 45.5 98.5t87.5 56.5q38 0 63 -40t25 -84q0 -18 -5.5 -36.5t-17.5 -37.5t-23.5 -35t-32.5 -36t-34.5 -32.5t-39 -32.5t-37 -29t-38 -28.5t-32.5 -23.5z" />
    <glyph glyph-name="Umacron" unicode="&#x16a;" horiz-adv-x="1730" 
d="M500 -16q-122 0 -201.5 83.5t-79.5 204.5q0 112 61 254.5t148 275t174 258.5t148 240t61 185q0 41 -25 68.5t-69 27.5q-49 0 -118 -37.5t-134 -99.5l-21 24q98 87 194 137t173 50q88 0 133 -51.5t45 -114.5q0 -75 -60.5 -194t-147 -247.5t-173 -260t-147 -264
t-60.5 -226.5q0 -108 56.5 -160.5t140.5 -52.5q286 0 840 717l473 815q14 22 39 22h106q19 0 25 -11t-4 -28q-508 -864 -623 -1107q-104 -213 -104 -291q0 -43 21 -63.5t54 -20.5q76 0 179 96l16 -20q-109 -100 -198 -154.5t-142 -54.5q-60 0 -94.5 44t-34.5 105
q0 125 102 326l99 184q-277 -344 -489.5 -501.5t-362.5 -157.5zM1196 1819l-4 6l35 47q17 22 47 22h481l4 -6l-35 -47q-17 -22 -47 -22h-481z" />
    <glyph glyph-name="umacron" unicode="&#x16b;" horiz-adv-x="1259" 
d="M797 -16q-59 0 -85 37t-26 83q0 161 188 500q-132 -171 -268 -317q-283 -303 -426 -303q-55 0 -97 37t-42 96q0 57 57.5 168.5t126 216t126 213.5t57.5 162q0 51 -50 51q-73 0 -198 -117l-17 20q109 100 198 154.5t142 54.5q55 0 81 -32t26 -74q0 -62 -57 -178.5
t-125.5 -224t-125.5 -216t-57 -155.5q0 -28 16.5 -47t51.5 -19q92 0 293 211q197 206 407 500l109 178q16 23 37 23l106 -2q19 0 24.5 -11t-5.5 -26q-173 -275 -263 -445q-135 -258 -135 -362q0 -62 56 -62q64 0 188 115l16 -20q-105 -99 -193 -154t-136 -55zM678 1204l-4 6
l35 47q18 23 47 23h481l4 -6l-35 -47q-18 -23 -47 -23h-481z" />
    <glyph glyph-name="Uring" unicode="&#x16e;" horiz-adv-x="1730" 
d="M500 -16q-122 0 -201.5 83.5t-79.5 204.5q0 112 61 254.5t148 275t174 258.5t148 240t61 185q0 41 -25 68.5t-69 27.5q-49 0 -118 -37.5t-134 -99.5l-21 24q98 87 194 137t173 50q88 0 133 -51.5t45 -114.5q0 -75 -60.5 -194t-147 -247.5t-173 -260t-147 -264
t-60.5 -226.5q0 -108 56.5 -160.5t140.5 -52.5q286 0 840 717l473 815q14 22 39 22h106q19 0 25 -11t-4 -28q-508 -864 -623 -1107q-104 -213 -104 -291q0 -43 21 -63.5t54 -20.5q76 0 179 96l16 -20q-109 -100 -198 -154.5t-142 -54.5q-60 0 -94.5 44t-34.5 105
q0 125 102 326l99 184q-277 -344 -489.5 -501.5t-362.5 -157.5zM1466 1753q-90 0 -144 56.5t-54 142.5q0 83 57.5 140.5t140.5 57.5q94 0 146.5 -56t52.5 -142q0 -83 -58 -141t-141 -58zM1466 1780q73 0 120.5 48.5t47.5 123.5t-47.5 123.5t-120.5 48.5q-72 0 -120 -48.5
t-48 -123.5t48 -123.5t120 -48.5z" />
    <glyph glyph-name="uring" unicode="&#x16f;" horiz-adv-x="1259" 
d="M797 -16q-59 0 -85 37t-26 83q0 161 188 500q-132 -171 -268 -317q-283 -303 -426 -303q-55 0 -97 37t-42 96q0 57 57.5 168.5t126 216t126 213.5t57.5 162q0 51 -50 51q-73 0 -198 -117l-17 20q109 100 198 154.5t142 54.5q55 0 81 -32t26 -74q0 -62 -57 -178.5
t-125.5 -224t-125.5 -216t-57 -155.5q0 -28 16.5 -47t51.5 -19q92 0 293 211q197 206 407 500l109 178q16 23 37 23l106 -2q19 0 24.5 -11t-5.5 -26q-173 -275 -263 -445q-135 -258 -135 -362q0 -62 56 -62q64 0 188 115l16 -20q-105 -99 -193 -154t-136 -55zM950 1139
q-90 0 -144 56.5t-54 141.5q0 83 57.5 141t140.5 58q94 0 146.5 -56t52.5 -143q0 -83 -58 -140.5t-141 -57.5zM950 1165q73 0 120.5 48.5t47.5 123.5t-47.5 123.5t-120.5 48.5q-72 0 -120 -48.5t-48 -123.5t48 -123.5t120 -48.5z" />
    <glyph glyph-name="Uhungarumlaut" unicode="&#x170;" horiz-adv-x="1730" 
d="M500 -16q-122 0 -201.5 83.5t-79.5 204.5q0 112 61 254.5t148 275t174 258.5t148 240t61 185q0 41 -25 68.5t-69 27.5q-49 0 -118 -37.5t-134 -99.5l-21 24q98 87 194 137t173 50q88 0 133 -51.5t45 -114.5q0 -75 -60.5 -194t-147 -247.5t-173 -260t-147 -264
t-60.5 -226.5q0 -108 56.5 -160.5t140.5 -52.5q286 0 840 717l473 815q14 22 39 22h106q19 0 25 -11t-4 -28q-508 -864 -623 -1107q-104 -213 -104 -291q0 -43 21 -63.5t54 -20.5q76 0 179 96l16 -20q-109 -100 -198 -154.5t-142 -54.5q-60 0 -94.5 44t-34.5 105
q0 125 102 326l99 184q-277 -344 -489.5 -501.5t-362.5 -157.5zM1272 1716l-10 10l301 246q34 27 49.5 37t29.5 10q11 0 27.5 -11t16.5 -21q0 -18 -60 -54zM1520 1716l-9 13l297 225q54 41 69 45q5 2 11 2q11 0 28 -11.5t17 -21.5q0 -19 -63 -55z" />
    <glyph glyph-name="uhungarumlaut" unicode="&#x171;" horiz-adv-x="1259" 
d="M797 -16q-59 0 -85 37t-26 83q0 161 188 500q-132 -171 -268 -317q-283 -303 -426 -303q-55 0 -97 37t-42 96q0 57 57.5 168.5t126 216t126 213.5t57.5 162q0 51 -50 51q-73 0 -198 -117l-17 20q109 100 198 154.5t142 54.5q55 0 81 -32t26 -74q0 -62 -57 -178.5
t-125.5 -224t-125.5 -216t-57 -155.5q0 -28 16.5 -47t51.5 -19q92 0 293 211q197 206 407 500l109 178q16 23 37 23l106 -2q19 0 24.5 -11t-5.5 -26q-173 -275 -263 -445q-135 -258 -135 -362q0 -62 56 -62q64 0 188 115l16 -20q-105 -99 -193 -154t-136 -55zM1012 1477
q29 29 40.5 38t22.5 9q12 0 27.5 -8.5t15.5 -16.5q0 -21 -57 -63l-350 -269h-23zM1260 1477q40 40 50 44q6 3 13 3q12 0 27.5 -8.5t15.5 -16.5q0 -21 -57 -63l-351 -269h-22z" />
    <glyph glyph-name="Uogonek" unicode="&#x172;" horiz-adv-x="1730" 
d="M500 -16q-122 0 -201.5 83.5t-79.5 204.5q0 112 61 254.5t148 275t174 258.5t148 240t61 185q0 41 -25 68.5t-69 27.5q-49 0 -118 -37.5t-134 -99.5l-21 24q98 87 194 137t173 50q88 0 133 -51.5t45 -114.5q0 -75 -60.5 -194t-147 -247.5t-173 -260t-147 -264
t-60.5 -226.5q0 -108 56.5 -160.5t140.5 -52.5q286 0 840 717l473 815q14 22 39 22h106q19 0 25 -11t-4 -28q-508 -864 -623 -1107q-104 -213 -104 -291q0 -43 21 -63.5t54 -20.5q76 0 179 96l16 -20q-191 -176 -307 -205q-101 -104 -101 -181q0 -51 31 -75.5t78 -24.5
q55 0 106 33l9 -8l-64 -105q-34 -24 -94 -24q-65 0 -107.5 38.5t-42.5 102.5q0 102 148 240q-58 1 -91.5 45t-33.5 104q0 125 102 326l99 184q-277 -344 -489.5 -501.5t-362.5 -157.5z" />
    <glyph glyph-name="uogonek" unicode="&#x173;" horiz-adv-x="1259" 
d="M180 -16q-55 0 -97 37t-42 96q0 57 57.5 168.5t126 216t126 213.5t57.5 162q0 51 -50 51q-73 0 -198 -117l-17 20q109 100 198 154.5t142 54.5q55 0 81 -32t26 -74q0 -62 -57 -178.5t-125.5 -224t-125.5 -216t-57 -155.5q0 -28 16.5 -47t51.5 -19q92 0 293 211
q197 206 407 500l109 178q16 23 37 23l106 -2q19 0 24.5 -11t-5.5 -26q-173 -275 -263 -445q-135 -258 -135 -362q0 -62 56 -62q64 0 188 115l16 -20q-93 -89 -174 -142.5t-133 -64.5q-98 -101 -98 -179q0 -51 30.5 -75.5t77.5 -24.5q56 0 107 33l8 -8l-63 -105
q-34 -24 -95 -24q-65 0 -107 38.5t-42 102.5q0 103 147 240q-53 4 -75.5 40t-22.5 80q0 161 188 500q-132 -171 -268 -317q-283 -303 -426 -303z" />
    <glyph glyph-name="Wcircumflex" unicode="&#x174;" horiz-adv-x="2582" 
d="M858 -6q-32 0 -29 33l224 1214q10 56 11.5 100t-8 85t-40.5 62.5t-82 20.5l-275 -6q-75 -3 -115.5 -26t-94.5 -82l-19 12q120 153 176 201q40 30 109 30h641q14 0 19 -6t-1 -16l-57 -82q-11 -16 -45 -16l-242 -7q87 -38 126.5 -83.5t44.5 -110.5t-13 -158l-174 -948
l1022 1407q14 20 39 20h10q14 0 22 -9.5t7 -24.5l-168 -1422l907 1147q14 36 43 110.5t43.5 110t35.5 80.5t38 72q65 98 168 98q32 0 50.5 -11t18.5 -26q0 -23 -65 -100q-23 -26 -89.5 -99.5t-118 -132.5t-100.5 -120l-1030 -1301q-16 -16 -39 -16h-8q-31 0 -28 33l182 1423
l-1047 -1440q-13 -16 -41 -16h-8zM2537 1796q-24 0 -38 19q-67 87 -111 129q-115 -51 -244 -158l-18 18q95 75 198 137t148 62q23 0 84.5 -68t101.5 -129l-8 -12z" />
    <glyph glyph-name="wcircumflex" unicode="&#x175;" horiz-adv-x="1542" 
d="M877 -16q-93 0 -142 61t-49 170q0 49 12 107q-93 -167 -205 -251.5t-212 -86.5q-90 0 -145.5 58.5t-55.5 162.5q0 86 41.5 183t112.5 187.5t151 170t170 149.5q-194 8 -250 6q-63 -1 -102.5 -25t-85.5 -75l-17 12q88 121 174 195q40 30 107 30q24 0 140.5 -7t185.5 -7
l4 -18q-210 -162 -337.5 -375.5t-127.5 -384.5q0 -78 37 -126t108 -48q82 -2 174.5 99.5t173.5 283.5q60 162 160 299q24 31 117 67q77 30 77 14q0 -2 -3 -6q-119 -159 -178.5 -317t-57.5 -262q0 -79 34 -128t105 -50q98 0 217 145.5t209 347.5q-31 272 -18 359
q6 50 51.5 83t95.5 33q43 0 43 -41q0 -56 -42 -179.5t-91 -235.5q-53 -119 -115.5 -221.5t-136 -189.5t-159 -137.5t-170.5 -51.5zM1214 1157q-24 0 -38 19q-67 87 -111 129q-115 -51 -244 -158l-18 18q95 75 198 137t148 62q23 0 84.5 -68t101.5 -129l-8 -12z" />
    <glyph glyph-name="Ycircumflex" unicode="&#x176;" horiz-adv-x="1458" 
d="M629 0q-23 0 -23 16q0 15 78 80l6 4l37 31q45 43 74 83t65 110q57 109 101 225.5t47 179.5q-3 235 -84 578q-9 40 -15.5 64t-18 53t-24 44.5t-32.5 26.5t-45 12l-158 -4q-75 -3 -116 -26.5t-95 -81.5l-18 12q120 153 176 201q38 30 108 30h500q30 0 16 -26l-51 -78
q-14 -18 -47 -18l-225 -7q150 -34 188 -172q28 -104 56 -270.5t36 -341.5l711 975q70 95 104 92q24 0 39 -26.5t15 -57.5q0 -70 -37 -111l-834 -923q-7 -20 -29 -86t-38.5 -109.5t-38.5 -93.5q-33 -72 -70 -113t-98 -77l-88 -54l311 2q25 2 25 -12q0 -13 -29 -55.5
t-51 -61.5q-16 -14 -60 -14h-368zM1526 1749q-26 0 -39 18q-67 87 -111 129q-115 -51 -243 -157l-19 18q95 75 198 137t148 62q23 0 85 -68t102 -129l-9 -12z" />
    <glyph glyph-name="ycircumflex" unicode="&#x177;" horiz-adv-x="1079" 
d="M-326 -426q-47 0 -80.5 13t-33.5 40q0 35 41.5 83t91.5 48q66 0 323 -73q95 36 138.5 91t85.5 187q55 154 101.5 411.5t43.5 413.5q-3 130 -61 130q-65 0 -183 -107l-16 20q121 109 192.5 159t116.5 50q107 0 107 -166q2 -152 -42.5 -430.5t-125.5 -523.5
q301 275 526 653q-13 271 2 351q10 50 58 83t98 33q45 0 45 -39q0 -41 -20.5 -106.5t-58 -147t-93 -175.5t-122 -191.5t-148.5 -195.5t-170 -187.5t-188 -167t-201 -134.5t-211 -89.5t-216 -32.5zM1012 1178q-26 0 -39 18q-67 87 -111 129q-115 -51 -244 -158l-18 19
q94 74 197 136t149 62q23 0 85.5 -67.5t101.5 -128.5l-9 -12z" />
    <glyph glyph-name="Ydieresis" unicode="&#x178;" horiz-adv-x="1458" 
d="M629 0q-23 0 -23 16q0 15 78 80l6 4l37 31q45 43 74 83t65 110q57 109 101 225.5t47 179.5q-3 235 -84 578q-9 40 -15.5 64t-18 53t-24 44.5t-32.5 26.5t-45 12l-158 -4q-75 -3 -116 -26.5t-95 -81.5l-18 12q120 153 176 201q38 30 108 30h500q30 0 16 -26l-51 -78
q-14 -18 -47 -18l-225 -7q150 -34 188 -172q28 -104 56 -270.5t36 -341.5l711 975q70 95 104 92q24 0 39 -26.5t15 -57.5q0 -70 -37 -111l-834 -923q-7 -20 -29 -86t-38.5 -109.5t-38.5 -93.5q-33 -72 -70 -113t-98 -77l-88 -54l311 2q25 2 25 -12q0 -13 -29 -55.5
t-51 -61.5q-16 -14 -60 -14h-368zM1520 1769q-22 0 -43 22t-21 50q0 32 25 68q21 35 51 59.5t55 24.5q19 0 38.5 -21.5t19.5 -48.5q0 -29 -23 -70q-18 -29 -48 -56.5t-54 -27.5zM1178 1769q-20 0 -42 22t-22 50q0 27 25 68q21 35 51.5 59.5t54.5 24.5q20 0 39 -21t19 -49
q0 -34 -23 -70q-16 -29 -46.5 -56.5t-55.5 -27.5z" />
    <glyph glyph-name="Zacute" unicode="&#x179;" horiz-adv-x="1417" 
d="M-98 0q-17 0 -22 4.5t-5 15.5q0 5 7.5 15t20.5 23t25.5 24.5t29 26.5t24.5 22l907 731q425 334 776 633l-883 2q-33 0 -59 -7t-52 -26.5t-38 -31t-43 -43.5l-17 12q18 22 47 59.5t46 58.5t40 46.5t44 42.5q38 30 102 30h1053q9 -1 13.5 -4.5t4.5 -5.5v-10q0 -6 -7 -14.5
t-21 -20t-28 -22t-35 -26t-34 -26.5q-508 -367 -895 -678q-494 -394 -799 -688h955q33 0 59.5 7t51 25.5t38 31.5t41.5 43l19 -12q-18 -22 -47 -59.5t-46 -58.5t-40 -46.5t-43 -42.5q-39 -31 -103 -31h-1087zM1470 1868l-378 -158l-13 14l361 277q47 35 59 35q17 0 17 -37
q0 -73 -7.5 -96t-38.5 -35z" />
    <glyph glyph-name="zacute" unicode="&#x17a;" horiz-adv-x="976" 
d="M504 -14q-36 0 -81 16t-83.5 36t-99 36t-123.5 16q-59 0 -108 -11.5t-105 -47.5q-18 -11 -33.5 -25t-24 -20t-18.5 -6q-8 0 -14.5 6.5t-6.5 13.5q0 10 6.5 18.5t30 25t53 35t91 61t129.5 91.5q148 108 389 304q232 187 352 305q-193 69 -377 69q-142 0 -268 -143l-20 14
q112 124 211 191.5t200 66.5q210 -3 424 -94l105 82l16 -18q-102 -85 -315.5 -249.5t-309.5 -242.5q-80 -66 -223.5 -190t-167.5 -144q77 39 146 39q54 0 116 -27t119.5 -54t101.5 -27q101 0 203 120l21 -16q-200 -231 -336 -231zM1028 1327l-340 -158l-10 19l326 297
q24 22 43 22t29.5 -24t10.5 -56q0 -76 -59 -100z" />
    <glyph glyph-name="Zdotaccent" unicode="&#x17b;" horiz-adv-x="1417" 
d="M-98 0q-17 0 -22 4.5t-5 15.5q0 5 7.5 15t20.5 23t25.5 24.5t29 26.5t24.5 22l907 731q425 334 776 633l-883 2q-33 0 -59 -7t-52 -26.5t-38 -31t-43 -43.5l-17 12q18 22 47 59.5t46 58.5t40 46.5t44 42.5q38 30 102 30h1053q9 -1 13.5 -4.5t4.5 -5.5v-10q0 -6 -7 -14.5
t-21 -20t-28 -22t-35 -26t-34 -26.5q-508 -367 -895 -678q-494 -394 -799 -688h955q33 0 59.5 7t51 25.5t38 31.5t41.5 43l19 -12q-18 -22 -47 -59.5t-46 -58.5t-40 -46.5t-43 -42.5q-39 -31 -103 -31h-1087zM1251 1794q-26 0 -50.5 25t-24.5 63q0 40 26 90q26 45 59.5 77
t63.5 32q25 0 48.5 -25t23.5 -63q0 -43 -27 -92q-19 -36 -54 -71.5t-65 -35.5z" />
    <glyph glyph-name="zdotaccent" unicode="&#x17c;" horiz-adv-x="976" 
d="M504 -14q-36 0 -81 16t-83.5 36t-99 36t-123.5 16q-59 0 -108 -11.5t-105 -47.5q-18 -11 -33.5 -25t-24 -20t-18.5 -6q-8 0 -14.5 6.5t-6.5 13.5q0 10 6.5 18.5t30 25t53 35t91 61t129.5 91.5q148 108 389 304q232 187 352 305q-193 69 -377 69q-142 0 -268 -143l-20 14
q112 124 211 191.5t200 66.5q210 -3 424 -94l105 82l16 -18q-102 -85 -315.5 -249.5t-309.5 -242.5q-80 -66 -223.5 -190t-167.5 -144q77 39 146 39q54 0 116 -27t119.5 -54t101.5 -27q101 0 203 120l21 -16q-200 -231 -336 -231zM879 1237q-26 0 -51 25t-25 63q0 40 26 90
q26 45 59.5 77t63.5 32q25 0 48.5 -25t23.5 -63q0 -44 -27 -93q-19 -36 -53.5 -71t-64.5 -35z" />
    <glyph glyph-name="Zcaron" unicode="&#x17d;" horiz-adv-x="1417" 
d="M-98 0q-17 0 -22 4.5t-5 15.5q0 5 7.5 15t20.5 23t25.5 24.5t29 26.5t24.5 22l907 731q425 334 776 633l-883 2q-33 0 -59 -7t-52 -26.5t-38 -31t-43 -43.5l-17 12q18 22 47 59.5t46 58.5t40 46.5t44 42.5q38 30 102 30h1053q9 -1 13.5 -4.5t4.5 -5.5v-10q0 -6 -7 -14.5
t-21 -20t-28 -22t-35 -26t-34 -26.5q-508 -367 -895 -678q-494 -394 -799 -688h955q33 0 59.5 7t51 25.5t38 31.5t41.5 43l19 -12q-18 -22 -47 -59.5t-46 -58.5t-40 -46.5t-43 -42.5q-39 -31 -103 -31h-1087zM1118 1956q22 0 37 -21q52 -67 111 -129q120 53 243 160l21 -20
q-98 -76 -200.5 -137.5t-147.5 -61.5q-23 0 -84.5 68t-102.5 129l11 12h112z" />
    <glyph glyph-name="zcaron" unicode="&#x17e;" horiz-adv-x="976" 
d="M504 -14q-36 0 -81 16t-83.5 36t-99 36t-123.5 16q-59 0 -108 -11.5t-105 -47.5q-18 -11 -33.5 -25t-24 -20t-18.5 -6q-8 0 -14.5 6.5t-6.5 13.5q0 10 6.5 18.5t30 25t53 35t91 61t129.5 91.5q148 108 389 304q232 187 352 305q-193 69 -377 69q-142 0 -268 -143l-20 14
q112 124 211 191.5t200 66.5q210 -3 424 -94l105 82l16 -18q-102 -85 -315.5 -249.5t-309.5 -242.5q-80 -66 -223.5 -190t-167.5 -144q77 39 146 39q54 0 116 -27t119.5 -54t101.5 -27q101 0 203 120l21 -16q-200 -231 -336 -231zM643 1407q26 0 39 -18q67 -87 111 -129
q108 48 243 157l19 -18q-99 -77 -200 -138t-146 -61q-23 0 -85 68t-102 129l8 12z" />
    <glyph glyph-name="uni018F" unicode="&#x18f;" horiz-adv-x="1624" 
d="M610 -16q-175 0 -268.5 78.5t-93.5 193.5q0 79 50 156t183 183.5t370 246.5t607 332q-58 172 -193 273t-331 101q-126 0 -244.5 -52t-208.5 -142l-24 20q137 130 290.5 205.5t305.5 75.5q138 0 252.5 -50.5t187 -134t112.5 -187t42 -214.5q2 -141 -40 -281t-116.5 -257.5
t-176.5 -220t-217 -174t-241 -112t-246 -40.5zM414 317q0 -107 88.5 -167t228.5 -60q146 0 271 47.5t214.5 129t153 189.5t94.5 229.5t31 248.5q0 110 -27 209q-426 -220 -653.5 -365t-314 -248.5t-86.5 -212.5z" />
    <glyph glyph-name="uni0218" unicode="&#x218;" horiz-adv-x="1300" 
d="M401 -12q-174 0 -322.5 42.5t-146.5 88.5q2 36 53.5 76.5t104.5 40.5q19 0 55.5 -10t92.5 -30.5t107.5 -40.5t134.5 -53t141 -55q68 12 133.5 35.5t126 60.5t106 83t73 107.5t27.5 129.5q0 37 -13.5 72t-32 61t-52.5 53t-61.5 44.5t-73 39t-72 32.5t-73.5 30l-15 6
q-45 18 -71.5 29t-70.5 32t-71 39t-60 45t-51 54.5t-31 64t-13 76.5q0 104 73 199.5t193.5 164t282 109.5t333.5 41q124 0 204.5 -16.5t111 -40t30.5 -54.5q0 -49 -61 -115t-184 -159l-15 22q70 53 99.5 85t29.5 57q0 54 -119.5 90.5t-289.5 36.5q-247 0 -407.5 -88.5
t-160.5 -231.5q0 -56 25 -100.5t81.5 -83.5t117.5 -68t164 -69q44 -18 76 -32t74 -35.5t72 -42t62 -48t51.5 -56.5t32 -65t12.5 -76q0 -147 -110.5 -280.5t-299 -215t-403.5 -81.5zM240 -510q109 77 112 127q0 24 -28.5 58t-28.5 55q-2 41 44.5 98t88.5 57q38 0 62 -40.5
t24 -84.5q0 -21 -8 -43t-18.5 -40t-32 -41t-35.5 -37t-43 -37.5t-41 -33t-43 -32t-37 -26.5z" />
    <glyph glyph-name="uni0219" unicode="&#x219;" horiz-adv-x="755" 
d="M109 -14q-108 0 -161 40.5t-48 108.5q6 95 174 195l14 -13q-37 -57 -37 -112q0 -66 45 -112.5t135 -47.5q89 0 151 56t62 145q0 53 -28.5 121.5t-62.5 124t-61.5 122t-25.5 117.5q3 87 71.5 158.5t171 110t210.5 38.5q68 0 129 -15.5t61 -41.5q0 -41 -38.5 -79t-88.5 -38
q-14 0 -28.5 2t-34 8.5t-33.5 11.5t-40.5 16.5t-41.5 18.5t-49.5 23.5t-52.5 24.5q-96 -39 -103 -125q-3 -56 26 -126t64.5 -126.5t64.5 -129.5t26 -134q-5 -91 -77 -171t-179 -125.5t-215 -45.5zM-33 -510q59 41 85.5 71t27.5 56q0 24 -28.5 58t-28.5 55q-2 41 44.5 98
t88.5 57q38 0 62 -40.5t24 -84.5q0 -21 -8 -43t-18.5 -40t-32 -41t-35.5 -37t-43 -37.5t-41 -33t-43 -32t-37 -26.5z" />
    <glyph glyph-name="uni021A" unicode="&#x21a;" horiz-adv-x="1189" 
d="M328 0q-23 0 -23 16t123 115q67 64 129 174q94 165 244.5 478.5t228.5 453.5q43 74 91 124t122 89l88 45h-661q-52 0 -91 -14.5t-60 -32.5t-60 -59l-19 12q5 6 21.5 27t21.5 27.5t19.5 25t21 26t19 22.5t20.5 23t18.5 19.5t20 20t19.5 16.5q38 30 106 30h1276
q25 0 25 -14q0 -12 -34.5 -49.5t-64.5 -65.5q-16 -14 -59 -14h-481q-29 -20 -51 -40.5t-44 -52t-31.5 -46.5t-35.5 -60q-83 -144 -228 -450t-233 -461q-39 -70 -78.5 -112.5t-99.5 -77.5l-109 -66l295 14q21 0 21 -12q0 -11 -29 -55t-51 -62q-16 -14 -60 -14h-327zM227 -510
q59 41 85.5 71t27.5 56q0 24 -28.5 58t-28.5 55q-2 41 44.5 98t88.5 57q38 0 62 -40.5t24 -84.5q0 -21 -8 -43t-18.5 -40t-32 -41t-35.5 -37t-43 -37.5t-41 -33t-43 -32t-37 -26.5z" />
    <glyph glyph-name="uni021B" unicode="&#x21b;" horiz-adv-x="688" 
d="M156 -16q-58 0 -90.5 43t-32.5 102q0 127 162 412l243 436h-172v24l475 291l21 -12l-150 -276h250l-14 -29h-252l-258 -475q-123 -230 -123 -318q0 -39 19 -59.5t49 -20.5q78 0 198 111l17 -20q-232 -209 -342 -209zM-74 -510q59 41 85.5 71t27.5 56q0 24 -28.5 58
t-28.5 55q-2 41 44.5 98t88.5 57q38 0 62 -40.5t24 -84.5q0 -21 -8 -43t-18.5 -40t-32 -41t-35.5 -37t-43 -37.5t-41 -33t-43 -32t-37 -26.5z" />
    <glyph glyph-name="uni0237" unicode="&#x237;" horiz-adv-x="534" 
d="M-571 -426q-66 0 -66 37q0 38 45 84.5t98 46.5q25 0 60.5 -4t87.5 -10.5t92 -10.5q51 29 93 71.5t108.5 150t150.5 284.5q238 496 267 566q24 61 24 88q0 53 -53 53q-71 0 -201 -119l-16 20q232 209 342 209q53 0 77.5 -31.5t26.5 -74.5q0 -53 -53 -175.5t-186 -396.5
q-73 -150 -180.5 -293t-227 -252.5t-249.5 -176t-240 -66.5z" />
    <glyph glyph-name="uni0259" unicode="&#x259;" horiz-adv-x="897" 
d="M631 1018q118 1 179.5 -70t61.5 -170q0 -88 -36 -186t-96 -186.5t-140.5 -170.5t-167 -141.5t-178 -95t-170.5 -35.5q-78 0 -119 32t-41 87q0 69 65.5 146.5t229.5 197.5t473 315q-9 76 -56.5 120t-133.5 44q-151 0 -316 -149l-16 18q128 118 253.5 181t207.5 63zM98 147
q0 -50 33 -78t86 -28q94 0 185 67t154.5 167t101.5 217.5t36 218.5v2q-330 -206 -463 -330.5t-133 -235.5z" />
    <glyph glyph-name="gravecomb" unicode="&#x300;" 
d="M514 1327q-59 24 -59 100q0 32 11 56t30 24t43 -22l325 -297l-10 -19z" />
    <glyph glyph-name="acutecomb" unicode="&#x301;" 
d="M717 1327l-340 -158l-10 19l325 297q24 22 43 22t30 -24t11 -56q0 -76 -59 -100z" />
    <glyph glyph-name="uni0302" unicode="&#x302;" 
d="M791 1178q-26 0 -39 18q-67 87 -111 129q-115 -51 -244 -158l-18 19q94 74 197 136t149 62q23 0 84.5 -67.5t101.5 -128.5l-8 -12z" />
    <glyph glyph-name="tildecomb" unicode="&#x303;" 
d="M244 1190q63 97 116.5 139.5t118.5 42.5q47 0 149 -28.5t146 -28.5q47 0 80 23.5t66 72.5l16 -10q-43 -80 -105.5 -133.5t-128.5 -53.5q-44 0 -150.5 28t-148.5 28q-45 0 -78.5 -20t-64.5 -70z" />
    <glyph glyph-name="uni0304" unicode="&#x304;" 
d="M385 1204l-4 6l35 47q18 23 47 23h481l4 -6l-35 -47q-18 -23 -47 -23h-481z" />
    <glyph glyph-name="uni0306" unicode="&#x306;" 
d="M573 1176q-73 0 -116 47t-43 131q0 17 40 39t72 22q19 0 19 -16q2 -72 34.5 -117t98.5 -45q51 0 106.5 40t94.5 103q5 7 14.5 4.5t16.5 -11.5t1 -15q-87 -85 -176 -133.5t-162 -48.5z" />
    <glyph glyph-name="uni0307" unicode="&#x307;" 
d="M715 1524q48 45 59 45q14 0 14 -27q0 -26 -8 -38.5t-35 -33.5l-389 -303l-12 17z" />
    <glyph glyph-name="uni0308" unicode="&#x308;" 
d="M735 1155q-21 0 -42 22t-21 50q0 33 24 67q21 35 51.5 59.5t55.5 24.5q19 0 38 -20.5t19 -48.5q0 -31 -22 -70q-18 -29 -48.5 -56.5t-54.5 -27.5zM393 1155q-20 0 -41.5 22t-21.5 50t24 67q21 34 52 59t55 25q20 0 38.5 -20.5t18.5 -48.5q0 -36 -22 -70
q-16 -29 -47 -56.5t-56 -27.5z" />
    <glyph glyph-name="uni030A" unicode="&#x30a;" 
d="M539 1139q-90 0 -144.5 56.5t-54.5 141.5q0 83 58 141t141 58q94 0 146 -56t52 -143q0 -83 -57.5 -140.5t-140.5 -57.5zM539 1165q73 0 120.5 48.5t47.5 123.5t-47.5 123.5t-120.5 48.5q-72 0 -120 -48.5t-48 -123.5t48 -123.5t120 -48.5z" />
    <glyph glyph-name="uni030B" unicode="&#x30b;" 
d="M686 1477q28 28 40.5 37.5t23.5 9.5q12 0 27.5 -8.5t15.5 -16.5q0 -20 -58 -63l-350 -269h-23zM934 1477q40 40 50 44q6 3 13 3q12 0 27.5 -8.5t15.5 -16.5q0 -21 -57 -63l-350 -269h-23z" />
    <glyph glyph-name="uni030C" unicode="&#x30c;" 
d="M344 1407q26 0 39 -18q67 -87 111 -129q108 48 243 157l19 -18q-99 -77 -200 -138t-146 -61q-23 0 -85 68t-102 129l8 12z" />
    <glyph glyph-name="uni0312" unicode="&#x312;" 
d="M688 1511q-59 -45 -84.5 -73.5t-25.5 -55.5q0 -25 28 -58t29 -52q0 -42 -46.5 -99t-88.5 -57q-37 0 -61.5 40.5t-24.5 84.5q0 18 5.5 36.5t17.5 37.5t23.5 35t32.5 36t34.5 32.5t39 32.5t37 29t38 28.5t32.5 23.5z" />
    <glyph glyph-name="uni0326" unicode="&#x326;" 
d="M-342 -512q59 41 85.5 71t27.5 56q0 24 -29 58t-29 55q-2 41 44.5 98t88.5 57q38 0 62 -40.5t24 -84.5q0 -21 -8 -43t-18.5 -40t-32 -41t-35.5 -37t-43 -37.5t-41 -33t-43 -32t-37 -26.5z" />
    <glyph glyph-name="uni0327" unicode="&#x327;" 
d="M47 -225q0 -88 -86.5 -154.5t-191.5 -66.5q-56 0 -91.5 20.5t-35.5 46.5q0 19 19.5 36t41.5 17q20 0 43.5 -17t53 -34.5t63.5 -17.5q50 0 81 27.5t31 68.5q0 42 -42.5 72t-118.5 30q-52 0 -117 -18l-10 12l254 217l26 -6l-139 -119q103 14 161 -21t58 -93z" />
    <glyph glyph-name="uni0328" unicode="&#x328;" 
d="M70 -377q-34 -24 -95 -24q-65 0 -107 38.5t-42 102.5q0 117 197 285l18 -11q-131 -122 -131 -211q0 -51 30.5 -75.5t77.5 -24.5q56 0 107 33l8 -8z" />
    <glyph glyph-name="uni0335" unicode="&#x335;" 
d="M1143 1202v-28h-477v28h477z" />
    <glyph glyph-name="uni0337" unicode="&#x337;" 
d="M575 932l13 -27l-559 -237l-13 28z" />
    <glyph glyph-name="uni0338" unicode="&#x338;" 
d="M1174 1214l24 -20l-1225 -1423l-24 20z" />
    <glyph glyph-name="Wgrave" unicode="&#x1e80;" horiz-adv-x="2582" 
d="M858 -6q-32 0 -29 33l224 1214q10 56 11.5 100t-8 85t-40.5 62.5t-82 20.5l-275 -6q-75 -3 -115.5 -26t-94.5 -82l-19 12q120 153 176 201q40 30 109 30h641q14 0 19 -6t-1 -16l-57 -82q-11 -16 -45 -16l-242 -7q87 -38 126.5 -83.5t44.5 -110.5t-13 -158l-174 -948
l1022 1407q14 20 39 20h10q14 0 22 -9.5t7 -24.5l-168 -1422l907 1147q14 36 43 110.5t43.5 110t35.5 80.5t38 72q65 98 168 98q32 0 50.5 -11t18.5 -26q0 -23 -65 -100q-23 -26 -89.5 -99.5t-118 -132.5t-100.5 -120l-1030 -1301q-16 -16 -39 -16h-8q-31 0 -28 33l182 1423
l-1047 -1440q-13 -16 -41 -16h-8zM2251 1917q-31 12 -38 34.5t-7 96.5q0 37 16 37q12 0 59 -35l361 -276l-12 -15z" />
    <glyph glyph-name="wgrave" unicode="&#x1e81;" horiz-adv-x="1542" 
d="M877 -16q-93 0 -142 61t-49 170q0 49 12 107q-93 -167 -205 -251.5t-212 -86.5q-90 0 -145.5 58.5t-55.5 162.5q0 86 41.5 183t112.5 187.5t151 170t170 149.5q-194 8 -250 6q-63 -1 -102.5 -25t-85.5 -75l-17 12q88 121 174 195q40 30 107 30q24 0 140.5 -7t185.5 -7
l4 -18q-210 -162 -337.5 -375.5t-127.5 -384.5q0 -78 37 -126t108 -48q82 -2 174.5 99.5t173.5 283.5q60 162 160 299q24 31 117 67q77 30 77 14q0 -2 -3 -6q-119 -159 -178.5 -317t-57.5 -262q0 -79 34 -128t105 -50q98 0 217 145.5t209 347.5q-31 272 -18 359
q6 50 51.5 83t95.5 33q43 0 43 -41q0 -56 -42 -179.5t-91 -235.5q-53 -119 -115.5 -221.5t-136 -189.5t-159 -137.5t-170.5 -51.5zM950 1307q-59 24 -59 100q0 32 11 56t30 24q17 0 43 -23l325 -297l-10 -18z" />
    <glyph glyph-name="Wacute" unicode="&#x1e82;" horiz-adv-x="2582" 
d="M858 -6q-32 0 -29 33l224 1214q10 56 11.5 100t-8 85t-40.5 62.5t-82 20.5l-275 -6q-75 -3 -115.5 -26t-94.5 -82l-19 12q120 153 176 201q40 30 109 30h641q14 0 19 -6t-1 -16l-57 -82q-11 -16 -45 -16l-242 -7q87 -38 126.5 -83.5t44.5 -110.5t-13 -158l-174 -948
l1022 1407q14 20 39 20h10q14 0 22 -9.5t7 -24.5l-168 -1422l907 1147q14 36 43 110.5t43.5 110t35.5 80.5t38 72q65 98 168 98q32 0 50.5 -11t18.5 -26q0 -23 -65 -100q-23 -26 -89.5 -99.5t-118 -132.5t-100.5 -120l-1030 -1301q-16 -16 -39 -16h-8q-31 0 -28 33l182 1423
l-1047 -1440q-13 -16 -41 -16h-8zM2634 1917l-379 -158l-12 15l360 276q47 35 59 35q17 0 17 -37q0 -74 -7 -96.5t-38 -34.5z" />
    <glyph glyph-name="wacute" unicode="&#x1e83;" horiz-adv-x="1542" 
d="M877 -16q-93 0 -142 61t-49 170q0 49 12 107q-93 -167 -205 -251.5t-212 -86.5q-90 0 -145.5 58.5t-55.5 162.5q0 86 41.5 183t112.5 187.5t151 170t170 149.5q-194 8 -250 6q-63 -1 -102.5 -25t-85.5 -75l-17 12q88 121 174 195q40 30 107 30q24 0 140.5 -7t185.5 -7
l4 -18q-210 -162 -337.5 -375.5t-127.5 -384.5q0 -78 37 -126t108 -48q82 -2 174.5 99.5t173.5 283.5q60 162 160 299q24 31 117 67q77 30 77 14q0 -2 -3 -6q-119 -159 -178.5 -317t-57.5 -262q0 -79 34 -128t105 -50q98 0 217 145.5t209 347.5q-31 272 -18 359
q6 50 51.5 83t95.5 33q43 0 43 -41q0 -56 -42 -179.5t-91 -235.5q-53 -119 -115.5 -221.5t-136 -189.5t-159 -137.5t-170.5 -51.5zM1251 1307l-340 -158l-10 18l326 297q26 23 43 23q19 0 30 -24t11 -56q0 -76 -60 -100z" />
    <glyph glyph-name="Wdieresis" unicode="&#x1e84;" horiz-adv-x="2582" 
d="M858 -6q-32 0 -29 33l224 1214q10 56 11.5 100t-8 85t-40.5 62.5t-82 20.5l-275 -6q-75 -3 -115.5 -26t-94.5 -82l-19 12q120 153 176 201q40 30 109 30h641q14 0 19 -6t-1 -16l-57 -82q-11 -16 -45 -16l-242 -7q87 -38 126.5 -83.5t44.5 -110.5t-13 -158l-174 -948
l1022 1407q14 20 39 20h10q14 0 22 -9.5t7 -24.5l-168 -1422l907 1147q14 36 43 110.5t43.5 110t35.5 80.5t38 72q65 98 168 98q32 0 50.5 -11t18.5 -26q0 -23 -65 -100q-23 -26 -89.5 -99.5t-118 -132.5t-100.5 -120l-1030 -1301q-16 -16 -39 -16h-8q-31 0 -28 33l182 1423
l-1047 -1440q-13 -16 -41 -16h-8zM2529 1819q-22 0 -42.5 21.5t-20.5 49.5q0 33 24 68q21 35 51.5 59.5t55.5 24.5q19 0 38 -21t19 -49q0 -30 -22 -69q-18 -29 -48.5 -56.5t-54.5 -27.5zM2187 1819q-20 0 -41.5 21.5t-21.5 49.5q0 29 24 68q21 34 52 59t55 25q20 0 38.5 -21
t18.5 -49q0 -35 -22 -69q-16 -29 -47 -56.5t-56 -27.5z" />
    <glyph glyph-name="wdieresis" unicode="&#x1e85;" horiz-adv-x="1542" 
d="M877 -16q-93 0 -142 61t-49 170q0 49 12 107q-93 -167 -205 -251.5t-212 -86.5q-90 0 -145.5 58.5t-55.5 162.5q0 86 41.5 183t112.5 187.5t151 170t170 149.5q-194 8 -250 6q-63 -1 -102.5 -25t-85.5 -75l-17 12q88 121 174 195q40 30 107 30q24 0 140.5 -7t185.5 -7
l4 -18q-210 -162 -337.5 -375.5t-127.5 -384.5q0 -78 37 -126t108 -48q82 -2 174.5 99.5t173.5 283.5q60 162 160 299q24 31 117 67q77 30 77 14q0 -2 -3 -6q-119 -159 -178.5 -317t-57.5 -262q0 -79 34 -128t105 -50q98 0 217 145.5t209 347.5q-31 272 -18 359
q6 50 51.5 83t95.5 33q43 0 43 -41q0 -56 -42 -179.5t-91 -235.5q-53 -119 -115.5 -221.5t-136 -189.5t-159 -137.5t-170.5 -51.5zM1188 1135q-22 0 -43 21.5t-21 49.5q0 32 25 68q21 35 51 59.5t55 24.5q19 0 38.5 -21.5t19.5 -48.5q0 -28 -23 -69q-18 -29 -48 -56.5
t-54 -27.5zM846 1135q-20 0 -42 21.5t-22 49.5q0 27 25 68q21 35 51.5 59.5t54.5 24.5q20 0 39 -21t19 -49q0 -33 -23 -69q-16 -29 -46.5 -56.5t-55.5 -27.5z" />
    <glyph glyph-name="uni1E9E" unicode="&#x1e9e;" horiz-adv-x="1832" 
d="M1200 -14q-134 -1 -218.5 18.5t-84.5 46.5q0 34 42 67.5t83 33.5q81 0 297 -115q38 9 75 24t75.5 42t67.5 61t47 83.5t18 106.5q0 84 -39.5 151t-140.5 136t-277 143l-8 29l645 569q-229 125 -469 160q-12 -10 -23.5 -23t-19.5 -22.5t-20.5 -28t-17.5 -26.5t-18.5 -31
t-17.5 -29q-98 -168 -258 -506t-227 -458q-64 -114 -189 -214.5t-270.5 -159.5t-269.5 -58q-70 0 -140.5 13t-70.5 40q0 37 42 77t93 40q42 0 159.5 -34t182.5 -48q122 37 231 225q91 159 260.5 511t261.5 511q43 76 93 125t139 92l22 12q-65 6 -135 6q-186 0 -316.5 -50
t-242.5 -140q-14 -39 -33 -95.5t-31 -90t-28.5 -75.5t-32 -66t-36 -46.5t-46.5 -32.5t-57 -10q-23 0 -40 9t-17 28q0 55 93.5 182t203.5 215q162 136 352.5 204.5t392.5 68.5q196 -1 362.5 -50t268.5 -118l4 -31l-643 -563q213 -80 338 -192.5t121 -239.5
q-2 -119 -79.5 -230.5t-201 -179t-252.5 -67.5z" />
    <glyph glyph-name="Ygrave" unicode="&#x1ef2;" horiz-adv-x="1458" 
d="M629 0q-23 0 -23 16q0 15 78 80l6 4l37 31q45 43 74 83t65 110q57 109 101 225.5t47 179.5q-3 235 -84 578q-9 40 -15.5 64t-18 53t-24 44.5t-32.5 26.5t-45 12l-158 -4q-75 -3 -116 -26.5t-95 -81.5l-18 12q120 153 176 201q38 30 108 30h500q30 0 16 -26l-51 -78
q-14 -18 -47 -18l-225 -7q150 -34 188 -172q28 -104 56 -270.5t36 -341.5l711 975q70 95 104 92q24 0 39 -26.5t15 -57.5q0 -70 -37 -111l-834 -923q-7 -20 -29 -86t-38.5 -109.5t-38.5 -93.5q-33 -72 -70 -113t-98 -77l-88 -54l311 2q25 2 25 -12q0 -13 -29 -55.5
t-51 -61.5q-16 -14 -60 -14h-368zM1241 1868q-31 12 -38 34.5t-7 96.5q0 37 16 37q13 0 60 -35l360 -277l-12 -14z" />
    <glyph glyph-name="ygrave" unicode="&#x1ef3;" horiz-adv-x="1079" 
d="M-326 -426q-47 0 -80.5 13t-33.5 40q0 35 41.5 83t91.5 48q66 0 323 -73q95 36 138.5 91t85.5 187q55 154 101.5 411.5t43.5 413.5q-3 130 -61 130q-65 0 -183 -107l-16 20q121 109 192.5 159t116.5 50q107 0 107 -166q2 -152 -42.5 -430.5t-125.5 -523.5
q301 275 526 653q-13 271 2 351q10 50 58 83t98 33q45 0 45 -39q0 -41 -20.5 -106.5t-58 -147t-93 -175.5t-122 -191.5t-148.5 -195.5t-170 -187.5t-188 -167t-201 -134.5t-211 -89.5t-216 -32.5zM745 1327q-59 24 -59 100q0 32 11 56t30 24t43 -22l326 -297l-11 -19z" />
    <glyph glyph-name="endash" unicode="&#x2013;" horiz-adv-x="827" 
d="M225 494q-73 0 -103.5 -8.5t-64.5 -39.5l-16 17q67 67 95 86q58 39 132 39h373q73 0 103 10t71 45l16 -14q-37 -37 -48 -47.5t-39.5 -34.5t-46 -31t-45.5 -14.5t-60 -7.5h-367z" />
    <glyph glyph-name="emdash" unicode="&#x2014;" horiz-adv-x="1153" 
d="M225 494q-73 0 -103.5 -8.5t-64.5 -39.5l-16 17q67 67 95 86q58 39 132 39h684q73 0 103 10t71 45l17 -14q-43 -43 -59.5 -58.5t-49 -38.5t-62 -30.5t-69.5 -7.5h-678z" />
    <glyph glyph-name="quoteleft" unicode="&#x2018;" horiz-adv-x="243" 
d="M694 1628q-65 -54 -96 -122.5t-31 -166.5q0 -70 -63 -79q-33 -6 -51.5 10.5t-18.5 48.5q0 80 73 170t175 153z" />
    <glyph glyph-name="quoteright" unicode="&#x2019;" horiz-adv-x="258" 
d="M438 1276q65 54 96 122.5t31 166.5q0 71 64 80q33 6 51 -11t18 -49q0 -81 -72.5 -170.5t-174.5 -152.5z" />
    <glyph glyph-name="quotesinglbase" unicode="&#x201a;" horiz-adv-x="292" 
d="M-213 -227q65 54 96 122.5t31 165.5q0 71 63 80q33 6 51.5 -10.5t18.5 -48.5q0 -81 -73 -171t-175 -153z" />
    <glyph glyph-name="quotedblleft" unicode="&#x201c;" horiz-adv-x="495" 
d="M930 1628q-65 -54 -96 -122.5t-31 -166.5q0 -70 -64 -79q-33 -6 -51 10.5t-18 48.5q0 80 73 170t175 153zM715 1628q-65 -54 -96 -122.5t-31 -166.5q0 -70 -64 -79q-33 -6 -51 10.5t-18 48.5q0 81 72.5 170.5t174.5 152.5z" />
    <glyph glyph-name="quotedblright" unicode="&#x201d;" horiz-adv-x="466" 
d="M416 1282q65 54 96 122.5t31 166.5q0 71 63 80q33 6 51.5 -11t18.5 -49q0 -80 -73 -170t-175 -153zM629 1282q65 54 96 122.5t31 166.5q0 71 63 80q33 6 51.5 -11t18.5 -49q0 -80 -73 -170t-175 -153z" />
    <glyph glyph-name="quotedblbase" unicode="&#x201e;" horiz-adv-x="518" 
d="M-213 -227q65 54 96 122.5t31 165.5q0 71 63 80q33 6 51.5 -10.5t18.5 -48.5q0 -81 -73 -171t-175 -153zM4 -227q65 54 96 122.5t31 165.5q0 71 64 80q33 6 51 -10.5t18 -48.5q0 -81 -73 -171t-175 -153z" />
    <glyph glyph-name="dagger" unicode="&#x2020;" horiz-adv-x="675" 
d="M686 1417q9 33 30 44.5t93 25.5q37 6 37 -12q2 -1 1 -5t-1 -5.5t-2.5 -6.5l-4 -8t-5 -9t-5.5 -9.5t-6.5 -10.5t-7.5 -12l-201 -344q102 -27 144 -27q45 0 78.5 20t64.5 70l17 -10q-63 -97 -117 -139.5t-119 -42.5q-37 0 -119 20l-160 -489q-9 -33 -30 -44.5t-92 -23.5
q-36 -6 -39 11q-1 5 2.5 13t14 25t15.5 27l263 488q-96 30 -150 30q-47 0 -79.5 -23t-65.5 -73l-17 10q43 80 105.5 133.5t128.5 53.5q33 0 123 -21z" />
    <glyph glyph-name="bullet" unicode="&#x2022;" horiz-adv-x="421" 
d="M262 504q-39 0 -84 37.5t-45 87.5q0 68 65 143.5t128 75.5q41 0 80.5 -44.5t39.5 -94.5q0 -62 -62 -133.5t-122 -71.5z" />
    <glyph glyph-name="ellipsis" unicode="&#x2026;" horiz-adv-x="942" 
d="M258 -27q-27 0 -57.5 26t-30.5 60q0 46 44 98t87 52q28 0 55 -30.5t27 -65.5q0 -41 -42.5 -90.5t-82.5 -49.5zM567 -27q-27 0 -57.5 26t-30.5 60q0 46 44 98t87 52q28 0 55 -30.5t27 -65.5q0 -41 -42.5 -90.5t-82.5 -49.5zM-49 -27q-27 0 -57.5 26t-30.5 60q0 46 44 98
t87 52q28 0 55 -30.5t27 -65.5q0 -41 -42.5 -90.5t-82.5 -49.5z" />
    <glyph glyph-name="perthousand" unicode="&#x2030;" horiz-adv-x="1810" 
d="M414 811q-62 0 -100 39.5t-38 107.5q0 103 73 219t185.5 194.5t217.5 78.5q64 0 97.5 -36.5t33.5 -90.5q0 -78 -48 -171t-118 -167t-153.5 -124t-149.5 -50zM489 870q74 0 140 75.5t101 169.5t36 167q0 117 -92 117q-74 0 -141 -68t-103.5 -162t-34.5 -176
q0 -54 25 -88.5t69 -34.5zM635 -49q-62 0 -99.5 39.5t-37.5 107.5q0 77 44 165.5t111.5 160t154 119t165.5 47.5q64 0 97.5 -36.5t33.5 -90.5q0 -78 -48 -171t-118 -167t-153.5 -124t-149.5 -50zM711 10q56 0 109 45t88 110t56.5 134.5t22.5 122.5q0 117 -92 117
q-74 0 -141 -68t-103.5 -162t-34.5 -176q0 -54 25 -88.5t70 -34.5zM1313 1458l20 -16l-1272 -1469l-20 17zM1249 -49q-62 0 -99.5 39.5t-37.5 107.5q0 77 44 165.5t111.5 160t154 119t165.5 47.5q64 0 97.5 -36.5t33.5 -90.5q0 -78 -48 -171t-118 -167t-153.5 -124
t-149.5 -50zM1325 10q74 0 140 75.5t101 169.5t36 167q0 54 -23 85.5t-70 31.5q-74 0 -141 -68t-103 -162t-34 -176q0 -54 25 -88.5t69 -34.5z" />
    <glyph glyph-name="guilsinglleft" unicode="&#x2039;" horiz-adv-x="796" 
d="M354 -16q-12 4 -37 59l-241 481l669 471q49 37 60 37q18 0 18 -37q0 -72 -7.5 -94t-39.5 -39l-674 -344l308 -373q16 -18 17 -34.5t-7.5 -37t-34.5 -67.5q-17 -33 -31 -22z" />
    <glyph glyph-name="guilsinglright" unicode="&#x203a;" horiz-adv-x="794" 
d="M-14 -18q-17 0 -17 36q0 72 7.5 94.5t37.5 37.5l676 346l-307 372q-17 18 -18.5 35t7 37t34.5 66q18 34 32 24q10 -6 37 -59l240 -482l-668 -471q-48 -36 -61 -36z" />
    <glyph glyph-name="Euro" unicode="&#x20ac;" horiz-adv-x="1257" 
d="M596 -16q-211 0 -340 136t-129 353q0 102 33 221h-133l10 25h129q15 43 39 98h-137l10 25h139q90 182 252.5 329t361.5 229.5t394 82.5q103 0 178.5 -17.5t75.5 -44.5q0 -39 -49 -74.5t-95 -35.5q-43 0 -102 13.5t-110 30t-175 58.5q-212 -67 -378.5 -220.5
t-243.5 -350.5h708l-10 -25h-709q-20 -67 -26 -98h643l-10 -25h-639q-11 -68 -11 -112q-3 -141 49.5 -253.5t156.5 -178.5t241 -66q108 0 197.5 38t177.5 128l18 -17q-131 -136 -256.5 -192.5t-259.5 -56.5z" />
    <glyph glyph-name="trademark" unicode="&#x2122;" horiz-adv-x="948" 
d="M1022 1022l98 326l-252 -301h-26l-56 303l-145 -326h-20l186 422h45l59 -320l269 320h59l-119 -422zM334 1024l186 403h-127l8 19h332l-8 -19h-141l-185 -403h-65z" />
    <glyph glyph-name="minus" unicode="&#x2212;" horiz-adv-x="831" 
d="M809 657l-10 -24h-668l10 24h668z" />
    <glyph glyph-name="notequal" unicode="&#x2260;" horiz-adv-x="847" 
d="M858 780l-10 -24h-299l-88 -221h313l-10 -25h-313l-263 -651l-28 2l262 649h-326l10 25h326l88 221h-340l10 24h340l281 695l27 -2l-279 -693h299z" />
    <glyph glyph-name="uni004A0301" horiz-adv-x="1136" 
d="M-61 -365q-102 0 -158.5 64t-56.5 180q0 129 75.5 273.5t226.5 284t349 231.5l14 -27q-122 -59 -220 -146.5t-157 -181.5t-89.5 -187.5t-28.5 -176.5q2 -107 43.5 -168.5t125.5 -61.5q57 0 115 29.5t110 78.5t108.5 124.5t105.5 155.5t106 184q87 156 243 480.5
t251 488.5q42 75 92.5 124t138.5 93l68 34h-754q-40 0 -68.5 -6t-55.5 -23.5t-42 -31t-47 -45.5l-16 10q5 6 23.5 30t24 30.5t21 26t22.5 27.5t20.5 23.5t22 24t20 19.5t22.5 20q39 31 108 31l852 -2q25 0 25 -17q0 -11 -41.5 -51t-67.5 -57q-40 -22 -72 -54t-49.5 -58
t-44.5 -73q-5 -9 -8 -14q-92 -158 -239.5 -472t-231.5 -460q-193 -331 -442 -542.5t-444 -211.5zM1657 1868l-379 -158l-12 14l360 277q47 35 60 35q16 0 16 -37q0 -74 -7 -96.5t-38 -34.5z" />
    <glyph glyph-name="A.ss01" horiz-adv-x="2279" 
d="M293 -33q-173 0 -273 96.5t-100 243.5q0 154 105 294.5t274.5 225t349.5 84.5q77 0 175.5 -20.5t170.5 -43.5t192.5 -64.5t178.5 -59.5l94 102q164 178 296 305.5t276.5 232t261.5 142.5l-565 -4q-75 -1 -116 -24.5t-95 -81.5l-19 12q120 153 176 201q40 30 107 30h874
q16 0 20.5 -5t4.5 -15q0 -5 -9.5 -15.5t-26.5 -25t-31 -26.5t-33.5 -27t-24.5 -19q-57 -38 -93 -86.5t-71 -120.5l-418 -839q-43 -85 -69.5 -163t-26.5 -114q0 -65 61 -65q74 0 177 96l16 -20q-232 -209 -340 -209q-56 0 -81 37t-25 85q0 109 124 361l119 238
q-169 -142 -366 -142q-116 0 -267 35q-92 -97 -166.5 -170t-161.5 -149.5t-165.5 -129t-163.5 -96t-172 -65t-174 -21.5zM53 389q0 -156 98 -246t255 -88q97 0 206 44.5t221.5 127.5t212 172.5t214.5 208.5q-89 25 -206 69t-200 77.5t-179.5 59.5t-170.5 26
q-132 0 -237 -65.5t-159.5 -167.5t-54.5 -218zM1403 713q185 -54 307 -54q141 0 252 111l233 467q37 77 88.5 131t135.5 96l84 43l-93 -2q-313 -30 -925 -702z" />
    <glyph glyph-name="B.ss01" horiz-adv-x="1699" 
d="M676 -14q-316 0 -510 24q-23 2 -23 15q0 12 80 75l43 31q9 6 17 12.5t16 16t14 15.5t15 19t13 19t14 22t13 21t14.5 24.5t14.5 24.5q88 155 231.5 452t235.5 457q42 74 90 123.5t123 89.5l135 70l13 -20q-36 -24 -65 -55.5t-47 -59.5t-43 -70q-6 -11 -9 -16
q-93 -159 -232.5 -450.5t-224.5 -440.5q-39 -70 -78.5 -112.5t-99.5 -77.5l-84 -52q70 -8 235.5 -18.5t290.5 -11.5q277 -3 439 146.5t168 408.5q3 114 -53.5 189t-161.5 75h-250l18 31h223q91 0 168 34t123.5 85.5t72 107.5t25.5 106q-1 74 -39.5 128t-104 83t-139.5 42.5
t-159 13.5q-375 0 -625 -193q-12 -31 -31 -83.5t-29.5 -80.5t-28 -70t-30.5 -64.5t-32 -50t-38 -41t-43 -23t-52 -9.5q-56 0 -56 37q0 50 94.5 177.5t223.5 228.5q159 125 356 201.5t414 76.5q215 0 345 -77.5t130 -205.5q0 -129 -99 -236t-247 -169q89 -18 144.5 -80
t54.5 -153q0 -92 -43 -187t-114.5 -178t-168.5 -157t-203.5 -126.5t-222 -83t-221.5 -30.5z" />
    <glyph glyph-name="D.ss01" horiz-adv-x="1972" 
d="M782 -14q-299 0 -493 24q-23 2 -23 15q0 12 78 73l43 33q10 8 20.5 17.5t17.5 16.5t17 20.5t14.5 19.5t15.5 23.5t14 22.5t16 27t16 27q88 155 238 462.5t243 467.5q43 77 91 128.5t120 90.5l136 72q-99 22 -207 22q-339 0 -570 -176q-11 -30 -30.5 -83.5t-29.5 -81
t-27.5 -70t-30 -64.5t-32 -49.5t-38 -41t-42.5 -23t-52 -9.5q-58 0 -58 37q0 50 95 177.5t223 228.5q155 121 346 191.5t395 70.5q131 -1 246.5 -37.5t200 -99.5t146 -145t92 -176t30.5 -191q0 -149 -50.5 -288t-137.5 -249.5t-205.5 -202t-254 -152.5t-282.5 -94.5
t-291 -33.5zM463 143q76 -9 238.5 -18.5t312.5 -9.5q196 -1 354.5 55.5t263.5 157.5t161.5 240t55.5 304q0 254 -133 426t-364 228l12 -17q-15 -10 -29 -22.5t-24.5 -22.5t-23.5 -27l-19.5 -25.5t-19.5 -28.5t-17 -27t-18 -31t-17 -29q-93 -160 -238.5 -461t-230.5 -450
q-41 -71 -80 -113t-98 -77z" />
    <glyph glyph-name="E.ss01" horiz-adv-x="1740" 
d="M315 0q-17 0 -21.5 4.5t-4.5 15.5q0 14 90 86l33 25q24 18 48 47.5t39 53.5t44 73q36 63 76.5 141.5t61.5 121t71.5 147.5t60.5 127h-188v32h202q119 244 191 367q43 77 91 128t120 87l84 39h-271q-174 0 -284.5 -34t-208.5 -115q-15 -40 -34 -95.5t-31 -89.5
t-28.5 -75.5t-32 -66t-36 -47t-46 -32.5t-56.5 -10q-23 0 -40.5 9t-17.5 28q0 56 92.5 180t204.5 217q156 136 345.5 205t392.5 69h743q119 0 119 -71q1 -54 -59.5 -119.5t-186.5 -161.5l-14 23q69 54 101 87.5t32 57.5t-22.5 32.5t-78.5 8.5h-530q-12 -9 -23 -17.5
t-21.5 -19.5t-17.5 -19t-17 -21.5t-15 -20t-15.5 -23t-13.5 -22t-14.5 -25t-14.5 -24.5q-68 -115 -219 -429h668v-32h-682q-156 -329 -229 -457q-40 -70 -80 -112.5t-99 -77.5l-90 -54h871q74 0 114.5 24t96.5 85l18 -12q-12 -15 -37 -47.5t-38 -48.5t-32.5 -39.5t-36 -40.5
t-32.5 -31q-42 -31 -113 -31h-979z" />
    <glyph glyph-name="F.ss01" horiz-adv-x="1757" 
d="M315 0q-22 0 -22 16t88 86l33 29q24 18 48 47.5t39 53.5t44 73q29 51 56.5 102t60.5 117.5t48 97t56.5 117.5t48.5 103h-178v32h194q104 220 199 383q41 73 90 123t123 90l47 25h-248q-174 0 -284.5 -34t-208.5 -115q-15 -40 -34 -95.5t-31 -89.5t-28.5 -75.5t-32 -66
t-36 -47t-46 -32.5t-56.5 -10q-23 0 -40.5 9t-17.5 28q0 56 92.5 180t204.5 217q156 136 345.5 205t392.5 69h743q119 0 119 -71q1 -54 -59.5 -119.5t-186.5 -161.5l-14 23q69 54 101 87.5t32 57.5t-22.5 32.5t-78.5 8.5h-538q-12 -10 -23 -21t-22 -24t-18 -22.5t-18 -26.5
t-16 -25.5t-17 -29t-17 -27.5q-100 -172 -228 -445h615v-32h-631q-141 -301 -229 -457q-40 -70 -80 -112.5t-99 -77.5l-100 -60h4l283 8q13 0 16.5 -2.5t3.5 -9.5q0 -11 -29.5 -55t-50.5 -62q-16 -14 -59 -14h-328z" />
    <glyph glyph-name="I.ss01" horiz-adv-x="1069" 
d="M82 -14q-70 0 -140.5 13t-70.5 40q0 35 41.5 73t85.5 38q31 0 79.5 -9.5t136.5 -29.5t142 -31q116 32 224 219q91 159 246 483.5t247 483.5q43 76 93.5 126t138.5 93l57 28l-645 -10q-73 -1 -113 -24.5t-98 -83.5l-17 12q122 156 175 201q40 30 108 30h739q25 0 25 -16
q0 -12 -42.5 -51t-70.5 -55q-17 -9 -33.5 -22.5t-27 -24t-26 -33.5t-21 -31.5t-23.5 -39.5t-22 -38q-98 -168 -245.5 -478.5t-213.5 -430.5q-63 -114 -188 -214.5t-271 -159.5t-270 -58z" />
    <glyph glyph-name="L.ss01" horiz-adv-x="1581" 
d="M1954 -512q-71 0 -143.5 19t-135.5 48.5t-133.5 78.5t-126.5 95t-126 113t-120 118.5t-121.5 125t-117.5 119.5q-120 -139 -260 -252q-294 -236 -535 -236q-154 0 -251 91t-97 237q0 115 58 223.5t151.5 187t213.5 126t241 47.5q120 0 243.5 -61.5t261.5 -174.5
q66 136 155 405t122 353q44 111 108.5 198t138.5 143.5t162 93t175 52t180 15.5q144 0 245 -25t101 -57q0 -39 -45 -76t-86 -37q-22 0 -44.5 3t-52 10.5t-51.5 14t-63 21.5t-64.5 24.5t-78.5 31t-84 32.5q-39 -9 -66.5 -20.5t-65.5 -42.5t-71.5 -79.5t-76 -133t-87.5 -201.5
q-59 -151 -87.5 -221.5t-80 -186.5t-101.5 -204.5t-110 -173.5q70 -60 176 -159.5t181.5 -170.5t177.5 -154.5t185.5 -135t182.5 -87t191 -35.5q82 0 150 27.5t108 67.5l16 -17q-80 -74 -192.5 -127t-249.5 -53zM-80 129q0 -106 50 -181.5t126 -109.5t166 -33q91 2 191.5 47
t195.5 128q131 112 232 274q-153 146 -286.5 225.5t-268.5 79.5q-94 0 -172 -35t-128.5 -95t-78 -137t-27.5 -163z" />
    <glyph glyph-name="P.ss01" horiz-adv-x="1613" 
d="M225 0q-22 0 -22 16q0 15 78 80l6 4l37 31q60 50 131 174q89 156 214.5 454.5t217.5 457.5q42 74 89.5 123.5t121.5 89.5l137 69l12 -20q-36 -24 -65 -55.5t-47 -59.5t-43 -70q-6 -11 -9 -16q-44 -75 -86.5 -161t-68 -145.5t-67 -159.5t-62.5 -148h387q135 0 241.5 41
t170 110.5t96 154.5t32.5 179q0 185 -151.5 299.5t-417.5 114.5q-372 0 -625 -193q-11 -30 -30.5 -83.5t-29.5 -81t-27.5 -70t-30 -64.5t-32 -49.5t-38 -41t-42.5 -23t-52 -9.5q-57 0 -57 37q0 50 94.5 177.5t222.5 228.5q161 126 357 202t413 76q128 0 232.5 -26.5
t172.5 -70.5t114 -103t65.5 -121t19.5 -127q0 -99 -49.5 -202.5t-135.5 -189.5t-219.5 -141t-285.5 -55h-410q-60 -141 -120 -248q-38 -69 -78.5 -112t-100.5 -78l-110 -66l297 14q18 2 18 -12q0 -11 -29 -55t-51 -62q-16 -14 -59 -14h-326z" />
    <glyph glyph-name="R.ss01" horiz-adv-x="1619" 
d="M57 0q-22 0 -22 16t123 115q35 30 62.5 68.5t66.5 105.5q89 156 214.5 454.5t217.5 457.5q41 73 90 123t123 90l135 69l12 -20q-36 -24 -65 -55.5t-47 -59.5t-43 -70q-6 -11 -9 -16q-95 -163 -204 -428h407q111 0 197.5 35t137 92.5t76 125t25.5 140.5q-1 101 -71.5 175
t-186 109.5t-262.5 35.5q-371 0 -624 -193q-11 -28 -27.5 -74.5t-26 -72.5t-24.5 -64.5t-26.5 -60.5t-27 -49.5t-31 -43t-34 -30.5t-40 -21t-46.5 -6q-57 0 -57 37q0 50 94.5 177.5t222.5 228.5q356 278 791 278q256 0 395 -100.5t139 -253.5q0 -90 -42 -178t-117.5 -159
t-194 -115t-258.5 -44h-2q75 -396 138 -563.5t136 -167.5q60 0 162 96l18 -20q-100 -94 -164.5 -137t-109.5 -43q-107 0 -183.5 193t-152.5 642h-246q-112 -276 -200 -434q-38 -69 -78.5 -112t-100.5 -78l-98 -60h2l293 8q18 0 18 -12q0 -11 -28 -55t-49 -62
q-16 -14 -60 -14h-338z" />
    <glyph glyph-name="T.ss01" horiz-adv-x="1171" 
d="M51 -14q-63 0 -116.5 12t-53.5 39q0 36 37 71t80 35q24 0 62 -6.5t67 -13t93.5 -22t96.5 -23.5q83 27 165 126t188 322q13 27 101.5 208.5t151 305.5t105.5 199q43 74 91 124t122 89l84 43h-381q-172 0 -282.5 -34t-210.5 -115q-13 -36 -29.5 -84.5t-27 -79.5
t-25.5 -69.5t-27 -62.5t-29 -49t-34.5 -39t-41 -23t-51.5 -9q-23 0 -40 9t-17 28q0 55 93 179t204 218q158 136 346.5 205t392.5 69h817q25 0 25 -14q0 -12 -34 -50.5t-62 -64.5q-16 -14 -60 -14h-469q-28 -20 -49.5 -40.5t-43.5 -52.5t-30 -45.5t-34 -58.5
q-51 -85 -113 -207.5t-140 -285.5t-104 -215q-50 -101 -137 -205.5t-194.5 -194.5t-236.5 -147t-249 -57z" />
    <glyph glyph-name="T.ss02" horiz-adv-x="1163" 
d="M51 -14q-63 0 -116.5 12t-53.5 39q0 36 37 71t80 35q24 0 62 -6.5t67 -13t93.5 -22t96.5 -23.5q83 27 165 126t188 322q13 27 101.5 208.5t151 305.5t105.5 199q43 74 91 124t122 89l84 43h-377q-174 0 -283.5 -34t-209.5 -115q-13 -36 -29.5 -84.5t-27 -79.5
t-25.5 -69.5t-27 -62.5t-29 -49t-34.5 -39t-41 -23t-51.5 -9q-23 0 -40 9t-17 28q0 55 93 179t204 218q158 136 346.5 205t390.5 69l723 2q188 0 273 89l14 -17q-2 -2 -33 -34t-38 -39t-37 -34.5t-45 -36t-45.5 -27.5t-54 -26t-55.5 -13.5t-65 -6.5h-422
q-28 -20 -49.5 -40.5t-43.5 -52.5t-30 -45.5t-34 -58.5q-51 -85 -113 -207.5t-140 -285.5t-104 -215q-50 -101 -137 -205.5t-194.5 -194.5t-236.5 -147t-249 -57z" />
    <glyph glyph-name="T.ss03" horiz-adv-x="1267" 
d="M262 920q-57 0 -57 36q0 53 97 188t204 226q310 268 737 268h819q25 0 25 -14q0 -12 -34.5 -50t-63.5 -65q-16 -14 -60 -14h-471q-29 -20 -51 -40.5t-44 -52t-31.5 -46.5t-35.5 -60q-83 -144 -227.5 -450t-232.5 -461q-39 -70 -78.5 -112.5t-100.5 -77.5l-108 -66l295 14
q20 0 20 -12q0 -11 -29.5 -55t-50.5 -62q-16 -14 -59 -14h-328q-22 0 -22 16t123 115q62 62 129 174q93 162 242.5 475t230.5 457q42 74 90 124t121 89l88 45h-375q-174 0 -285 -34t-211 -115q-15 -42 -38.5 -111t-36.5 -104.5t-35 -83t-41.5 -70.5t-49 -40t-65.5 -17z" />
    <glyph glyph-name="A.swsh" horiz-adv-x="2236" 
d="M305 -33q-172 0 -272.5 96.5t-100.5 243.5q0 154 105.5 294.5t275.5 225t351 84.5q83 0 177.5 -21t158.5 -44.5t167.5 -65.5t151.5 -59q186 201 358 414.5t287 371.5l-578 -10q-152 -3 -257 -83.5t-105 -213.5q0 -77 51.5 -125.5t138.5 -48.5q84 0 168 61l15 -20
q-169 -121 -305 -121q-58 0 -101 16.5t-66.5 43.5t-34.5 56.5t-11 61.5q0 83 82 176.5t207.5 167t285.5 122t305 48.5h365q20 0 25.5 -7.5t0.5 -28.5q-114 -510 -184 -898.5t-70 -478.5q0 -121 89 -121q36 0 78 25t106 84l16 -18q-112 -108 -192.5 -159.5t-143.5 -51.5
q-55 0 -91 48t-32 144q6 152 80 533q-160 -131 -342 -131q-94 0 -211 24q-132 -139 -244.5 -243t-237 -198t-243 -144t-223.5 -50zM68 389q0 -154 92.5 -244t230.5 -90q92 1 194 43.5t210 124t205 172t217 215.5q-85 23 -188.5 65.5t-177.5 77t-165.5 61t-169.5 26.5
q-99 0 -184.5 -38.5t-142 -101.5t-89 -144t-32.5 -167zM1354 709q141 -50 245 -50q117 0 213 84q69 340 156 717q-311 -422 -614 -751z" />
    <glyph glyph-name="Aacute.swsh" horiz-adv-x="2236" 
d="M305 -33q-172 0 -272.5 96.5t-100.5 243.5q0 154 105.5 294.5t275.5 225t351 84.5q83 0 177.5 -21t158.5 -44.5t167.5 -65.5t151.5 -59q186 201 358 414.5t287 371.5l-578 -10q-152 -3 -257 -83.5t-105 -213.5q0 -77 51.5 -125.5t138.5 -48.5q84 0 168 61l15 -20
q-169 -121 -305 -121q-58 0 -101 16.5t-66.5 43.5t-34.5 56.5t-11 61.5q0 83 82 176.5t207.5 167t285.5 122t305 48.5h365q20 0 25.5 -7.5t0.5 -28.5q-114 -510 -184 -898.5t-70 -478.5q0 -121 89 -121q36 0 78 25t106 84l16 -18q-112 -108 -192.5 -159.5t-143.5 -51.5
q-55 0 -91 48t-32 144q6 152 80 533q-160 -131 -342 -131q-94 0 -211 24q-132 -139 -244.5 -243t-237 -198t-243 -144t-223.5 -50zM2374 1882l-379 -158l-13 15l361 276q47 35 59 35q17 0 17 -37q0 -74 -7 -96.5t-38 -34.5zM68 389q0 -154 92.5 -244t230.5 -90
q92 1 194 43.5t210 124t205 172t217 215.5q-85 23 -188.5 65.5t-177.5 77t-165.5 61t-169.5 26.5q-99 0 -184.5 -38.5t-142 -101.5t-89 -144t-32.5 -167zM1354 709q141 -50 245 -50q117 0 213 84q69 340 156 717q-311 -422 -614 -751z" />
    </font>
</defs>
</svg>
